  0
SECTION
  2
HEADER
  9
$ACADVER
  1
AC1014
  9
$ACADMAINTVER
 70
     9
  9
$DWGCODEPAGE
  3
ANSI_1252
  9
$INSBASE
 10
11.90920688209671
 20
10.40937411592062
 30
0.0
  9
$EXTMIN
 10
6.433809224800523
 20
1.243936439401435
 30
0.0
  9
$EXTMAX
 10
26.88406715454132
 20
14.62011853091301
 30
0.0
  9
$LIMMIN
 10
0.0
 20
0.0
  9
$LIMMAX
 10
36.0
 20
36.0
  9
$ORTHOMODE
 70
     1
  9
$REGENMODE
 70
     1
  9
$FILLMODE
 70
     1
  9
$QTEXTMODE
 70
     0
  9
$MIRRTEXT
 70
     1
  9
$DRAGMODE
 70
     0
  9
$LTSCALE
 40
1.0
  9
$OSMODE
 70
    37
  9
$ATTMODE
 70
     1
  9
$TEXTSIZE
 40
0.2
  9
$TRACEWID
 40
0.05
  9
$TEXTSTYLE
  7
STANDARD
  9
$CLAYER
  8
ADP1DETAIL
  9
$CELTYPE
  6
BYLAYER
  9
$CECOLOR
 62
   256
  9
$CELTSCALE
 40
1.0
  9
$DELOBJ
 70
     1
  9
$DISPSILH
 70
     0
  9
$DIMSCALE
 40
1.0
  9
$DIMASZ
 40
0.125
  9
$DIMEXO
 40
0.0625
  9
$DIMDLI
 40
0.38
  9
$DIMRND
 40
0.0
  9
$DIMDLE
 40
0.0
  9
$DIMEXE
 40
0.18
  9
$DIMTP
 40
0.0
  9
$DIMTM
 40
0.0
  9
$DIMTXT
 40
0.125
  9
$DIMCEN
 40
0.1875
  9
$DIMTSZ
 40
0.125
  9
$DIMTOL
 70
     0
  9
$DIMLIM
 70
     0
  9
$DIMTIH
 70
     0
  9
$DIMTOH
 70
     0
  9
$DIMSE1
 70
     0
  9
$DIMSE2
 70
     0
  9
$DIMTAD
 70
     0
  9
$DIMZIN
 70
     3
  9
$DIMBLK
  1

  9
$DIMASO
 70
     1
  9
$DIMSHO
 70
     1
  9
$DIMPOST
  1

  9
$DIMAPOST
  1

  9
$DIMALT
 70
     0
  9
$DIMALTD
 70
     1
  9
$DIMALTF
 40
25.4
  9
$DIMLFAC
 40
1.0
  9
$DIMTOFL
 70
     0
  9
$DIMTVP
 40
0.0
  9
$DIMTIX
 70
     0
  9
$DIMSOXD
 70
     0
  9
$DIMSAH
 70
     0
  9
$DIMBLK1
  1

  9
$DIMBLK2
  1

  9
$DIMSTYLE
  2
STANDARD
  9
$DIMCLRD
 70
     0
  9
$DIMCLRE
 70
     0
  9
$DIMCLRT
 70
     0
  9
$DIMTFAC
 40
1.0
  9
$DIMGAP
 40
0.125
  9
$DIMJUST
 70
     0
  9
$DIMSD1
 70
     0
  9
$DIMSD2
 70
     0
  9
$DIMTOLJ
 70
     1
  9
$DIMTZIN
 70
     3
  9
$DIMALTZ
 70
     3
  9
$DIMALTTZ
 70
     3
  9
$DIMFIT
 70
     5
  9
$DIMUPT
 70
     0
  9
$DIMUNIT
 70
     5
  9
$DIMDEC
 70
     4
  9
$DIMTDEC
 70
     4
  9
$DIMALTU
 70
     5
  9
$DIMALTTD
 70
     1
  9
$DIMTXSTY
  7
STANDARD
  9
$DIMAUNIT
 70
     0
  9
$LUNITS
 70
     5
  9
$LUPREC
 70
     4
  9
$SKETCHINC
 40
0.1
  9
$FILLETRAD
 40
0.062
  9
$AUNITS
 70
     0
  9
$AUPREC
 70
     0
  9
$MENU
  1
acad
  9
$ELEVATION
 40
0.0
  9
$PELEVATION
 40
0.0
  9
$THICKNESS
 40
0.0
  9
$LIMCHECK
 70
     0
  9
$BLIPMODE
 70
     0
  9
$CHAMFERA
 40
0.0
  9
$CHAMFERB
 40
0.0
  9
$CHAMFERC
 40
0.0
  9
$CHAMFERD
 40
0.0
  9
$SKPOLY
 70
     0
  9
$TDCREATE
 40
2450406.619985532
  9
$TDUPDATE
 40
2452297.087052407
  9
$TDINDWG
 40
0.0375676273
  9
$TDUSRTIMER
 40
0.0375676273
  9
$USRTIMER
 70
     1
  9
$ANGBASE
 50
0.0
  9
$ANGDIR
 70
     0
  9
$PDMODE
 70
     0
  9
$PDSIZE
 40
0.0
  9
$PLINEWID
 40
0.0
  9
$COORDS
 70
     2
  9
$SPLFRAME
 70
     0
  9
$SPLINETYPE
 70
     6
  9
$SPLINESEGS
 70
     8
  9
$ATTDIA
 70
     0
  9
$ATTREQ
 70
     1
  9
$HANDLING
 70
 22529
  9
$HANDSEED
  5
2CF
  9
$SURFTAB1
 70
     6
  9
$SURFTAB2
 70
     6
  9
$SURFTYPE
 70
     6
  9
$SURFU
 70
     6
  9
$SURFV
 70
     6
  9
$UCSNAME
  2

  9
$UCSORG
 10
0.0
 20
0.0
 30
0.0
  9
$UCSXDIR
 10
1.0
 20
0.0
 30
0.0
  9
$UCSYDIR
 10
0.0
 20
1.0
 30
0.0
  9
$PUCSNAME
  2

  9
$PUCSORG
 10
0.0
 20
0.0
 30
0.0
  9
$PUCSXDIR
 10
1.0
 20
0.0
 30
0.0
  9
$PUCSYDIR
 10
0.0
 20
1.0
 30
0.0
  9
$USERI1
 70
     0
  9
$USERI2
 70
     0
  9
$USERI3
 70
     0
  9
$USERI4
 70
     0
  9
$USERI5
 70
     0
  9
$USERR1
 40
0.0
  9
$USERR2
 40
0.0
  9
$USERR3
 40
0.0
  9
$USERR4
 40
0.0
  9
$USERR5
 40
0.0
  9
$WORLDVIEW
 70
     1
  9
$SHADEDGE
 70
     3
  9
$SHADEDIF
 70
    70
  9
$TILEMODE
 70
     1
  9
$MAXACTVP
 70
    15
  9
$PINSBASE
 10
0.0008545028977096
 20
1.250283272183907
 30
0.0
  9
$PLIMCHECK
 70
     0
  9
$PEXTMIN
 10
1.000000000000000E+20
 20
1.000000000000000E+20
 30
1.000000000000000E+20
  9
$PEXTMAX
 10
-1.000000000000000E+20
 20
-1.000000000000000E+20
 30
-1.000000000000000E+20
  9
$PLIMMIN
 10
0.0
 20
0.0
  9
$PLIMMAX
 10
12.0
 20
9.0
  9
$UNITMODE
 70
     0
  9
$VISRETAIN
 70
     0
  9
$PLINEGEN
 70
     0
  9
$PSLTSCALE
 70
     1
  9
$TREEDEPTH
 70
  3020
  9
$PICKSTYLE
 70
     1
  9
$CMLSTYLE
  2
STANDARD
  9
$CMLJUST
 70
     0
  9
$CMLSCALE
 40
1.0
  9
$PROXYGRAPHICS
 70
     1
  9
$MEASUREMENT
 70
     0
  0
ENDSEC
  0
SECTION
  2
CLASSES
  0
CLASS
  1
ACDBDICTIONARYWDFLT
  2
AcDbDictionaryWithDefault
  3
AutoCAD 2000
 90
        0
280
     0
281
     0
  0
CLASS
  1
ACDBPLACEHOLDER
  2
AcDbPlaceHolder
  3
AutoCAD 2000
 90
        0
280
     0
281
     0
  0
CLASS
  1
LAYOUT
  2
AcDbLayout
  3
AutoCAD 2000
 90
        0
280
     0
281
     0
  0
CLASS
  1
DICTIONARYVAR
  2
AcDbDictionaryVar
  3
AutoCAD 2000
 90
        0
280
     0
281
     0
  0
CLASS
  1
LONG_TRANSACTION
  2
AcDbLongTransaction
  3
AutoCAD 2000
 90
        0
280
     0
281
     0
  0
CLASS
  1
LWPOLYLINE
  2
AcDbPolyline
  3
AutoCAD 2000
 90
        0
280
     0
281
     1
  0
CLASS
  1
HATCH
  2
AcDbHatch
  3
AutoCAD 2000
 90
        0
280
     0
281
     1
  0
CLASS
  1
XRECORD
  2
AcDbXrecord
  3
AutoCAD 2000
 90
        0
280
     0
281
     0
  0
CLASS
  1
LONG_TRANSACTION
  2
AcDbLongTransaction
  3
AutoCAD 2000
 90
        0
280
     0
281
     0
  0
CLASS
  1
LWPOLYLINE
  2
AcDbPolyline
  3
AutoCAD 2000
 90
        0
280
     0
281
     1
  0
CLASS
  1
HATCH
  2
AcDbHatch
  3
AutoCAD 2000
 90
        0
280
     0
281
     1
  0
CLASS
  1
XRECORD
  2
AcDbXrecord
  3
AutoCAD 2000
 90
        0
280
     0
281
     0
  0
CLASS
  1
LONG_TRANSACTION
  2
AcDbLongTransaction
  3
AutoCAD 2000
 90
        0
280
     0
281
     0
  0
CLASS
  1
LWPOLYLINE
  2
AcDbPolyline
  3
AutoCAD 2000
 90
        0
280
     0
281
     1
  0
CLASS
  1
HATCH
  2
AcDbHatch
  3
AutoCAD 2000
 90
        0
280
     0
281
     1
  0
CLASS
  1
XRECORD
  2
AcDbXrecord
  3
AutoCAD 2000
 90
        0
280
     0
281
     0
  0
CLASS
  1
LONG_TRANSACTION
  2
AcDbLongTransaction
  3
AutoCAD 2000
 90
        0
280
     0
281
     0
  0
CLASS
  1
LWPOLYLINE
  2
AcDbPolyline
  3
AutoCAD 2000
 90
        0
280
     0
281
     1
  0
CLASS
  1
HATCH
  2
AcDbHatch
  3
AutoCAD 2000
 90
        0
280
     0
281
     1
  0
CLASS
  1
XRECORD
  2
AcDbXrecord
  3
AutoCAD 2000
 90
        0
280
     0
281
     0
  0
CLASS
  1
LONG_TRANSACTION
  2
AcDbLongTransaction
  3
AutoCAD 2000
 90
        0
280
     0
281
     0
  0
CLASS
  1
LWPOLYLINE
  2
AcDbPolyline
  3
AutoCAD 2000
 90
        0
280
     0
281
     1
  0
CLASS
  1
HATCH
  2
AcDbHatch
  3
AutoCAD 2000
 90
        0
280
     0
281
     1
  0
CLASS
  1
XRECORD
  2
AcDbXrecord
  3
AutoCAD 2000
 90
        0
280
     0
281
     0
  0
CLASS
  1
LONG_TRANSACTION
  2
AcDbLongTransaction
  3
AutoCAD 2000
 90
        0
280
     0
281
     0
  0
CLASS
  1
LWPOLYLINE
  2
AcDbPolyline
  3
AutoCAD 2000
 90
        0
280
     0
281
     1
  0
CLASS
  1
HATCH
  2
AcDbHatch
  3
AutoCAD 2000
 90
        0
280
     0
281
     1
  0
CLASS
  1
XRECORD
  2
AcDbXrecord
  3
AutoCAD 2000
 90
        0
280
     0
281
     0
  0
ENDSEC
  0
SECTION
  2
TABLES
  0
TABLE
  2
VPORT
  5
8
330
0
100
AcDbSymbolTable
 70
     2
  0
VPORT
  5
2AB
330
8
100
AcDbSymbolTableRecord
100
AcDbViewportTableRecord
  2
*ACTIVE
 70
     0
 10
0.0
 20
0.0
 11
1.0
 21
1.0
 12
16.67527155044716
 22
7.932403636551937
 13
0.0
 23
0.0
 14
0.5740882589684922
 24
0.5740882589684922
 15
0.5
 25
0.5
 16
0.0
 26
0.0
 36
1.0
 17
0.0
 27
0.0
 37
0.0
 40
13.47957162183027
 41
1.570528967254408
 42
50.0
 43
0.0
 44
0.0
 50
0.0
 51
0.0
 71
     0
 72
   100
 73
     1
 74
     0
 75
     0
 76
     0
 77
     0
 78
     0
  0
ENDTAB
  0
TABLE
  2
LTYPE
  5
5
330
0
100
AcDbSymbolTable
 70
     1
  0
LTYPE
  5
13
330
5
100
AcDbSymbolTableRecord
100
AcDbLinetypeTableRecord
  2
BYBLOCK
 70
     0
  3

 72
    65
 73
     0
 40
0.0
  0
LTYPE
  5
14
330
5
100
AcDbSymbolTableRecord
100
AcDbLinetypeTableRecord
  2
BYLAYER
 70
     0
  3

 72
    65
 73
     0
 40
0.0
  0
LTYPE
  5
15
330
5
100
AcDbSymbolTableRecord
100
AcDbLinetypeTableRecord
  2
CONTINUOUS
 70
     0
  3
Solid line
 72
    65
 73
     0
 40
0.0
  0
ENDTAB
  0
TABLE
  2
LAYER
  5
2
330
0
100
AcDbSymbolTable
 70
     4
  0
LAYER
  5
10
330
2
100
AcDbSymbolTableRecord
100
AcDbLayerTableRecord
  2
0
 70
     0
 62
     7
  6
CONTINUOUS
  0
LAYER
  5
7E
330
2
100
AcDbSymbolTableRecord
100
AcDbLayerTableRecord
  2
ADPDIM
 70
     0
 62
     3
  6
CONTINUOUS
  0
LAYER
  5
80
330
2
100
AcDbSymbolTableRecord
100
AcDbLayerTableRecord
  2
ADP1DETAIL
 70
     0
 62
     7
  6
CONTINUOUS
  0
LAYER
  5
82
330
2
100
AcDbSymbolTableRecord
100
AcDbLayerTableRecord
  2
DEFPOINTS
 70
     0
 62
     7
  6
CONTINUOUS
  0
ENDTAB
  0
TABLE
  2
STYLE
  5
3
330
0
100
AcDbSymbolTable
 70
     2
  0
STYLE
  5
11
330
3
100
AcDbSymbolTableRecord
100
AcDbTextStyleTableRecord
  2
STANDARD
 70
     0
 40
0.0
 41
1.0
 50
0.0
 71
     0
 42
0.2
  3
txt
  4

  0
STYLE
  5
DE
330
3
100
AcDbSymbolTableRecord
100
AcDbTextStyleTableRecord
  2
ARIAL_WIDE
 70
     0
 40
0.0
 41
1.25
 50
0.0
 71
     0
 42
0.2
  3
ARIAL.TTF
  4

1001
ACAD
1000
Arial
1071
       34
  0
ENDTAB
  0
TABLE
  2
VIEW
  5
6
330
0
100
AcDbSymbolTable
 70
     0
  0
ENDTAB
  0
TABLE
  2
UCS
  5
7
330
0
100
AcDbSymbolTable
 70
     0
  0
ENDTAB
  0
TABLE
  2
APPID
  5
9
330
0
100
AcDbSymbolTable
 70
     1
  0
APPID
  5
12
330
9
100
AcDbSymbolTableRecord
100
AcDbRegAppTableRecord
  2
ACAD
 70
     0
  0
ENDTAB
  0
TABLE
  2
DIMSTYLE
  5
A
330
0
100
AcDbSymbolTable
 70
     1
  0
DIMSTYLE
105
DC
330
A
100
AcDbSymbolTableRecord
100
AcDbDimStyleTableRecord
  2
STANDARD
 70
     0
  3

  4

  5

  6

  7

 40
1.0
 41
0.18
 42
0.0625
 43
0.38
 44
0.18
 45
0.0
 46
0.0
 47
0.0
 48
0.0
140
0.18
141
0.09
142
0.0
143
25.4
144
1.0
145
0.0
146
1.0
147
0.09
 71
     0
 72
     0
 73
     1
 74
     1
 75
     0
 76
     0
 77
     0
 78
     0
170
     0
171
     2
172
     0
173
     0
174
     0
175
     0
176
     0
177
     0
178
     0
270
     2
271
     4
272
     4
273
     2
274
     2
340
11
275
     0
280
     0
281
     0
282
     0
283
     1
284
     0
285
     0
286
     0
287
     3
288
     0
  0
ENDTAB
  0
TABLE
  2
BLOCK_RECORD
  5
1
330
0
100
AcDbSymbolTable
 70
     3
  0
BLOCK_RECORD
  5
1E
102
{ACAD_XDICTIONARY
360
11B
102
}
330
1
100
AcDbSymbolTableRecord
100
AcDbBlockTableRecord
  2
*MODEL_SPACE
  0
BLOCK_RECORD
  5
1A
102
{ACAD_XDICTIONARY
360
11D
102
}
330
1
100
AcDbSymbolTableRecord
100
AcDbBlockTableRecord
  2
*PAPER_SPACE
  0
BLOCK_RECORD
  5
37
330
1
100
AcDbSymbolTableRecord
100
AcDbBlockTableRecord
  2
4441
  0
BLOCK_RECORD
  5
7B
330
1
100
AcDbSymbolTableRecord
100
AcDbBlockTableRecord
  2
*D1
  0
BLOCK_RECORD
  5
7C
330
1
100
AcDbSymbolTableRecord
100
AcDbBlockTableRecord
  2
*D2
  0
ENDTAB
  0
ENDSEC
  0
SECTION
  2
BLOCKS
  0
BLOCK
  5
85
330
1E
100
AcDbEntity
  8
0
100
AcDbBlockBegin
  2
*MODEL_SPACE
 70
     0
 10
0.0
 20
0.0
 30
0.0
  3
*MODEL_SPACE
  1

  0
ENDBLK
  5
86
330
1E
100
AcDbEntity
  8
0
100
AcDbBlockEnd
  0
BLOCK
  5
83
330
1A
100
AcDbEntity
 67
     1
  8
0
100
AcDbBlockBegin
  2
*PAPER_SPACE
 70
     0
 10
0.0
 20
0.0
 30
0.0
  3
*PAPER_SPACE
  1

  0
ENDBLK
  5
84
330
1A
100
AcDbEntity
 67
     1
  8
0
100
AcDbBlockEnd
  0
BLOCK
  5
88
330
37
100
AcDbEntity
  8
0
100
AcDbBlockBegin
  2
4441
 70
     0
 10
0.0
 20
0.0
 30
0.0
  3
4441
  1

  0
ARC
  5
89
330
37
100
AcDbEntity
  8
0
100
AcDbCircle
 10
2.131128572843903
 20
0.3179684149746849
 30
0.0
 40
0.125
100
AcDbArc
 50
274.0195737565656
 51
90.0
  0
ARC
  5
8A
330
37
100
AcDbEntity
  8
0
100
AcDbCircle
 10
0.3823524555948391
 20
0.161368414974685
 30
0.0
 40
0.016
100
AcDbArc
 50
90.0
 51
174.0
  0
ARC
  5
8B
330
37
100
AcDbEntity
  8
0
100
AcDbCircle
 10
0.2717699263779078
 20
1.036718414974684
 30
0.0
 40
0.53125
100
AcDbArc
 50
263.6450457150437
 51
313.0098162713345
  0
ARC
  5
8C
330
37
100
AcDbEntity
  8
0
100
AcDbCircle
 10
0.131128572843904
 20
0.3179684149746849
 30
0.0
 40
0.125
100
AcDbArc
 50
90.0
 51
265.9804262434344
  0
ARC
  5
8D
330
37
100
AcDbEntity
  8
0
100
AcDbCircle
 10
0.0603972375810239
 20
0.0076011117305739
 30
0.0
 40
0.1957429538942399
100
AcDbArc
 50
359.3757275120109
 51
74.0995487402812
  0
LINE
  5
8E
330
37
100
AcDbEntity
  8
0
100
AcDbLine
 10
0.349878572843904
 20
0.005468414974685
 30
0.0
 11
0.3664401052689467
 21
0.1630408703869674
 31
0.0
  0
LINE
  5
8F
330
37
100
AcDbEntity
  8
0
100
AcDbLine
 10
0.349878572843904
 20
0.005468414974685
 30
0.0
 11
0.2558458548927965
 21
0.005468414974685
 31
0.0
  0
LINE
  5
90
330
37
100
AcDbEntity
  8
0
100
AcDbLine
 10
0.131128572843904
 20
0.442968414974685
 30
0.0
 11
0.1929658099349621
 21
0.442968414974685
 31
0.0
  0
LINE
  5
91
330
37
100
AcDbEntity
  8
0
100
AcDbLine
 10
0.1934816436388733
 20
0.442968414974685
 30
0.0
 11
0.2129671381166458
 21
0.5087328142309704
 31
0.0
  0
LINE
  5
92
330
37
100
AcDbEntity
  8
0
100
AcDbLine
 10
1.787378572843904
 20
0.177368414974685
 30
0.0
 11
1.770817040418861
 21
0.3349408703869674
 31
0.0
  0
LINE
  5
93
330
37
100
AcDbEntity
  8
0
100
AcDbLine
 10
0.474878572843904
 20
0.177368414974685
 30
0.0
 11
0.4914401052689468
 21
0.3349408703869674
 31
0.0
  0
LINE
  5
94
330
37
100
AcDbEntity
  8
0
100
AcDbLine
 10
0.474878572843904
 20
0.177368414974685
 30
0.0
 11
0.3823524555948391
 21
0.177368414974685
 31
0.0
  0
ARC
  5
95
330
37
100
AcDbEntity
  8
0
100
AcDbCircle
 10
2.201859908106783
 20
0.0076011117305739
 30
0.0
 40
0.1957429538942399
100
AcDbArc
 50
105.9004512597187
 51
180.624272487989
  0
LINE
  5
96
330
37
100
AcDbEntity
  8
0
100
AcDbLine
 10
1.912378572843904
 20
0.005468414974685
 30
0.0
 11
1.895817040418861
 21
0.1630408703869674
 31
0.0
  0
LINE
  5
97
330
37
100
AcDbEntity
  8
0
100
AcDbLine
 10
1.912378572843904
 20
0.005468414974685
 30
0.0
 11
2.006411290795011
 21
0.005468414974685
 31
0.0
  0
ARC
  5
98
330
37
100
AcDbEntity
  8
0
100
AcDbCircle
 10
1.879904690092968
 20
0.161368414974685
 30
0.0
 40
0.016
100
AcDbArc
 50
5.99999999999999
 51
90.0
  0
LINE
  5
99
330
37
100
AcDbEntity
  8
0
100
AcDbLine
 10
1.787378572843904
 20
0.177368414974685
 30
0.0
 11
1.879904690092968
 21
0.177368414974685
 31
0.0
  0
ARC
  5
9A
330
37
100
AcDbEntity
  8
0
100
AcDbCircle
 10
1.131128572843904
 20
0.005468414974685
 30
0.0
 40
0.625
100
AcDbArc
 50
33.37250147611143
 51
90.0
  0
ARC
  5
9B
330
37
100
AcDbEntity
  8
0
100
AcDbCircle
 10
1.131128572843904
 20
0.005468414974685
 30
0.0
 40
0.8125
100
AcDbArc
 50
52.28977333137304
 51
90.0
  0
ARC
  5
9C
330
37
100
AcDbEntity
  8
0
100
AcDbCircle
 10
1.131128572843904
 20
0.005468414974685
 30
0.0
 40
0.8125
100
AcDbArc
 50
90.0
 51
127.7102266686269
  0
ARC
  5
9D
330
37
100
AcDbEntity
  8
0
100
AcDbCircle
 10
1.131128572843904
 20
0.005468414974685
 30
0.0
 40
0.625
100
AcDbArc
 50
90.0
 51
146.6274985238885
  0
ARC
  5
9E
330
37
100
AcDbEntity
  8
0
100
AcDbCircle
 10
0.5073524555948393
 20
0.333268414974685
 30
0.0
 40
0.016
100
AcDbArc
 50
90.0
 51
174.0
  0
LINE
  5
9F
330
37
100
AcDbEntity
  8
0
100
AcDbLine
 10
0.6091835949008262
 20
0.349268414974685
 30
0.0
 11
0.5073524555948393
 21
0.349268414974685
 31
0.0
  0
ARC
  5
A0
330
37
100
AcDbEntity
  8
0
100
AcDbCircle
 10
1.9904872193099
 20
1.036718414974684
 30
0.0
 40
0.53125
100
AcDbArc
 50
226.9901837286654
 51
276.3549542849563
  0
LINE
  5
A1
330
37
100
AcDbEntity
  8
0
100
AcDbLine
 10
1.653073550786981
 20
0.349268414974685
 30
0.0
 11
1.754904690092968
 21
0.349268414974685
 31
0.0
  0
ARC
  5
A2
330
37
100
AcDbEntity
  8
0
100
AcDbCircle
 10
1.754904690092968
 20
0.333268414974685
 30
0.0
 40
0.016
100
AcDbArc
 50
5.99999999999999
 51
90.0
  0
LINE
  5
A3
330
37
100
AcDbEntity
  8
0
100
AcDbLine
 10
2.068775502048934
 20
0.442968414974685
 30
0.0
 11
2.049290007571161
 21
0.5087328142309704
 31
0.0
  0
LINE
  5
A4
330
37
100
AcDbEntity
  8
0
100
AcDbLine
 10
2.131128572843903
 20
0.442968414974685
 30
0.0
 11
2.069291335752845
 21
0.442968414974685
 31
0.0
  0
ENDBLK
  5
A5
330
37
100
AcDbEntity
  8
0
100
AcDbBlockEnd
  0
BLOCK
  5
A6
330
7B
100
AcDbEntity
  8
0
100
AcDbBlockBegin
  2
*D1
 70
     1
 10
0.0
 20
0.0
 30
0.0
  3
*D1
  1

  0
LINE
  5
A7
330
7B
100
AcDbEntity
  8
0
  6
BYBLOCK
 62
     0
100
AcDbLine
 10
10.0257954646821
 20
11.35502225433648
 30
0.0
 11
10.0257954646821
 21
10.87888896515359
 31
0.0
  0
LINE
  5
A8
330
7B
100
AcDbEntity
  8
0
  6
BYBLOCK
 62
     0
100
AcDbLine
 10
11.54475987858372
 20
11.35502225433648
 30
0.0
 11
11.54475987858372
 21
10.87888896515359
 31
0.0
  0
LINE
  5
A9
330
7B
100
AcDbEntity
  8
0
  6
BYBLOCK
 62
     0
100
AcDbLine
 10
10.0257954646821
 20
11.05888896515359
 30
0.0
 11
10.41027767163291
 21
11.05888896515359
 31
0.0
  0
LINE
  5
AA
330
7B
100
AcDbEntity
  8
0
  6
BYBLOCK
 62
     0
100
AcDbLine
 10
11.54475987858372
 20
11.05888896515359
 30
0.0
 11
11.16027767163291
 21
11.05888896515359
 31
0.0
  0
LINE
  5
AB
330
7B
100
AcDbEntity
  8
0
  6
BYBLOCK
 62
     0
100
AcDbLine
 10
9.900795464682106
 20
10.93388896515359
 30
0.0
 11
10.1507954646821
 21
11.18388896515359
 31
0.0
  0
LINE
  5
AC
330
7B
100
AcDbEntity
  8
0
  6
BYBLOCK
 62
     0
100
AcDbLine
 10
11.41975987858372
 20
10.93388896515359
 30
0.0
 11
11.66975987858372
 21
11.18388896515359
 31
0.0
  0
TEXT
  5
AD
330
7B
100
AcDbEntity
  8
0
  6
BYBLOCK
 62
     0
100
AcDbText
 10
10.53527767163291
 20
10.99638896515359
 30
0.0
 40
0.125
  1
1 1/2
 72
     1
 11
10.78527767163291
 21
11.05888896515359
 31
0.0
100
AcDbText
 73
     2
  0
POINT
  5
AF
330
7B
100
AcDbEntity
  8
DEFPOINTS
  6
BYBLOCK
 62
     0
100
AcDbPoint
 10
10.0257954646821
 20
11.41752225433648
 30
0.0
  0
POINT
  5
B0
330
7B
100
AcDbEntity
  8
DEFPOINTS
  6
BYBLOCK
 62
     0
100
AcDbPoint
 10
11.54475987858372
 20
11.41752225433648
 30
0.0
  0
POINT
  5
B1
330
7B
100
AcDbEntity
  8
DEFPOINTS
  6
BYBLOCK
 62
     0
100
AcDbPoint
 10
11.54475987858372
 20
11.05888896515359
 30
0.0
  0
ENDBLK
  5
B2
330
7B
100
AcDbEntity
  8
0
100
AcDbBlockEnd
  0
BLOCK
  5
B3
330
7C
100
AcDbEntity
  8
0
100
AcDbBlockBegin
  2
*D2
 70
     1
 10
0.0
 20
0.0
 30
0.0
  3
*D2
  1

  0
LINE
  5
B4
330
7C
100
AcDbEntity
  8
0
  6
BYBLOCK
 62
     0
100
AcDbLine
 10
9.660354565240043
 20
11.62911571280224
 30
0.0
 11
9.660354565240043
 21
12.39918605355367
 31
0.0
  0
LINE
  5
B5
330
7C
100
AcDbEntity
  8
0
  6
BYBLOCK
 62
     0
100
AcDbLine
 10
11.91020077802579
 20
11.62911571280224
 30
0.0
 11
11.91020077802579
 21
12.39918605355367
 31
0.0
  0
LINE
  5
B6
330
7C
100
AcDbEntity
  8
0
  6
BYBLOCK
 62
     0
100
AcDbLine
 10
9.660354565240043
 20
12.21918605355367
 30
0.0
 11
10.38944433829958
 21
12.21918605355367
 31
0.0
  0
LINE
  5
B7
330
7C
100
AcDbEntity
  8
0
  6
BYBLOCK
 62
     0
100
AcDbLine
 10
11.91020077802579
 20
12.21918605355367
 30
0.0
 11
11.18111100496625
 21
12.21918605355367
 31
0.0
  0
LINE
  5
B8
330
7C
100
AcDbEntity
  8
0
  6
BYBLOCK
 62
     0
100
AcDbLine
 10
9.535354565240043
 20
12.09418605355367
 30
0.0
 11
9.785354565240043
 21
12.34418605355367
 31
0.0
  0
LINE
  5
B9
330
7C
100
AcDbEntity
  8
0
  6
BYBLOCK
 62
     0
100
AcDbLine
 10
11.78520077802579
 20
12.09418605355367
 30
0.0
 11
12.03520077802579
 21
12.34418605355367
 31
0.0
  0
TEXT
  5
BA
330
7C
100
AcDbEntity
  8
0
  6
BYBLOCK
 62
     0
100
AcDbText
 10
10.51444433829958
 20
12.15668605355367
 30
0.0
 40
0.125
  1
2 1/4
 72
     1
 11
10.78527767163291
 21
12.21918605355367
 31
0.0
100
AcDbText
 73
     2
  0
POINT
  5
BB
330
7C
100
AcDbEntity
  8
DEFPOINTS
  6
BYBLOCK
 62
     0
100
AcDbPoint
 10
9.660354565240043
 20
11.56661571280224
 30
0.0
  0
POINT
  5
BC
330
7C
100
AcDbEntity
  8
DEFPOINTS
  6
BYBLOCK
 62
     0
100
AcDbPoint
 10
11.91020077802579
 20
11.56661571280224
 30
0.0
  0
POINT
  5
BD
330
7C
100
AcDbEntity
  8
DEFPOINTS
  6
BYBLOCK
 62
     0
100
AcDbPoint
 10
11.91020077802579
 20
12.21918605355367
 30
0.0
  0
ENDBLK
  5
BE
330
7C
100
AcDbEntity
  8
0
100
AcDbBlockEnd
  0
ENDSEC
  0
SECTION
  2
ENTITIES
  0
LWPOLYLINE
  5
BF
330
1E
100
AcDbEntity
  8
ADP1DETAIL
100
AcDbPolyline
 90
        6
 70
     0
 43
0.0
 10
9.895463687715631
 20
10.40666794660315
 42
0.4694824436982854
 10
18.06869822119066
 20
3.461074913236771
 42
0.5210424736946537
 10
21.76765437266662
 20
12.00472585786954
 42
0.4080694072704429
 10
15.87694957105934
 20
13.15460588992716
 42
0.2926032869426014
 10
14.5251896116973
 20
9.22084911651725
 42
0.2037106682877831
 10
15.9117389420683
 20
7.526496357303226
 42
0.2037106682877831
  0
LWPOLYLINE
  5
C7
330
1E
100
AcDbEntity
  8
ADP1DETAIL
100
AcDbPolyline
 90
        6
 70
     0
 43
0.0
 10
9.659206882096716
 20
10.40937411592062
 42
0.4696224228937532
 10
18.11274192406928
 20
3.228921243615637
 42
0.5215438550445814
 10
21.96566785554999
 20
12.13376054679311
 42
0.4091319244426703
 10
15.7383426393718
 20
13.34621975600033
 42
0.2936521363308035
 10
14.29686335731432
 20
9.159867541987626
 42
0.2041752371192355
 10
15.80199404944619
 20
7.317258071855773
 42
-13.96137981055078
  0
ARC
  5
CF
330
1E
100
AcDbEntity
  8
ADP1DETAIL
100
AcDbCircle
 10
16.99455774188943
 20
9.145986110268149
 30
0.0
 40
1.946948802481004
100
AcDbArc
 50
236.8905271302938
 51
117.9474306393172
  0
ARC
  5
D0
330
1E
100
AcDbEntity
  8
ADP1DETAIL
100
AcDbCircle
 10
16.93177117354986
 20
9.025858357912841
 30
0.0
 40
3.902496671053177
100
AcDbArc
 50
281.9775340293802
 51
30.79003816300355
  0
ARC
  5
D1
330
1E
100
AcDbEntity
  8
ADP1DETAIL
100
AcDbCircle
 10
16.99455774188943
 20
9.145986110268149
 30
0.0
 40
2.183221106303582
100
AcDbArc
 50
236.8905271302938
 51
93.32062600081865
  0
ARC
  5
D2
330
1E
100
AcDbEntity
  8
ADP1DETAIL
100
AcDbCircle
 10
16.93177117354986
 20
9.025858357912841
 30
0.0
 40
3.666224367230599
100
AcDbArc
 50
281.9775340293802
 51
30.79003816300355
  0
ARC
  5
D3
330
1E
100
AcDbEntity
  8
ADP1DETAIL
100
AcDbCircle
 10
18.23514617508049
 20
9.571733415754007
 30
0.0
 40
2.512055910452794
100
AcDbArc
 50
35.7877187352385
 51
148.9909544982577
  0
ARC
  5
D4
330
1E
100
AcDbEntity
  8
ADP1DETAIL
100
AcDbCircle
 10
18.23514617508049
 20
9.571733415754007
 30
0.0
 40
2.275783606630216
100
AcDbArc
 50
35.7877187352385
 51
121.0494230838214
  0
ARC
  5
D5
330
1E
100
AcDbEntity
  8
ADP1DETAIL
100
AcDbCircle
 10
16.86540960487148
 20
10.32683171189247
 30
0.0
 40
5.193162324561663
100
AcDbArc
 50
179.0458634434197
 51
279.6064705534986
  0
ARC
  5
D6
330
1E
100
AcDbEntity
  8
ADP1DETAIL
100
AcDbCircle
 10
16.86540960487148
 20
10.32683171189247
 30
0.0
 40
4.956890020739085
100
AcDbArc
 50
179.0458634434197
 51
279.6064705534986
  0
DIMENSION
  5
D7
330
1E
100
AcDbEntity
  8
ADPDIM
100
AcDbDimension
  2
*D2
 10
11.91020077802579
 20
12.21918605355367
 30
0.0
 11
10.78527767163291
 21
12.21918605355367
 31
0.0
100
AcDbAlignedDimension
 13
9.660354565240043
 23
11.56661571280224
 33
0.0
 14
11.91020077802579
 24
11.56661571280224
 34
0.0
100
AcDbRotatedDimension
  0
INSERT
  5
D8
330
1E
100
AcDbEntity
  8
ADP1DETAIL
100
AcDbBlockReference
  2
4441
 10
9.654149098789014
 20
11.24426352215415
 30
0.0
  0
LINE
  5
D9
330
1E
100
AcDbEntity
  8
ADP1DETAIL
100
AcDbLine
 10
9.659206882096716
 20
10.40937411592062
 30
0.0
 11
11.90920688209672
 21
10.40937411592062
 31
0.0
  0
DIMENSION
  5
DA
330
1E
100
AcDbEntity
  8
ADPDIM
100
AcDbDimension
  2
*D1
 10
11.54475987858372
 20
11.05888896515359
 30
0.0
 11
10.78527767163291
 21
11.05888896515359
 31
0.0
100
AcDbAlignedDimension
 13
10.0257954646821
 23
11.41752225433648
 33
0.0
 14
11.54475987858372
 24
11.41752225433648
 34
0.0
100
AcDbRotatedDimension
  0
ARC
  5
DB
330
1E
100
AcDbEntity
  8
ADP1DETAIL
100
AcDbCircle
 10
18.27431049909582
 20
10.13166729314348
 30
0.0
 40
1.844659659554967
100
AcDbArc
 50
131.1135285934911
 51
139.6687419610071
  0
TEXT
  5
DF
330
1E
100
AcDbEntity
  8
ADPDIM
100
AcDbText
 10
6.433809224800523
 20
2.385161815236986
 30
0.0
 40
0.1875
  1
J U L I U S  B L U M  &  C O . ,  I N C .      ( 8 0 0 )  5 2 6 - 6 2 9 3        W W W . J U L I U S B L U M . C O M        P A R T  N o .  4 5 3 0 - G R
 41
1.25
  7
ARIAL_WIDE
 72
     1
 11
16.65893818967091
 21
2.572661815236986
 31
0.0
100
AcDbText
 73
     3
  0
ENDSEC
  0
SECTION
  2
OBJECTS
  0
DICTIONARY
  5
C
330
0
100
AcDbDictionary
  3
ACAD_GROUP
350
D
  3
ACAD_LAYOUT
350
19
  3
ACAD_MLINESTYLE
350
16
  3
ACAD_PLOTSETTINGS
350
18
  3
ACAD_PLOTSTYLENAME
350
E
  3
ACDBHEADERROUNDTRIPXREC
350
2AC
  3
ACDBVARIABLEDICTIONARY
350
150
  0
DICTIONARY
  5
11B
330
1E
100
AcDbDictionary
280
     1
  3
ACAD_LAYOUTSELFREF
360
2CE
  0
DICTIONARY
  5
11D
330
1A
100
AcDbDictionary
280
     1
  3
ACAD_LAYOUTSELFREF
360
2CD
  0
DICTIONARY
  5
D
102
{ACAD_REACTORS
330
C
102
}
330
C
100
AcDbDictionary
  0
DICTIONARY
  5
19
102
{ACAD_REACTORS
330
C
102
}
330
C
100
AcDbDictionary
  0
DICTIONARY
  5
16
102
{ACAD_REACTORS
330
C
102
}
330
C
100
AcDbDictionary
  3
STANDARD
350
17
  0
DICTIONARY
  5
18
102
{ACAD_REACTORS
330
C
102
}
330
C
100
AcDbDictionary
  0
ACDBDICTIONARYWDFLT
  5
E
102
{ACAD_REACTORS
330
C
102
}
330
C
100
AcDbDictionary
281
     1
  3
Normal
350
F
100
AcDbDictionaryWithDefault
340
F
  0
DICTIONARY
  5
2AC
102
{ACAD_REACTORS
330
C
102
}
330
C
100
AcDbDictionary
  3
CEPSNTYPE
350
2B6
  3
DIMSTYLEDATA
350
2BA
  3
FINGERPRINTGUID
350
2B7
  3
HYPERLINKBASE
350
2AF
  3
INSUNITS
350
2B5
  3
LAYOUTDICT
350
2B1
  3
LWETCUNION
350
2B4
  3
PLOTSETDICT
350
2B2
  3
PLOTSTYLNAMDICT
350
2B3
  3
PSVPSCALE
350
2B9
  3
PUCSBASE
350
2BD
  3
PUCSORGBACK
350
2C3
  3
PUCSORGBOTTOM
350
2BF
  3
PUCSORGFRONT
350
2C2
  3
PUCSORGLEFT
350
2C0
  3
PUCSORGRIGHT
350
2C1
  3
PUCSORGTOP
350
2BE
  3
PUCSORTHOREF
350
2BB
  3
PUCSORTHOVIEW
350
2BC
  3
STYLESHEET
350
2B0
  3
TSTACKALIGN
350
2AD
  3
TSTACKSIZE
350
2AE
  3
UCSBASE
350
2C6
  3
UCSORGBACK
350
2CC
  3
UCSORGBOTTOM
350
2C8
  3
UCSORGFRONT
350
2CB
  3
UCSORGLEFT
350
2C9
  3
UCSORGRIGHT
350
2CA
  3
UCSORGTOP
350
2C7
  3
UCSORTHOREF
350
2C4
  3
UCSORTHOVIEW
350
2C5
  3
VERSIONGUID
350
2B8
  0
DICTIONARY
  5
150
102
{ACAD_REACTORS
330
C
102
}
330
C
100
AcDbDictionary
  3
DIMASSOC
350
152
  3
HIDETEXT
350
151
  0
XRECORD
  5
2CE
102
{ACAD_REACTORS
330
11B
102
}
330
11B
100
AcDbXrecord
340
1E
  0
XRECORD
  5
2CD
102
{ACAD_REACTORS
330
11D
102
}
330
11D
100
AcDbXrecord
340
1A
  0
MLINESTYLE
  5
17
102
{ACAD_REACTORS
330
16
102
}
330
16
100
AcDbMlineStyle
  2
STANDARD
 70
     0
  3

 62
   256
 51
90.0
 52
90.0
 71
     2
 49
0.5
 62
   256
  6
BYLAYER
 49
-0.5
 62
   256
  6
BYLAYER
  0
ACDBPLACEHOLDER
  5
F
102
{ACAD_REACTORS
330
E
102
}
330
E
100
AcDbPlaceHolder
280
     0
  0
XRECORD
  5
2B6
102
{ACAD_REACTORS
330
2AC
102
}
330
2AC
100
AcDbXrecord
 90
        0
  0
XRECORD
  5
2BA
102
{ACAD_REACTORS
330
2AC
102
}
330
2AC
100
AcDbXrecord
1000
DSTYLE
1002
{
1070
   277
 70
     5
1070
   279
 70
     2
1002
}
  0
XRECORD
  5
2B7
102
{ACAD_REACTORS
330
2AC
102
}
330
2AC
100
AcDbXrecord
  1
{7D0EA40D-BEF4-48A0-9C52-6AE67D3EDCFD}
  0
XRECORD
  5
2AF
102
{ACAD_REACTORS
330
2AC
102
}
330
2AC
100
AcDbXrecord
  1

  0
XRECORD
  5
2B5
102
{ACAD_REACTORS
330
2AC
102
}
330
2AC
100
AcDbXrecord
 90
        0
  0
XRECORD
  5
2B1
102
{ACAD_REACTORS
330
2AC
102
}
330
2AC
100
AcDbXrecord
340
19
  0
XRECORD
  5
2B4
102
{ACAD_REACTORS
330
2AC
102
}
330
2AC
100
AcDbXrecord
 90
    14877
  0
XRECORD
  5
2B2
102
{ACAD_REACTORS
330
2AC
102
}
330
2AC
100
AcDbXrecord
340
18
  0
XRECORD
  5
2B3
102
{ACAD_REACTORS
330
2AC
102
}
330
2AC
100
AcDbXrecord
340
E
  0
XRECORD
  5
2B9
102
{ACAD_REACTORS
330
2AC
102
}
330
2AC
100
AcDbXrecord
 40
0.0
  0
XRECORD
  5
2BD
102
{ACAD_REACTORS
330
2AC
102
}
330
2AC
100
AcDbXrecord
340
0
  0
XRECORD
  5
2C3
102
{ACAD_REACTORS
330
2AC
102
}
330
2AC
100
AcDbXrecord
 10
0.0
 20
0.0
 30
0.0
  0
XRECORD
  5
2BF
102
{ACAD_REACTORS
330
2AC
102
}
330
2AC
100
AcDbXrecord
 10
0.0
 20
0.0
 30
0.0
  0
XRECORD
  5
2C2
102
{ACAD_REACTORS
330
2AC
102
}
330
2AC
100
AcDbXrecord
 10
0.0
 20
0.0
 30
0.0
  0
XRECORD
  5
2C0
102
{ACAD_REACTORS
330
2AC
102
}
330
2AC
100
AcDbXrecord
 10
0.0
 20
0.0
 30
0.0
  0
XRECORD
  5
2C1
102
{ACAD_REACTORS
330
2AC
102
}
330
2AC
100
AcDbXrecord
 10
0.0
 20
0.0
 30
0.0
  0
XRECORD
  5
2BE
102
{ACAD_REACTORS
330
2AC
102
}
330
2AC
100
AcDbXrecord
 10
0.0
 20
0.0
 30
0.0
  0
XRECORD
  5
2BB
102
{ACAD_REACTORS
330
2AC
102
}
330
2AC
100
AcDbXrecord
340
0
  0
XRECORD
  5
2BC
102
{ACAD_REACTORS
330
2AC
102
}
330
2AC
100
AcDbXrecord
 70
     0
  0
XRECORD
  5
2B0
102
{ACAD_REACTORS
330
2AC
102
}
330
2AC
100
AcDbXrecord
  1

  0
XRECORD
  5
2AD
102
{ACAD_REACTORS
330
2AC
102
}
330
2AC
100
AcDbXrecord
 90
        1
  0
XRECORD
  5
2AE
102
{ACAD_REACTORS
330
2AC
102
}
330
2AC
100
AcDbXrecord
 90
       70
  0
XRECORD
  5
2C6
102
{ACAD_REACTORS
330
2AC
102
}
330
2AC
100
AcDbXrecord
340
0
  0
XRECORD
  5
2CC
102
{ACAD_REACTORS
330
2AC
102
}
330
2AC
100
AcDbXrecord
 10
0.0
 20
0.0
 30
0.0
  0
XRECORD
  5
2C8
102
{ACAD_REACTORS
330
2AC
102
}
330
2AC
100
AcDbXrecord
 10
0.0
 20
0.0
 30
0.0
  0
XRECORD
  5
2CB
102
{ACAD_REACTORS
330
2AC
102
}
330
2AC
100
AcDbXrecord
 10
0.0
 20
0.0
 30
0.0
  0
XRECORD
  5
2C9
102
{ACAD_REACTORS
330
2AC
102
}
330
2AC
100
AcDbXrecord
 10
0.0
 20
0.0
 30
0.0
  0
XRECORD
  5
2CA
102
{ACAD_REACTORS
330
2AC
102
}
330
2AC
100
AcDbXrecord
 10
0.0
 20
0.0
 30
0.0
  0
XRECORD
  5
2C7
102
{ACAD_REACTORS
330
2AC
102
}
330
2AC
100
AcDbXrecord
 10
0.0
 20
0.0
 30
0.0
  0
XRECORD
  5
2C4
102
{ACAD_REACTORS
330
2AC
102
}
330
2AC
100
AcDbXrecord
340
0
  0
XRECORD
  5
2C5
102
{ACAD_REACTORS
330
2AC
102
}
330
2AC
100
AcDbXrecord
 70
     0
  0
XRECORD
  5
2B8
102
{ACAD_REACTORS
330
2AC
102
}
330
2AC
100
AcDbXrecord
  1
{36ED94CE-119A-41F3-8D5F-0EFA72122106}
  0
DICTIONARYVAR
  5
152
102
{ACAD_REACTORS
330
150
102
}
330
150
100
DictionaryVariables
280
     0
  1
2
  0
DICTIONARYVAR
  5
151
102
{ACAD_REACTORS
330
150
102
}
330
150
100
DictionaryVariables
280
     0
  1
1
  0
ENDSEC
  0
EOF
