  0
SECTION
  2
HEADER
  9
$ACADVER
  1
AC1015
  9
$ACADMAINTVER
 70
    20
  9
$DWGCODEPAGE
  3
ANSI_1252
  9
$INSBASE
 10
-4.976225504742852
 20
11.59924663640899
 30
0.0
  9
$EXTMIN
 10
-13.73506643552599
 20
8.402990987036242
 30
0.0
  9
$EXTMAX
 10
6.369544325046994
 20
17.72424663640899
 30
0.0
  9
$LIMMIN
 10
0.0
 20
0.0
  9
$LIMMAX
 10
36.0
 20
36.0
  9
$ORTHOMODE
 70
     1
  9
$REGENMODE
 70
     1
  9
$FILLMODE
 70
     1
  9
$QTEXTMODE
 70
     0
  9
$MIRRTEXT
 70
     1
  9
$LTSCALE
 40
1.0
  9
$ATTMODE
 70
     1
  9
$TEXTSIZE
 40
0.2
  9
$TRACEWID
 40
0.05
  9
$TEXTSTYLE
  7
STANDARD
  9
$CLAYER
  8
ADP1DETAIL
  9
$CELTYPE
  6
ByLayer
  9
$CECOLOR
 62
   256
  9
$CELTSCALE
 40
1.0
  9
$DISPSILH
 70
     0
  9
$DIMSCALE
 40
1.0
  9
$DIMASZ
 40
0.125
  9
$DIMEXO
 40
0.0625
  9
$DIMDLI
 40
0.38
  9
$DIMRND
 40
0.0
  9
$DIMDLE
 40
0.0
  9
$DIMEXE
 40
0.18
  9
$DIMTP
 40
0.0
  9
$DIMTM
 40
0.0
  9
$DIMTXT
 40
0.125
  9
$DIMCEN
 40
0.1875
  9
$DIMTSZ
 40
0.125
  9
$DIMTOL
 70
     0
  9
$DIMLIM
 70
     0
  9
$DIMTIH
 70
     0
  9
$DIMTOH
 70
     0
  9
$DIMSE1
 70
     0
  9
$DIMSE2
 70
     0
  9
$DIMTAD
 70
     0
  9
$DIMZIN
 70
     3
  9
$DIMBLK
  1

  9
$DIMASO
 70
     1
  9
$DIMSHO
 70
     1
  9
$DIMPOST
  1

  9
$DIMAPOST
  1

  9
$DIMALT
 70
     0
  9
$DIMALTD
 70
     1
  9
$DIMALTF
 40
25.4
  9
$DIMLFAC
 40
1.0
  9
$DIMTOFL
 70
     0
  9
$DIMTVP
 40
0.0
  9
$DIMTIX
 70
     0
  9
$DIMSOXD
 70
     0
  9
$DIMSAH
 70
     0
  9
$DIMBLK1
  1

  9
$DIMBLK2
  1

  9
$DIMSTYLE
  2
Standard
  9
$DIMCLRD
 70
     0
  9
$DIMCLRE
 70
     0
  9
$DIMCLRT
 70
     0
  9
$DIMTFAC
 40
1.0
  9
$DIMGAP
 40
0.125
  9
$DIMJUST
 70
     0
  9
$DIMSD1
 70
     0
  9
$DIMSD2
 70
     0
  9
$DIMTOLJ
 70
     1
  9
$DIMTZIN
 70
     3
  9
$DIMALTZ
 70
     3
  9
$DIMALTTZ
 70
     3
  9
$DIMUPT
 70
     0
  9
$DIMDEC
 70
     4
  9
$DIMTDEC
 70
     4
  9
$DIMALTU
 70
     5
  9
$DIMALTTD
 70
     1
  9
$DIMTXSTY
  7
STANDARD
  9
$DIMAUNIT
 70
     0
  9
$DIMADEC
 70
     0
  9
$DIMALTRND
 40
0.0
  9
$DIMAZIN
 70
     0
  9
$DIMDSEP
 70
    46
  9
$DIMATFIT
 70
     3
  9
$DIMFRAC
 70
     0
  9
$DIMLDRBLK
  1

  9
$DIMLUNIT
 70
     5
  9
$DIMLWD
 70
    -2
  9
$DIMLWE
 70
    -2
  9
$DIMTMOVE
 70
     2
  9
$LUNITS
 70
     5
  9
$LUPREC
 70
     4
  9
$SKETCHINC
 40
0.1
  9
$FILLETRAD
 40
0.062
  9
$AUNITS
 70
     0
  9
$AUPREC
 70
     0
  9
$MENU
  1
acad
  9
$ELEVATION
 40
0.0
  9
$PELEVATION
 40
0.0
  9
$THICKNESS
 40
0.0
  9
$LIMCHECK
 70
     0
  9
$CHAMFERA
 40
0.0
  9
$CHAMFERB
 40
0.0
  9
$CHAMFERC
 40
0.0
  9
$CHAMFERD
 40
0.0
  9
$SKPOLY
 70
     0
  9
$TDCREATE
 40
2450406.632633287
  9
$TDUCREATE
 40
2450406.799299953
  9
$TDUPDATE
 40
2453963.930416505
  9
$TDUUPDATE
 40
2453964.097083172
  9
$TDINDWG
 40
0.0393023264
  9
$TDUSRTIMER
 40
0.0393023264
  9
$USRTIMER
 70
     1
  9
$ANGBASE
 50
0.0
  9
$ANGDIR
 70
     0
  9
$PDMODE
 70
     0
  9
$PDSIZE
 40
0.0
  9
$PLINEWID
 40
0.0
  9
$SPLFRAME
 70
     0
  9
$SPLINETYPE
 70
     6
  9
$SPLINESEGS
 70
     8
  9
$HANDSEED
  5
381
  9
$SURFTAB1
 70
     6
  9
$SURFTAB2
 70
     6
  9
$SURFTYPE
 70
     6
  9
$SURFU
 70
     6
  9
$SURFV
 70
     6
  9
$UCSBASE
  2

  9
$UCSNAME
  2

  9
$UCSORG
 10
0.0
 20
0.0
 30
0.0
  9
$UCSXDIR
 10
1.0
 20
0.0
 30
0.0
  9
$UCSYDIR
 10
0.0
 20
1.0
 30
0.0
  9
$UCSORTHOREF
  2

  9
$UCSORTHOVIEW
 70
     0
  9
$UCSORGTOP
 10
0.0
 20
0.0
 30
0.0
  9
$UCSORGBOTTOM
 10
0.0
 20
0.0
 30
0.0
  9
$UCSORGLEFT
 10
0.0
 20
0.0
 30
0.0
  9
$UCSORGRIGHT
 10
0.0
 20
0.0
 30
0.0
  9
$UCSORGFRONT
 10
0.0
 20
0.0
 30
0.0
  9
$UCSORGBACK
 10
0.0
 20
0.0
 30
0.0
  9
$PUCSBASE
  2

  9
$PUCSNAME
  2

  9
$PUCSORG
 10
0.0
 20
0.0
 30
0.0
  9
$PUCSXDIR
 10
1.0
 20
0.0
 30
0.0
  9
$PUCSYDIR
 10
0.0
 20
1.0
 30
0.0
  9
$PUCSORTHOREF
  2

  9
$PUCSORTHOVIEW
 70
     0
  9
$PUCSORGTOP
 10
0.0
 20
0.0
 30
0.0
  9
$PUCSORGBOTTOM
 10
0.0
 20
0.0
 30
0.0
  9
$PUCSORGLEFT
 10
0.0
 20
0.0
 30
0.0
  9
$PUCSORGRIGHT
 10
0.0
 20
0.0
 30
0.0
  9
$PUCSORGFRONT
 10
0.0
 20
0.0
 30
0.0
  9
$PUCSORGBACK
 10
0.0
 20
0.0
 30
0.0
  9
$USERI1
 70
     0
  9
$USERI2
 70
     0
  9
$USERI3
 70
     0
  9
$USERI4
 70
     0
  9
$USERI5
 70
     0
  9
$USERR1
 40
0.0
  9
$USERR2
 40
0.0
  9
$USERR3
 40
0.0
  9
$USERR4
 40
0.0
  9
$USERR5
 40
0.0
  9
$WORLDVIEW
 70
     1
  9
$SHADEDGE
 70
     3
  9
$SHADEDIF
 70
    70
  9
$TILEMODE
 70
     1
  9
$MAXACTVP
 70
    15
  9
$PINSBASE
 10
0.0008545028977096
 20
1.250283272183907
 30
0.0
  9
$PLIMCHECK
 70
     0
  9
$PEXTMIN
 10
1.000000000000000E+20
 20
1.000000000000000E+20
 30
1.000000000000000E+20
  9
$PEXTMAX
 10
-1.000000000000000E+20
 20
-1.000000000000000E+20
 30
-1.000000000000000E+20
  9
$PLIMMIN
 10
0.0
 20
0.0
  9
$PLIMMAX
 10
12.0
 20
9.0
  9
$UNITMODE
 70
     0
  9
$VISRETAIN
 70
     0
  9
$PLINEGEN
 70
     0
  9
$PSLTSCALE
 70
     1
  9
$TREEDEPTH
 70
  3020
  9
$CMLSTYLE
  2
Standard
  9
$CMLJUST
 70
     0
  9
$CMLSCALE
 40
1.0
  9
$PROXYGRAPHICS
 70
     1
  9
$MEASUREMENT
 70
     0
  9
$CELWEIGHT
370
    -1
  9
$ENDCAPS
280
     0
  9
$JOINSTYLE
280
     0
  9
$LWDISPLAY
290
     0
  9
$INSUNITS
 70
     0
  9
$HYPERLINKBASE
  1

  9
$STYLESHEET
  1

  9
$XEDIT
290
     1
  9
$CEPSNTYPE
380
     0
  9
$PSTYLEMODE
290
     1
  9
$FINGERPRINTGUID
  2
{FAE72D5C-ECC1-42A4-AFC8-9FE8BA7E4DF2}
  9
$VERSIONGUID
  2
{5983F6C0-AE5E-4FDF-A544-EBF9F628AC2A}
  9
$EXTNAMES
290
     1
  9
$PSVPSCALE
 40
0.0
  9
$OLESTARTUP
290
     0
  0
ENDSEC
  0
SECTION
  2
CLASSES
  0
CLASS
  1
ACDBDICTIONARYWDFLT
  2
AcDbDictionaryWithDefault
  3
ObjectDBX Classes
 90
        0
280
     0
281
     0
  0
CLASS
  1
ACDBPLACEHOLDER
  2
AcDbPlaceHolder
  3
ObjectDBX Classes
 90
        0
280
     0
281
     0
  0
CLASS
  1
LAYOUT
  2
AcDbLayout
  3
ObjectDBX Classes
 90
        0
280
     0
281
     0
  0
CLASS
  1
DICTIONARYVAR
  2
AcDbDictionaryVar
  3
ObjectDBX Classes
 90
        0
280
     0
281
     0
  0
CLASS
  1
MATERIAL
  2
AcDbMaterial
  3
ObjectDBX Classes
 90
     1024
280
     0
281
     0
  0
CLASS
  1
VISUALSTYLE
  2
AcDbVisualStyle
  3
ObjectDBX Classes
 90
     4095
280
     0
281
     0
  0
CLASS
  1
TABLESTYLE
  2
AcDbTableStyle
  3
ObjectDBX Classes
 90
     4095
280
     0
281
     0
  0
ENDSEC
  0
SECTION
  2
TABLES
  0
TABLE
  2
VPORT
  5
8
330
0
100
AcDbSymbolTable
 70
     1
  0
VPORT
  5
264
330
8
100
AcDbSymbolTableRecord
100
AcDbViewportTableRecord
  2
*Active
 70
     0
 10
0.0
 20
0.0
 11
1.0
 21
1.0
 12
-4.99093304833623
 22
11.6202290861407
 13
0.0
 23
0.0
 14
0.5740882589684922
 24
0.5740882589684922
 15
0.5
 25
0.5
 16
0.0
 26
0.0
 36
1.0
 17
0.0
 27
0.0
 37
0.0
 40
6.357968020853359
 41
1.726930320150659
 42
50.0
 43
0.0
 44
0.0
 50
0.0
 51
0.0
 71
     0
 72
   100
 73
     1
 74
     0
 75
     0
 76
     0
 77
     0
 78
     0
281
     0
 65
     1
110
0.0
120
0.0
130
0.0
111
1.0
121
0.0
131
0.0
112
0.0
122
1.0
132
0.0
 79
     0
146
0.0
  0
ENDTAB
  0
TABLE
  2
LTYPE
  5
5
330
0
100
AcDbSymbolTable
 70
     2
  0
LTYPE
  5
13
330
5
100
AcDbSymbolTableRecord
100
AcDbLinetypeTableRecord
  2
ByBlock
 70
     0
  3

 72
    65
 73
     0
 40
0.0
  0
LTYPE
  5
14
330
5
100
AcDbSymbolTableRecord
100
AcDbLinetypeTableRecord
  2
ByLayer
 70
     0
  3

 72
    65
 73
     0
 40
0.0
  0
LTYPE
  5
15
330
5
100
AcDbSymbolTableRecord
100
AcDbLinetypeTableRecord
  2
CONTINUOUS
 70
     0
  3
Solid line
 72
    65
 73
     0
 40
0.0
  0
LTYPE
  5
9A
330
5
100
AcDbSymbolTableRecord
100
AcDbLinetypeTableRecord
  2
CENTER2
 70
     0
  3
___ _ ___ _ ___ _ ___ _ ___ _ ___ _ ___ _ ___ _
 72
    65
 73
     4
 40
1.125
 49
0.75
 74
     0
 49
-0.125
 74
     0
 49
0.125
 74
     0
 49
-0.125
 74
     0
  0
ENDTAB
  0
TABLE
  2
LAYER
  5
2
330
0
100
AcDbSymbolTable
 70
     5
  0
LAYER
  5
10
330
2
100
AcDbSymbolTableRecord
100
AcDbLayerTableRecord
  2
0
 70
     0
 62
     7
  6
CONTINUOUS
370
    -3
390
F
  0
LAYER
  5
9E
330
2
100
AcDbSymbolTableRecord
100
AcDbLayerTableRecord
  2
ADP1DETAIL
 70
     0
 62
     7
  6
CONTINUOUS
370
    -3
390
F
  0
LAYER
  5
9F
330
2
100
AcDbSymbolTableRecord
100
AcDbLayerTableRecord
  2
ADP3DETAIL
 70
     0
 62
     1
  6
CONTINUOUS
370
    -3
390
F
  0
LAYER
  5
A0
330
2
100
AcDbSymbolTableRecord
100
AcDbLayerTableRecord
  2
DEFPOINTS
 70
     0
 62
     7
  6
CONTINUOUS
290
     0
370
    -3
390
F
  0
LAYER
  5
A1
330
2
100
AcDbSymbolTableRecord
100
AcDbLayerTableRecord
  2
ADPDIM
 70
     0
 62
     3
  6
CONTINUOUS
370
    -3
390
F
  0
ENDTAB
  0
TABLE
  2
STYLE
  5
3
330
0
100
AcDbSymbolTable
 70
     2
  0
STYLE
  5
11
330
3
100
AcDbSymbolTableRecord
100
AcDbTextStyleTableRecord
  2
STANDARD
 70
     0
 40
0.0
 41
1.0
 50
0.0
 71
     0
 42
0.2
  3
txt
  4

  0
STYLE
  5
10B
330
3
100
AcDbSymbolTableRecord
100
AcDbTextStyleTableRecord
  2
ARIAL_WIDE
 70
     0
 40
0.0
 41
1.25
 50
0.0
 71
     0
 42
0.2
  3
ARIAL.TTF
  4

1001
ACAD
1000
Arial
1071
       34
  0
ENDTAB
  0
TABLE
  2
VIEW
  5
6
330
0
100
AcDbSymbolTable
 70
     0
  0
ENDTAB
  0
TABLE
  2
UCS
  5
7
330
0
100
AcDbSymbolTable
 70
     0
  0
ENDTAB
  0
TABLE
  2
APPID
  5
9
330
0
100
AcDbSymbolTable
 70
     2
  0
APPID
  5
12
330
9
100
AcDbSymbolTableRecord
100
AcDbRegAppTableRecord
  2
ACAD
 70
     0
  0
APPID
  5
2FF
330
9
100
AcDbSymbolTableRecord
100
AcDbRegAppTableRecord
  2
DCO15
 70
     0
  0
ENDTAB
  0
TABLE
  2
DIMSTYLE
  5
A
330
0
100
AcDbSymbolTable
 70
     1
100
AcDbDimStyleTable
 71
     0
  0
DIMSTYLE
105
109
102
{ACAD_REACTORS
330
30A
330
30B
330
30C
102
}
330
A
100
AcDbSymbolTableRecord
100
AcDbDimStyleTableRecord
  2
Standard
 70
     0
340
11
  0
ENDTAB
  0
TABLE
  2
BLOCK_RECORD
  5
1
330
0
100
AcDbSymbolTable
 70
    13
  0
BLOCK_RECORD
  5
1E
102
{ACAD_XDICTIONARY
360
148
102
}
330
1
100
AcDbSymbolTableRecord
100
AcDbBlockTableRecord
  2
*Model_Space
340
21
  0
BLOCK_RECORD
  5
1A
102
{ACAD_XDICTIONARY
360
14A
102
}
330
1
100
AcDbSymbolTableRecord
100
AcDbBlockTableRecord
  2
*Paper_Space
340
1D
  0
BLOCK_RECORD
  5
2C
330
1
100
AcDbSymbolTableRecord
100
AcDbBlockTableRecord
  2
6930
340
0
  0
BLOCK_RECORD
  5
83
330
1
100
AcDbSymbolTableRecord
100
AcDbBlockTableRecord
  2
*D1
340
0
  0
BLOCK_RECORD
  5
84
330
1
100
AcDbSymbolTableRecord
100
AcDbBlockTableRecord
  2
*D2
340
0
  0
BLOCK_RECORD
  5
98
330
1
100
AcDbSymbolTableRecord
100
AcDbBlockTableRecord
  2
*D3
340
0
  0
BLOCK_RECORD
  5
99
330
1
100
AcDbSymbolTableRecord
100
AcDbBlockTableRecord
  2
*D4
340
0
  0
BLOCK_RECORD
  5
2B6
330
1
100
AcDbSymbolTableRecord
100
AcDbBlockTableRecord
  2
AI9-BLK1
340
0
102
{BLKREFS
331
301
331
309
102
}
  0
BLOCK_RECORD
  5
2D8
330
1
100
AcDbSymbolTableRecord
100
AcDbBlockTableRecord
  2
*D6
340
0
  0
BLOCK_RECORD
  5
2E5
330
1
100
AcDbSymbolTableRecord
100
AcDbBlockTableRecord
  2
*D7
340
0
  0
BLOCK_RECORD
  5
2F2
330
1
100
AcDbSymbolTableRecord
100
AcDbBlockTableRecord
  2
*D8
340
0
  0
BLOCK_RECORD
  5
30D
330
1
100
AcDbSymbolTableRecord
100
AcDbBlockTableRecord
  2
*D10
340
0
  0
BLOCK_RECORD
  5
31A
330
1
100
AcDbSymbolTableRecord
100
AcDbBlockTableRecord
  2
*D11
340
0
  0
BLOCK_RECORD
  5
327
330
1
100
AcDbSymbolTableRecord
100
AcDbBlockTableRecord
  2
*D12
340
0
  0
ENDTAB
  0
ENDSEC
  0
SECTION
  2
BLOCKS
  0
BLOCK
  5
A4
330
1E
100
AcDbEntity
  8
0
100
AcDbBlockBegin
  2
*Model_Space
 70
     0
 10
0.0
 20
0.0
 30
0.0
  3
*Model_Space
  1

  0
ENDBLK
  5
A5
330
1E
100
AcDbEntity
  8
0
100
AcDbBlockEnd
  0
BLOCK
  5
A2
330
1A
100
AcDbEntity
 67
     1
  8
0
100
AcDbBlockBegin
  2
*Paper_Space
 70
     0
 10
0.0
 20
0.0
 30
0.0
  3
*Paper_Space
  1

  0
ENDBLK
  5
A3
330
1A
100
AcDbEntity
 67
     1
  8
0
100
AcDbBlockEnd
  0
BLOCK
  5
A7
330
2C
100
AcDbEntity
  8
0
100
AcDbBlockBegin
  2
6930
 70
     0
 10
0.0
 20
0.0
 30
0.0
  3
6930
  1

  0
ARC
  5
A8
330
2C
100
AcDbEntity
  8
0
100
AcDbCircle
 10
1.916004595070203
 20
1.154034446878586
 30
0.0
 40
0.6249999999999996
100
AcDbArc
 50
241.5979749409373
 51
278.6350146347775
  0
LINE
  5
A9
330
2C
100
AcDbEntity
  8
0
100
AcDbLine
 10
1.628889981986613
 20
0.1910078476348804
 30
0.0
 11
1.723889981986614
 21
0.1910078476348804
 31
0.0
  0
ARC
  5
AA
330
2C
100
AcDbEntity
  8
0
100
AcDbCircle
 10
0.5744515959357948
 20
0.3640078476348822
 30
0.0
 40
0.0149999999999993
100
AcDbArc
 50
90.0
 51
180.0000000000034
  0
ARC
  5
AB
330
2C
100
AcDbEntity
  8
0
100
AcDbCircle
 10
1.0899904044311
 20
0.0790216194753146
 30
0.0
 40
0.75
100
AcDbArc
 50
90.25360076942181
 51
135.5469981948047
  0
ARC
  5
AC
330
2C
100
AcDbEntity
  8
0
100
AcDbCircle
 10
0.0730405475278051
 20
0.3829926413857265
 30
0.0
 40
0.1089999999999999
100
AcDbArc
 50
90.0
 51
282.7068037043093
  0
LINE
  5
AD
330
2C
100
AcDbEntity
  8
0
100
AcDbLine
 10
0.4344515959357942
 20
0.1760078476348799
 30
0.0
 11
0.434451595935796
 21
0.0030078476348816
 31
0.0
  0
ARC
  5
AE
330
2C
100
AcDbEntity
  8
0
100
AcDbCircle
 10
0.043990404431101
 20
0.0170216194753152
 30
0.0
 40
0.2649999999999998
100
AcDbArc
 50
0.0
 51
78.45730220113806
  0
ARC
  5
AF
330
2C
100
AcDbEntity
  8
0
100
AcDbCircle
 10
0.3239579477838799
 20
0.0180078476348804
 30
0.0
 40
0.015
100
AcDbArc
 50
183.7698334967862
 51
270.0
  0
LINE
  5
B0
330
2C
100
AcDbEntity
  8
0
100
AcDbLine
 10
0.434451595935796
 20
0.0030078476348816
 30
0.0
 11
0.3239579477838799
 21
0.0030078476348816
 31
0.0
  0
ARC
  5
B1
330
2C
100
AcDbEntity
  8
0
100
AcDbCircle
 10
0.4494515959357948
 20
0.1760078476348799
 30
0.0
 40
0.0150000000000001
100
AcDbArc
 50
90.0
 51
180.0
  0
LINE
  5
B2
330
2C
100
AcDbEntity
  8
0
100
AcDbLine
 10
0.5444515959357954
 20
0.1910078476348804
 30
0.0
 11
0.4494515959357948
 21
0.1910078476348804
 31
0.0
  0
ARC
  5
B3
330
2C
100
AcDbEntity
  8
0
100
AcDbCircle
 10
0.5444515959357954
 20
0.206007847634881
 30
0.0
 40
0.0150000000000006
100
AcDbArc
 50
270.0
 51
359.9999999999983
  0
LINE
  5
B4
330
2C
100
AcDbEntity
  8
0
100
AcDbLine
 10
0.559451595935796
 20
0.3640078476348805
 30
0.0
 11
0.559451595935796
 21
0.206007847634881
 31
0.0
  0
ARC
  5
B5
330
2C
100
AcDbEntity
  8
0
100
AcDbCircle
 10
0.2573369828522054
 20
1.154034446878586
 30
0.0
 40
0.6249999999999996
100
AcDbArc
 50
261.3649853652225
 51
298.4020250590626
  0
LINE
  5
B6
330
2C
100
AcDbEntity
  8
0
100
AcDbLine
 10
0.0730405475278051
 20
0.4919926413857266
 30
0.0
 11
0.0725168683823032
 21
0.5352503637390971
 31
0.0
  0
LINE
  5
B7
330
2C
100
AcDbEntity
  8
0
100
AcDbLine
 10
0.0730405475278051
 20
0.5361189392037318
 30
0.0
 11
0.1601431620933216
 21
0.5364500494334763
 31
0.0
  0
LINE
  5
B8
330
2C
100
AcDbEntity
  8
0
100
AcDbLine
 10
1.075437184232006
 20
0.378125029195246
 30
0.0
 11
1.598889981986614
 21
0.379007847634881
 31
0.0
  0
LINE
  5
B9
330
2C
100
AcDbEntity
  8
0
100
AcDbLine
 10
1.074451595935794
 20
0.379007847634881
 30
0.0
 11
0.5744515959357948
 21
0.379007847634881
 31
0.0
  0
ARC
  5
BA
330
2C
100
AcDbEntity
  8
0
100
AcDbCircle
 10
1.598889981986614
 20
0.3640078476348805
 30
0.0
 40
0.0150000000000006
100
AcDbArc
 50
0.0
 51
90.0
  0
ARC
  5
BB
330
2C
100
AcDbEntity
  8
0
100
AcDbCircle
 10
1.628889981986615
 20
0.206007847634881
 30
0.0
 40
0.0150000000000006
100
AcDbArc
 50
179.9999999999966
 51
269.9999999999932
  0
LINE
  5
BC
330
2C
100
AcDbEntity
  8
0
100
AcDbLine
 10
1.613889981986615
 20
0.3640078476348805
 30
0.0
 11
1.613889981986615
 21
0.206007847634881
 31
0.0
  0
ARC
  5
BD
330
2C
100
AcDbEntity
  8
0
100
AcDbCircle
 10
1.083351173491308
 20
0.0790216194753182
 30
0.0
 40
0.749999999999996
100
AcDbArc
 50
44.45300180519512
 51
89.74639923057827
  0
ARC
  5
BE
330
2C
100
AcDbEntity
  8
0
100
AcDbCircle
 10
2.100301030394604
 20
0.3829926413857265
 30
0.0
 40
0.1089999999999999
100
AcDbArc
 50
257.2931962956907
 51
90.0
  0
LINE
  5
BF
330
2C
100
AcDbEntity
  8
0
100
AcDbLine
 10
1.738889981986615
 20
0.1760078476348799
 30
0.0
 11
1.738889981986615
 21
0.0030078476348816
 31
0.0
  0
ARC
  5
C0
330
2C
100
AcDbEntity
  8
0
100
AcDbCircle
 10
2.129351173491306
 20
0.0170216194753152
 30
0.0
 40
0.2649999999999998
100
AcDbArc
 50
101.5426977988619
 51
180.0
  0
ARC
  5
C1
330
2C
100
AcDbEntity
  8
0
100
AcDbCircle
 10
1.849383630138531
 20
0.0180078476348804
 30
0.0
 40
0.015
100
AcDbArc
 50
270.0
 51
356.2301665032137
  0
LINE
  5
C2
330
2C
100
AcDbEntity
  8
0
100
AcDbLine
 10
1.738889981986615
 20
0.0030078476348816
 30
0.0
 11
1.849383630138531
 21
0.0030078476348816
 31
0.0
  0
ARC
  5
C3
330
2C
100
AcDbEntity
  8
0
100
AcDbCircle
 10
1.723889981986614
 20
0.1760078476348799
 30
0.0
 40
0.0150000000000006
100
AcDbArc
 50
0.0
 51
90.0
  0
LINE
  5
C4
330
2C
100
AcDbEntity
  8
0
100
AcDbLine
 10
2.100301030394604
 20
0.4919926413857266
 30
0.0
 11
2.100824709540104
 21
0.5352503637390971
 31
0.0
  0
LINE
  5
C5
330
2C
100
AcDbEntity
  8
0
100
AcDbLine
 10
2.100301030394604
 20
0.5361189392037318
 30
0.0
 11
2.013198415829085
 21
0.5364500494334763
 31
0.0
  0
ENDBLK
  5
C6
330
2C
100
AcDbEntity
  8
0
100
AcDbBlockEnd
  0
BLOCK
  5
C7
330
83
100
AcDbEntity
  8
0
100
AcDbBlockBegin
  2
*D1
 70
     1
 10
0.0
 20
0.0
 30
0.0
  3
*D1
  1

  0
LINE
  5
C8
330
83
100
AcDbEntity
  8
0
  6
ByBlock
 62
     0
100
AcDbLine
 10
-5.372997024834083
 20
15.86299992998312
 30
0.0
 11
-3.599833905436717
 21
14.09786133484403
 31
0.0
  0
LINE
  5
C9
330
83
100
AcDbEntity
  8
0
  6
ByBlock
 62
     0
100
AcDbLine
 10
-5.549773265517351
 20
15.86259901865727
 30
0.0
 11
-5.196220784150814
 21
15.86340084130898
 31
0.0
  0
TEXT
  5
CA
330
83
100
AcDbEntity
  8
0
  6
ByBlock
 62
     0
100
AcDbText
 10
-3.555339161771508
 20
13.96537938216305
 30
0.0
 40
0.125
  1
R2 1/2
 50
315.1299410342688
 72
     1
 11
-3.275009126753324
 21
13.77450656435544
 31
0.0
100
AcDbText
 73
     2
  0
POINT
  5
CC
330
83
100
AcDbEntity
  8
DEFPOINTS
  6
ByBlock
 62
     0
100
AcDbPoint
 10
-5.372997024834083
 20
15.86299992998312
 30
0.0
  0
POINT
  5
CD
330
83
100
AcDbEntity
  8
DEFPOINTS
  6
ByBlock
 62
     0
100
AcDbPoint
 10
-3.601225504742848
 20
14.09924663640899
 30
0.0
  0
ENDBLK
  5
CE
330
83
100
AcDbEntity
  8
0
100
AcDbBlockEnd
  0
BLOCK
  5
CF
330
84
100
AcDbEntity
  8
0
100
AcDbBlockBegin
  2
*D2
 70
     1
 10
0.0
 20
0.0
 30
0.0
  3
*D2
  1

  0
LINE
  5
D0
330
84
100
AcDbEntity
  8
0
  6
ByBlock
 62
     0
100
AcDbLine
 10
-3.662333905436716
 20
14.09786133484403
 30
0.0
 11
-4.427579450427606
 21
14.09786133484403
 31
0.0
  0
LINE
  5
D1
330
84
100
AcDbEntity
  8
0
  6
ByBlock
 62
     0
100
AcDbLine
 10
-4.975725504742853
 20
11.59924663640899
 30
0.0
 11
-4.067579450427607
 21
11.59924663640899
 31
0.0
  0
LINE
  5
D2
330
84
100
AcDbEntity
  8
0
  6
ByBlock
 62
     0
100
AcDbLine
 10
-4.247579450427607
 20
14.09786133484403
 30
0.0
 11
-4.247579450427607
 21
13.24438731895985
 31
0.0
  0
LINE
  5
D3
330
84
100
AcDbEntity
  8
0
  6
ByBlock
 62
     0
100
AcDbLine
 10
-4.247579450427607
 20
11.59924663640899
 30
0.0
 11
-4.247579450427607
 21
12.45272065229318
 31
0.0
  0
LINE
  5
D4
330
84
100
AcDbEntity
  8
0
  6
ByBlock
 62
     0
100
AcDbLine
 10
-4.122579450427607
 20
13.97286133484404
 30
0.0
 11
-4.372579450427607
 21
14.22286133484403
 31
0.0
  0
LINE
  5
D5
330
84
100
AcDbEntity
  8
0
  6
ByBlock
 62
     0
100
AcDbLine
 10
-4.122579450427607
 20
11.47424663640899
 30
0.0
 11
-4.372579450427607
 21
11.72424663640899
 31
0.0
  0
TEXT
  5
D6
330
84
100
AcDbEntity
  8
0
  6
ByBlock
 62
     0
100
AcDbText
 10
-4.185079450427607
 20
12.57772065229318
 30
0.0
 40
0.125
  1
2 1/2
 50
90.0
 72
     1
 11
-4.247579450427607
 21
12.84855398562651
 31
0.0
100
AcDbText
 73
     2
  0
POINT
  5
D7
330
84
100
AcDbEntity
  8
DEFPOINTS
  6
ByBlock
 62
     0
100
AcDbPoint
 10
-3.599833905436716
 20
14.09786133484403
 30
0.0
  0
POINT
  5
D8
330
84
100
AcDbEntity
  8
DEFPOINTS
  6
ByBlock
 62
     0
100
AcDbPoint
 10
-5.038225504742853
 20
11.59924663640899
 30
0.0
  0
POINT
  5
D9
330
84
100
AcDbEntity
  8
DEFPOINTS
  6
ByBlock
 62
     0
100
AcDbPoint
 10
-4.247579450427607
 20
11.59924663640899
 30
0.0
  0
ENDBLK
  5
DA
330
84
100
AcDbEntity
  8
0
100
AcDbBlockEnd
  0
BLOCK
  5
DB
330
98
100
AcDbEntity
  8
0
100
AcDbBlockBegin
  2
*D3
 70
     1
 10
0.0
 20
0.0
 30
0.0
  3
*D3
  1

  0
LINE
  5
DC
330
98
100
AcDbEntity
  8
0
  6
ByBlock
 62
     0
100
AcDbLine
 10
-7.223186295119043
 20
9.937236302852658
 30
0.0
 11
-7.223186295119043
 21
10.70403177724833
 31
0.0
  0
LINE
  5
DD
330
98
100
AcDbEntity
  8
0
  6
ByBlock
 62
     0
100
AcDbLine
 10
-4.979264714366663
 20
9.937236302852658
 30
0.0
 11
-4.979264714366663
 21
10.70403177724833
 31
0.0
  0
LINE
  5
DE
330
98
100
AcDbEntity
  8
0
  6
ByBlock
 62
     0
100
AcDbLine
 10
-7.223186295119043
 20
10.52403177724833
 30
0.0
 11
-6.497058838076186
 21
10.52403177724833
 31
0.0
  0
LINE
  5
DF
330
98
100
AcDbEntity
  8
0
  6
ByBlock
 62
     0
100
AcDbLine
 10
-4.979264714366663
 20
10.52403177724833
 30
0.0
 11
-5.70539217140952
 21
10.52403177724833
 31
0.0
  0
LINE
  5
E0
330
98
100
AcDbEntity
  8
0
  6
ByBlock
 62
     0
100
AcDbLine
 10
-7.348186295119043
 20
10.39903177724833
 30
0.0
 11
-7.098186295119043
 21
10.64903177724833
 31
0.0
  0
LINE
  5
E1
330
98
100
AcDbEntity
  8
0
  6
ByBlock
 62
     0
100
AcDbLine
 10
-5.104264714366663
 20
10.39903177724833
 30
0.0
 11
-4.854264714366663
 21
10.64903177724833
 31
0.0
  0
TEXT
  5
E2
330
98
100
AcDbEntity
  8
0
  6
ByBlock
 62
     0
100
AcDbText
 10
-6.372058838076186
 20
10.46153177724833
 30
0.0
 40
0.125
  1
2 1/4
 72
     1
 11
-6.101225504742853
 21
10.52403177724833
 31
0.0
100
AcDbText
 73
     2
  0
POINT
  5
E3
330
98
100
AcDbEntity
  8
DEFPOINTS
  6
ByBlock
 62
     0
100
AcDbPoint
 10
-7.223186295119043
 20
9.874736302852658
 30
0.0
  0
POINT
  5
E4
330
98
100
AcDbEntity
  8
DEFPOINTS
  6
ByBlock
 62
     0
100
AcDbPoint
 10
-4.979264714366663
 20
9.874736302852658
 30
0.0
  0
POINT
  5
E5
330
98
100
AcDbEntity
  8
DEFPOINTS
  6
ByBlock
 62
     0
100
AcDbPoint
 10
-4.979264714366663
 20
10.52403177724833
 30
0.0
  0
ENDBLK
  5
E6
330
98
100
AcDbEntity
  8
0
100
AcDbBlockEnd
  0
BLOCK
  5
E7
330
99
100
AcDbEntity
  8
0
100
AcDbBlockBegin
  2
*D4
 70
     1
 10
0.0
 20
0.0
 30
0.0
  3
*D4
  1

  0
LINE
  5
E8
330
99
100
AcDbEntity
  8
0
  6
ByBlock
 62
     0
100
AcDbLine
 10
-6.753444697768263
 20
9.530813522439297
 30
0.0
 11
-6.753444697768263
 21
9.136309740565815
 31
0.0
  0
LINE
  5
E9
330
99
100
AcDbEntity
  8
0
  6
ByBlock
 62
     0
100
AcDbLine
 10
-5.449006311717442
 20
9.530813522439297
 30
0.0
 11
-5.449006311717442
 21
9.136309740565815
 31
0.0
  0
LINE
  5
EA
330
99
100
AcDbEntity
  8
0
  6
ByBlock
 62
     0
100
AcDbLine
 10
-6.753444697768263
 20
9.316309740565815
 30
0.0
 11
-7.003444697768263
 21
9.316309740565815
 31
0.0
  0
LINE
  5
EB
330
99
100
AcDbEntity
  8
0
  6
ByBlock
 62
     0
100
AcDbLine
 10
-5.449006311717442
 20
9.316309740565815
 30
0.0
 11
-5.199006311717442
 21
9.316309740565815
 31
0.0
  0
LINE
  5
EC
330
99
100
AcDbEntity
  8
0
  6
ByBlock
 62
     0
100
AcDbLine
 10
-6.878444697768263
 20
9.191309740565815
 30
0.0
 11
-6.628444697768263
 21
9.441309740565815
 31
0.0
  0
LINE
  5
ED
330
99
100
AcDbEntity
  8
0
  6
ByBlock
 62
     0
100
AcDbLine
 10
-5.574006311717442
 20
9.191309740565815
 30
0.0
 11
-5.324006311717442
 21
9.441309740565815
 31
0.0
  0
TEXT
  5
EE
330
99
100
AcDbEntity
  8
0
  6
ByBlock
 62
     0
100
AcDbText
 10
-5.074006311717442
 20
9.253809740565815
 30
0.0
 40
0.125
  1
1 5/16
 72
     1
 11
-4.761506311717442
 21
9.316309740565815
 31
0.0
100
AcDbText
 73
     2
  0
POINT
  5
EF
330
99
100
AcDbEntity
  8
DEFPOINTS
  6
ByBlock
 62
     0
100
AcDbPoint
 10
-6.753444697768263
 20
9.593313522439297
 30
0.0
  0
POINT
  5
F0
330
99
100
AcDbEntity
  8
DEFPOINTS
  6
ByBlock
 62
     0
100
AcDbPoint
 10
-5.449006311717442
 20
9.593313522439297
 30
0.0
  0
POINT
  5
F1
330
99
100
AcDbEntity
  8
DEFPOINTS
  6
ByBlock
 62
     0
100
AcDbPoint
 10
-5.449006311717442
 20
9.316309740565815
 30
0.0
  0
ENDBLK
  5
F2
330
99
100
AcDbEntity
  8
0
100
AcDbBlockEnd
  0
BLOCK
  5
2B7
330
2B6
100
AcDbEntity
  8
0
 62
     7
100
AcDbBlockBegin
  2
AI9-BLK1
 70
     0
 10
0.0
 20
0.0
 30
0.0
  3
AI9-BLK1
  1

  0
SPLINE
  5
2B8
330
2B6
100
AcDbEntity
  8
0
 62
     7
100
AcDbSpline
210
0.0
220
0.0
230
1.0
 70
     8
 71
     3
 72
     8
 73
     4
 74
     0
 42
0.0000000001
 43
0.0000000001
 40
0.0
 40
0.0
 40
0.0
 40
0.0
 40
1.0
 40
1.0
 40
1.0
 40
1.0
 10
23.44887017144097
 20
3.050718180338541
 30
0.0
 10
20.03719211154514
 20
2.53257581922743
 30
0.0
 10
16.54972195095486
 20
3.14029066297743
 30
0.0
 10
13.51442057291666
 20
4.781706407335068
 30
0.0
  0
SPLINE
  5
2B9
330
2B6
100
AcDbEntity
  8
0
 62
     7
100
AcDbSpline
210
0.0
220
0.0
230
1.0
 70
     8
 71
     3
 72
     8
 73
     4
 74
     0
 42
0.0000000001
 43
0.0000000001
 40
0.0
 40
0.0
 40
0.0
 40
0.0
 40
1.0
 40
1.0
 40
1.0
 40
1.0
 10
-13.51373155381944
 20
4.781706407335068
 30
0.0
 10
-9.951847330729165
 20
8.412320285373263
 30
0.0
 10
-5.085822211371527
 20
10.46783650716146
 30
0.0
 10
0.0003445095486111
 20
10.49022962782118
 30
0.0
  0
SPLINE
  5
2BA
330
2B6
100
AcDbEntity
  8
0
 62
     7
100
AcDbSpline
210
0.0
220
0.0
230
1.0
 70
     8
 71
     3
 72
    14
 73
    10
 74
     0
 42
0.0000000001
 43
0.0000000001
 40
0.0
 40
0.0
 40
0.0
 40
0.0
 40
1.0
 40
1.0
 40
1.0
 40
2.0
 40
2.0
 40
2.0
 40
3.0
 40
3.0
 40
3.0
 40
3.0
 10
-25.13696695963542
 20
-3.539404975043402
 30
0.0
 10
-26.62852105034722
 20
-3.875818549262152
 30
0.0
 10
-28.11042887369791
 20
-2.939269341362846
 30
0.0
 10
-28.44667019314236
 20
-1.447715250651041
 30
0.0
 10
-28.78308376736111
 20
0.0440110948350694
 30
0.0
 10
-27.8465345594618
 20
1.525746663411458
 30
0.0
 10
-26.35498046875
 20
1.862160237630208
 30
0.0
 10
-26.15499267578125
 20
1.907118733723958
 30
0.0
 10
-25.95087076822917
 20
1.929856363932291
 30
0.0
 10
-25.74588758680555
 20
1.929856363932291
 30
0.0
  0
SPLINE
  5
2BB
330
2B6
100
AcDbEntity
  8
0
 62
     7
100
AcDbSpline
210
0.0
220
0.0
230
1.0
 70
     8
 71
     3
 72
     8
 73
     4
 74
     0
 42
0.0000000001
 43
0.0000000001
 40
0.0
 40
0.0
 40
0.0
 40
0.0
 40
1.0
 40
1.0
 40
1.0
 40
1.0
 10
-25.13696695963542
 20
-3.539404975043402
 30
0.0
 10
-22.00330810546875
 20
-4.179331461588541
 30
0.0
 10
-19.75279947916666
 20
-6.936096869574652
 30
0.0
 10
-19.75279947916666
 20
-10.1343512641059
 30
0.0
  0
SPLINE
  5
2BC
330
2B6
100
AcDbEntity
  8
0
 62
     7
100
AcDbSpline
210
0.0
220
0.0
230
1.0
 70
     8
 71
     3
 72
     8
 73
     4
 74
     0
 42
0.0000000001
 43
0.0000000001
 40
0.0
 40
0.0
 40
0.0
 40
0.0
 40
1.0
 40
1.0
 40
1.0
 40
1.0
 10
-19.3726331922743
 20
-10.49022962782118
 30
0.0
 10
-19.57331000434027
 20
-10.49022962782118
 30
0.0
 10
-19.73953586154513
 20
-10.33468356662326
 30
0.0
 10
-19.75279947916666
 20
-10.1343512641059
 30
0.0
  0
SPLINE
  5
2BD
330
2B6
100
AcDbEntity
  8
0
 62
     7
100
AcDbSpline
210
0.0
220
0.0
230
1.0
 70
     8
 71
     3
 72
     8
 73
     4
 74
     0
 42
0.0000000001
 43
0.0000000001
 40
0.0
 40
0.0
 40
0.0
 40
0.0
 40
1.0
 40
1.0
 40
1.0
 40
1.0
 10
-13.51373155381944
 20
4.781706407335068
 30
0.0
 10
-16.54920518663194
 20
3.14029066297743
 30
0.0
 10
-20.03667534722222
 20
2.53257581922743
 30
0.0
 10
-23.44818115234375
 20
3.050718180338541
 30
0.0
  0
LINE
  5
2BE
330
2B6
100
AcDbEntity
  8
0
 62
     7
100
AcDbLine
 10
-25.74588758680555
 20
1.929856363932291
 30
0.0
 11
-25.75915120442708
 21
3.02866956922743
 31
0.0
  0
LINE
  5
2BF
330
2B6
100
AcDbEntity
  8
0
 62
     7
100
AcDbLine
 10
-25.74588758680555
 20
3.050718180338541
 30
0.0
 11
-23.533447265625
 21
3.059158664279513
 31
0.0
  0
SPLINE
  5
2C0
330
2B6
100
AcDbEntity
  8
0
 62
     7
100
AcDbSpline
210
0.0
220
0.0
230
1.0
 70
     8
 71
     3
 72
     8
 73
     4
 74
     0
 42
0.0000000001
 43
0.0000000001
 40
0.0
 40
0.0
 40
0.0
 40
0.0
 40
1.0
 40
1.0
 40
1.0
 40
1.0
 10
0.0003445095486111
 20
10.49022962782118
 30
0.0
 10
5.086338975694443
 20
10.46783650716146
 30
0.0
 10
9.952364095052082
 20
8.412320285373263
 30
0.0
 10
13.51442057291666
 20
4.781706407335068
 30
0.0
  0
SPLINE
  5
2C1
330
2B6
100
AcDbEntity
  8
0
 62
     7
100
AcDbSpline
210
0.0
220
0.0
230
1.0
 70
     8
 71
     3
 72
    14
 73
    10
 74
     0
 42
0.0000000001
 43
0.0000000001
 40
0.0
 40
0.0
 40
0.0
 40
0.0
 40
1.0
 40
1.0
 40
1.0
 40
2.0
 40
2.0
 40
2.0
 40
3.0
 40
3.0
 40
3.0
 40
3.0
 10
25.74657660590278
 20
1.929856363932291
 30
0.0
 10
27.27550998263889
 20
1.929856363932291
 30
0.0
 10
28.51505533854167
 20
0.6903110080295139
 30
0.0
 10
28.51505533854167
 20
-0.8386223687065971
 30
0.0
 10
28.51505533854167
 20
-2.367728000217013
 30
0.0
 10
27.27550998263889
 20
-3.607273356119791
 30
0.0
 10
25.74657660590278
 20
-3.607273356119791
 30
0.0
 10
25.54159342447916
 20
-3.607273356119791
 30
0.0
 10
25.33729926215278
 20
-3.584535725911457
 30
0.0
 10
25.13748372395833
 20
-3.539404975043402
 30
0.0
  0
SPLINE
  5
2C2
330
2B6
100
AcDbEntity
  8
0
 62
     7
100
AcDbSpline
210
0.0
220
0.0
230
1.0
 70
     8
 71
     3
 72
     8
 73
     4
 74
     0
 42
0.0000000001
 43
0.0000000001
 40
0.0
 40
0.0
 40
0.0
 40
0.0
 40
1.0
 40
1.0
 40
1.0
 40
1.0
 10
19.75331624348958
 20
-10.1343512641059
 30
0.0
 10
19.75331624348958
 20
-6.936096869574652
 30
0.0
 10
22.00399712456597
 20
-4.179331461588541
 30
0.0
 10
25.13748372395833
 20
-3.539404975043402
 30
0.0
  0
SPLINE
  5
2C3
330
2B6
100
AcDbEntity
  8
0
 62
     7
100
AcDbSpline
210
0.0
220
0.0
230
1.0
 70
     8
 71
     3
 72
     8
 73
     4
 74
     0
 42
0.0000000001
 43
0.0000000001
 40
0.0
 40
0.0
 40
0.0
 40
0.0
 40
1.0
 40
1.0
 40
1.0
 40
1.0
 10
19.75331624348958
 20
-10.1343512641059
 30
0.0
 10
19.74022488064236
 20
-10.33468356662326
 30
0.0
 10
19.57382676866319
 20
-10.49022962782118
 30
0.0
 10
19.37314995659722
 20
-10.49022962782118
 30
0.0
  0
LINE
  5
2C4
330
2B6
100
AcDbEntity
  8
0
 62
     7
100
AcDbLine
 10
25.74657660590278
 20
1.929856363932291
 30
0.0
 11
25.75984022352431
 21
3.02866956922743
 31
0.0
  0
LINE
  5
2C5
330
2B6
100
AcDbEntity
  8
0
 62
     7
100
AcDbLine
 10
25.74657660590278
 20
3.050718180338541
 30
0.0
 11
23.53413628472222
 21
3.059158664279513
 31
0.0
  0
POLYLINE
  5
2C6
330
2B6
100
AcDbEntity
  8
0
 62
     7
100
AcDb2dPolyline
 66
     1
 10
0.0
 20
0.0
 30
0.0
  0
VERTEX
  5
2C7
330
2C6
100
AcDbEntity
  8
0
 62
     7
100
AcDbVertex
100
AcDb2dVertex
 10
16.61638454861111
 20
-5.801626925998263
 30
0.0
  0
VERTEX
  5
2C8
330
2C6
100
AcDbEntity
  8
0
 62
     7
100
AcDbVertex
100
AcDb2dVertex
 10
16.56815321180555
 20
-0.9993360731336803
 30
0.0
  0
VERTEX
  5
2C9
330
2C6
100
AcDbEntity
  8
0
 62
     7
100
AcDbVertex
100
AcDb2dVertex
 10
-16.58882378472222
 20
-0.9993360731336803
 30
0.0
  0
VERTEX
  5
2CA
330
2C6
100
AcDbEntity
  8
0
 62
     7
100
AcDbVertex
100
AcDb2dVertex
 10
-16.60449896918402
 20
-5.922377522786457
 30
0.0
  0
VERTEX
  5
2CB
330
2C6
100
AcDbEntity
  8
0
 62
     7
100
AcDbVertex
100
AcDb2dVertex
 10
-18.30861545138889
 20
-5.922377522786457
 30
0.0
  0
VERTEX
  5
2CC
330
2C6
100
AcDbEntity
  8
0
 62
     7
100
AcDbVertex
100
AcDb2dVertex
 10
-18.30861545138889
 20
-10.46680297851562
 30
0.0
  0
VERTEX
  5
2CD
330
2C6
100
AcDbEntity
  8
0
 62
     7
100
AcDbVertex
100
AcDb2dVertex
 10
-18.30861545138889
 20
-6.206425645616318
 30
0.0
  0
SEQEND
  5
2CE
330
2C6
100
AcDbEntity
  8
0
 62
     7
  0
POLYLINE
  5
2CF
330
2B6
100
AcDbEntity
  8
0
 62
     7
100
AcDb2dPolyline
 66
     1
 10
0.0
 20
0.0
 30
0.0
  0
VERTEX
  5
2D0
330
2CF
100
AcDbEntity
  8
0
 62
     7
100
AcDbVertex
100
AcDb2dVertex
 10
16.62379150390625
 20
-5.827637396918402
 30
0.0
  0
VERTEX
  5
2D1
330
2CF
100
AcDbEntity
  8
0
 62
     7
100
AcDbVertex
100
AcDb2dVertex
 10
18.23592393663194
 20
-5.827637396918402
 30
0.0
  0
VERTEX
  5
2D2
330
2CF
100
AcDbEntity
  8
0
 62
     7
100
AcDbVertex
100
AcDb2dVertex
 10
18.23592393663194
 20
-10.46852552625868
 30
0.0
  0
VERTEX
  5
2D3
330
2CF
100
AcDbEntity
  8
0
 62
     7
100
AcDbVertex
100
AcDb2dVertex
 10
18.23592393663194
 20
-10.27749498155382
 30
0.0
  0
SEQEND
  5
2D4
330
2CF
100
AcDbEntity
  8
0
 62
     7
  0
LINE
  5
2D5
330
2B6
100
AcDbEntity
  8
0
 62
     7
100
AcDbLine
 10
18.23592393663194
 20
-10.49022962782118
 30
0.0
 11
19.37314995659722
 21
-10.49022962782118
 31
0.0
  0
LINE
  5
2D6
330
2B6
100
AcDbEntity
  8
0
 62
     7
100
AcDbLine
 10
-18.30861545138889
 20
-10.49022962782118
 30
0.0
 11
-19.3726331922743
 21
-10.49022962782118
 31
0.0
  0
ENDBLK
  5
2D7
330
2B6
100
AcDbEntity
  8
0
100
AcDbBlockEnd
  0
BLOCK
  5
2D9
330
2D8
100
AcDbEntity
  8
0
 62
     3
100
AcDbBlockBegin
  2
*D6
 70
     1
 10
0.0
 20
0.0
 30
0.0
  3
*D6
  1

  0
LINE
  5
2DA
330
2D8
100
AcDbEntity
  8
ADPDIM
  6
Continuous
 62
     0
370
    -2
100
AcDbLine
 10
-6.815857488723541
 20
9.663165128006763
 30
0.0
 11
-6.815857488723541
 21
9.052972670816487
 31
0.0
  0
LINE
  5
2DB
330
2D8
100
AcDbEntity
  8
ADPDIM
  6
Continuous
 62
     0
370
    -2
100
AcDbLine
 10
-5.315857488723541
 20
9.663165128006763
 30
0.0
 11
-5.315857488723541
 21
9.052972670816487
 31
0.0
  0
LINE
  5
2DC
330
2D8
100
AcDbEntity
  8
ADPDIM
  6
Continuous
 62
     0
370
    -2
100
AcDbLine
 10
-6.635857488723541
 20
9.232972670816486
 30
0.0
 11
-6.355857488723541
 21
9.232972670816486
 31
0.0
  0
LINE
  5
2DD
330
2D8
100
AcDbEntity
  8
ADPDIM
  6
Continuous
 62
     0
370
    -2
100
AcDbLine
 10
-5.49585748872354
 20
9.232972670816486
 30
0.0
 11
-5.77585748872354
 21
9.232972670816486
 31
0.0
  0
SOLID
  5
2DE
330
2D8
100
AcDbEntity
  8
ADPDIM
  6
Continuous
 62
     0
100
AcDbTrace
 10
-6.635857488723541
 20
9.262972670816486
 30
0.0
 11
-6.635857488723541
 21
9.202972670816487
 31
0.0
 12
-6.815857488723541
 22
9.232972670816486
 32
0.0
 13
-6.815857488723541
 23
9.232972670816486
 33
0.0
  0
SOLID
  5
2DF
330
2D8
100
AcDbEntity
  8
ADPDIM
  6
Continuous
 62
     0
100
AcDbTrace
 10
-5.49585748872354
 20
9.262972670816486
 30
0.0
 11
-5.49585748872354
 21
9.202972670816487
 31
0.0
 12
-5.315857488723541
 22
9.232972670816486
 32
0.0
 13
-5.315857488723541
 23
9.232972670816486
 33
0.0
  0
MTEXT
  5
2E0
330
2D8
100
AcDbEntity
  8
ADPDIM
  6
Continuous
 62
     0
100
AcDbMText
 10
-6.065857488723541
 20
9.232972670816486
 30
0.0
 40
0.1
 41
0.0
 71
     5
 72
     1
  1
\A1;1 1/2
 73
     1
 44
1.0
1001
ACAD
1000
MTEXTBEGIN
1070
    73
1070
     1
1070
    44
1040
1.0
1070
    74
1070
     0
1000
MTEXTEND
  0
POINT
  5
2E1
330
2D8
100
AcDbEntity
  8
DEFPOINTS
  6
Continuous
 62
     0
100
AcDbPoint
 10
-6.815857488723541
 20
9.725665128006763
 30
0.0
  0
POINT
  5
2E2
330
2D8
100
AcDbEntity
  8
DEFPOINTS
  6
Continuous
 62
     0
100
AcDbPoint
 10
-5.315857488723541
 20
9.725665128006763
 30
0.0
  0
POINT
  5
2E3
330
2D8
100
AcDbEntity
  8
DEFPOINTS
  6
Continuous
 62
     0
100
AcDbPoint
 10
-5.315857488723541
 20
9.232972670816486
 30
0.0
  0
ENDBLK
  5
2E4
330
2D8
100
AcDbEntity
  8
0
 62
     3
100
AcDbBlockEnd
  0
BLOCK
  5
2E6
330
2E5
100
AcDbEntity
  8
0
 62
     3
100
AcDbBlockBegin
  2
*D7
 70
     1
 10
0.0
 20
0.0
 30
0.0
  3
*D7
  1

  0
LINE
  5
2E7
330
2E5
100
AcDbEntity
  8
ADPDIM
  6
Continuous
 62
     0
370
    -2
100
AcDbLine
 10
-7.206530247931873
 20
10.1619318116097
 30
0.0
 11
-7.206530247931873
 21
11.18836446174936
 31
0.0
  0
LINE
  5
2E8
330
2E5
100
AcDbEntity
  8
ADPDIM
  6
Continuous
 62
     0
370
    -2
100
AcDbLine
 10
-4.956530247931873
 20
10.1619318116097
 30
0.0
 11
-4.956530247931873
 21
11.18836446174936
 31
0.0
  0
LINE
  5
2E9
330
2E5
100
AcDbEntity
  8
ADPDIM
  6
Continuous
 62
     0
370
    -2
100
AcDbLine
 10
-7.026530247931873
 20
11.00836446174936
 30
0.0
 11
-6.388196914598539
 21
11.00836446174936
 31
0.0
  0
LINE
  5
2EA
330
2E5
100
AcDbEntity
  8
ADPDIM
  6
Continuous
 62
     0
370
    -2
100
AcDbLine
 10
-5.136530247931872
 20
11.00836446174936
 30
0.0
 11
-5.774863581265206
 21
11.00836446174936
 31
0.0
  0
SOLID
  5
2EB
330
2E5
100
AcDbEntity
  8
ADPDIM
  6
Continuous
 62
     0
100
AcDbTrace
 10
-7.026530247931873
 20
11.03836446174936
 30
0.0
 11
-7.026530247931873
 21
10.97836446174936
 31
0.0
 12
-7.206530247931873
 22
11.00836446174936
 32
0.0
 13
-7.206530247931873
 23
11.00836446174936
 33
0.0
  0
SOLID
  5
2EC
330
2E5
100
AcDbEntity
  8
ADPDIM
  6
Continuous
 62
     0
100
AcDbTrace
 10
-5.136530247931872
 20
11.03836446174936
 30
0.0
 11
-5.136530247931872
 21
10.97836446174936
 31
0.0
 12
-4.956530247931873
 22
11.00836446174936
 32
0.0
 13
-4.956530247931873
 23
11.00836446174936
 33
0.0
  0
MTEXT
  5
2ED
330
2E5
100
AcDbEntity
  8
ADPDIM
  6
Continuous
 62
     0
100
AcDbMText
 10
-6.081530247931873
 20
11.00836446174936
 30
0.0
 40
0.1
 41
0.0
 71
     5
 72
     1
  1
\A1;2 1/4
 73
     1
 44
1.0
1001
ACAD
1000
MTEXTBEGIN
1070
    73
1070
     1
1070
    44
1040
1.0
1070
    74
1070
     0
1000
MTEXTEND
  0
POINT
  5
2EE
330
2E5
100
AcDbEntity
  8
DEFPOINTS
  6
Continuous
 62
     0
100
AcDbPoint
 10
-7.206530247931873
 20
10.0994318116097
 30
0.0
  0
POINT
  5
2EF
330
2E5
100
AcDbEntity
  8
DEFPOINTS
  6
Continuous
 62
     0
100
AcDbPoint
 10
-4.956530247931873
 20
10.0994318116097
 30
0.0
  0
POINT
  5
2F0
330
2E5
100
AcDbEntity
  8
DEFPOINTS
  6
Continuous
 62
     0
100
AcDbPoint
 10
-4.956530247931873
 20
11.00836446174936
 30
0.0
  0
ENDBLK
  5
2F1
330
2E5
100
AcDbEntity
  8
0
 62
     3
100
AcDbBlockEnd
  0
BLOCK
  5
2F3
330
2F2
100
AcDbEntity
  8
0
 62
     3
100
AcDbBlockBegin
  2
*D8
 70
     1
 10
0.0
 20
0.0
 30
0.0
  3
*D8
  1

  0
LINE
  5
2F4
330
2F2
100
AcDbEntity
  8
ADPDIM
  6
Continuous
 62
     0
370
    -2
100
AcDbLine
 10
-6.739421521772719
 20
9.841553773781463
 30
0.0
 11
-6.739421521772719
 21
9.452223457106029
 31
0.0
  0
LINE
  5
2F5
330
2F2
100
AcDbEntity
  8
ADPDIM
  6
Continuous
 62
     0
370
    -2
100
AcDbLine
 10
-5.426921521772719
 20
9.841553773781463
 30
0.0
 11
-5.426921521772719
 21
9.452223457106029
 31
0.0
  0
LINE
  5
2F6
330
2F2
100
AcDbEntity
  8
ADPDIM
  6
Continuous
 62
     0
370
    -2
100
AcDbLine
 10
-6.559421521772719
 20
9.632223457106029
 30
0.0
 11
-6.423171521772719
 21
9.632223457106029
 31
0.0
  0
LINE
  5
2F7
330
2F2
100
AcDbEntity
  8
ADPDIM
  6
Continuous
 62
     0
370
    -2
100
AcDbLine
 10
-5.606921521772719
 20
9.632223457106029
 30
0.0
 11
-5.743171521772719
 21
9.632223457106029
 31
0.0
  0
SOLID
  5
2F8
330
2F2
100
AcDbEntity
  8
ADPDIM
  6
Continuous
 62
     0
100
AcDbTrace
 10
-6.559421521772719
 20
9.662223457106028
 30
0.0
 11
-6.559421521772719
 21
9.602223457106029
 31
0.0
 12
-6.739421521772719
 22
9.632223457106029
 32
0.0
 13
-6.739421521772719
 23
9.632223457106029
 33
0.0
  0
SOLID
  5
2F9
330
2F2
100
AcDbEntity
  8
ADPDIM
  6
Continuous
 62
     0
100
AcDbTrace
 10
-5.606921521772719
 20
9.662223457106028
 30
0.0
 11
-5.606921521772719
 21
9.602223457106029
 31
0.0
 12
-5.426921521772719
 22
9.632223457106029
 32
0.0
 13
-5.426921521772719
 23
9.632223457106029
 33
0.0
  0
MTEXT
  5
2FA
330
2F2
100
AcDbEntity
  8
ADPDIM
  6
Continuous
 62
     0
100
AcDbMText
 10
-6.083171521772719
 20
9.632223457106029
 30
0.0
 40
0.1
 41
0.0
 71
     5
 72
     1
  1
\A1;1 5/16
 73
     1
 44
1.0
1001
ACAD
1000
MTEXTBEGIN
1070
    73
1070
     1
1070
    44
1040
1.0
1070
    74
1070
     0
1000
MTEXTEND
  0
POINT
  5
2FB
330
2F2
100
AcDbEntity
  8
DEFPOINTS
  6
Continuous
 62
     0
100
AcDbPoint
 10
-6.739421521772719
 20
9.904053773781463
 30
0.0
  0
POINT
  5
2FC
330
2F2
100
AcDbEntity
  8
DEFPOINTS
  6
Continuous
 62
     0
100
AcDbPoint
 10
-5.426921521772719
 20
9.904053773781463
 30
0.0
  0
POINT
  5
2FD
330
2F2
100
AcDbEntity
  8
DEFPOINTS
  6
Continuous
 62
     0
100
AcDbPoint
 10
-5.426921521772719
 20
9.632223457106029
 30
0.0
  0
ENDBLK
  5
2FE
330
2F2
100
AcDbEntity
  8
0
 62
     3
100
AcDbBlockEnd
  0
BLOCK
  5
318
330
30D
100
AcDbEntity
  8
0
100
AcDbBlockBegin
  2
*D10
 70
     1
 10
0.0
 20
0.0
 30
0.0
  3
*D10
  1

  0
LINE
  5
334
330
30D
100
AcDbEntity
  8
ADPDIM
  6
Continuous
 62
     0
370
    -2
100
AcDbLine
 10
-6.810205469836532
 20
9.953743147189911
 30
0.0
 11
-6.810205469836532
 21
9.343550689999634
 31
0.0
  0
LINE
  5
335
330
30D
100
AcDbEntity
  8
ADPDIM
  6
Continuous
 62
     0
370
    -2
100
AcDbLine
 10
-5.310205469836532
 20
9.953743147189911
 30
0.0
 11
-5.310205469836532
 21
9.343550689999634
 31
0.0
  0
LINE
  5
336
330
30D
100
AcDbEntity
  8
ADPDIM
  6
Continuous
 62
     0
370
    -2
100
AcDbLine
 10
-6.630205469836532
 20
9.523550689999634
 30
0.0
 11
-6.350205469836532
 21
9.523550689999634
 31
0.0
  0
LINE
  5
337
330
30D
100
AcDbEntity
  8
ADPDIM
  6
Continuous
 62
     0
370
    -2
100
AcDbLine
 10
-5.490205469836531
 20
9.523550689999634
 30
0.0
 11
-5.770205469836532
 21
9.523550689999634
 31
0.0
  0
SOLID
  5
338
330
30D
100
AcDbEntity
  8
ADPDIM
  6
Continuous
 62
     0
100
AcDbTrace
 10
-6.630205469836532
 20
9.553550689999633
 30
0.0
 11
-6.630205469836532
 21
9.493550689999635
 31
0.0
 12
-6.810205469836532
 22
9.523550689999634
 32
0.0
 13
-6.810205469836532
 23
9.523550689999634
 33
0.0
  0
SOLID
  5
339
330
30D
100
AcDbEntity
  8
ADPDIM
  6
Continuous
 62
     0
100
AcDbTrace
 10
-5.490205469836531
 20
9.553550689999633
 30
0.0
 11
-5.490205469836531
 21
9.493550689999635
 31
0.0
 12
-5.310205469836532
 22
9.523550689999634
 32
0.0
 13
-5.310205469836532
 23
9.523550689999634
 33
0.0
  0
MTEXT
  5
33A
330
30D
100
AcDbEntity
  8
ADPDIM
  6
Continuous
 62
     0
100
AcDbMText
 10
-6.060205469836532
 20
9.523550689999634
 30
0.0
 40
0.1
 41
0.0
 71
     5
 72
     1
  1
\A1;1 1/2
 73
     1
 44
1.0
1001
ACAD
1000
MTEXTBEGIN
1070
    73
1070
     1
1070
    44
1040
1.0
1070
    74
1070
     0
1000
MTEXTEND
  0
POINT
  5
33B
330
30D
100
AcDbEntity
  8
DEFPOINTS
  6
Continuous
 62
     0
100
AcDbPoint
 10
-6.810205469836532
 20
10.01624314718991
 30
0.0
  0
POINT
  5
33C
330
30D
100
AcDbEntity
  8
DEFPOINTS
  6
Continuous
 62
     0
100
AcDbPoint
 10
-5.310205469836532
 20
10.01624314718991
 30
0.0
  0
POINT
  5
33D
330
30D
100
AcDbEntity
  8
DEFPOINTS
  6
Continuous
 62
     0
100
AcDbPoint
 10
-5.310205469836532
 20
9.523550689999634
 30
0.0
  0
ENDBLK
  5
319
330
30D
100
AcDbEntity
  8
0
100
AcDbBlockEnd
  0
BLOCK
  5
325
330
31A
100
AcDbEntity
  8
0
100
AcDbBlockBegin
  2
*D11
 70
     1
 10
0.0
 20
0.0
 30
0.0
  3
*D11
  1

  0
LINE
  5
33E
330
31A
100
AcDbEntity
  8
ADPDIM
  6
Continuous
 62
     0
370
    -2
100
AcDbLine
 10
-7.200878229044864
 20
10.45250983079284
 30
0.0
 11
-7.200878229044864
 21
11.47894248093251
 31
0.0
  0
LINE
  5
33F
330
31A
100
AcDbEntity
  8
ADPDIM
  6
Continuous
 62
     0
370
    -2
100
AcDbLine
 10
-4.950878229044864
 20
10.45250983079284
 30
0.0
 11
-4.950878229044864
 21
11.47894248093251
 31
0.0
  0
LINE
  5
340
330
31A
100
AcDbEntity
  8
ADPDIM
  6
Continuous
 62
     0
370
    -2
100
AcDbLine
 10
-7.020878229044864
 20
11.29894248093251
 30
0.0
 11
-6.38254489571153
 21
11.29894248093251
 31
0.0
  0
LINE
  5
341
330
31A
100
AcDbEntity
  8
ADPDIM
  6
Continuous
 62
     0
370
    -2
100
AcDbLine
 10
-5.130878229044864
 20
11.29894248093251
 30
0.0
 11
-5.769211562378197
 21
11.29894248093251
 31
0.0
  0
SOLID
  5
342
330
31A
100
AcDbEntity
  8
ADPDIM
  6
Continuous
 62
     0
100
AcDbTrace
 10
-7.020878229044864
 20
11.32894248093251
 30
0.0
 11
-7.020878229044864
 21
11.26894248093251
 31
0.0
 12
-7.200878229044864
 22
11.29894248093251
 32
0.0
 13
-7.200878229044864
 23
11.29894248093251
 33
0.0
  0
SOLID
  5
343
330
31A
100
AcDbEntity
  8
ADPDIM
  6
Continuous
 62
     0
100
AcDbTrace
 10
-5.130878229044864
 20
11.32894248093251
 30
0.0
 11
-5.130878229044864
 21
11.26894248093251
 31
0.0
 12
-4.950878229044864
 22
11.29894248093251
 32
0.0
 13
-4.950878229044864
 23
11.29894248093251
 33
0.0
  0
MTEXT
  5
344
330
31A
100
AcDbEntity
  8
ADPDIM
  6
Continuous
 62
     0
100
AcDbMText
 10
-6.075878229044864
 20
11.29894248093251
 30
0.0
 40
0.1
 41
0.0
 71
     5
 72
     1
  1
\A1;2 1/4
 73
     1
 44
1.0
1001
ACAD
1000
MTEXTBEGIN
1070
    73
1070
     1
1070
    44
1040
1.0
1070
    74
1070
     0
1000
MTEXTEND
  0
POINT
  5
345
330
31A
100
AcDbEntity
  8
DEFPOINTS
  6
Continuous
 62
     0
100
AcDbPoint
 10
-7.200878229044864
 20
10.39000983079284
 30
0.0
  0
POINT
  5
346
330
31A
100
AcDbEntity
  8
DEFPOINTS
  6
Continuous
 62
     0
100
AcDbPoint
 10
-4.950878229044864
 20
10.39000983079284
 30
0.0
  0
POINT
  5
347
330
31A
100
AcDbEntity
  8
DEFPOINTS
  6
Continuous
 62
     0
100
AcDbPoint
 10
-4.950878229044864
 20
11.29894248093251
 30
0.0
  0
ENDBLK
  5
326
330
31A
100
AcDbEntity
  8
0
100
AcDbBlockEnd
  0
BLOCK
  5
332
330
327
100
AcDbEntity
  8
0
100
AcDbBlockBegin
  2
*D12
 70
     1
 10
0.0
 20
0.0
 30
0.0
  3
*D12
  1

  0
LINE
  5
348
330
327
100
AcDbEntity
  8
ADPDIM
  6
Continuous
 62
     0
370
    -2
100
AcDbLine
 10
-6.73376950288571
 20
10.13213179296461
 30
0.0
 11
-6.73376950288571
 21
9.742801476289177
 31
0.0
  0
LINE
  5
349
330
327
100
AcDbEntity
  8
ADPDIM
  6
Continuous
 62
     0
370
    -2
100
AcDbLine
 10
-5.42126950288571
 20
10.13213179296461
 30
0.0
 11
-5.42126950288571
 21
9.742801476289177
 31
0.0
  0
LINE
  5
34A
330
327
100
AcDbEntity
  8
ADPDIM
  6
Continuous
 62
     0
370
    -2
100
AcDbLine
 10
-6.55376950288571
 20
9.922801476289176
 30
0.0
 11
-6.41751950288571
 21
9.922801476289176
 31
0.0
  0
LINE
  5
34B
330
327
100
AcDbEntity
  8
ADPDIM
  6
Continuous
 62
     0
370
    -2
100
AcDbLine
 10
-5.60126950288571
 20
9.922801476289176
 30
0.0
 11
-5.73751950288571
 21
9.922801476289176
 31
0.0
  0
SOLID
  5
34C
330
327
100
AcDbEntity
  8
ADPDIM
  6
Continuous
 62
     0
100
AcDbTrace
 10
-6.55376950288571
 20
9.952801476289176
 30
0.0
 11
-6.55376950288571
 21
9.892801476289177
 31
0.0
 12
-6.73376950288571
 22
9.922801476289176
 32
0.0
 13
-6.73376950288571
 23
9.922801476289176
 33
0.0
  0
SOLID
  5
34D
330
327
100
AcDbEntity
  8
ADPDIM
  6
Continuous
 62
     0
100
AcDbTrace
 10
-5.60126950288571
 20
9.952801476289176
 30
0.0
 11
-5.60126950288571
 21
9.892801476289177
 31
0.0
 12
-5.42126950288571
 22
9.922801476289176
 32
0.0
 13
-5.42126950288571
 23
9.922801476289176
 33
0.0
  0
MTEXT
  5
34E
330
327
100
AcDbEntity
  8
ADPDIM
  6
Continuous
 62
     0
100
AcDbMText
 10
-6.07751950288571
 20
9.922801476289176
 30
0.0
 40
0.1
 41
0.0
 71
     5
 72
     1
  1
\A1;1 5/16
 73
     1
 44
1.0
1001
ACAD
1000
MTEXTBEGIN
1070
    73
1070
     1
1070
    44
1040
1.0
1070
    74
1070
     0
1000
MTEXTEND
  0
POINT
  5
34F
330
327
100
AcDbEntity
  8
DEFPOINTS
  6
Continuous
 62
     0
100
AcDbPoint
 10
-6.73376950288571
 20
10.19463179296461
 30
0.0
  0
POINT
  5
350
330
327
100
AcDbEntity
  8
DEFPOINTS
  6
Continuous
 62
     0
100
AcDbPoint
 10
-5.42126950288571
 20
10.19463179296461
 30
0.0
  0
POINT
  5
351
330
327
100
AcDbEntity
  8
DEFPOINTS
  6
Continuous
 62
     0
100
AcDbPoint
 10
-5.42126950288571
 20
9.922801476289176
 30
0.0
  0
ENDBLK
  5
333
330
327
100
AcDbEntity
  8
0
100
AcDbBlockEnd
  0
ENDSEC
  0
SECTION
  2
ENTITIES
  0
ARC
  5
F6
330
1E
100
AcDbEntity
  8
ADP1DETAIL
  6
Continuous
100
AcDbCircle
 10
-3.601225504742848
 20
14.09924663640899
 30
0.0
 40
1.375
100
AcDbArc
 50
90.0
 51
180.0
  0
ARC
  5
F7
330
1E
100
AcDbEntity
  8
ADP1DETAIL
  6
Continuous
100
AcDbCircle
 10
-3.601225504742848
 20
14.09924663640899
 30
0.0
 40
1.5
100
AcDbArc
 50
90.0
 51
180.0
  0
ARC
  5
F8
330
1E
100
AcDbEntity
  8
ADP1DETAIL
  6
Continuous
100
AcDbCircle
 10
-3.601225504742848
 20
14.09924663640899
 30
0.0
 40
3.625
100
AcDbArc
 50
90.0
 51
180.0
  0
ARC
  5
F9
330
1E
100
AcDbEntity
  8
ADP1DETAIL
  6
Continuous
100
AcDbCircle
 10
-3.601225504742848
 20
14.09924663640899
 30
0.0
 40
3.5
100
AcDbArc
 50
90.0
 51
180.0
  0
ARC
  5
FA
330
1E
100
AcDbEntity
  8
ADP3DETAIL
  6
CENTER2
100
AcDbCircle
 10
-3.601225504742848
 20
14.09924663640899
 30
0.0
 40
2.5
100
AcDbArc
 50
90.0
 51
180.0
  0
DIMENSION
  5
FB
330
1E
100
AcDbEntity
  8
ADPDIM
100
AcDbDimension
  2
*D2
 10
-4.247579450427607
 20
11.59924663640899
 30
0.0
 11
-4.247579450427607
 21
12.84855398562651
 31
0.0
 71
     5
 42
-1.0
100
AcDbAlignedDimension
 13
-3.599833905436716
 23
14.09786133484403
 33
0.0
 14
-5.038225504742853
 24
11.59924663640899
 34
0.0
 50
90.0
100
AcDbRotatedDimension
  0
DIMENSION
  5
FC
330
1E
100
AcDbEntity
  8
ADPDIM
100
AcDbDimension
  2
*D1
 10
-3.601225504742848
 20
14.09924663640899
 30
0.0
 11
-3.275009126753324
 21
13.77450656435544
 31
0.0
 70
     4
 71
     5
 42
-1.0
100
AcDbRadialDimension
 15
-5.372997024834083
 25
15.86299992998312
 35
0.0
 40
-2.501963570486308
  0
LINE
  5
FD
330
1E
100
AcDbEntity
  8
ADP1DETAIL
  6
Continuous
100
AcDbLine
 10
-4.976225504742852
 20
11.59924663640899
 30
0.0
 11
-7.226225504742852
 21
11.59924663640899
 31
0.0
  0
LINE
  5
FE
330
1E
100
AcDbEntity
  8
ADP1DETAIL
  6
Continuous
100
AcDbLine
 10
-7.226225504742852
 20
11.59924663640899
 30
0.0
 11
-7.226225504742848
 21
14.09924663640899
 31
0.0
  0
LINE
  5
FF
330
1E
100
AcDbEntity
  8
ADP1DETAIL
  6
Continuous
100
AcDbLine
 10
-7.101225504742852
 20
11.59924663640899
 30
0.0
 11
-7.101225504742848
 21
14.09924663640899
 31
0.0
  0
LINE
  5
100
330
1E
100
AcDbEntity
  8
ADP3DETAIL
  6
CENTER2
100
AcDbLine
 10
-6.101225504742852
 20
11.13786477154462
 30
0.0
 11
-6.101225504742848
 21
14.09924663640899
 31
0.0
  0
LINE
  5
101
330
1E
100
AcDbEntity
  8
ADP1DETAIL
  6
Continuous
100
AcDbLine
 10
-4.976225504742852
 20
11.59924663640899
 30
0.0
 11
-4.976225504742848
 21
14.09924663640899
 31
0.0
  0
LINE
  5
102
330
1E
100
AcDbEntity
  8
ADP1DETAIL
  6
Continuous
100
AcDbLine
 10
-5.101225504742852
 20
11.59924663640899
 30
0.0
 11
-5.101225504742848
 21
14.09924663640899
 31
0.0
  0
LINE
  5
103
330
1E
100
AcDbEntity
  8
ADP1DETAIL
  6
Continuous
100
AcDbLine
 10
-1.101225504742848
 20
17.72424663640899
 30
0.0
 11
-3.601225504742848
 21
17.72424663640899
 31
0.0
  0
LINE
  5
104
330
1E
100
AcDbEntity
  8
ADP1DETAIL
  6
Continuous
100
AcDbLine
 10
-1.101225504742848
 20
17.59924663640899
 30
0.0
 11
-3.601225504742848
 21
17.59924663640899
 31
0.0
  0
LINE
  5
105
330
1E
100
AcDbEntity
  8
ADP1DETAIL
  6
Continuous
100
AcDbLine
 10
-1.101225504742852
 20
15.47424663640899
 30
0.0
 11
-3.601225504742848
 21
15.47424663640899
 31
0.0
  0
LINE
  5
106
330
1E
100
AcDbEntity
  8
ADP1DETAIL
  6
Continuous
100
AcDbLine
 10
-1.101225504742852
 20
15.59924663640899
 30
0.0
 11
-3.601225504742848
 21
15.59924663640899
 31
0.0
  0
LINE
  5
107
330
1E
100
AcDbEntity
  8
ADP3DETAIL
  6
CENTER2
100
AcDbLine
 10
-0.3906038042486477
 20
16.59924663640899
 30
0.0
 11
-3.601225504742848
 21
16.59924663640899
 31
0.0
  0
LINE
  5
108
330
1E
100
AcDbEntity
  8
ADP1DETAIL
  6
Continuous
100
AcDbLine
 10
-1.101225504742848
 20
17.72424663640899
 30
0.0
 11
-1.101225504742852
 21
15.47424663640899
 31
0.0
  0
TEXT
  5
10C
330
1E
100
AcDbEntity
  8
ADPDIM
100
AcDbText
 10
-13.73506643552599
 20
8.458499172575123
 30
0.0
 40
0.1875
  1
J U L I U S  B L U M  &  C O . ,  I N C .      ( 8 0 0 )  5 2 6 - 6 2 9 3        W W W . J U L I U S B L U M . C O M        P A R T  N o .  4 5 3 0 - C
 41
1.25
  7
ARIAL_WIDE
 72
     1
 11
-3.682761055239495
 21
8.645999172575123
 31
0.0
100
AcDbText
 73
     3
  0
INSERT
  5
309
330
1E
100
AcDbEntity
  8
0
 62
     7
100
AcDbBlockReference
  2
AI9-BLK1
 10
-6.074296854784615
 20
10.42136559273079
 30
0.0
 41
0.039815269400223
 42
0.0398152694002239
 43
0.0398152694002312
  0
DIMENSION
  5
30A
330
1E
100
AcDbEntity
  8
ADPDIM
  6
Continuous
 62
     3
100
AcDbDimension
  2
*D10
 10
-5.310205469836532
 20
9.523550689999634
 30
0.0
 11
-6.060205469836532
 21
9.523550689999634
 31
0.0
 70
    32
 71
     5
 42
1.5
  3
Standard
100
AcDbAlignedDimension
 13
-6.810205469836532
 23
10.01624314718991
 33
0.0
 14
-5.310205469836532
 24
10.01624314718991
 34
0.0
100
AcDbRotatedDimension
1001
ACAD
1000
DSTYLE
1002
{
1070
   140
1040
0.1
1070
   276
1070
     2
1070
   277
1070
     5
1070
   289
1070
     3
1002
}
  0
DIMENSION
  5
30B
330
1E
100
AcDbEntity
  8
ADPDIM
  6
Continuous
 62
     3
100
AcDbDimension
  2
*D11
 10
-4.950878229044864
 20
11.29894248093251
 30
0.0
 11
-6.075878229044864
 21
11.29894248093251
 31
0.0
 70
    32
 71
     5
 42
2.25
  3
Standard
100
AcDbAlignedDimension
 13
-7.200878229044864
 23
10.39000983079284
 33
0.0
 14
-4.950878229044864
 24
10.39000983079284
 34
0.0
100
AcDbRotatedDimension
1001
ACAD
1000
DSTYLE
1002
{
1070
   140
1040
0.1
1070
   276
1070
     2
1070
   277
1070
     5
1070
   289
1070
     3
1002
}
  0
DIMENSION
  5
30C
330
1E
100
AcDbEntity
  8
ADPDIM
  6
Continuous
 62
     3
100
AcDbDimension
  2
*D12
 10
-5.42126950288571
 20
9.922801476289176
 30
0.0
 11
-6.07751950288571
 21
9.922801476289176
 31
0.0
 70
    32
 71
     5
 42
1.3125
  3
Standard
100
AcDbAlignedDimension
 13
-6.73376950288571
 23
10.19463179296461
 33
0.0
 14
-5.42126950288571
 24
10.19463179296461
 34
0.0
100
AcDbRotatedDimension
1001
ACAD
1000
DSTYLE
1002
{
1070
   140
1040
0.1
1070
   276
1070
     2
1070
   277
1070
     5
1070
   289
1070
     3
1002
}
  0
ENDSEC
  0
SECTION
  2
OBJECTS
  0
DICTIONARY
  5
C
330
0
100
AcDbDictionary
281
     1
  3
ACAD_COLOR
350
2B0
  3
ACAD_GROUP
350
D
  3
ACAD_LAYOUT
350
19
  3
ACAD_MATERIAL
350
29B
  3
ACAD_MLINESTYLE
350
16
  3
ACAD_PLOTSETTINGS
350
18
  3
ACAD_PLOTSTYLENAME
350
E
  3
ACAD_TABLESTYLE
350
2B1
  3
ACAD_VISUALSTYLE
350
29F
  3
AcDbVariableDictionary
350
17D
  3
ASE_INDEX_DICTIONARY
350
353
  3
DWGPROPS
350
374
  0
DICTIONARY
  5
148
330
1E
100
AcDbDictionary
280
     1
281
     1
  3
ACAD_LAYOUTSELFREF
360
297
  0
DICTIONARY
  5
14A
330
1A
100
AcDbDictionary
280
     1
281
     1
  3
ACAD_LAYOUTSELFREF
360
296
  0
DICTIONARY
  5
2B0
102
{ACAD_REACTORS
330
C
102
}
330
C
100
AcDbDictionary
281
     1
  0
DICTIONARY
  5
D
102
{ACAD_REACTORS
330
C
102
}
330
C
100
AcDbDictionary
281
     1
  0
DICTIONARY
  5
19
102
{ACAD_REACTORS
330
C
102
}
330
C
100
AcDbDictionary
281
     1
  3
Layout1
350
1D
  3
Model
350
21
  0
DICTIONARY
  5
29B
102
{ACAD_REACTORS
330
C
102
}
330
C
100
AcDbDictionary
281
     1
  3
ByBlock
350
29D
  3
ByLayer
350
29C
  3
Global
350
29E
  0
DICTIONARY
  5
16
102
{ACAD_REACTORS
330
C
102
}
330
C
100
AcDbDictionary
281
     1
  3
Standard
350
17
  0
DICTIONARY
  5
18
102
{ACAD_REACTORS
330
C
102
}
330
C
100
AcDbDictionary
281
     1
  0
ACDBDICTIONARYWDFLT
  5
E
102
{ACAD_REACTORS
330
C
102
}
330
C
100
AcDbDictionary
281
     1
  3
Normal
350
F
100
AcDbDictionaryWithDefault
340
F
  0
DICTIONARY
  5
2B1
102
{ACAD_REACTORS
330
C
102
}
330
C
100
AcDbDictionary
281
     1
  3
Standard
350
2B2
  0
DICTIONARY
  5
29F
102
{ACAD_REACTORS
330
C
102
}
330
C
100
AcDbDictionary
281
     1
  3
2dWireframe
350
2A5
  3
3D Hidden
350
2A7
  3
3dWireframe
350
2A6
  3
Basic
350
2A4
  3
Brighten
350
2AB
  3
ColorChange
350
2AF
  3
Conceptual
350
2A8
  3
Dim
350
2AA
  3
Facepattern
350
2AE
  3
Flat
350
2A0
  3
FlatWithEdges
350
2A1
  3
Gouraud
350
2A2
  3
GouraudWithEdges
350
2A3
  3
Linepattern
350
2AD
  3
Realistic
350
2A9
  3
Thicken
350
2AC
  0
DICTIONARY
  5
17D
102
{ACAD_REACTORS
330
C
102
}
330
C
100
AcDbDictionary
281
     1
  3
CTABLESTYLE
350
371
  3
DIMASSOC
350
17F
  3
HIDETEXT
350
17E
  3
INDEXCTL
350
373
  3
SORTENTS
350
372
  0
DICTIONARY
  5
353
102
{ACAD_REACTORS
330
C
102
}
330
C
100
AcDbDictionary
281
     1
  3
ASEBlockHierarchyIndexRecord
350
354
1001
DCO15
1040
1569086083.986
  0
XRECORD
  5
374
102
{ACAD_REACTORS
330
C
102
}
330
C
100
AcDbXrecord
280
     1
  1
DWGPROPS COOKIE
  2

  3

  4

  6

  7

  8
Yu Hu
  9

300
=
301
=
302
=
303
=
304
=
305
=
306
=
307
=
308
=
309
=
 40
0.0393022106481482
 41
2450406.632633287
 42
2453963.930416505
  1

 90
        0
  0
XRECORD
  5
297
102
{ACAD_REACTORS
330
148
102
}
330
148
100
AcDbXrecord
280
     1
340
1E
  0
XRECORD
  5
296
102
{ACAD_REACTORS
330
14A
102
}
330
14A
100
AcDbXrecord
280
     1
340
1A
  0
LAYOUT
  5
1D
102
{ACAD_XDICTIONARY
360
375
102
}
102
{ACAD_REACTORS
330
19
102
}
330
19
100
AcDbPlotSettings
  1

  2
Fax
  4

  6

 40
0.0
 41
0.0
 42
0.0
 43
0.0
 44
0.0
 45
0.0
 46
0.0
 47
0.0
 48
0.0
 49
0.0
140
0.0
141
0.0
142
1.0
143
1.0
 70
   688
 72
     0
 73
     0
 74
     5
  7
Default R14 pen assignments.ctb
 75
    16
147
1.0
148
0.0
149
0.0
100
AcDbLayout
  1
Layout1
 70
     1
 71
     1
 10
0.0
 20
0.0
 11
12.0
 21
9.0
 12
0.0008545028977096
 22
1.250283272183907
 32
0.0
 14
1.000000000000000E+20
 24
1.000000000000000E+20
 34
1.000000000000000E+20
 15
-1.000000000000000E+20
 25
-1.000000000000000E+20
 35
-1.000000000000000E+20
146
0.0
 13
0.0
 23
0.0
 33
0.0
 16
1.0
 26
0.0
 36
0.0
 17
0.0
 27
1.0
 37
0.0
 76
     0
330
1A
  0
LAYOUT
  5
21
102
{ACAD_XDICTIONARY
360
377
102
}
102
{ACAD_REACTORS
330
19
102
}
330
19
100
AcDbPlotSettings
  1

  2
Fax
  4

  6

 40
0.0
 41
0.0
 42
0.0
 43
0.0
 44
0.0
 45
0.0
 46
0.0
 47
0.0
 48
0.0
 49
0.0
140
0.0
141
0.0
142
1.0
143
1.0
 70
  1712
 72
     0
 73
     0
 74
     0
  7
Default R14 pen assignments.ctb
 75
     0
147
1.0
148
0.0
149
0.0
100
AcDbLayout
  1
Model
 70
     1
 71
     0
 10
0.0
 20
0.0
 11
12.0
 21
9.0
 12
0.0
 22
0.0
 32
0.0
 14
0.0
 24
0.0
 34
0.0
 15
0.0
 25
0.0
 35
0.0
146
0.0
 13
0.0
 23
0.0
 33
0.0
 16
1.0
 26
0.0
 36
0.0
 17
0.0
 27
1.0
 37
0.0
 76
     0
330
1E
331
264
  0
MATERIAL
  5
29D
102
{ACAD_XDICTIONARY
360
37B
102
}
102
{ACAD_REACTORS
330
29B
102
}
330
29B
100
AcDbMaterial
  1
ByBlock
  0
MATERIAL
  5
29C
102
{ACAD_XDICTIONARY
360
379
102
}
102
{ACAD_REACTORS
330
29B
102
}
330
29B
100
AcDbMaterial
  1
ByLayer
  0
MATERIAL
  5
29E
102
{ACAD_XDICTIONARY
360
37D
102
}
102
{ACAD_REACTORS
330
29B
102
}
330
29B
100
AcDbMaterial
  1
Global
  0
MLINESTYLE
  5
17
102
{ACAD_REACTORS
330
16
102
}
330
16
100
AcDbMlineStyle
  2
STANDARD
 70
     0
  3

 62
   256
 51
90.0
 52
90.0
 71
     2
 49
0.5
 62
   256
  6
BYLAYER
 49
-0.5
 62
   256
  6
BYLAYER
  0
ACDBPLACEHOLDER
  5
F
102
{ACAD_REACTORS
330
E
102
}
330
E
  0
TABLESTYLE
  5
2B2
102
{ACAD_XDICTIONARY
360
37F
102
}
102
{ACAD_REACTORS
330
2B1
102
}
330
2B1
100
AcDbTableStyle
  3
Standard
 70
     0
 71
     0
 40
0.06
 41
0.06
280
     0
281
     0
  7
STANDARD
140
0.18
170
     2
 62
     0
 63
     7
283
     0
274
    -2
284
     1
 64
     0
275
    -2
285
     1
 65
     0
276
    -2
286
     1
 66
     0
277
    -2
287
     1
 67
     0
278
    -2
288
     1
 68
     0
279
    -2
289
     1
 69
     0
  7
STANDARD
140
0.25
170
     5
 62
     0
 63
     7
283
     0
274
    -2
284
     1
 64
     0
275
    -2
285
     1
 65
     0
276
    -2
286
     1
 66
     0
277
    -2
287
     1
 67
     0
278
    -2
288
     1
 68
     0
279
    -2
289
     1
 69
     0
  7
STANDARD
140
0.18
170
     5
 62
     0
 63
     7
283
     0
274
    -2
284
     1
 64
     0
275
    -2
285
     1
 65
     0
276
    -2
286
     1
 66
     0
277
    -2
287
     1
 67
     0
278
    -2
288
     1
 68
     0
279
    -2
289
     1
 69
     0
  0
VISUALSTYLE
  5
2A5
102
{ACAD_REACTORS
330
29F
102
}
330
29F
100
AcDbVisualStyle
  2
2dWireframe
 70
     4
 71
     0
 72
     2
 73
     0
 90
        0
 40
-0.6
 41
-30.0
 62
     5
 63
     7
 74
     1
 91
        4
 64
     7
 65
   257
 75
     1
175
     1
 42
1.0
 92
        0
 66
   257
 43
1.0
 76
     1
 77
     6
 78
     2
 67
     7
 79
     5
170
     0
171
     0
290
     0
174
     0
 93
        1
 44
0.0
173
     0
291
     0
 45
0.0
1001
ACAD
1000
AcDbSavedByObjectVersion
1070
     0
  0
VISUALSTYLE
  5
2A7
102
{ACAD_REACTORS
330
29F
102
}
330
29F
100
AcDbVisualStyle
  2
3D Hidden
 70
     6
 71
     1
 72
     2
 73
     2
 90
        0
 40
-0.6
 41
-30.0
 62
     5
 63
     7
 74
     2
 91
        2
 64
     7
 65
   257
 75
     2
175
     1
 42
40.0
 92
        0
 66
   257
 43
1.0
 76
     1
 77
     6
 78
     2
 67
     7
 79
     3
170
     0
171
     0
290
     0
174
     0
 93
        1
 44
0.0
173
     0
291
     0
 45
0.0
1001
ACAD
1000
AcDbSavedByObjectVersion
1070
     0
  0
VISUALSTYLE
  5
2A6
102
{ACAD_REACTORS
330
29F
102
}
330
29F
100
AcDbVisualStyle
  2
3dWireframe
 70
     5
 71
     0
 72
     2
 73
     0
 90
        0
 40
-0.6
 41
-30.0
 62
     5
 63
     7
 74
     1
 91
        4
 64
     7
 65
   257
 75
     1
175
     1
 42
1.0
 92
        0
 66
   257
 43
1.0
 76
     1
 77
     6
 78
     2
 67
     7
 79
     5
170
     0
171
     0
290
     0
174
     0
 93
        1
 44
0.0
173
     0
291
     0
 45
0.0
1001
ACAD
1000
AcDbSavedByObjectVersion
1070
     0
  0
VISUALSTYLE
  5
2A4
102
{ACAD_REACTORS
330
29F
102
}
330
29F
100
AcDbVisualStyle
  2
Basic
 70
     7
 71
     1
 72
     0
 73
     1
 90
        0
 40
-0.6
 41
-30.0
 62
     5
 63
     7
 74
     0
 91
        4
 64
     7
 65
   257
 75
     1
175
     1
 42
1.0
 92
        8
 66
     7
 43
1.0
 76
     1
 77
     6
 78
     2
 67
     7
 79
     5
170
     0
171
     0
290
     0
174
     0
 93
        1
 44
0.0
173
     0
291
     1
 45
0.0
1001
ACAD
1000
AcDbSavedByObjectVersion
1070
     0
  0
VISUALSTYLE
  5
2AB
102
{ACAD_REACTORS
330
29F
102
}
330
29F
100
AcDbVisualStyle
  2
Brighten
 70
    12
 71
     2
 72
     2
 73
     0
 90
        0
 40
-0.6
 41
-30.0
 62
     5
 63
     7
 74
     1
 91
        4
 64
     7
 65
   257
 75
     1
175
     1
 42
1.0
 92
        8
 66
     7
 43
1.0
 76
     1
 77
     6
 78
     2
 67
     7
 79
     5
170
     0
171
     0
290
     0
174
     0
 93
        1
 44
50.0
173
     0
291
     1
 45
0.0
1001
ACAD
1000
AcDbSavedByObjectVersion
1070
     0
  0
VISUALSTYLE
  5
2AF
102
{ACAD_REACTORS
330
29F
102
}
330
29F
100
AcDbVisualStyle
  2
ColorChange
 70
    16
 71
     2
 72
     2
 73
     3
 90
        0
 40
-0.6
 41
-30.0
 62
     5
 63
     8
 74
     1
 91
        4
 64
     7
 65
   257
 75
     1
175
     1
 42
1.0
 92
        8
 66
     8
 43
1.0
 76
     1
 77
     6
 78
     2
 67
     7
 79
     5
170
     0
171
     0
290
     0
174
     0
 93
        1
 44
0.0
173
     0
291
     1
 45
0.0
1001
ACAD
1000
AcDbSavedByObjectVersion
1070
     0
  0
VISUALSTYLE
  5
2A8
102
{ACAD_REACTORS
330
29F
102
}
330
29F
100
AcDbVisualStyle
  2
Conceptual
 70
     9
 71
     3
 72
     2
 73
     0
 90
        0
 40
-0.6
 41
-30.0
 62
     5
 63
     7
 74
     2
 91
        2
 64
     7
 65
   257
 75
     1
175
     1
 42
40.0
 92
        8
 66
     7
 43
1.0
 76
     1
 77
     6
 78
     2
 67
     7
 79
     3
170
     0
171
     0
290
     0
174
     0
 93
        1
 44
0.0
173
     0
291
     0
 45
0.0
1001
ACAD
1000
AcDbSavedByObjectVersion
1070
     0
  0
VISUALSTYLE
  5
2AA
102
{ACAD_REACTORS
330
29F
102
}
330
29F
100
AcDbVisualStyle
  2
Dim
 70
    11
 71
     2
 72
     2
 73
     0
 90
        0
 40
-0.6
 41
-30.0
 62
     5
 63
     7
 74
     1
 91
        4
 64
     7
 65
   257
 75
     1
175
     1
 42
1.0
 92
        8
 66
     7
 43
1.0
 76
     1
 77
     6
 78
     2
 67
     7
 79
     5
170
     0
171
     0
290
     0
174
     0
 93
        1
 44
-50.0
173
     0
291
     1
 45
0.0
1001
ACAD
1000
AcDbSavedByObjectVersion
1070
     0
  0
VISUALSTYLE
  5
2AE
102
{ACAD_REACTORS
330
29F
102
}
330
29F
100
AcDbVisualStyle
  2
Facepattern
 70
    15
 71
     2
 72
     2
 73
     0
 90
        0
 40
-0.6
 41
-30.0
 62
     5
 63
     7
 74
     1
 91
        4
 64
     7
 65
   257
 75
     1
175
     1
 42
1.0
 92
        8
 66
     7
 43
1.0
 76
     1
 77
     6
 78
     2
 67
     7
 79
     5
170
     0
171
     0
290
     0
174
     0
 93
        1
 44
0.0
173
     0
291
     1
 45
0.0
1001
ACAD
1000
AcDbSavedByObjectVersion
1070
     0
  0
VISUALSTYLE
  5
2A0
102
{ACAD_REACTORS
330
29F
102
}
330
29F
100
AcDbVisualStyle
  2
Flat
 70
     0
 71
     2
 72
     1
 73
     1
 90
        2
 40
-0.6
 41
30.0
 62
     5
 63
     7
 74
     0
 91
        4
 64
     7
 65
   257
 75
     1
175
     1
 42
1.0
 92
        8
 66
     7
 43
1.0
 76
     1
 77
     6
 78
     2
 67
     7
 79
     5
170
     0
171
     0
290
     0
174
     0
 93
       13
 44
0.0
173
     0
291
     1
 45
0.0
1001
ACAD
1000
AcDbSavedByObjectVersion
1070
     0
  0
VISUALSTYLE
  5
2A1
102
{ACAD_REACTORS
330
29F
102
}
330
29F
100
AcDbVisualStyle
  2
FlatWithEdges
 70
     1
 71
     2
 72
     1
 73
     1
 90
        2
 40
-0.6
 41
30.0
 62
     5
 63
     7
 74
     1
 91
        4
 64
     7
 65
   257
 75
     1
175
     1
 42
1.0
 92
        0
 66
   257
 43
1.0
 76
     1
 77
     6
 78
     2
 67
     7
 79
     5
170
     0
171
     0
290
     0
174
     0
 93
       13
 44
0.0
173
     0
291
     1
 45
0.0
1001
ACAD
1000
AcDbSavedByObjectVersion
1070
     0
  0
VISUALSTYLE
  5
2A2
102
{ACAD_REACTORS
330
29F
102
}
330
29F
100
AcDbVisualStyle
  2
Gouraud
 70
     2
 71
     2
 72
     2
 73
     1
 90
        2
 40
-0.6
 41
30.0
 62
     5
 63
     7
 74
     0
 91
        4
 64
     7
 65
   257
 75
     1
175
     1
 42
1.0
 92
        0
 66
     7
 43
1.0
 76
     1
 77
     6
 78
     2
 67
     7
 79
     5
170
     0
171
     0
290
     0
174
     0
 93
       13
 44
0.0
173
     0
291
     1
 45
0.0
1001
ACAD
1000
AcDbSavedByObjectVersion
1070
     0
  0
VISUALSTYLE
  5
2A3
102
{ACAD_REACTORS
330
29F
102
}
330
29F
100
AcDbVisualStyle
  2
GouraudWithEdges
 70
     3
 71
     2
 72
     2
 73
     1
 90
        2
 40
-0.6
 41
30.0
 62
     5
 63
     7
 74
     1
 91
        4
 64
     7
 65
   257
 75
     1
175
     1
 42
1.0
 92
        0
 66
   257
 43
1.0
 76
     1
 77
     6
 78
     2
 67
     7
 79
     5
170
     0
171
     0
290
     0
174
     0
 93
       13
 44
0.0
173
     0
291
     1
 45
0.0
1001
ACAD
1000
AcDbSavedByObjectVersion
1070
     0
  0
VISUALSTYLE
  5
2AD
102
{ACAD_REACTORS
330
29F
102
}
330
29F
100
AcDbVisualStyle
  2
Linepattern
 70
    14
 71
     2
 72
     2
 73
     0
 90
        0
 40
-0.6
 41
-30.0
 62
     5
 63
     7
 74
     1
 91
        4
 64
     7
 65
   257
 75
     7
175
     7
 42
1.0
 92
        8
 66
     7
 43
1.0
 76
     1
 77
     6
 78
     2
 67
     7
 79
     5
170
     0
171
     0
290
     0
174
     0
 93
        1
 44
0.0
173
     0
291
     1
 45
0.0
1001
ACAD
1000
AcDbSavedByObjectVersion
1070
     0
  0
VISUALSTYLE
  5
2A9
102
{ACAD_REACTORS
330
29F
102
}
330
29F
100
AcDbVisualStyle
  2
Realistic
 70
     8
 71
     2
 72
     2
 73
     0
 90
        0
 40
-0.6
 41
-30.0
 62
     5
 63
     7
 74
     1
 91
        0
 64
     7
 65
   257
 75
     1
175
     1
 42
1.0
 92
        8
 66
     8
 43
1.0
 76
     1
 77
     6
 78
     2
 67
     7
 79
     5
170
     0
171
     0
290
     0
174
     0
 93
       13
 44
0.0
173
     0
291
     0
 45
0.0
1001
ACAD
1000
AcDbSavedByObjectVersion
1070
     0
  0
VISUALSTYLE
  5
2AC
102
{ACAD_REACTORS
330
29F
102
}
330
29F
100
AcDbVisualStyle
  2
Thicken
 70
    13
 71
     2
 72
     2
 73
     0
 90
        0
 40
-0.6
 41
-30.0
 62
     5
 63
     7
 74
     1
 91
        4
 64
     7
 65
   257
 75
     1
175
     1
 42
1.0
 92
       12
 66
     7
 43
1.0
 76
     1
 77
     6
 78
     2
 67
     7
 79
     5
170
     0
171
     0
290
     0
174
     0
 93
        1
 44
0.0
173
     0
291
     1
 45
0.0
1001
ACAD
1000
AcDbSavedByObjectVersion
1070
     0
  0
DICTIONARYVAR
  5
371
102
{ACAD_REACTORS
330
17D
102
}
330
17D
100
DictionaryVariables
280
     0
  1
STANDARD
  0
DICTIONARYVAR
  5
17F
102
{ACAD_REACTORS
330
17D
102
}
330
17D
100
DictionaryVariables
280
     0
  1
2
  0
DICTIONARYVAR
  5
17E
102
{ACAD_REACTORS
330
17D
102
}
330
17D
100
DictionaryVariables
280
     0
  1
1
  0
DICTIONARYVAR
  5
373
102
{ACAD_REACTORS
330
17D
102
}
330
17D
100
DictionaryVariables
280
     0
  1
0
  0
DICTIONARYVAR
  5
372
102
{ACAD_REACTORS
330
17D
102
}
330
17D
100
DictionaryVariables
280
     0
  1
127
  0
XRECORD
  5
354
102
{ACAD_REACTORS
330
353
102
}
330
353
100
AcDbXrecord
280
     1
330
309
  0
DICTIONARY
  5
375
330
1D
100
AcDbDictionary
280
     1
281
     1
  3
ACAD_XREC_ROUNDTRIP
360
376
  0
DICTIONARY
  5
377
330
21
100
AcDbDictionary
280
     1
281
     1
  3
ACAD_XREC_ROUNDTRIP
360
378
  0
DICTIONARY
  5
37B
330
29D
100
AcDbDictionary
280
     1
281
     1
  3
ACAD_XREC_ROUNDTRIP
360
37C
  0
DICTIONARY
  5
379
330
29C
100
AcDbDictionary
280
     1
281
     1
  3
ACAD_XREC_ROUNDTRIP
360
37A
  0
DICTIONARY
  5
37D
330
29E
100
AcDbDictionary
280
     1
281
     1
  3
ACAD_XREC_ROUNDTRIP
360
37E
  0
DICTIONARY
  5
37F
330
2B2
100
AcDbDictionary
280
     1
281
     1
  3
ACAD_XREC_ROUNDTRIP
360
380
  0
XRECORD
  5
376
102
{ACAD_REACTORS
330
375
102
}
330
375
100
AcDbXrecord
280
     1
102
SHADEPLOT
 70
     0
102
SHADEPLOTRESLEVEL
 70
     2
102
SHADEPLOTCUSTOMDPI
 70
   300
  0
XRECORD
  5
378
102
{ACAD_REACTORS
330
377
102
}
330
377
100
AcDbXrecord
280
     1
102
SHADEPLOT
 70
     0
102
SHADEPLOTRESLEVEL
 70
     2
102
SHADEPLOTCUSTOMDPI
 70
   300
  0
XRECORD
  5
37C
102
{ACAD_REACTORS
330
37B
102
}
330
37B
100
AcDbXrecord
280
     1
102
MATERIAL
148
0.0
149
0.0
149
0.0
 93
        0
 94
       63
282
     0
 72
     1
 77
     1
171
     1
175
     1
179
     1
273
     0
  0
XRECORD
  5
37A
102
{ACAD_REACTORS
330
379
102
}
330
379
100
AcDbXrecord
280
     1
102
MATERIAL
148
0.0
149
0.0
149
0.0
 93
        0
 94
       63
282
     0
 72
     1
 77
     1
171
     1
175
     1
179
     1
273
     0
  0
XRECORD
  5
37E
102
{ACAD_REACTORS
330
37D
102
}
330
37D
100
AcDbXrecord
280
     1
102
MATERIAL
148
0.0
149
0.0
149
0.0
 93
        0
 94
       63
282
     0
 72
     1
 77
     1
171
     1
175
     1
179
     1
273
     0
  0
XRECORD
  5
380
102
{ACAD_REACTORS
330
37F
102
}
330
37F
100
AcDbXrecord
280
     1
102
ACAD_ROUNDTRIP_PRE2007_TABLESTYLE
 90
      512
 91
        0
  1

 92
      512
 93
        0
  2

 94
      512
 95
        0
  3

  0
ENDSEC
  0
EOF
