  0
SECTION
  2
HEADER
  9
$ACADVER
  1
AC1014
  9
$ACADMAINTVER
 70
     9
  9
$DWGCODEPAGE
  3
ANSI_1252
  9
$INSBASE
 10
-14.51506278528554
 20
11.50771797576077
 30
0.0
  9
$EXTMIN
 10
-23.0832738389846
 20
7.50930667503982
 30
0.0
  9
$EXTMAX
 10
-2.978663078411617
 20
19.36365076388548
 30
0.0
  9
$LIMMIN
 10
0.0
 20
0.0
  9
$LIMMAX
 10
36.0
 20
36.0
  9
$ORTHOMODE
 70
     1
  9
$REGENMODE
 70
     1
  9
$FILLMODE
 70
     1
  9
$QTEXTMODE
 70
     0
  9
$MIRRTEXT
 70
     1
  9
$DRAGMODE
 70
     0
  9
$LTSCALE
 40
1.0
  9
$OSMODE
 70
    37
  9
$ATTMODE
 70
     1
  9
$TEXTSIZE
 40
0.2
  9
$TRACEWID
 40
0.05
  9
$TEXTSTYLE
  7
STANDARD
  9
$CLAYER
  8
ADP1DETAIL
  9
$CELTYPE
  6
BYLAYER
  9
$CECOLOR
 62
   256
  9
$CELTSCALE
 40
1.0
  9
$DELOBJ
 70
     1
  9
$DISPSILH
 70
     0
  9
$DIMSCALE
 40
1.0
  9
$DIMASZ
 40
0.125
  9
$DIMEXO
 40
0.0625
  9
$DIMDLI
 40
0.38
  9
$DIMRND
 40
0.0
  9
$DIMDLE
 40
0.0
  9
$DIMEXE
 40
0.18
  9
$DIMTP
 40
0.0
  9
$DIMTM
 40
0.0
  9
$DIMTXT
 40
0.125
  9
$DIMCEN
 40
0.1875
  9
$DIMTSZ
 40
0.125
  9
$DIMTOL
 70
     0
  9
$DIMLIM
 70
     0
  9
$DIMTIH
 70
     0
  9
$DIMTOH
 70
     0
  9
$DIMSE1
 70
     0
  9
$DIMSE2
 70
     0
  9
$DIMTAD
 70
     0
  9
$DIMZIN
 70
     3
  9
$DIMBLK
  1

  9
$DIMASO
 70
     1
  9
$DIMSHO
 70
     1
  9
$DIMPOST
  1

  9
$DIMAPOST
  1

  9
$DIMALT
 70
     0
  9
$DIMALTD
 70
     1
  9
$DIMALTF
 40
25.4
  9
$DIMLFAC
 40
1.0
  9
$DIMTOFL
 70
     0
  9
$DIMTVP
 40
0.0
  9
$DIMTIX
 70
     0
  9
$DIMSOXD
 70
     0
  9
$DIMSAH
 70
     0
  9
$DIMBLK1
  1

  9
$DIMBLK2
  1

  9
$DIMSTYLE
  2
STANDARD
  9
$DIMCLRD
 70
     0
  9
$DIMCLRE
 70
     0
  9
$DIMCLRT
 70
     0
  9
$DIMTFAC
 40
1.0
  9
$DIMGAP
 40
0.125
  9
$DIMJUST
 70
     0
  9
$DIMSD1
 70
     0
  9
$DIMSD2
 70
     0
  9
$DIMTOLJ
 70
     1
  9
$DIMTZIN
 70
     3
  9
$DIMALTZ
 70
     3
  9
$DIMALTTZ
 70
     3
  9
$DIMFIT
 70
     5
  9
$DIMUPT
 70
     0
  9
$DIMUNIT
 70
     5
  9
$DIMDEC
 70
     4
  9
$DIMTDEC
 70
     4
  9
$DIMALTU
 70
     5
  9
$DIMALTTD
 70
     1
  9
$DIMTXSTY
  7
STANDARD
  9
$DIMAUNIT
 70
     0
  9
$LUNITS
 70
     5
  9
$LUPREC
 70
     4
  9
$SKETCHINC
 40
0.1
  9
$FILLETRAD
 40
0.062
  9
$AUNITS
 70
     0
  9
$AUPREC
 70
     0
  9
$MENU
  1
acad
  9
$ELEVATION
 40
0.0
  9
$PELEVATION
 40
0.0
  9
$THICKNESS
 40
0.0
  9
$LIMCHECK
 70
     0
  9
$BLIPMODE
 70
     0
  9
$CHAMFERA
 40
0.0
  9
$CHAMFERB
 40
0.0
  9
$CHAMFERC
 40
0.0
  9
$CHAMFERD
 40
0.0
  9
$SKPOLY
 70
     0
  9
$TDCREATE
 40
2450406.631267361
  9
$TDUPDATE
 40
2452297.086818390
  9
$TDINDWG
 40
0.0411845255
  9
$TDUSRTIMER
 40
0.0411845255
  9
$USRTIMER
 70
     1
  9
$ANGBASE
 50
0.0
  9
$ANGDIR
 70
     0
  9
$PDMODE
 70
     0
  9
$PDSIZE
 40
0.0
  9
$PLINEWID
 40
0.0
  9
$COORDS
 70
     2
  9
$SPLFRAME
 70
     0
  9
$SPLINETYPE
 70
     6
  9
$SPLINESEGS
 70
     8
  9
$ATTDIA
 70
     0
  9
$ATTREQ
 70
     1
  9
$HANDLING
 70
 22529
  9
$HANDSEED
  5
2BE
  9
$SURFTAB1
 70
     6
  9
$SURFTAB2
 70
     6
  9
$SURFTYPE
 70
     6
  9
$SURFU
 70
     6
  9
$SURFV
 70
     6
  9
$UCSNAME
  2

  9
$UCSORG
 10
0.0
 20
0.0
 30
0.0
  9
$UCSXDIR
 10
1.0
 20
0.0
 30
0.0
  9
$UCSYDIR
 10
0.0
 20
1.0
 30
0.0
  9
$PUCSNAME
  2

  9
$PUCSORG
 10
0.0
 20
0.0
 30
0.0
  9
$PUCSXDIR
 10
1.0
 20
0.0
 30
0.0
  9
$PUCSYDIR
 10
0.0
 20
1.0
 30
0.0
  9
$USERI1
 70
     0
  9
$USERI2
 70
     0
  9
$USERI3
 70
     0
  9
$USERI4
 70
     0
  9
$USERI5
 70
     0
  9
$USERR1
 40
0.0
  9
$USERR2
 40
0.0
  9
$USERR3
 40
0.0
  9
$USERR4
 40
0.0
  9
$USERR5
 40
0.0
  9
$WORLDVIEW
 70
     1
  9
$SHADEDGE
 70
     3
  9
$SHADEDIF
 70
    70
  9
$TILEMODE
 70
     1
  9
$MAXACTVP
 70
    15
  9
$PINSBASE
 10
0.0008545028977096
 20
1.250283272183907
 30
0.0
  9
$PLIMCHECK
 70
     0
  9
$PEXTMIN
 10
1.000000000000000E+20
 20
1.000000000000000E+20
 30
1.000000000000000E+20
  9
$PEXTMAX
 10
-1.000000000000000E+20
 20
-1.000000000000000E+20
 30
-1.000000000000000E+20
  9
$PLIMMIN
 10
0.0
 20
0.0
  9
$PLIMMAX
 10
12.0
 20
9.0
  9
$UNITMODE
 70
     0
  9
$VISRETAIN
 70
     0
  9
$PLINEGEN
 70
     0
  9
$PSLTSCALE
 70
     1
  9
$TREEDEPTH
 70
  3020
  9
$PICKSTYLE
 70
     1
  9
$CMLSTYLE
  2
STANDARD
  9
$CMLJUST
 70
     0
  9
$CMLSCALE
 40
1.0
  9
$PROXYGRAPHICS
 70
     1
  9
$MEASUREMENT
 70
     0
  0
ENDSEC
  0
SECTION
  2
CLASSES
  0
CLASS
  1
ACDBDICTIONARYWDFLT
  2
AcDbDictionaryWithDefault
  3
AutoCAD 2000
 90
        0
280
     0
281
     0
  0
CLASS
  1
ACDBPLACEHOLDER
  2
AcDbPlaceHolder
  3
AutoCAD 2000
 90
        0
280
     0
281
     0
  0
CLASS
  1
LAYOUT
  2
AcDbLayout
  3
AutoCAD 2000
 90
        0
280
     0
281
     0
  0
CLASS
  1
DICTIONARYVAR
  2
AcDbDictionaryVar
  3
AutoCAD 2000
 90
        0
280
     0
281
     0
  0
CLASS
  1
LONG_TRANSACTION
  2
AcDbLongTransaction
  3
AutoCAD 2000
 90
        0
280
     0
281
     0
  0
CLASS
  1
LWPOLYLINE
  2
AcDbPolyline
  3
AutoCAD 2000
 90
        0
280
     0
281
     1
  0
CLASS
  1
HATCH
  2
AcDbHatch
  3
AutoCAD 2000
 90
        0
280
     0
281
     1
  0
CLASS
  1
XRECORD
  2
AcDbXrecord
  3
AutoCAD 2000
 90
        0
280
     0
281
     0
  0
CLASS
  1
LONG_TRANSACTION
  2
AcDbLongTransaction
  3
AutoCAD 2000
 90
        0
280
     0
281
     0
  0
CLASS
  1
LWPOLYLINE
  2
AcDbPolyline
  3
AutoCAD 2000
 90
        0
280
     0
281
     1
  0
CLASS
  1
HATCH
  2
AcDbHatch
  3
AutoCAD 2000
 90
        0
280
     0
281
     1
  0
CLASS
  1
XRECORD
  2
AcDbXrecord
  3
AutoCAD 2000
 90
        0
280
     0
281
     0
  0
CLASS
  1
LONG_TRANSACTION
  2
AcDbLongTransaction
  3
AutoCAD 2000
 90
        0
280
     0
281
     0
  0
CLASS
  1
LWPOLYLINE
  2
AcDbPolyline
  3
AutoCAD 2000
 90
        0
280
     0
281
     1
  0
CLASS
  1
HATCH
  2
AcDbHatch
  3
AutoCAD 2000
 90
        0
280
     0
281
     1
  0
CLASS
  1
XRECORD
  2
AcDbXrecord
  3
AutoCAD 2000
 90
        0
280
     0
281
     0
  0
CLASS
  1
LONG_TRANSACTION
  2
AcDbLongTransaction
  3
AutoCAD 2000
 90
        0
280
     0
281
     0
  0
CLASS
  1
LWPOLYLINE
  2
AcDbPolyline
  3
AutoCAD 2000
 90
        0
280
     0
281
     1
  0
CLASS
  1
HATCH
  2
AcDbHatch
  3
AutoCAD 2000
 90
        0
280
     0
281
     1
  0
CLASS
  1
XRECORD
  2
AcDbXrecord
  3
AutoCAD 2000
 90
        0
280
     0
281
     0
  0
CLASS
  1
LONG_TRANSACTION
  2
AcDbLongTransaction
  3
AutoCAD 2000
 90
        0
280
     0
281
     0
  0
CLASS
  1
LWPOLYLINE
  2
AcDbPolyline
  3
AutoCAD 2000
 90
        0
280
     0
281
     1
  0
CLASS
  1
HATCH
  2
AcDbHatch
  3
AutoCAD 2000
 90
        0
280
     0
281
     1
  0
CLASS
  1
XRECORD
  2
AcDbXrecord
  3
AutoCAD 2000
 90
        0
280
     0
281
     0
  0
ENDSEC
  0
SECTION
  2
TABLES
  0
TABLE
  2
VPORT
  5
8
330
0
100
AcDbSymbolTable
 70
     2
  0
VPORT
  5
29A
330
8
100
AcDbSymbolTableRecord
100
AcDbViewportTableRecord
  2
*ACTIVE
 70
     0
 10
0.0
 20
0.0
 11
1.0
 21
1.0
 12
-13.01298118805281
 22
13.43655403358461
 13
0.0
 23
0.0
 14
0.5740882589684922
 24
0.5740882589684922
 15
0.5
 25
0.5
 16
0.0
 26
0.0
 36
1.0
 17
0.0
 27
0.0
 37
0.0
 40
12.88695851046059
 41
1.570528967254408
 42
50.0
 43
0.0
 44
0.0
 50
0.0
 51
0.0
 71
     0
 72
   100
 73
     1
 74
     0
 75
     0
 76
     0
 77
     0
 78
     0
  0
ENDTAB
  0
TABLE
  2
LTYPE
  5
5
330
0
100
AcDbSymbolTable
 70
     2
  0
LTYPE
  5
13
330
5
100
AcDbSymbolTableRecord
100
AcDbLinetypeTableRecord
  2
BYBLOCK
 70
     0
  3

 72
    65
 73
     0
 40
0.0
  0
LTYPE
  5
14
330
5
100
AcDbSymbolTableRecord
100
AcDbLinetypeTableRecord
  2
BYLAYER
 70
     0
  3

 72
    65
 73
     0
 40
0.0
  0
LTYPE
  5
15
330
5
100
AcDbSymbolTableRecord
100
AcDbLinetypeTableRecord
  2
CONTINUOUS
 70
     0
  3
Solid line
 72
    65
 73
     0
 40
0.0
  0
LTYPE
  5
96
330
5
100
AcDbSymbolTableRecord
100
AcDbLinetypeTableRecord
  2
CENTER2
 70
     0
  3
___ _ ___ _ ___ _ ___ _ ___ _ ___ _ ___ _ ___ _
 72
    65
 73
     4
 40
1.125
 49
0.75
 74
     0
 49
-0.125
 74
     0
 49
0.125
 74
     0
 49
-0.125
 74
     0
  0
ENDTAB
  0
TABLE
  2
LAYER
  5
2
330
0
100
AcDbSymbolTable
 70
     5
  0
LAYER
  5
10
330
2
100
AcDbSymbolTableRecord
100
AcDbLayerTableRecord
  2
0
 70
     0
 62
     7
  6
CONTINUOUS
  0
LAYER
  5
9A
330
2
100
AcDbSymbolTableRecord
100
AcDbLayerTableRecord
  2
ADP1DETAIL
 70
     0
 62
     7
  6
CONTINUOUS
  0
LAYER
  5
9B
330
2
100
AcDbSymbolTableRecord
100
AcDbLayerTableRecord
  2
ADP3DETAIL
 70
     0
 62
     1
  6
CONTINUOUS
  0
LAYER
  5
9C
330
2
100
AcDbSymbolTableRecord
100
AcDbLayerTableRecord
  2
DEFPOINTS
 70
     0
 62
     7
  6
CONTINUOUS
  0
LAYER
  5
9D
330
2
100
AcDbSymbolTableRecord
100
AcDbLayerTableRecord
  2
ADPDIM
 70
     0
 62
     3
  6
CONTINUOUS
  0
ENDTAB
  0
TABLE
  2
STYLE
  5
3
330
0
100
AcDbSymbolTable
 70
     2
  0
STYLE
  5
11
330
3
100
AcDbSymbolTableRecord
100
AcDbTextStyleTableRecord
  2
STANDARD
 70
     0
 40
0.0
 41
1.0
 50
0.0
 71
     0
 42
0.2
  3
txt
  4

  0
STYLE
  5
107
330
3
100
AcDbSymbolTableRecord
100
AcDbTextStyleTableRecord
  2
ARIAL_WIDE
 70
     0
 40
0.0
 41
1.25
 50
0.0
 71
     0
 42
0.2
  3
ARIAL.TTF
  4

1001
ACAD
1000
Arial
1071
       34
  0
ENDTAB
  0
TABLE
  2
VIEW
  5
6
330
0
100
AcDbSymbolTable
 70
     0
  0
ENDTAB
  0
TABLE
  2
UCS
  5
7
330
0
100
AcDbSymbolTable
 70
     0
  0
ENDTAB
  0
TABLE
  2
APPID
  5
9
330
0
100
AcDbSymbolTable
 70
     1
  0
APPID
  5
12
330
9
100
AcDbSymbolTableRecord
100
AcDbRegAppTableRecord
  2
ACAD
 70
     0
  0
ENDTAB
  0
TABLE
  2
DIMSTYLE
  5
A
330
0
100
AcDbSymbolTable
 70
     1
  0
DIMSTYLE
105
105
330
A
100
AcDbSymbolTableRecord
100
AcDbDimStyleTableRecord
  2
STANDARD
 70
     0
  3

  4

  5

  6

  7

 40
1.0
 41
0.18
 42
0.0625
 43
0.38
 44
0.18
 45
0.0
 46
0.0
 47
0.0
 48
0.0
140
0.18
141
0.09
142
0.0
143
25.4
144
1.0
145
0.0
146
1.0
147
0.09
 71
     0
 72
     0
 73
     1
 74
     1
 75
     0
 76
     0
 77
     0
 78
     0
170
     0
171
     2
172
     0
173
     0
174
     0
175
     0
176
     0
177
     0
178
     0
270
     2
271
     4
272
     4
273
     2
274
     2
340
11
275
     0
280
     0
281
     0
282
     0
283
     1
284
     0
285
     0
286
     0
287
     3
288
     0
  0
ENDTAB
  0
TABLE
  2
BLOCK_RECORD
  5
1
330
0
100
AcDbSymbolTable
 70
     5
  0
BLOCK_RECORD
  5
1E
102
{ACAD_XDICTIONARY
360
144
102
}
330
1
100
AcDbSymbolTableRecord
100
AcDbBlockTableRecord
  2
*MODEL_SPACE
  0
BLOCK_RECORD
  5
1A
102
{ACAD_XDICTIONARY
360
146
102
}
330
1
100
AcDbSymbolTableRecord
100
AcDbBlockTableRecord
  2
*PAPER_SPACE
  0
BLOCK_RECORD
  5
23
330
1
100
AcDbSymbolTableRecord
100
AcDbBlockTableRecord
  2
6932
  0
BLOCK_RECORD
  5
85
330
1
100
AcDbSymbolTableRecord
100
AcDbBlockTableRecord
  2
*D1
  0
BLOCK_RECORD
  5
88
330
1
100
AcDbSymbolTableRecord
100
AcDbBlockTableRecord
  2
*D2
  0
BLOCK_RECORD
  5
94
330
1
100
AcDbSymbolTableRecord
100
AcDbBlockTableRecord
  2
*D3
  0
BLOCK_RECORD
  5
95
330
1
100
AcDbSymbolTableRecord
100
AcDbBlockTableRecord
  2
*D4
  0
ENDTAB
  0
ENDSEC
  0
SECTION
  2
BLOCKS
  0
BLOCK
  5
A0
330
1E
100
AcDbEntity
  8
0
100
AcDbBlockBegin
  2
*MODEL_SPACE
 70
     0
 10
0.0
 20
0.0
 30
0.0
  3
*MODEL_SPACE
  1

  0
ENDBLK
  5
A1
330
1E
100
AcDbEntity
  8
0
100
AcDbBlockEnd
  0
BLOCK
  5
9E
330
1A
100
AcDbEntity
 67
     1
  8
0
100
AcDbBlockBegin
  2
*PAPER_SPACE
 70
     0
 10
0.0
 20
0.0
 30
0.0
  3
*PAPER_SPACE
  1

  0
ENDBLK
  5
9F
330
1A
100
AcDbEntity
 67
     1
  8
0
100
AcDbBlockEnd
  0
BLOCK
  5
A3
330
23
100
AcDbEntity
  8
0
100
AcDbBlockBegin
  2
6932
 70
     0
 10
0.0
 20
0.0
 30
0.0
  3
6932
  1

  0
ARC
  5
A4
330
23
100
AcDbEntity
  8
0
100
AcDbCircle
 10
1.423477931033307
 20
-1.684122970514319
 30
0.0
 40
2.633
100
AcDbArc
 50
63.4983553156438
 51
84.27919746480432
  0
ARC
  5
A5
330
23
100
AcDbEntity
  8
0
100
AcDbCircle
 10
1.423477931033307
 20
-1.684122970514319
 30
0.0
 40
2.758
100
AcDbArc
 50
63.26429060437405
 51
90.0
  0
ARC
  5
A6
330
23
100
AcDbEntity
  8
0
100
AcDbCircle
 10
1.423477931033307
 20
-1.684122970514319
 30
0.0
 40
2.758
100
AcDbArc
 50
90.0
 51
116.7357093956259
  0
ARC
  5
A7
330
23
100
AcDbEntity
  8
0
100
AcDbCircle
 10
1.423477931033307
 20
-1.684122970514319
 30
0.0
 40
2.633
100
AcDbArc
 50
95.72080253519571
 51
116.5016446843562
  0
ARC
  5
A8
330
23
100
AcDbEntity
  8
0
100
AcDbCircle
 10
0.3609779310333074
 20
0.3238770294856792
 30
0.0
 40
0.125
100
AcDbArc
 50
90.0
 51
180.0
  0
ARC
  5
A9
330
23
100
AcDbEntity
  8
0
100
AcDbCircle
 10
0.3609779310333074
 20
0.4488770294856792
 30
0.0
 40
0.375
100
AcDbArc
 50
118.3823034732097
 51
270.0
  0
ARC
  5
AA
330
23
100
AcDbEntity
  8
0
100
AcDbCircle
 10
0.3609779310333074
 20
0.4488770294856792
 30
0.0
 40
0.25
100
AcDbArc
 50
116.7196862029631
 51
224.5752925136955
  0
LINE
  5
AB
330
23
100
AcDbEntity
  8
0
100
AcDbLine
 10
0.2359779310333074
 20
0.3238770294856792
 30
0.0
 11
0.2359779310333074
 21
0.2951727679962879
 31
0.0
  0
ARC
  5
AC
330
23
100
AcDbEntity
  8
0
100
AcDbCircle
 10
0.2049779310333086
 20
0.2951727679962879
 30
0.0
 40
0.031
100
AcDbArc
 50
224.5752925136955
 51
0.0
  0
LINE
  5
AD
330
23
100
AcDbEntity
  8
0
100
AcDbLine
 10
0.5479779310333122
 20
0.3388770294856798
 30
0.0
 11
0.5479779310333122
 21
0.4338770294856787
 31
0.0
  0
ARC
  5
AE
330
23
100
AcDbEntity
  8
0
100
AcDbCircle
 10
0.5329779310333116
 20
0.3388770294856798
 30
0.0
 40
0.015
100
AcDbArc
 50
270.0
 51
0.0
  0
LINE
  5
AF
330
23
100
AcDbEntity
  8
0
100
AcDbLine
 10
0.3609779310333074
 20
0.0738770294856792
 30
0.0
 11
0.3609779310333074
 21
0.3088770294856786
 31
0.0
  0
ARC
  5
B0
330
23
100
AcDbEntity
  8
0
100
AcDbCircle
 10
0.375977931033308
 20
0.3088770294856786
 30
0.0
 40
0.015
100
AcDbArc
 50
89.99999999999998
 51
180.0
  0
LINE
  5
B1
330
23
100
AcDbEntity
  8
0
100
AcDbLine
 10
0.375977931033308
 20
0.3238770294856792
 30
0.0
 11
0.5329779310333116
 21
0.3238770294856792
 31
0.0
  0
ARC
  5
B2
330
23
100
AcDbEntity
  8
0
100
AcDbCircle
 10
0.5329779310333116
 20
0.4338770294856787
 30
0.0
 40
0.015
100
AcDbArc
 50
0.0
 51
90.0
  0
LINE
  5
B3
330
23
100
AcDbEntity
  8
0
100
AcDbLine
 10
0.5329779310333116
 20
0.4488770294856792
 30
0.0
 11
0.3609779310333074
 21
0.4488770294856792
 31
0.0
  0
ARC
  5
B4
330
23
100
AcDbEntity
  8
0
100
AcDbCircle
 10
1.173477931033307
 20
0.811385795248686
 30
0.0
 40
0.125
100
AcDbArc
 50
0.0
 51
95.72080253519567
  0
ARC
  5
B5
330
23
100
AcDbEntity
  8
0
100
AcDbCircle
 10
1.673477931033307
 20
0.811385795248686
 30
0.0
 40
0.125
100
AcDbArc
 50
84.27919746480434
 51
180.0
  0
LINE
  5
B6
330
23
100
AcDbEntity
  8
0
100
AcDbLine
 10
1.423477931033307
 20
0.6988770294856792
 30
0.0
 11
1.533477931033306
 21
0.6988770294856792
 31
0.0
  0
ARC
  5
B7
330
23
100
AcDbEntity
  8
0
100
AcDbCircle
 10
1.313477931033308
 20
0.7138770294856798
 30
0.0
 40
0.015
100
AcDbArc
 50
180.0
 51
270.0
  0
LINE
  5
B8
330
23
100
AcDbEntity
  8
0
100
AcDbLine
 10
1.423477931033307
 20
0.6988770294856792
 30
0.0
 11
1.313477931033308
 21
0.6988770294856792
 31
0.0
  0
LINE
  5
B9
330
23
100
AcDbEntity
  8
0
100
AcDbLine
 10
1.298477931033307
 20
0.7138770294856798
 30
0.0
 11
1.298477931033307
 21
0.811385795248686
 31
0.0
  0
ARC
  5
BA
330
23
100
AcDbEntity
  8
0
100
AcDbCircle
 10
1.533477931033306
 20
0.7138770294856798
 30
0.0
 40
0.015
100
AcDbArc
 50
270.0
 51
0.000000000000007
  0
LINE
  5
BB
330
23
100
AcDbEntity
  8
0
100
AcDbLine
 10
1.548477931033307
 20
0.7138770294856798
 30
0.0
 11
1.548477931033307
 21
0.811385795248686
 31
0.0
  0
ARC
  5
BC
330
23
100
AcDbEntity
  8
0
100
AcDbCircle
 10
2.641977931033306
 20
0.2951727679962879
 30
0.0
 40
0.031
100
AcDbArc
 50
180.0
 51
315.4247074863044
  0
ARC
  5
BD
330
23
100
AcDbEntity
  8
0
100
AcDbCircle
 10
2.485977931033307
 20
0.4488770294856792
 30
0.0
 40
0.25
100
AcDbArc
 50
315.4247074863044
 51
63.28031379703684
  0
ARC
  5
BE
330
23
100
AcDbEntity
  8
0
100
AcDbCircle
 10
2.485977931033307
 20
0.3238770294856792
 30
0.0
 40
0.125
100
AcDbArc
 50
0.000000000000007
 51
90.0
  0
ARC
  5
BF
330
23
100
AcDbEntity
  8
0
100
AcDbCircle
 10
2.485977931033307
 20
0.4488770294856792
 30
0.0
 40
0.375
100
AcDbArc
 50
270.0
 51
61.61769652679025
  0
LINE
  5
C0
330
23
100
AcDbEntity
  8
0
100
AcDbLine
 10
2.298977931033309
 20
0.3388770294856798
 30
0.0
 11
2.298977931033309
 21
0.4338770294856787
 31
0.0
  0
LINE
  5
C1
330
23
100
AcDbEntity
  8
0
100
AcDbLine
 10
2.470977931033306
 20
0.3238770294856792
 30
0.0
 11
2.31397793103331
 21
0.3238770294856792
 31
0.0
  0
ARC
  5
C2
330
23
100
AcDbEntity
  8
0
100
AcDbCircle
 10
2.31397793103331
 20
0.3388770294856798
 30
0.0
 40
0.015
100
AcDbArc
 50
180.0
 51
270.0
  0
ARC
  5
C3
330
23
100
AcDbEntity
  8
0
100
AcDbCircle
 10
2.470977931033306
 20
0.3088770294856786
 30
0.0
 40
0.015
100
AcDbArc
 50
0.000000000000007
 51
90.00000000000003
  0
LINE
  5
C4
330
23
100
AcDbEntity
  8
0
100
AcDbLine
 10
2.485977931033307
 20
0.0738770294856792
 30
0.0
 11
2.485977931033307
 21
0.3088770294856786
 31
0.0
  0
LINE
  5
C5
330
23
100
AcDbEntity
  8
0
100
AcDbLine
 10
2.31397793103331
 20
0.4488770294856792
 30
0.0
 11
2.485977931033307
 21
0.4488770294856792
 31
0.0
  0
ARC
  5
C6
330
23
100
AcDbEntity
  8
0
100
AcDbCircle
 10
2.31397793103331
 20
0.4338770294856787
 30
0.0
 40
0.015
100
AcDbArc
 50
90.0
 51
180.0
  0
LINE
  5
C7
330
23
100
AcDbEntity
  8
0
100
AcDbLine
 10
2.610977931033307
 20
0.3238770294856792
 30
0.0
 11
2.610977931033307
 21
0.2951727679962879
 31
0.0
  0
ENDBLK
  5
C8
330
23
100
AcDbEntity
  8
0
100
AcDbBlockEnd
  0
BLOCK
  5
C9
330
85
100
AcDbEntity
  8
0
100
AcDbBlockBegin
  2
*D1
 70
     1
 10
0.0
 20
0.0
 30
0.0
  3
*D1
  1

  0
LINE
  5
CA
330
85
100
AcDbEntity
  8
0
  6
BYBLOCK
 62
     0
100
AcDbLine
 10
-14.26456278528554
 20
11.50771797576077
 30
0.0
 11
-13.12418364768662
 21
11.50771797576077
 31
0.0
  0
LINE
  5
CB
330
85
100
AcDbEntity
  8
0
  6
BYBLOCK
 62
     0
100
AcDbLine
 10
-13.0231219265946
 20
14.01627021083734
 30
0.0
 11
-13.48418364768662
 21
14.01627021083734
 31
0.0
  0
LINE
  5
CC
330
85
100
AcDbEntity
  8
0
  6
BYBLOCK
 62
     0
100
AcDbLine
 10
-13.30418364768662
 20
11.50771797576077
 30
0.0
 11
-13.30418364768662
 21
12.36616075996572
 31
0.0
  0
LINE
  5
CD
330
85
100
AcDbEntity
  8
0
  6
BYBLOCK
 62
     0
100
AcDbLine
 10
-13.30418364768662
 20
14.01627021083734
 30
0.0
 11
-13.30418364768662
 21
13.15782742663239
 31
0.0
  0
LINE
  5
CE
330
85
100
AcDbEntity
  8
0
  6
BYBLOCK
 62
     0
100
AcDbLine
 10
-13.17918364768662
 20
11.38271797576077
 30
0.0
 11
-13.42918364768662
 21
11.63271797576077
 31
0.0
  0
LINE
  5
CF
330
85
100
AcDbEntity
  8
0
  6
BYBLOCK
 62
     0
100
AcDbLine
 10
-13.17918364768662
 20
13.89127021083734
 30
0.0
 11
-13.42918364768662
 21
14.14127021083734
 31
0.0
  0
TEXT
  5
D0
330
85
100
AcDbEntity
  8
0
  6
BYBLOCK
 62
     0
100
AcDbText
 10
-13.24168364768662
 20
12.49116075996572
 30
0.0
 40
0.125
  1
2 1/2
 50
90.0
 72
     1
 11
-13.30418364768662
 21
12.76199409329906
 31
0.0
100
AcDbText
 73
     2
  0
POINT
  5
D2
330
85
100
AcDbEntity
  8
DEFPOINTS
  6
BYBLOCK
 62
     0
100
AcDbPoint
 10
-14.32706278528554
 20
11.50771797576077
 30
0.0
  0
POINT
  5
D3
330
85
100
AcDbEntity
  8
DEFPOINTS
  6
BYBLOCK
 62
     0
100
AcDbPoint
 10
-12.9606219265946
 20
14.01627021083734
 30
0.0
  0
POINT
  5
D4
330
85
100
AcDbEntity
  8
DEFPOINTS
  6
BYBLOCK
 62
     0
100
AcDbPoint
 10
-13.30418364768662
 20
14.01627021083734
 30
0.0
  0
ENDBLK
  5
D5
330
85
100
AcDbEntity
  8
0
100
AcDbBlockEnd
  0
BLOCK
  5
D6
330
88
100
AcDbEntity
  8
0
100
AcDbBlockBegin
  2
*D2
 70
     1
 10
0.0
 20
0.0
 30
0.0
  3
*D2
  1

  0
LINE
  5
D7
330
88
100
AcDbEntity
  8
0
  6
BYBLOCK
 62
     0
100
AcDbLine
 10
-15.07423913092751
 20
16.12818197168187
 30
0.0
 11
-12.9606219265946
 21
14.01627021083735
 31
0.0
  0
LINE
  5
D8
330
88
100
AcDbEntity
  8
0
  6
BYBLOCK
 62
     0
100
AcDbLine
 10
-15.25101581182598
 20
16.12811062377683
 30
0.0
 11
-14.89746245002905
 21
16.12825331958691
 31
0.0
  0
TEXT
  5
D9
330
88
100
AcDbEntity
  8
0
  6
BYBLOCK
 62
     0
100
AcDbText
 10
-12.91637424544121
 20
13.88370553713976
 30
0.0
 40
0.125
  1
R3
 50
315.0231248465178
 72
     1
 11
-12.79851123352473
 21
13.85429032226004
 31
0.0
100
AcDbText
 73
     2
  0
POINT
  5
DA
330
88
100
AcDbEntity
  8
DEFPOINTS
  6
BYBLOCK
 62
     0
100
AcDbPoint
 10
-15.07423913092751
 20
16.12818197168187
 30
0.0
  0
POINT
  5
DB
330
88
100
AcDbEntity
  8
DEFPOINTS
  6
BYBLOCK
 62
     0
100
AcDbPoint
 10
-12.95206278528554
 20
14.00771797576077
 30
0.0
  0
ENDBLK
  5
DC
330
88
100
AcDbEntity
  8
0
100
AcDbBlockEnd
  0
BLOCK
  5
DD
330
94
100
AcDbEntity
  8
0
100
AcDbBlockBegin
  2
*D3
 70
     1
 10
0.0
 20
0.0
 30
0.0
  3
*D3
  1

  0
LINE
  5
DE
330
94
100
AcDbEntity
  8
0
  6
BYBLOCK
 62
     0
100
AcDbLine
 10
-17.40198693427651
 20
9.328818518654154
 30
0.0
 11
-17.40198693427651
 21
10.05017950348255
 31
0.0
  0
LINE
  5
DF
330
94
100
AcDbEntity
  8
0
  6
BYBLOCK
 62
     0
100
AcDbLine
 10
-14.52566825175734
 20
9.328818518654154
 30
0.0
 11
-14.52566825175734
 21
10.05017950348255
 31
0.0
  0
LINE
  5
E0
330
94
100
AcDbEntity
  8
0
  6
BYBLOCK
 62
     0
100
AcDbLine
 10
-17.40198693427651
 20
9.87017950348255
 30
0.0
 11
-16.38049425968359
 21
9.87017950348255
 31
0.0
  0
LINE
  5
E1
330
94
100
AcDbEntity
  8
0
  6
BYBLOCK
 62
     0
100
AcDbLine
 10
-14.52566825175734
 20
9.87017950348255
 30
0.0
 11
-15.54716092635026
 21
9.87017950348255
 31
0.0
  0
LINE
  5
E2
330
94
100
AcDbEntity
  8
0
  6
BYBLOCK
 62
     0
100
AcDbLine
 10
-17.52698693427651
 20
9.74517950348255
 30
0.0
 11
-17.27698693427651
 21
9.99517950348255
 31
0.0
  0
LINE
  5
E3
330
94
100
AcDbEntity
  8
0
  6
BYBLOCK
 62
     0
100
AcDbLine
 10
-14.65066825175735
 20
9.74517950348255
 30
0.0
 11
-14.40066825175734
 21
9.99517950348255
 31
0.0
  0
TEXT
  5
E4
330
94
100
AcDbEntity
  8
0
  6
BYBLOCK
 62
     0
100
AcDbText
 10
-16.25549425968359
 20
9.80767950348255
 30
0.0
 40
0.125
  1
2 7/8
 72
     1
 11
-15.96382759301692
 21
9.87017950348255
 31
0.0
100
AcDbText
 73
     2
  0
POINT
  5
E5
330
94
100
AcDbEntity
  8
DEFPOINTS
  6
BYBLOCK
 62
     0
100
AcDbPoint
 10
-17.40198693427651
 20
9.266318518654154
 30
0.0
  0
POINT
  5
E6
330
94
100
AcDbEntity
  8
DEFPOINTS
  6
BYBLOCK
 62
     0
100
AcDbPoint
 10
-14.52566825175734
 20
9.266318518654154
 30
0.0
  0
POINT
  5
E7
330
94
100
AcDbEntity
  8
DEFPOINTS
  6
BYBLOCK
 62
     0
100
AcDbPoint
 10
-14.52566825175734
 20
9.87017950348255
 30
0.0
  0
ENDBLK
  5
E8
330
94
100
AcDbEntity
  8
0
100
AcDbBlockEnd
  0
BLOCK
  5
E9
330
95
100
AcDbEntity
  8
0
100
AcDbBlockBegin
  2
*D4
 70
     1
 10
0.0
 20
0.0
 30
0.0
  3
*D4
  1

  0
LINE
  5
EA
330
95
100
AcDbEntity
  8
0
  6
BYBLOCK
 62
     0
100
AcDbLine
 10
-17.01049414598784
 20
8.60648770273838
 30
0.0
 11
-17.01049414598784
 21
8.259291506386702
 31
0.0
  0
LINE
  5
EB
330
95
100
AcDbEntity
  8
0
  6
BYBLOCK
 62
     0
100
AcDbLine
 10
-14.88549414598784
 20
8.60648770273838
 30
0.0
 11
-14.88549414598784
 21
8.259291506386702
 31
0.0
  0
LINE
  5
EC
330
95
100
AcDbEntity
  8
0
  6
BYBLOCK
 62
     0
100
AcDbLine
 10
-17.01049414598784
 20
8.439291506386702
 30
0.0
 11
-16.34382747932118
 21
8.439291506386702
 31
0.0
  0
LINE
  5
ED
330
95
100
AcDbEntity
  8
0
  6
BYBLOCK
 62
     0
100
AcDbLine
 10
-14.88549414598784
 20
8.439291506386702
 30
0.0
 11
-15.55216081265451
 21
8.439291506386702
 31
0.0
  0
LINE
  5
EE
330
95
100
AcDbEntity
  8
0
  6
BYBLOCK
 62
     0
100
AcDbLine
 10
-17.13549414598785
 20
8.314291506386702
 30
0.0
 11
-16.88549414598784
 21
8.564291506386702
 31
0.0
  0
LINE
  5
EF
330
95
100
AcDbEntity
  8
0
  6
BYBLOCK
 62
     0
100
AcDbLine
 10
-15.01049414598784
 20
8.314291506386702
 30
0.0
 11
-14.76049414598784
 21
8.564291506386702
 31
0.0
  0
TEXT
  5
F0
330
95
100
AcDbEntity
  8
0
  6
BYBLOCK
 62
     0
100
AcDbText
 10
-16.21882747932118
 20
8.376791506386702
 30
0.0
 40
0.125
  1
2 1/8
 72
     1
 11
-15.94799414598784
 21
8.439291506386702
 31
0.0
100
AcDbText
 73
     2
  0
POINT
  5
F1
330
95
100
AcDbEntity
  8
DEFPOINTS
  6
BYBLOCK
 62
     0
100
AcDbPoint
 10
-17.01049414598784
 20
8.66898770273838
 30
0.0
  0
POINT
  5
F2
330
95
100
AcDbEntity
  8
DEFPOINTS
  6
BYBLOCK
 62
     0
100
AcDbPoint
 10
-14.88549414598784
 20
8.66898770273838
 30
0.0
  0
POINT
  5
F3
330
95
100
AcDbEntity
  8
DEFPOINTS
  6
BYBLOCK
 62
     0
100
AcDbPoint
 10
-14.88549414598784
 20
8.439291506386702
 30
0.0
  0
ENDBLK
  5
F4
330
95
100
AcDbEntity
  8
0
100
AcDbBlockEnd
  0
ENDSEC
  0
SECTION
  2
ENTITIES
  0
INSERT
  5
F5
330
1E
100
AcDbEntity
  8
ADP1DETAIL
100
AcDbBlockReference
  2
6932
 10
-17.37147207702115
 20
8.595110673252701
 30
0.0
  0
DIMENSION
  5
F6
330
1E
100
AcDbEntity
  8
ADPDIM
100
AcDbDimension
  2
*D4
 10
-14.88549414598784
 20
8.439291506386702
 30
0.0
 11
-15.94799414598784
 21
8.439291506386702
 31
0.0
100
AcDbAlignedDimension
 13
-17.01049414598784
 23
8.66898770273838
 33
0.0
 14
-14.88549414598784
 24
8.66898770273838
 34
0.0
100
AcDbRotatedDimension
  0
DIMENSION
  5
F7
330
1E
100
AcDbEntity
  8
ADPDIM
100
AcDbDimension
  2
*D3
 10
-14.52566825175734
 20
9.87017950348255
 30
0.0
 11
-15.96382759301692
 21
9.87017950348255
 31
0.0
100
AcDbAlignedDimension
 13
-17.40198693427651
 23
9.266318518654154
 33
0.0
 14
-14.52566825175734
 24
9.266318518654154
 34
0.0
100
AcDbRotatedDimension
  0
LINE
  5
F8
330
1E
100
AcDbEntity
  8
ADP1DETAIL
100
AcDbLine
 10
-14.51506278528554
 20
11.50771797576077
 30
0.0
 11
-17.38906278528554
 21
11.50771797576077
 31
0.0
  0
ARC
  5
F9
330
1E
100
AcDbEntity
  8
ADP1DETAIL
100
AcDbCircle
 10
-12.95206278528554
 20
14.00771797576077
 30
0.0
 40
4.437
100
AcDbArc
 50
90.0
 51
180.0
  0
LINE
  5
FA
330
1E
100
AcDbEntity
  8
ADP1DETAIL
100
AcDbLine
 10
-17.38906278528554
 20
11.50771797576077
 30
0.0
 11
-17.38906278528554
 21
14.00771797576077
 31
0.0
  0
LINE
  5
FB
330
1E
100
AcDbEntity
  8
ADP3DETAIL
  6
CENTER2
100
AcDbLine
 10
-9.890468275023255
 20
17.00771797576077
 30
0.0
 11
-12.95206278528554
 21
17.00771797576077
 31
0.0
  0
LINE
  5
FC
330
1E
100
AcDbEntity
  8
ADP1DETAIL
100
AcDbLine
 10
-12.95206278528555
 20
18.43707335616203
 30
0.0
 11
-10.45206278528554
 21
18.43707335616203
 31
0.0
  0
LINE
  5
FD
330
1E
100
AcDbEntity
  8
ADP1DETAIL
100
AcDbLine
 10
-10.45206278528554
 20
15.56307335616203
 30
0.0
 11
-12.95206278528554
 21
15.56307335616203
 31
0.0
  0
ARC
  5
FE
330
1E
100
AcDbEntity
  8
ADP3DETAIL
  6
CENTER2
100
AcDbCircle
 10
-12.95206278528554
 20
14.00771797576077
 30
0.0
 40
3.0
100
AcDbArc
 50
90.0
 51
180.0
  0
DIMENSION
  5
FF
330
1E
100
AcDbEntity
  8
ADPDIM
100
AcDbDimension
  2
*D2
 10
-12.95206278528554
 20
14.00771797576077
 30
0.0
 11
-12.79851123352473
 21
13.85429032226004
 31
0.0
 70
     4
100
AcDbRadialDimension
 15
-15.07423913092751
 25
16.12818197168187
 35
0.0
 40
-2.98790042873679
  0
ARC
  5
100
330
1E
100
AcDbEntity
  8
ADP1DETAIL
100
AcDbCircle
 10
-12.95206278528554
 20
14.00771797576077
 30
0.0
 40
1.562999999999999
100
AcDbArc
 50
90.0
 51
179.9999999999999
  0
LINE
  5
101
330
1E
100
AcDbEntity
  8
ADP3DETAIL
  6
CENTER2
100
AcDbLine
 10
-15.94799414598784
 20
14.00771797576077
 30
0.0
 11
-15.94799414598784
 21
11.02784192768882
 31
0.0
  0
LINE
  5
102
330
1E
100
AcDbEntity
  8
ADP1DETAIL
100
AcDbLine
 10
-14.51506278528554
 20
14.00771797576077
 30
0.0
 11
-14.51506278528554
 21
11.50771797576077
 31
0.0
  0
DIMENSION
  5
103
330
1E
100
AcDbEntity
  8
ADPDIM
100
AcDbDimension
  2
*D1
 10
-13.30418364768662
 20
14.01627021083734
 30
0.0
 11
-13.30418364768662
 21
12.76199409329906
 31
0.0
100
AcDbAlignedDimension
 13
-14.32706278528554
 23
11.50771797576077
 33
0.0
 14
-12.9606219265946
 24
14.01627021083734
 34
0.0
 50
90.0
100
AcDbRotatedDimension
  0
LINE
  5
104
330
1E
100
AcDbEntity
  8
ADP1DETAIL
100
AcDbLine
 10
-10.45206278528554
 20
18.48885577230336
 30
0.0
 11
-10.45206278528554
 21
15.56307335616203
 31
0.0
  0
TEXT
  5
108
330
1E
100
AcDbEntity
  8
ADPDIM
100
AcDbText
 10
-23.0832738389846
 20
7.564814860578702
 30
0.0
 40
0.1875
  1
J U L I U S  B L U M  &  C O . ,  I N C .      ( 8 0 0 )  5 2 6 - 6 2 9 3        W W W . J U L I U S B L U M . C O M        P A R T  N o .  4 5 2 9 - C
 41
1.25
  7
ARIAL_WIDE
 72
     1
 11
-13.03096845869811
 21
7.752314860578702
 31
0.0
100
AcDbText
 73
     3
  0
ENDSEC
  0
SECTION
  2
OBJECTS
  0
DICTIONARY
  5
C
330
0
100
AcDbDictionary
  3
ACAD_GROUP
350
D
  3
ACAD_LAYOUT
350
19
  3
ACAD_MLINESTYLE
350
16
  3
ACAD_PLOTSETTINGS
350
18
  3
ACAD_PLOTSTYLENAME
350
E
  3
ACDBHEADERROUNDTRIPXREC
350
29B
  3
ACDBVARIABLEDICTIONARY
350
179
  0
DICTIONARY
  5
144
330
1E
100
AcDbDictionary
280
     1
  3
ACAD_LAYOUTSELFREF
360
2BD
  0
DICTIONARY
  5
146
330
1A
100
AcDbDictionary
280
     1
  3
ACAD_LAYOUTSELFREF
360
2BC
  0
DICTIONARY
  5
D
102
{ACAD_REACTORS
330
C
102
}
330
C
100
AcDbDictionary
  0
DICTIONARY
  5
19
102
{ACAD_REACTORS
330
C
102
}
330
C
100
AcDbDictionary
  0
DICTIONARY
  5
16
102
{ACAD_REACTORS
330
C
102
}
330
C
100
AcDbDictionary
  3
STANDARD
350
17
  0
DICTIONARY
  5
18
102
{ACAD_REACTORS
330
C
102
}
330
C
100
AcDbDictionary
  0
ACDBDICTIONARYWDFLT
  5
E
102
{ACAD_REACTORS
330
C
102
}
330
C
100
AcDbDictionary
281
     1
  3
Normal
350
F
100
AcDbDictionaryWithDefault
340
F
  0
DICTIONARY
  5
29B
102
{ACAD_REACTORS
330
C
102
}
330
C
100
AcDbDictionary
  3
CEPSNTYPE
350
2A5
  3
DIMSTYLEDATA
350
2A9
  3
FINGERPRINTGUID
350
2A6
  3
HYPERLINKBASE
350
29E
  3
INSUNITS
350
2A4
  3
LAYOUTDICT
350
2A0
  3
LWETCUNION
350
2A3
  3
PLOTSETDICT
350
2A1
  3
PLOTSTYLNAMDICT
350
2A2
  3
PSVPSCALE
350
2A8
  3
PUCSBASE
350
2AC
  3
PUCSORGBACK
350
2B2
  3
PUCSORGBOTTOM
350
2AE
  3
PUCSORGFRONT
350
2B1
  3
PUCSORGLEFT
350
2AF
  3
PUCSORGRIGHT
350
2B0
  3
PUCSORGTOP
350
2AD
  3
PUCSORTHOREF
350
2AA
  3
PUCSORTHOVIEW
350
2AB
  3
STYLESHEET
350
29F
  3
TSTACKALIGN
350
29C
  3
TSTACKSIZE
350
29D
  3
UCSBASE
350
2B5
  3
UCSORGBACK
350
2BB
  3
UCSORGBOTTOM
350
2B7
  3
UCSORGFRONT
350
2BA
  3
UCSORGLEFT
350
2B8
  3
UCSORGRIGHT
350
2B9
  3
UCSORGTOP
350
2B6
  3
UCSORTHOREF
350
2B3
  3
UCSORTHOVIEW
350
2B4
  3
VERSIONGUID
350
2A7
  0
DICTIONARY
  5
179
102
{ACAD_REACTORS
330
C
102
}
330
C
100
AcDbDictionary
  3
DIMASSOC
350
17B
  3
HIDETEXT
350
17A
  0
XRECORD
  5
2BD
102
{ACAD_REACTORS
330
144
102
}
330
144
100
AcDbXrecord
340
1E
  0
XRECORD
  5
2BC
102
{ACAD_REACTORS
330
146
102
}
330
146
100
AcDbXrecord
340
1A
  0
MLINESTYLE
  5
17
102
{ACAD_REACTORS
330
16
102
}
330
16
100
AcDbMlineStyle
  2
STANDARD
 70
     0
  3

 62
   256
 51
90.0
 52
90.0
 71
     2
 49
0.5
 62
   256
  6
BYLAYER
 49
-0.5
 62
   256
  6
BYLAYER
  0
ACDBPLACEHOLDER
  5
F
102
{ACAD_REACTORS
330
E
102
}
330
E
100
AcDbPlaceHolder
280
     0
  0
XRECORD
  5
2A5
102
{ACAD_REACTORS
330
29B
102
}
330
29B
100
AcDbXrecord
 90
        0
  0
XRECORD
  5
2A9
102
{ACAD_REACTORS
330
29B
102
}
330
29B
100
AcDbXrecord
1000
DSTYLE
1002
{
1070
   277
 70
     5
1070
   279
 70
     2
1002
}
  0
XRECORD
  5
2A6
102
{ACAD_REACTORS
330
29B
102
}
330
29B
100
AcDbXrecord
  1
{231248CA-FD36-49DA-9454-3D2E3D081823}
  0
XRECORD
  5
29E
102
{ACAD_REACTORS
330
29B
102
}
330
29B
100
AcDbXrecord
  1

  0
XRECORD
  5
2A4
102
{ACAD_REACTORS
330
29B
102
}
330
29B
100
AcDbXrecord
 90
        0
  0
XRECORD
  5
2A0
102
{ACAD_REACTORS
330
29B
102
}
330
29B
100
AcDbXrecord
340
19
  0
XRECORD
  5
2A3
102
{ACAD_REACTORS
330
29B
102
}
330
29B
100
AcDbXrecord
 90
    14877
  0
XRECORD
  5
2A1
102
{ACAD_REACTORS
330
29B
102
}
330
29B
100
AcDbXrecord
340
18
  0
XRECORD
  5
2A2
102
{ACAD_REACTORS
330
29B
102
}
330
29B
100
AcDbXrecord
340
E
  0
XRECORD
  5
2A8
102
{ACAD_REACTORS
330
29B
102
}
330
29B
100
AcDbXrecord
 40
0.0
  0
XRECORD
  5
2AC
102
{ACAD_REACTORS
330
29B
102
}
330
29B
100
AcDbXrecord
340
0
  0
XRECORD
  5
2B2
102
{ACAD_REACTORS
330
29B
102
}
330
29B
100
AcDbXrecord
 10
0.0
 20
0.0
 30
0.0
  0
XRECORD
  5
2AE
102
{ACAD_REACTORS
330
29B
102
}
330
29B
100
AcDbXrecord
 10
0.0
 20
0.0
 30
0.0
  0
XRECORD
  5
2B1
102
{ACAD_REACTORS
330
29B
102
}
330
29B
100
AcDbXrecord
 10
0.0
 20
0.0
 30
0.0
  0
XRECORD
  5
2AF
102
{ACAD_REACTORS
330
29B
102
}
330
29B
100
AcDbXrecord
 10
0.0
 20
0.0
 30
0.0
  0
XRECORD
  5
2B0
102
{ACAD_REACTORS
330
29B
102
}
330
29B
100
AcDbXrecord
 10
0.0
 20
0.0
 30
0.0
  0
XRECORD
  5
2AD
102
{ACAD_REACTORS
330
29B
102
}
330
29B
100
AcDbXrecord
 10
0.0
 20
0.0
 30
0.0
  0
XRECORD
  5
2AA
102
{ACAD_REACTORS
330
29B
102
}
330
29B
100
AcDbXrecord
340
0
  0
XRECORD
  5
2AB
102
{ACAD_REACTORS
330
29B
102
}
330
29B
100
AcDbXrecord
 70
     0
  0
XRECORD
  5
29F
102
{ACAD_REACTORS
330
29B
102
}
330
29B
100
AcDbXrecord
  1

  0
XRECORD
  5
29C
102
{ACAD_REACTORS
330
29B
102
}
330
29B
100
AcDbXrecord
 90
        1
  0
XRECORD
  5
29D
102
{ACAD_REACTORS
330
29B
102
}
330
29B
100
AcDbXrecord
 90
       70
  0
XRECORD
  5
2B5
102
{ACAD_REACTORS
330
29B
102
}
330
29B
100
AcDbXrecord
340
0
  0
XRECORD
  5
2BB
102
{ACAD_REACTORS
330
29B
102
}
330
29B
100
AcDbXrecord
 10
0.0
 20
0.0
 30
0.0
  0
XRECORD
  5
2B7
102
{ACAD_REACTORS
330
29B
102
}
330
29B
100
AcDbXrecord
 10
0.0
 20
0.0
 30
0.0
  0
XRECORD
  5
2BA
102
{ACAD_REACTORS
330
29B
102
}
330
29B
100
AcDbXrecord
 10
0.0
 20
0.0
 30
0.0
  0
XRECORD
  5
2B8
102
{ACAD_REACTORS
330
29B
102
}
330
29B
100
AcDbXrecord
 10
0.0
 20
0.0
 30
0.0
  0
XRECORD
  5
2B9
102
{ACAD_REACTORS
330
29B
102
}
330
29B
100
AcDbXrecord
 10
0.0
 20
0.0
 30
0.0
  0
XRECORD
  5
2B6
102
{ACAD_REACTORS
330
29B
102
}
330
29B
100
AcDbXrecord
 10
0.0
 20
0.0
 30
0.0
  0
XRECORD
  5
2B3
102
{ACAD_REACTORS
330
29B
102
}
330
29B
100
AcDbXrecord
340
0
  0
XRECORD
  5
2B4
102
{ACAD_REACTORS
330
29B
102
}
330
29B
100
AcDbXrecord
 70
     0
  0
XRECORD
  5
2A7
102
{ACAD_REACTORS
330
29B
102
}
330
29B
100
AcDbXrecord
  1
{EA3A02D4-7EE3-4A3C-9196-E99E4036861F}
  0
DICTIONARYVAR
  5
17B
102
{ACAD_REACTORS
330
179
102
}
330
179
100
DictionaryVariables
280
     0
  1
2
  0
DICTIONARYVAR
  5
17A
102
{ACAD_REACTORS
330
179
102
}
330
179
100
DictionaryVariables
280
     0
  1
1
  0
ENDSEC
  0
EOF
