  0
SECTION
  2
HEADER
  9
$ACADVER
  1
AC1015
  9
$ACADMAINTVER
 70
    20
  9
$DWGCODEPAGE
  3
ANSI_936
  9
$INSBASE
 10
13.52109048733923
 20
7.513908549978761
 30
0.0
  9
$EXTMIN
 10
7.730529877974802
 20
6.013916106445151
 30
-0.0000000000112498
  9
$EXTMAX
 10
17.94781500420977
 20
11.00720220316108
 30
0.0000000000002956
  9
$LIMMIN
 10
0.0
 20
0.0
  9
$LIMMAX
 10
36.0
 20
36.0
  9
$ORTHOMODE
 70
     0
  9
$REGENMODE
 70
     1
  9
$FILLMODE
 70
     1
  9
$QTEXTMODE
 70
     0
  9
$MIRRTEXT
 70
     1
  9
$LTSCALE
 40
1.0
  9
$ATTMODE
 70
     1
  9
$TEXTSIZE
 40
0.2
  9
$TRACEWID
 40
0.05
  9
$TEXTSTYLE
  7
STANDARD
  9
$CLAYER
  8
ADP1DETAIL
  9
$CELTYPE
  6
ByLayer
  9
$CECOLOR
 62
   256
  9
$CELTSCALE
 40
1.0
  9
$DISPSILH
 70
     0
  9
$DIMSCALE
 40
1.0
  9
$DIMASZ
 40
0.125
  9
$DIMEXO
 40
0.0625
  9
$DIMDLI
 40
0.38
  9
$DIMRND
 40
0.0
  9
$DIMDLE
 40
0.0
  9
$DIMEXE
 40
0.18
  9
$DIMTP
 40
0.0
  9
$DIMTM
 40
0.0
  9
$DIMTXT
 40
0.125
  9
$DIMCEN
 40
0.1875
  9
$DIMTSZ
 40
0.125
  9
$DIMTOL
 70
     0
  9
$DIMLIM
 70
     0
  9
$DIMTIH
 70
     0
  9
$DIMTOH
 70
     0
  9
$DIMSE1
 70
     0
  9
$DIMSE2
 70
     0
  9
$DIMTAD
 70
     0
  9
$DIMZIN
 70
     3
  9
$DIMBLK
  1

  9
$DIMASO
 70
     1
  9
$DIMSHO
 70
     1
  9
$DIMPOST
  1

  9
$DIMAPOST
  1

  9
$DIMALT
 70
     0
  9
$DIMALTD
 70
     1
  9
$DIMALTF
 40
25.4
  9
$DIMLFAC
 40
1.0
  9
$DIMTOFL
 70
     0
  9
$DIMTVP
 40
0.0
  9
$DIMTIX
 70
     0
  9
$DIMSOXD
 70
     0
  9
$DIMSAH
 70
     0
  9
$DIMBLK1
  1

  9
$DIMBLK2
  1

  9
$DIMSTYLE
  2
Standard
  9
$DIMCLRD
 70
     0
  9
$DIMCLRE
 70
     0
  9
$DIMCLRT
 70
     0
  9
$DIMTFAC
 40
1.0
  9
$DIMGAP
 40
0.125
  9
$DIMJUST
 70
     0
  9
$DIMSD1
 70
     0
  9
$DIMSD2
 70
     0
  9
$DIMTOLJ
 70
     1
  9
$DIMTZIN
 70
     3
  9
$DIMALTZ
 70
     3
  9
$DIMALTTZ
 70
     3
  9
$DIMUPT
 70
     0
  9
$DIMDEC
 70
     5
  9
$DIMTDEC
 70
     5
  9
$DIMALTU
 70
     5
  9
$DIMALTTD
 70
     1
  9
$DIMTXSTY
  7
STANDARD
  9
$DIMAUNIT
 70
     0
  9
$DIMADEC
 70
     0
  9
$DIMALTRND
 40
0.0
  9
$DIMAZIN
 70
     0
  9
$DIMDSEP
 70
    46
  9
$DIMATFIT
 70
     3
  9
$DIMFRAC
 70
     0
  9
$DIMLDRBLK
  1

  9
$DIMLUNIT
 70
     5
  9
$DIMLWD
 70
    -2
  9
$DIMLWE
 70
    -2
  9
$DIMTMOVE
 70
     2
  9
$LUNITS
 70
     5
  9
$LUPREC
 70
     5
  9
$SKETCHINC
 40
0.1
  9
$FILLETRAD
 40
0.0
  9
$AUNITS
 70
     0
  9
$AUPREC
 70
     0
  9
$MENU
  1
acad
  9
$ELEVATION
 40
0.0
  9
$PELEVATION
 40
0.0
  9
$THICKNESS
 40
0.0
  9
$LIMCHECK
 70
     0
  9
$CHAMFERA
 40
0.0
  9
$CHAMFERB
 40
0.0
  9
$CHAMFERC
 40
0.0
  9
$CHAMFERD
 40
0.0
  9
$SKPOLY
 70
     0
  9
$TDCREATE
 40
2450368.534624804
  9
$TDUCREATE
 40
2450368.742958136
  9
$TDUPDATE
 40
2455209.619029803
  9
$TDUUPDATE
 40
2455209.827363137
  9
$TDINDWG
 40
0.1260909954
  9
$TDUSRTIMER
 40
0.1260909954
  9
$USRTIMER
 70
     1
  9
$ANGBASE
 50
0.0
  9
$ANGDIR
 70
     0
  9
$PDMODE
 70
     0
  9
$PDSIZE
 40
0.0
  9
$PLINEWID
 40
0.0
  9
$SPLFRAME
 70
     0
  9
$SPLINETYPE
 70
     6
  9
$SPLINESEGS
 70
     8
  9
$HANDSEED
  5
522
  9
$SURFTAB1
 70
     6
  9
$SURFTAB2
 70
     6
  9
$SURFTYPE
 70
     6
  9
$SURFU
 70
     6
  9
$SURFV
 70
     6
  9
$UCSBASE
  2

  9
$UCSNAME
  2

  9
$UCSORG
 10
0.0
 20
0.0
 30
0.0
  9
$UCSXDIR
 10
1.0
 20
0.0
 30
0.0
  9
$UCSYDIR
 10
0.0
 20
1.0
 30
0.0
  9
$UCSORTHOREF
  2

  9
$UCSORTHOVIEW
 70
     0
  9
$UCSORGTOP
 10
0.0
 20
0.0
 30
0.0
  9
$UCSORGBOTTOM
 10
0.0
 20
0.0
 30
0.0
  9
$UCSORGLEFT
 10
0.0
 20
0.0
 30
0.0
  9
$UCSORGRIGHT
 10
0.0
 20
0.0
 30
0.0
  9
$UCSORGFRONT
 10
0.0
 20
0.0
 30
0.0
  9
$UCSORGBACK
 10
0.0
 20
0.0
 30
0.0
  9
$PUCSBASE
  2

  9
$PUCSNAME
  2

  9
$PUCSORG
 10
0.0
 20
0.0
 30
0.0
  9
$PUCSXDIR
 10
1.0
 20
0.0
 30
0.0
  9
$PUCSYDIR
 10
0.0
 20
1.0
 30
0.0
  9
$PUCSORTHOREF
  2

  9
$PUCSORTHOVIEW
 70
     0
  9
$PUCSORGTOP
 10
0.0
 20
0.0
 30
0.0
  9
$PUCSORGBOTTOM
 10
0.0
 20
0.0
 30
0.0
  9
$PUCSORGLEFT
 10
0.0
 20
0.0
 30
0.0
  9
$PUCSORGRIGHT
 10
0.0
 20
0.0
 30
0.0
  9
$PUCSORGFRONT
 10
0.0
 20
0.0
 30
0.0
  9
$PUCSORGBACK
 10
0.0
 20
0.0
 30
0.0
  9
$USERI1
 70
     0
  9
$USERI2
 70
     0
  9
$USERI3
 70
     0
  9
$USERI4
 70
     0
  9
$USERI5
 70
     0
  9
$USERR1
 40
0.0
  9
$USERR2
 40
0.0
  9
$USERR3
 40
0.0
  9
$USERR4
 40
0.0
  9
$USERR5
 40
0.0
  9
$WORLDVIEW
 70
     1
  9
$SHADEDGE
 70
     3
  9
$SHADEDIF
 70
    70
  9
$TILEMODE
 70
     1
  9
$MAXACTVP
 70
    15
  9
$PINSBASE
 10
0.1250035762786868
 20
0.0
 30
0.0
  9
$PLIMCHECK
 70
     0
  9
$PEXTMIN
 10
1.000000000000000E+20
 20
1.000000000000000E+20
 30
1.000000000000000E+20
  9
$PEXTMAX
 10
-1.000000000000000E+20
 20
-1.000000000000000E+20
 30
-1.000000000000000E+20
  9
$PLIMMIN
 10
0.0
 20
0.0
  9
$PLIMMAX
 10
12.0
 20
9.0
  9
$UNITMODE
 70
     0
  9
$VISRETAIN
 70
     0
  9
$PLINEGEN
 70
     0
  9
$PSLTSCALE
 70
     1
  9
$TREEDEPTH
 70
  3020
  9
$CMLSTYLE
  2
Standard
  9
$CMLJUST
 70
     0
  9
$CMLSCALE
 40
1.0
  9
$PROXYGRAPHICS
 70
     1
  9
$MEASUREMENT
 70
     0
  9
$CELWEIGHT
370
    -1
  9
$ENDCAPS
280
     0
  9
$JOINSTYLE
280
     0
  9
$LWDISPLAY
290
     0
  9
$INSUNITS
 70
     0
  9
$HYPERLINKBASE
  1

  9
$STYLESHEET
  1

  9
$XEDIT
290
     1
  9
$CEPSNTYPE
380
     0
  9
$PSTYLEMODE
290
     1
  9
$FINGERPRINTGUID
  2
{86A406F0-AF9B-4F64-93D5-682E68CDC55D}
  9
$VERSIONGUID
  2
{CB641D2E-9E69-48CC-A072-18AD86CF2F13}
  9
$EXTNAMES
290
     1
  9
$PSVPSCALE
 40
0.0
  9
$OLESTARTUP
290
     0
  0
ENDSEC
  0
SECTION
  2
CLASSES
  0
CLASS
  1
ACDBDICTIONARYWDFLT
  2
AcDbDictionaryWithDefault
  3
ObjectDBX Classes
 90
        0
280
     0
281
     0
  0
CLASS
  1
ACDBPLACEHOLDER
  2
AcDbPlaceHolder
  3
ObjectDBX Classes
 90
        0
280
     0
281
     0
  0
CLASS
  1
LAYOUT
  2
AcDbLayout
  3
ObjectDBX Classes
 90
        0
280
     0
281
     0
  0
CLASS
  1
DICTIONARYVAR
  2
AcDbDictionaryVar
  3
ObjectDBX Classes
 90
        0
280
     0
281
     0
  0
CLASS
  1
MATERIAL
  2
AcDbMaterial
  3
ObjectDBX Classes
 90
     1024
280
     0
281
     0
  0
CLASS
  1
VISUALSTYLE
  2
AcDbVisualStyle
  3
ObjectDBX Classes
 90
     4095
280
     0
281
     0
  0
CLASS
  1
TABLESTYLE
  2
AcDbTableStyle
  3
ObjectDBX Classes
 90
     4095
280
     0
281
     0
  0
CLASS
  1
DIMASSOC
  2
AcDbDimAssoc
  3
"AcDbDimAssoc|Product Desc:     AcDim ARX App For Dimension|Company:          Autodesk, Inc.|WEB Address:      www.autodesk.com"
 90
    32768
280
     0
281
     0
  0
ENDSEC
  0
SECTION
  2
TABLES
  0
TABLE
  2
VPORT
  5
8
102
{ACAD_XDICTIONARY
360
445
102
}
330
0
100
AcDbSymbolTable
 70
     1
  0
VPORT
  5
223
330
8
100
AcDbSymbolTableRecord
100
AcDbViewportTableRecord
  2
*Active
 70
     0
 10
0.0
 20
0.0
 11
1.0
 21
1.0
 12
12.83917244109229
 22
8.510559154803118
 13
0.0
 23
0.0
 14
0.5740882589684922
 24
0.5740882589684922
 15
0.5
 25
0.5
 16
0.0
 26
0.0
 36
1.0
 17
0.0
 27
0.0
 37
0.0
 40
5.048973302255517
 41
2.426443202979515
 42
50.0
 43
0.0
 44
0.0
 50
0.0
 51
0.0
 71
     0
 72
   100
 73
     1
 74
     0
 75
     0
 76
     0
 77
     0
 78
     0
281
     0
 65
     1
110
0.0
120
0.0
130
0.0
111
1.0
121
0.0
131
0.0
112
0.0
122
1.0
132
0.0
 79
     0
146
0.0
  0
ENDTAB
  0
TABLE
  2
LTYPE
  5
5
330
0
100
AcDbSymbolTable
 70
     3
  0
LTYPE
  5
13
330
5
100
AcDbSymbolTableRecord
100
AcDbLinetypeTableRecord
  2
ByBlock
 70
     0
  3

 72
    65
 73
     0
 40
0.0
  0
LTYPE
  5
14
330
5
100
AcDbSymbolTableRecord
100
AcDbLinetypeTableRecord
  2
ByLayer
 70
     0
  3

 72
    65
 73
     0
 40
0.0
  0
LTYPE
  5
15
330
5
100
AcDbSymbolTableRecord
100
AcDbLinetypeTableRecord
  2
CONTINUOUS
 70
     0
  3
Solid line
 72
    65
 73
     0
 40
0.0
  0
LTYPE
  5
50
330
5
100
AcDbSymbolTableRecord
100
AcDbLinetypeTableRecord
  2
HIDDEN2
 70
     0
  3
_ _ _ _ _ _ _ _ _ _ _ _ _ _ _ _ _ _ _ _ _ _ _ _
 72
    65
 73
     2
 40
0.1875
 49
0.125
 74
     0
 49
-0.0625
 74
     0
  0
ENDTAB
  0
TABLE
  2
LAYER
  5
2
330
0
100
AcDbSymbolTable
 70
     5
  0
LAYER
  5
10
330
2
100
AcDbSymbolTableRecord
100
AcDbLayerTableRecord
  2
0
 70
     0
 62
     7
  6
CONTINUOUS
370
    -3
390
F
  0
LAYER
  5
51
330
2
100
AcDbSymbolTableRecord
100
AcDbLayerTableRecord
  2
ADP2DETAIL
 70
     0
 62
     5
  6
CONTINUOUS
370
    -3
390
F
  0
LAYER
  5
52
330
2
100
AcDbSymbolTableRecord
100
AcDbLayerTableRecord
  2
ADPDIM
 70
     0
 62
     3
  6
CONTINUOUS
370
    -3
390
F
  0
LAYER
  5
54
330
2
100
AcDbSymbolTableRecord
100
AcDbLayerTableRecord
  2
ADP1DETAIL
 70
     0
 62
     7
  6
CONTINUOUS
370
    -3
390
F
  0
LAYER
  5
56
330
2
100
AcDbSymbolTableRecord
100
AcDbLayerTableRecord
  2
DEFPOINTS
 70
     0
 62
     7
  6
CONTINUOUS
290
     0
370
    -3
390
F
  0
ENDTAB
  0
TABLE
  2
STYLE
  5
3
330
0
100
AcDbSymbolTable
 70
     2
  0
STYLE
  5
11
330
3
100
AcDbSymbolTableRecord
100
AcDbTextStyleTableRecord
  2
STANDARD
 70
     0
 40
0.0
 41
1.0
 50
0.0
 71
     0
 42
0.2
  3
txt
  4

  0
STYLE
  5
CA
330
3
100
AcDbSymbolTableRecord
100
AcDbTextStyleTableRecord
  2
ARIAL_WIDE
 70
     0
 40
0.0
 41
1.25
 50
0.0
 71
     0
 42
0.2
  3
arial.ttf
  4

1001
ACAD
1000
Arial
1071
       34
  0
ENDTAB
  0
TABLE
  2
VIEW
  5
6
330
0
100
AcDbSymbolTable
 70
     0
  0
ENDTAB
  0
TABLE
  2
UCS
  5
7
330
0
100
AcDbSymbolTable
 70
     0
  0
ENDTAB
  0
TABLE
  2
APPID
  5
9
330
0
100
AcDbSymbolTable
 70
     2
  0
APPID
  5
12
330
9
100
AcDbSymbolTableRecord
100
AcDbRegAppTableRecord
  2
ACAD
 70
     0
  0
APPID
  5
4D5
330
9
100
AcDbSymbolTableRecord
100
AcDbRegAppTableRecord
  2
ACAD_EXEMPT_FROM_CAD_STANDARDS
 70
     0
  0
ENDTAB
  0
TABLE
  2
DIMSTYLE
  5
A
330
0
100
AcDbSymbolTable
 70
     2
100
AcDbDimStyleTable
 71
     1
340
C8
  0
DIMSTYLE
105
C8
102
{ACAD_REACTORS
330
29D
330
38F
102
}
330
A
100
AcDbSymbolTableRecord
100
AcDbDimStyleTableRecord
  2
Standard
 70
     0
340
11
  0
ENDTAB
  0
TABLE
  2
BLOCK_RECORD
  5
1
330
0
100
AcDbSymbolTable
 70
     6
  0
BLOCK_RECORD
  5
1E
102
{ACAD_XDICTIONARY
360
107
102
}
330
1
100
AcDbSymbolTableRecord
100
AcDbBlockTableRecord
  2
*Model_Space
340
21
  0
BLOCK_RECORD
  5
1A
102
{ACAD_XDICTIONARY
360
109
102
}
330
1
100
AcDbSymbolTableRecord
100
AcDbBlockTableRecord
  2
*Paper_Space
340
1D
  0
BLOCK_RECORD
  5
2AB
330
1
100
AcDbSymbolTableRecord
100
AcDbBlockTableRecord
  2
*D0
340
0
  0
BLOCK_RECORD
  5
3A2
330
1
100
AcDbSymbolTableRecord
100
AcDbBlockTableRecord
  2
*D1
340
0
  0
ENDTAB
  0
ENDSEC
  0
SECTION
  2
BLOCKS
  0
BLOCK
  5
59
330
1E
100
AcDbEntity
  8
0
100
AcDbBlockBegin
  2
*Model_Space
 70
     0
 10
0.0
 20
0.0
 30
0.0
  3
*Model_Space
  1

  0
ENDBLK
  5
5A
330
1E
100
AcDbEntity
  8
0
100
AcDbBlockEnd
  0
BLOCK
  5
57
330
1A
100
AcDbEntity
 67
     1
  8
0
100
AcDbBlockBegin
  2
*Paper_Space
 70
     0
 10
0.0
 20
0.0
 30
0.0
  3
*Paper_Space
  1

  0
ENDBLK
  5
58
330
1A
100
AcDbEntity
 67
     1
  8
0
100
AcDbBlockEnd
  0
BLOCK
  5
2B6
330
2AB
100
AcDbEntity
  8
0
100
AcDbBlockBegin
  2
*D0
 70
     1
 10
0.0
 20
0.0
 30
0.0
  3
*D0
  1

  0
LINE
  5
4A4
330
2AB
100
AcDbEntity
  8
ADPDIM
 62
     0
370
    -2
100
AcDbLine
 10
11.79312837631293
 20
10.31117018064865
 30
0.0
 11
11.79312837631293
 21
11.00464609297807
 31
0.0
  0
LINE
  5
4A5
330
2AB
100
AcDbEntity
  8
ADPDIM
 62
     0
370
    -2
100
AcDbLine
 10
14.04189041429126
 20
10.31104486728824
 30
0.0
 11
14.04189041429126
 21
11.00464609297807
 31
0.0
  0
LINE
  5
4A6
330
2AB
100
AcDbEntity
  8
ADPDIM
 62
     0
370
    -2
100
AcDbLine
 10
11.79312837631293
 20
10.82464609297807
 30
0.0
 11
12.52167606196876
 21
10.82464609297807
 31
0.0
  0
LINE
  5
4A7
330
2AB
100
AcDbEntity
  8
ADPDIM
 62
     0
370
    -2
100
AcDbLine
 10
14.04189041429126
 20
10.82464609297807
 30
0.0
 11
13.31334272863543
 21
10.82464609297807
 31
0.0
  0
LINE
  5
4A8
330
2AB
100
AcDbEntity
  8
ADPDIM
 62
     0
370
    -2
100
AcDbLine
 10
13.91689041429126
 20
10.69964609297807
 30
0.0
 11
14.16689041429125
 21
10.94964609297807
 31
0.0
  0
LINE
  5
4A9
330
2AB
100
AcDbEntity
  8
ADPDIM
 62
     0
370
    -2
100
AcDbLine
 10
11.66812837631293
 20
10.69964609297807
 30
0.0
 11
11.91812837631293
 21
10.94964609297807
 31
0.0
  0
MTEXT
  5
4AA
330
2AB
100
AcDbEntity
  8
ADPDIM
 62
     0
100
AcDbMText
 10
12.91750939530209
 20
10.82464609297807
 30
0.0
 40
0.125
 41
0.0
 71
     5
 72
     1
  1
\A1;2 1/4
 73
     1
 44
1.0
1001
ACAD
1000
MTEXTBEGIN
1070
    73
1070
     1
1070
    44
1040
1.0
1070
    74
1070
     0
1000
MTEXTEND
  0
POINT
  5
4AB
330
2AB
100
AcDbEntity
  8
DEFPOINTS
 62
     0
100
AcDbPoint
 10
11.79312837631293
 20
10.24867018064865
 30
0.0
  0
POINT
  5
4AC
330
2AB
100
AcDbEntity
  8
DEFPOINTS
 62
     0
100
AcDbPoint
 10
14.04189041429126
 20
10.24854486728824
 30
0.0
  0
POINT
  5
4AD
330
2AB
100
AcDbEntity
  8
DEFPOINTS
 62
     0
100
AcDbPoint
 10
14.04189041429126
 20
10.82464609297807
 30
0.0
  0
ENDBLK
  5
2B7
330
2AB
100
AcDbEntity
  8
0
100
AcDbBlockEnd
  0
BLOCK
  5
3AD
330
3A2
100
AcDbEntity
  8
0
100
AcDbBlockBegin
  2
*D1
 70
     1
 10
0.0
 20
0.0
 30
0.0
  3
*D1
  1

  0
LINE
  5
4AE
330
3A2
100
AcDbEntity
  8
ADPDIM
 62
     0
370
    -2
100
AcDbLine
 10
15.109216250654
 20
7.304204461077572
 30
0.0
 11
14.19615934862887
 21
7.304204461077572
 31
0.0
  0
LINE
  5
4AF
330
3A2
100
AcDbEntity
  8
ADPDIM
 62
     0
370
    -2
100
AcDbLine
 10
15.10934156401441
 20
9.5529664990559
 30
0.0
 11
14.19615934862887
 21
9.5529664990559
 31
0.0
  0
LINE
  5
4B0
330
3A2
100
AcDbEntity
  8
ADPDIM
 62
     0
370
    -2
100
AcDbLine
 10
14.37615934862887
 20
7.304204461077572
 30
0.0
 11
14.37615934862887
 21
8.032752146733402
 31
0.0
  0
LINE
  5
4B1
330
3A2
100
AcDbEntity
  8
ADPDIM
 62
     0
370
    -2
100
AcDbLine
 10
14.37615934862887
 20
9.5529664990559
 30
0.0
 11
14.37615934862887
 21
8.82441881340007
 31
0.0
  0
LINE
  5
4B2
330
3A2
100
AcDbEntity
  8
ADPDIM
 62
     0
370
    -2
100
AcDbLine
 10
14.50115934862887
 20
9.4279664990559
 30
0.0
 11
14.25115934862887
 21
9.6779664990559
 31
0.0
  0
LINE
  5
4B3
330
3A2
100
AcDbEntity
  8
ADPDIM
 62
     0
370
    -2
100
AcDbLine
 10
14.50115934862887
 20
7.179204461077572
 30
0.0
 11
14.25115934862887
 21
7.429204461077572
 31
0.0
  0
MTEXT
  5
4B4
330
3A2
100
AcDbEntity
  8
ADPDIM
 62
     0
100
AcDbMText
 10
14.37615934862887
 20
8.42858548006674
 30
0.0
 40
0.125
 41
0.0
 71
     5
 72
     1
  1
\A1;2 1/4
 11
0.0000000000000001
 21
1.0
 31
0.0
 73
     1
 44
1.0
1001
ACAD
1000
MTEXTBEGIN
1070
    73
1070
     1
1070
    44
1040
1.0
1070
    74
1070
     0
1000
MTEXTEND
  0
POINT
  5
4B5
330
3A2
100
AcDbEntity
  8
DEFPOINTS
 62
     0
100
AcDbPoint
 10
15.171716250654
 20
7.304204461077572
 30
0.0
  0
POINT
  5
4B6
330
3A2
100
AcDbEntity
  8
DEFPOINTS
 62
     0
100
AcDbPoint
 10
15.17184156401441
 20
9.5529664990559
 30
0.0
  0
POINT
  5
4B7
330
3A2
100
AcDbEntity
  8
DEFPOINTS
 62
     0
100
AcDbPoint
 10
14.37615934862887
 20
9.5529664990559
 30
0.0
  0
ENDBLK
  5
3AE
330
3A2
100
AcDbEntity
  8
0
100
AcDbBlockEnd
  0
ENDSEC
  0
SECTION
  2
ENTITIES
  0
LINE
  5
78
330
1E
100
AcDbEntity
  8
ADP2DETAIL
  6
HIDDEN2
100
AcDbLine
 10
13.8229054177523
 20
7.496027963232016
 30
0.0
 11
12.04779903477358
 21
7.49602796323202
 31
0.0
  0
LINE
  5
79
330
1E
100
AcDbEntity
  8
ADP2DETAIL
  6
HIDDEN2
100
AcDbLine
 10
12.04779903477358
 20
9.363049239827759
 30
0.0
 11
13.8229054177523
 21
9.363049239827763
 31
0.0
  0
LWPOLYLINE
  5
7A
330
1E
100
AcDbEntity
  8
ADP1DETAIL
100
AcDbPolyline
 90
        8
 70
     1
 43
0.0
 10
11.81035222626294
 20
7.40028328238095
 10
11.81035222626294
 20
9.458793920678825
 42
-0.4142135623730951
 10
11.90609690711401
 20
9.554538601529888
 10
13.96460754541188
 20
9.554538601529888
 42
-0.4142135623730951
 10
14.06035222626294
 20
9.458793920678825
 10
14.06035222626294
 20
7.40028328238095
 42
-0.4142135623730951
 10
13.96460754541188
 20
7.304538601529888
 10
11.90609690711401
 20
7.304538601529888
 42
-0.4142135623730951
  0
LINE
  5
88
330
1E
100
AcDbEntity
  8
ADP2DETAIL
  6
HIDDEN2
100
AcDbLine
 10
12.00184158796507
 20
7.541985410040528
 30
0.0
 11
12.00184158796508
 21
9.317091793019248
 31
0.0
  0
ARC
  5
9A
330
1E
100
AcDbEntity
  8
ADP2DETAIL
  6
HIDDEN2
100
AcDbCircle
 10
12.04779903477358
 20
7.541985410040528
 30
0.0
 40
0.0459574468085097
100
AcDbArc
 50
179.9999999999982
 51
270.0
  0
ARC
  5
A2
330
1E
100
AcDbEntity
  8
ADP2DETAIL
  6
HIDDEN2
100
AcDbCircle
 10
12.04779903477358
 20
9.317091793019248
 30
0.0
 40
0.0459574468085097
100
AcDbArc
 50
90.0
 51
180.0
  0
LINE
  5
AA
330
1E
100
AcDbEntity
  8
ADP2DETAIL
  6
HIDDEN2
100
AcDbLine
 10
13.86886286456082
 20
9.317091793019248
 30
0.0
 11
13.86886286456081
 21
7.541985410040528
 31
0.0
  0
CIRCLE
  5
B0
330
1E
100
AcDbEntity
  8
ADP1DETAIL
100
AcDbCircle
 10
12.94157024237372
 20
8.429538601529888
 30
0.0
 40
0.1840135296906269
  0
ARC
  5
B1
330
1E
100
AcDbEntity
  8
ADP2DETAIL
  6
HIDDEN2
100
AcDbCircle
 10
13.8229054177523
 20
7.541985410040528
 30
0.0
 40
0.0459574468085097
100
AcDbArc
 50
270.0
 51
0.0
  0
ARC
  5
BC
330
1E
100
AcDbEntity
  8
ADP2DETAIL
  6
HIDDEN2
100
AcDbCircle
 10
13.8229054177523
 20
9.317091793019251
 30
0.0
 40
0.0459574468085097
100
AcDbArc
 50
359.9999999999966
 51
90.0
  0
TEXT
  5
CB
330
1E
100
AcDbEntity
  8
ADPDIM
100
AcDbText
 10
7.731057539690775
 20
6.04377479853441
 30
0.0
 40
0.09375
  1
J U L I U S  B L U M  &  C O . ,  I N C .      ( 8 0 0 )  5 2 6 - 6 2 9 3        W W W . J U L I U S B L U M . C O M        P A R T  N o .  4 4 4 1 - U C
 41
1.25
  7
ARIAL_WIDE
 72
     1
 11
12.83906561864712
 21
6.13752479853441
 31
0.0
100
AcDbText
 73
     3
  0
DIMENSION
  5
29D
330
1E
100
AcDbEntity
  8
ADPDIM
100
AcDbDimension
  2
*D0
 10
14.04189041429126
 20
10.82464609297807
 30
0.0
 11
12.91750939530209
 21
10.82464609297807
 31
0.0
 70
    32
 71
     5
 42
2.248762037978329
  3
Standard
100
AcDbAlignedDimension
 13
11.79312837631293
 23
10.24867018064865
 33
0.0
 14
14.04189041429126
 24
10.24854486728824
 34
0.0
100
AcDbRotatedDimension
1001
ACAD
1000
DSTYLE
1002
{
1070
   276
1070
     2
1070
    41
1040
0.125
1070
    73
1070
     0
1070
    74
1070
     0
1070
    78
1070
     3
1070
   140
1040
0.125
1070
   141
1040
0.1875
1070
   142
1040
0.125
1070
   147
1040
0.125
1070
   171
1070
     1
1070
   273
1070
     5
1070
   274
1070
     1
1070
   277
1070
     5
1070
   279
1070
     2
1070
   284
1070
     3
1070
   285
1070
     3
1070
   286
1070
     3
1002
}
  0
LINE
  5
29E
330
1E
100
AcDbEntity
  8
0
100
AcDbLine
 10
13.85547458909867
 20
9.7492951839645
 30
0.0
 11
11.98062837631292
 21
9.7492951839645
 31
0.0
  0
LINE
  5
29F
330
1E
100
AcDbEntity
  8
0
100
AcDbLine
 10
13.991629312426
 20
9.848905297034162
 30
0.0
 11
14.04189041429126
 21
10.24854486728824
 31
0.0
  0
LINE
  5
2A0
330
1E
100
AcDbEntity
  8
0
100
AcDbLine
 10
11.84506642180786
 20
9.84361195468251
 30
0.0
 11
11.79312837631293
 21
10.24867018064865
 31
0.0
  0
ARC
  5
2A1
330
1E
100
AcDbEntity
  8
0
100
AcDbCircle
 10
13.83440175819014
 20
9.920957544242748
 30
0.0
 40
0.1729509472041081
100
AcDbArc
 50
276.9984688372232
 51
335.3795617818148
  0
ARC
  5
2A2
330
1E
100
AcDbEntity
  8
0
100
AcDbCircle
 10
11.96945298896083
 20
9.877813059734366
 30
0.0
 40
0.1290028436696978
100
AcDbArc
 50
195.3740239797949
 51
274.9697052832336
  0
LINE
  5
2C2
330
1E
100
AcDbEntity
  8
ADP2DETAIL
  6
HIDDEN2
100
AcDbLine
 10
12.03741953661389
 20
9.87367018064865
 30
0.0
 11
13.82706267987266
 21
9.87367018064865
 31
0.0
  0
LINE
  5
2C5
330
1E
100
AcDbEntity
  8
ADP2DETAIL
  6
HIDDEN2
100
AcDbLine
 10
13.91687460885788
 20
10.24867018064865
 30
0.0
 11
13.87105042088756
 21
9.915504671749538
 31
0.0
  0
LINE
  5
2C6
330
1E
100
AcDbEntity
  8
ADP2DETAIL
  6
HIDDEN2
100
AcDbLine
 10
11.91812837631292
 20
10.24867018064865
 30
0.0
 11
11.96025601959346
 21
9.933443715989806
 31
0.0
  0
ARC
  5
31A
330
1E
100
AcDbEntity
  8
ADP2DETAIL
  6
HIDDEN2
100
AcDbCircle
 10
13.82598023248588
 20
9.918851497982847
 30
0.0
 40
0.0451942820321178
100
AcDbArc
 50
271.3724213582212
 51
355.7531193824092
  0
ARC
  5
31C
330
1E
100
AcDbEntity
  8
ADP2DETAIL
  6
HIDDEN2
100
AcDbCircle
 10
12.04748985717265
 20
9.966363431320292
 30
0.0
 40
0.0932386726430195
100
AcDbArc
 50
200.6751641570702
 51
263.7996266625573
  0
DIMENSION
  5
38F
330
1E
100
AcDbEntity
  8
ADPDIM
100
AcDbDimension
  2
*D1
 10
14.37615934862887
 20
9.5529664990559
 30
0.0
 11
14.37615934862887
 21
8.42858548006674
 31
0.0
 70
    32
 71
     5
 42
2.248762037978327
  3
Standard
100
AcDbAlignedDimension
 13
15.171716250654
 23
7.304204461077572
 33
0.0
 14
15.17184156401441
 24
9.5529664990559
 34
0.0
 50
90.0
100
AcDbRotatedDimension
1001
ACAD
1000
DSTYLE
1002
{
1070
   276
1070
     2
1070
    41
1040
0.125
1070
    73
1070
     0
1070
    74
1070
     0
1070
    78
1070
     3
1070
   140
1040
0.125
1070
   141
1040
0.1875
1070
   142
1040
0.125
1070
   147
1040
0.125
1070
   171
1070
     1
1070
   273
1070
     5
1070
   274
1070
     1
1070
   277
1070
     5
1070
   279
1070
     2
1070
   284
1070
     3
1070
   285
1070
     3
1070
   286
1070
     3
1002
}
  0
LINE
  5
390
330
1E
100
AcDbEntity
  8
0
100
AcDbLine
 10
14.67246656733026
 20
7.490620286270155
 30
0.0
 11
14.67246656733026
 21
9.365466499055903
 31
0.0
  0
LINE
  5
391
330
1E
100
AcDbEntity
  8
0
100
AcDbLine
 10
14.77207668039993
 20
7.354465562942831
 30
0.0
 11
15.171716250654
 21
7.304204461077572
 31
0.0
  0
LINE
  5
392
330
1E
100
AcDbEntity
  8
0
100
AcDbLine
 10
14.76678333804827
 20
9.501028453560964
 30
0.0
 11
15.17184156401441
 21
9.5529664990559
 31
0.0
  0
ARC
  5
393
330
1E
100
AcDbEntity
  8
0
100
AcDbCircle
 10
14.84412892760851
 20
7.511693117178696
 30
0.0
 40
0.1729509472041081
100
AcDbArc
 50
186.9984688372233
 51
245.3795617818151
  0
ARC
  5
394
330
1E
100
AcDbEntity
  8
0
100
AcDbCircle
 10
14.80098444310013
 20
9.376641886407997
 30
0.0
 40
0.1290028436696978
100
AcDbArc
 50
105.3740239797948
 51
184.9697052832335
  0
ARC
  5
395
330
1E
100
AcDbEntity
  8
0
100
AcDbCircle
 10
14.57809156401441
 20
7.569957908024322
 30
0.0
 40
0.53125
100
AcDbArc
 50
353.6450457150436
 51
43.00981627133444
  0
LINE
  5
396
330
1E
100
AcDbEntity
  8
0
100
AcDbLine
 10
15.171716250654
 20
7.304204461077572
 30
0.0
 11
15.17184156401441
 21
7.429220266510945
 31
0.0
  0
ARC
  5
397
330
1E
100
AcDbEntity
  8
0
100
AcDbCircle
 10
15.60934156401441
 20
8.429316554490322
 30
0.0
 40
0.8125
100
AcDbArc
 50
142.2897733313731
 51
180.0
  0
ARC
  5
398
330
1E
100
AcDbEntity
  8
0
100
AcDbCircle
 10
15.60934156401441
 20
8.429316554490322
 30
0.0
 40
0.8125
100
AcDbArc
 50
180.0
 51
217.7102266686269
  0
ARC
  5
399
330
1E
100
AcDbEntity
  8
0
100
AcDbCircle
 10
14.57809156401441
 20
9.288675200956314
 30
0.0
 40
0.53125
100
AcDbArc
 50
316.9901837286653
 51
6.354954284956261
  0
LINE
  5
39A
330
1E
100
AcDbEntity
  8
0
100
AcDbLine
 10
15.17184156401441
 20
9.5529664990559
 30
0.0
 11
15.17184156401441
 21
9.4279664990559
 31
0.0
  0
LINE
  5
39B
330
1E
100
AcDbEntity
  8
ADP2DETAIL
  6
HIDDEN2
100
AcDbLine
 10
14.79684156401441
 20
9.308675338754939
 30
0.0
 11
14.79684156401441
 21
7.519032195496167
 31
0.0
  0
LINE
  5
39C
330
1E
100
AcDbEntity
  8
ADP2DETAIL
  6
HIDDEN2
100
AcDbLine
 10
15.17184156401441
 20
7.429220266510945
 30
0.0
 11
14.8386760551153
 21
7.475044454481269
 31
0.0
  0
LINE
  5
39D
330
1E
100
AcDbEntity
  8
ADP2DETAIL
  6
HIDDEN2
100
AcDbLine
 10
15.17184156401441
 20
9.427966499055903
 30
0.0
 11
14.85661509935557
 21
9.385838855775363
 31
0.0
  0
ARC
  5
39E
330
1E
100
AcDbEntity
  8
ADP1DETAIL
100
AcDbCircle
 10
15.20896930934945
 20
7.526380653638215
 30
0.0
 40
0.1040125487640022
100
AcDbArc
 50
188.4172986601419
 51
249.0867223704155
  0
ARC
  5
39F
330
1E
100
AcDbEntity
  8
ADP1DETAIL
100
AcDbCircle
 10
15.25465101109736
 20
9.293194569811456
 30
0.0
 40
0.1581798894880555
100
AcDbArc
 50
121.5682859174047
 51
159.9295554539756
  0
ARC
  5
3A0
330
1E
100
AcDbEntity
  8
ADP2DETAIL
  6
HIDDEN2
100
AcDbCircle
 10
14.84202288134861
 20
7.520114642882946
 30
0.0
 40
0.0451942820321178
100
AcDbArc
 50
181.3724213582212
 51
265.7531193824092
  0
ARC
  5
3A1
330
1E
100
AcDbEntity
  8
ADP2DETAIL
  6
HIDDEN2
100
AcDbCircle
 10
14.88953481468606
 20
9.298605018196179
 30
0.0
 40
0.0932386726430195
100
AcDbArc
 50
110.6751641570702
 51
173.7996266625573
  0
LINE
  5
407
330
1E
100
AcDbEntity
  8
0
100
AcDbLine
 10
11.27495742712248
 20
9.375163924990458
 30
0.0
 11
11.27495742712248
 21
7.50031771220471
 31
0.0
  0
LINE
  5
408
330
1E
100
AcDbEntity
  8
0
100
AcDbLine
 10
11.17534731405282
 20
9.511318648317782
 30
0.0
 11
10.77570774379874
 21
9.561579750183041
 31
0.0
  0
LINE
  5
409
330
1E
100
AcDbEntity
  8
0
100
AcDbLine
 10
11.18064065640447
 20
7.364755757699647
 30
0.0
 11
10.77558243043833
 21
7.312817712204711
 31
0.0
  0
ARC
  5
40A
330
1E
100
AcDbEntity
  8
0
100
AcDbCircle
 10
11.10329506684423
 20
9.354091094081919
 30
0.0
 40
0.1729509472041081
100
AcDbArc
 50
6.998468837223215
 51
65.37956178181492
  0
ARC
  5
40B
330
1E
100
AcDbEntity
  8
0
100
AcDbCircle
 10
11.14643955135261
 20
7.489142324852616
 30
0.0
 40
0.1290028436696978
100
AcDbArc
 50
285.3740239797948
 51
4.969705283233549
  0
ARC
  5
40C
330
1E
100
AcDbEntity
  8
0
100
AcDbCircle
 10
11.36933243043833
 20
9.295826303236289
 30
0.0
 40
0.53125
100
AcDbArc
 50
173.6450457150437
 51
223.0098162713345
  0
LINE
  5
40D
330
1E
100
AcDbEntity
  8
0
100
AcDbLine
 10
10.77570774379874
 20
9.561579750183041
 30
0.0
 11
10.77558243043833
 21
9.436563944749668
 31
0.0
  0
ARC
  5
40E
330
1E
100
AcDbEntity
  8
0
100
AcDbCircle
 10
10.33808243043833
 20
8.436467656770293
 30
0.0
 40
0.8125
100
AcDbArc
 50
322.2897733313731
 51
0.0
  0
ARC
  5
40F
330
1E
100
AcDbEntity
  8
0
100
AcDbCircle
 10
10.33808243043833
 20
8.436467656770293
 30
0.0
 40
0.8125
100
AcDbArc
 50
0.0
 51
37.71022666862695
  0
ARC
  5
410
330
1E
100
AcDbEntity
  8
0
100
AcDbCircle
 10
11.36933243043833
 20
7.577109010304297
 30
0.0
 40
0.53125
100
AcDbArc
 50
136.9901837286654
 51
186.3549542849563
  0
LINE
  5
411
330
1E
100
AcDbEntity
  8
0
100
AcDbLine
 10
10.77558243043833
 20
7.312817712204711
 30
0.0
 11
10.77558243043833
 21
7.437817712204711
 31
0.0
  0
LINE
  5
412
330
1E
100
AcDbEntity
  8
ADP2DETAIL
  6
HIDDEN2
100
AcDbLine
 10
11.15058243043833
 20
7.557108872505674
 30
0.0
 11
11.15058243043833
 21
9.346752015764446
 31
0.0
  0
LINE
  5
413
330
1E
100
AcDbEntity
  8
ADP2DETAIL
  6
HIDDEN2
100
AcDbLine
 10
10.77558243043833
 20
9.436563944749668
 30
0.0
 11
11.10874793933744
 21
9.390739756779344
 31
0.0
  0
LINE
  5
414
330
1E
100
AcDbEntity
  8
ADP2DETAIL
  6
HIDDEN2
100
AcDbLine
 10
10.77558243043833
 20
7.43781771220471
 30
0.0
 11
11.09080889509717
 21
7.47994535548525
 31
0.0
  0
ARC
  5
415
330
1E
100
AcDbEntity
  8
ADP1DETAIL
100
AcDbCircle
 10
10.7384546851033
 20
9.3394035576224
 30
0.0
 40
0.1040125487640022
100
AcDbArc
 50
8.417298660141849
 51
69.0867223704155
  0
ARC
  5
416
330
1E
100
AcDbEntity
  8
ADP1DETAIL
100
AcDbCircle
 10
10.69277298335539
 20
7.572589641449159
 30
0.0
 40
0.1581798894880555
100
AcDbArc
 50
301.5682859174047
 51
339.9295554539755
  0
ARC
  5
417
330
1E
100
AcDbEntity
  8
ADP2DETAIL
  6
HIDDEN2
100
AcDbCircle
 10
11.10540111310413
 20
9.345669568377665
 30
0.0
 40
0.0451942820321178
100
AcDbArc
 50
1.372421358221247
 51
85.75311938240927
  0
ARC
  5
418
330
1E
100
AcDbEntity
  8
ADP2DETAIL
  6
HIDDEN2
100
AcDbCircle
 10
11.05788917976669
 20
7.567179193064436
 30
0.0
 40
0.0932386726430195
100
AcDbArc
 50
290.6751641570702
 51
353.7996266625573
  0
LINE
  5
469
330
1E
100
AcDbEntity
  8
ADP1DETAIL
100
AcDbLine
 10
14.04189041429126
 20
10.24854486728824
 30
0.0
 11
11.79312837631293
 21
10.24867018064865
 31
0.0
  0
LINE
  5
47A
330
1E
100
AcDbEntity
  8
0
100
AcDbLine
 10
11.99427119607102
 20
7.105971220950888
 30
0.0
 11
13.86911740885677
 21
7.105971220950888
 31
0.0
  0
LINE
  5
47B
330
1E
100
AcDbEntity
  8
0
100
AcDbLine
 10
11.85811647274369
 20
7.006361107881226
 30
0.0
 11
11.80785537087843
 21
6.606721537627151
 31
0.0
  0
LINE
  5
47C
330
1E
100
AcDbEntity
  8
0
100
AcDbLine
 10
14.00467936336183
 20
7.011654450232879
 30
0.0
 11
14.05661740885676
 21
6.606596224266739
 31
0.0
  0
ARC
  5
47D
330
1E
100
AcDbEntity
  8
0
100
AcDbCircle
 10
12.01534402697955
 20
6.934308860672641
 30
0.0
 40
0.1729509472041081
100
AcDbArc
 50
96.99846883722329
 51
155.379561781815
  0
ARC
  5
47E
330
1E
100
AcDbEntity
  8
0
100
AcDbCircle
 10
13.88029279620886
 20
6.977453345181023
 30
0.0
 40
0.1290028436696978
100
AcDbArc
 50
15.37402397979487
 51
94.96970528323357
  0
LINE
  5
47F
330
1E
100
AcDbEntity
  8
ADP2DETAIL
  6
HIDDEN2
100
AcDbLine
 10
13.8123262485558
 20
6.981596224266739
 30
0.0
 11
12.02268310529703
 21
6.981596224266739
 31
0.0
  0
LINE
  5
480
330
1E
100
AcDbEntity
  8
ADP2DETAIL
  6
HIDDEN2
100
AcDbLine
 10
11.93287117631181
 20
6.606596224266739
 30
0.0
 11
11.97869536428213
 21
6.939761733165851
 31
0.0
  0
LINE
  5
481
330
1E
100
AcDbEntity
  8
ADP2DETAIL
  6
HIDDEN2
100
AcDbLine
 10
13.93161740885676
 20
6.60659622426674
 30
0.0
 11
13.88948976557622
 21
6.921822688925582
 31
0.0
  0
ARC
  5
482
330
1E
100
AcDbEntity
  8
ADP2DETAIL
  6
HIDDEN2
100
AcDbCircle
 10
12.02376555268381
 20
6.936414906932541
 30
0.0
 40
0.0451942820321178
100
AcDbArc
 50
91.37242135822122
 51
175.7531193824092
  0
ARC
  5
483
330
1E
100
AcDbEntity
  8
ADP2DETAIL
  6
HIDDEN2
100
AcDbCircle
 10
13.80225592799704
 20
6.888902973595096
 30
0.0
 40
0.0932386726430195
100
AcDbArc
 50
20.67516415707015
 51
83.7996266625573
  0
LINE
  5
484
330
1E
100
AcDbEntity
  8
ADP1DETAIL
100
AcDbLine
 10
11.80785537087843
 20
6.606721537627151
 30
0.0
 11
14.05661740885676
 21
6.606596224266739
 31
0.0
  0
LINE
  5
4E0
330
1E
100
AcDbEntity
  8
ADP2DETAIL
100
AcDbLine
 10
12.756559726576
 20
7.105971220950888
 30
0.0
 11
12.71723070634385
 21
6.981596224266739
 31
0.0
  0
LINE
  5
4E1
330
1E
100
AcDbEntity
  8
ADP2DETAIL
100
AcDbLine
 10
13.12519612442498
 20
7.105971220950888
 30
0.0
 11
13.16452514465713
 21
6.981596224266739
 31
0.0
  0
LINE
  5
4E9
330
1E
100
AcDbEntity
  8
ADP2DETAIL
100
AcDbLine
 10
14.66613295333793
 20
8.247188464226907
 30
0.0
 11
14.79050795002208
 21
8.207859443994761
 31
0.0
  0
LINE
  5
4EA
330
1E
100
AcDbEntity
  8
ADP2DETAIL
100
AcDbLine
 10
14.66613295333793
 20
8.615824862075895
 30
0.0
 11
14.79050795002208
 21
8.65515388230804
 31
0.0
  0
LINE
  5
4F2
330
1E
100
AcDbEntity
  8
ADP2DETAIL
100
AcDbLine
 10
13.12518914937723
 20
9.748757515580299
 30
0.0
 11
13.16451816960938
 21
9.873132512264449
 31
0.0
  0
LINE
  5
4F3
330
1E
100
AcDbEntity
  8
ADP2DETAIL
100
AcDbLine
 10
12.75655275152825
 20
9.748757515580299
 30
0.0
 11
12.7172237312961
 21
9.873132512264449
 31
0.0
  0
LINE
  5
4FB
330
1E
100
AcDbEntity
  8
ADP2DETAIL
100
AcDbLine
 10
11.2737675504659
 20
8.613410833698409
 30
0.0
 11
11.14939255378175
 21
8.652739853930555
 31
0.0
  0
LINE
  5
4FC
330
1E
100
AcDbEntity
  8
ADP2DETAIL
100
AcDbLine
 10
11.2737675504659
 20
8.244774435849421
 30
0.0
 11
11.14939255378175
 21
8.205445415617276
 31
0.0
  0
ENDSEC
  0
SECTION
  2
OBJECTS
  0
DICTIONARY
  5
C
330
0
100
AcDbDictionary
281
     1
  3
ACAD_COLOR
350
26F
  3
ACAD_GROUP
350
D
  3
ACAD_LAYOUT
350
19
  3
ACAD_MATERIAL
350
25A
  3
ACAD_MLINESTYLE
350
16
  3
ACAD_PLOTSETTINGS
350
18
  3
ACAD_PLOTSTYLENAME
350
E
  3
ACAD_TABLESTYLE
350
270
  3
ACAD_VISUALSTYLE
350
25E
  3
AcDbVariableDictionary
350
13C
  3
DWGPROPS
350
515
  0
DICTIONARY
  5
445
330
8
100
AcDbDictionary
280
     1
281
     1
  0
DICTIONARY
  5
107
330
1E
100
AcDbDictionary
280
     1
281
     1
  3
ACAD_LAYOUTSELFREF
360
256
  0
DICTIONARY
  5
109
330
1A
100
AcDbDictionary
280
     1
281
     1
  3
ACAD_LAYOUTSELFREF
360
255
  0
DICTIONARY
  5
26F
102
{ACAD_REACTORS
330
C
102
}
330
C
100
AcDbDictionary
281
     1
  0
DICTIONARY
  5
D
102
{ACAD_REACTORS
330
C
102
}
330
C
100
AcDbDictionary
281
     1
  0
DICTIONARY
  5
19
102
{ACAD_REACTORS
330
C
102
}
330
C
100
AcDbDictionary
281
     1
  3
Layout1
350
1D
  3
Model
350
21
  0
DICTIONARY
  5
25A
102
{ACAD_REACTORS
330
C
102
}
330
C
100
AcDbDictionary
281
     1
  3
ByBlock
350
25C
  3
ByLayer
350
25B
  3
Global
350
25D
  0
DICTIONARY
  5
16
102
{ACAD_REACTORS
330
C
102
}
330
C
100
AcDbDictionary
281
     1
  3
Standard
350
17
  0
DICTIONARY
  5
18
102
{ACAD_REACTORS
330
C
102
}
330
C
100
AcDbDictionary
281
     1
  0
ACDBDICTIONARYWDFLT
  5
E
102
{ACAD_REACTORS
330
C
102
}
330
C
100
AcDbDictionary
281
     1
  3
Normal
350
F
100
AcDbDictionaryWithDefault
340
F
  0
DICTIONARY
  5
270
102
{ACAD_REACTORS
330
C
102
}
330
C
100
AcDbDictionary
281
     1
  3
Standard
350
271
  0
DICTIONARY
  5
25E
102
{ACAD_REACTORS
330
C
102
}
330
C
100
AcDbDictionary
281
     1
  3
2dWireframe
350
264
  3
3D Hidden
350
266
  3
3dWireframe
350
265
  3
Basic
350
263
  3
Brighten
350
26A
  3
ColorChange
350
26E
  3
Conceptual
350
267
  3
Dim
350
269
  3
Facepattern
350
26D
  3
Flat
350
25F
  3
FlatWithEdges
350
260
  3
Gouraud
350
261
  3
GouraudWithEdges
350
262
  3
Linepattern
350
26C
  3
Realistic
350
268
  3
Thicken
350
26B
  0
DICTIONARY
  5
13C
102
{ACAD_REACTORS
330
C
102
}
330
C
100
AcDbDictionary
281
     1
  3
CTABLESTYLE
350
27C
  3
DIMASSOC
350
13E
  3
HIDETEXT
350
13D
  3
INDEXCTL
350
45E
  3
SORTENTS
350
45D
  0
XRECORD
  5
515
102
{ACAD_REACTORS
330
C
102
}
330
C
100
AcDbXrecord
280
     1
  1
DWGPROPS COOKIE
  2

  3

  4

  6

  7

  8
John
  9

300
=
301
=
302
=
303
=
304
=
305
=
306
=
307
=
308
=
309
=
 40
0.1260909606481481
 41
2450368.534624804
 42
2455209.619029803
  1

 90
        0
  0
XRECORD
  5
256
102
{ACAD_REACTORS
330
107
102
}
330
107
100
AcDbXrecord
280
     1
340
1E
  0
XRECORD
  5
255
102
{ACAD_REACTORS
330
109
102
}
330
109
100
AcDbXrecord
280
     1
340
1A
  0
LAYOUT
  5
1D
102
{ACAD_XDICTIONARY
360
516
102
}
102
{ACAD_REACTORS
330
19
102
}
330
19
100
AcDbPlotSettings
  1

  2
Fax
  4

  6

 40
0.0
 41
0.0
 42
0.0
 43
0.0
 44
0.0
 45
0.0
 46
0.0
 47
0.0
 48
0.0
 49
0.0
140
0.0
141
0.0
142
1.0
143
1.0
 70
   688
 72
     0
 73
     0
 74
     5
  7
Default R14 pen assignments.ctb
 75
    16
147
1.0
148
0.0
149
0.0
100
AcDbLayout
  1
Layout1
 70
     1
 71
     1
 10
0.0
 20
0.0
 11
12.0
 21
9.0
 12
0.1250035762786868
 22
0.0
 32
0.0
 14
1.000000000000000E+20
 24
1.000000000000000E+20
 34
1.000000000000000E+20
 15
-1.000000000000000E+20
 25
-1.000000000000000E+20
 35
-1.000000000000000E+20
146
0.0
 13
0.0
 23
0.0
 33
0.0
 16
1.0
 26
0.0
 36
0.0
 17
0.0
 27
1.0
 37
0.0
 76
     0
330
1A
  0
LAYOUT
  5
21
102
{ACAD_XDICTIONARY
360
518
102
}
102
{ACAD_REACTORS
330
19
102
}
330
19
100
AcDbPlotSettings
  1

  2
Fax
  4

  6

 40
0.0
 41
0.0
 42
0.0
 43
0.0
 44
0.0
 45
0.0
 46
0.0
 47
0.0
 48
0.0
 49
0.0
140
0.0
141
0.0
142
1.0
143
1.0
 70
  1712
 72
     0
 73
     0
 74
     0
  7
Default R14 pen assignments.ctb
 75
     0
147
1.0
148
0.0
149
0.0
100
AcDbLayout
  1
Model
 70
     1
 71
     0
 10
0.0
 20
0.0
 11
12.0
 21
9.0
 12
0.0
 22
0.0
 32
0.0
 14
0.0
 24
0.0
 34
0.0
 15
0.0
 25
0.0
 35
0.0
146
0.0
 13
0.0
 23
0.0
 33
0.0
 16
1.0
 26
0.0
 36
0.0
 17
0.0
 27
1.0
 37
0.0
 76
     0
330
1E
331
223
  0
MATERIAL
  5
25C
102
{ACAD_XDICTIONARY
360
51C
102
}
102
{ACAD_REACTORS
330
25A
102
}
330
25A
100
AcDbMaterial
  1
ByBlock
  0
MATERIAL
  5
25B
102
{ACAD_XDICTIONARY
360
51A
102
}
102
{ACAD_REACTORS
330
25A
102
}
330
25A
100
AcDbMaterial
  1
ByLayer
  0
MATERIAL
  5
25D
102
{ACAD_XDICTIONARY
360
51E
102
}
102
{ACAD_REACTORS
330
25A
102
}
330
25A
100
AcDbMaterial
  1
Global
  0
MLINESTYLE
  5
17
102
{ACAD_REACTORS
330
16
102
}
330
16
100
AcDbMlineStyle
  2
STANDARD
 70
     0
  3

 62
   256
 51
90.0
 52
90.0
 71
     2
 49
0.5
 62
   256
  6
BYLAYER
 49
-0.5
 62
   256
  6
BYLAYER
  0
ACDBPLACEHOLDER
  5
F
102
{ACAD_REACTORS
330
E
102
}
330
E
  0
TABLESTYLE
  5
271
102
{ACAD_XDICTIONARY
360
520
102
}
102
{ACAD_REACTORS
330
270
102
}
330
270
100
AcDbTableStyle
  3
Standard
 70
     0
 71
     0
 40
0.06
 41
0.06
280
     0
281
     0
  7
STANDARD
140
0.18
170
     2
 62
     0
 63
     7
283
     0
274
    -2
284
     1
 64
     0
275
    -2
285
     1
 65
     0
276
    -2
286
     1
 66
     0
277
    -2
287
     1
 67
     0
278
    -2
288
     1
 68
     0
279
    -2
289
     1
 69
     0
  7
STANDARD
140
0.25
170
     5
 62
     0
 63
     7
283
     0
274
    -2
284
     1
 64
     0
275
    -2
285
     1
 65
     0
276
    -2
286
     1
 66
     0
277
    -2
287
     1
 67
     0
278
    -2
288
     1
 68
     0
279
    -2
289
     1
 69
     0
  7
STANDARD
140
0.18
170
     5
 62
     0
 63
     7
283
     0
274
    -2
284
     1
 64
     0
275
    -2
285
     1
 65
     0
276
    -2
286
     1
 66
     0
277
    -2
287
     1
 67
     0
278
    -2
288
     1
 68
     0
279
    -2
289
     1
 69
     0
  0
VISUALSTYLE
  5
264
102
{ACAD_REACTORS
330
25E
102
}
330
25E
100
AcDbVisualStyle
  2
2dWireframe
 70
     4
 71
     0
 72
     2
 73
     0
 90
        0
 40
-0.6
 41
-30.0
 62
     5
 63
     7
 74
     1
 91
        4
 64
     7
 65
   257
 75
     1
175
     1
 42
1.0
 92
        0
 66
   257
 43
1.0
 76
     1
 77
     6
 78
     2
 67
     7
 79
     5
170
     0
171
     0
290
     0
174
     0
 93
        1
 44
0.0
173
     0
291
     0
 45
0.0
1001
ACAD
1000
AcDbSavedByObjectVersion
1070
     0
  0
VISUALSTYLE
  5
266
102
{ACAD_REACTORS
330
25E
102
}
330
25E
100
AcDbVisualStyle
  2
3D Hidden
 70
     6
 71
     1
 72
     2
 73
     2
 90
        0
 40
-0.6
 41
-30.0
 62
     5
 63
     7
 74
     2
 91
        2
 64
     7
 65
   257
 75
     2
175
     1
 42
40.0
 92
        0
 66
   257
 43
1.0
 76
     1
 77
     6
 78
     2
 67
     7
 79
     3
170
     0
171
     0
290
     0
174
     0
 93
        1
 44
0.0
173
     0
291
     0
 45
0.0
1001
ACAD
1000
AcDbSavedByObjectVersion
1070
     0
  0
VISUALSTYLE
  5
265
102
{ACAD_REACTORS
330
25E
102
}
330
25E
100
AcDbVisualStyle
  2
3dWireframe
 70
     5
 71
     0
 72
     2
 73
     0
 90
        0
 40
-0.6
 41
-30.0
 62
     5
 63
     7
 74
     1
 91
        4
 64
     7
 65
   257
 75
     1
175
     1
 42
1.0
 92
        0
 66
   257
 43
1.0
 76
     1
 77
     6
 78
     2
 67
     7
 79
     5
170
     0
171
     0
290
     0
174
     0
 93
        1
 44
0.0
173
     0
291
     0
 45
0.0
1001
ACAD
1000
AcDbSavedByObjectVersion
1070
     0
  0
VISUALSTYLE
  5
263
102
{ACAD_REACTORS
330
25E
102
}
330
25E
100
AcDbVisualStyle
  2
Basic
 70
     7
 71
     1
 72
     0
 73
     1
 90
        0
 40
-0.6
 41
-30.0
 62
     5
 63
     7
 74
     0
 91
        4
 64
     7
 65
   257
 75
     1
175
     1
 42
1.0
 92
        8
 66
     7
 43
1.0
 76
     1
 77
     6
 78
     2
 67
     7
 79
     5
170
     0
171
     0
290
     0
174
     0
 93
        1
 44
0.0
173
     0
291
     1
 45
0.0
1001
ACAD
1000
AcDbSavedByObjectVersion
1070
     0
  0
VISUALSTYLE
  5
26A
102
{ACAD_REACTORS
330
25E
102
}
330
25E
100
AcDbVisualStyle
  2
Brighten
 70
    12
 71
     2
 72
     2
 73
     0
 90
        0
 40
-0.6
 41
-30.0
 62
     5
 63
     7
 74
     1
 91
        4
 64
     7
 65
   257
 75
     1
175
     1
 42
1.0
 92
        8
 66
     7
 43
1.0
 76
     1
 77
     6
 78
     2
 67
     7
 79
     5
170
     0
171
     0
290
     0
174
     0
 93
        1
 44
50.0
173
     0
291
     1
 45
0.0
1001
ACAD
1000
AcDbSavedByObjectVersion
1070
     0
  0
VISUALSTYLE
  5
26E
102
{ACAD_REACTORS
330
25E
102
}
330
25E
100
AcDbVisualStyle
  2
ColorChange
 70
    16
 71
     2
 72
     2
 73
     3
 90
        0
 40
-0.6
 41
-30.0
 62
     5
 63
     8
 74
     1
 91
        4
 64
     7
 65
   257
 75
     1
175
     1
 42
1.0
 92
        8
 66
     8
 43
1.0
 76
     1
 77
     6
 78
     2
 67
     7
 79
     5
170
     0
171
     0
290
     0
174
     0
 93
        1
 44
0.0
173
     0
291
     1
 45
0.0
1001
ACAD
1000
AcDbSavedByObjectVersion
1070
     0
  0
VISUALSTYLE
  5
267
102
{ACAD_REACTORS
330
25E
102
}
330
25E
100
AcDbVisualStyle
  2
Conceptual
 70
     9
 71
     3
 72
     2
 73
     0
 90
        0
 40
-0.6
 41
-30.0
 62
     5
 63
     7
 74
     2
 91
        2
 64
     7
 65
   257
 75
     1
175
     1
 42
40.0
 92
        8
 66
     7
 43
1.0
 76
     1
 77
     6
 78
     2
 67
     7
 79
     3
170
     0
171
     0
290
     0
174
     0
 93
        1
 44
0.0
173
     0
291
     0
 45
0.0
1001
ACAD
1000
AcDbSavedByObjectVersion
1070
     0
  0
VISUALSTYLE
  5
269
102
{ACAD_REACTORS
330
25E
102
}
330
25E
100
AcDbVisualStyle
  2
Dim
 70
    11
 71
     2
 72
     2
 73
     0
 90
        0
 40
-0.6
 41
-30.0
 62
     5
 63
     7
 74
     1
 91
        4
 64
     7
 65
   257
 75
     1
175
     1
 42
1.0
 92
        8
 66
     7
 43
1.0
 76
     1
 77
     6
 78
     2
 67
     7
 79
     5
170
     0
171
     0
290
     0
174
     0
 93
        1
 44
-50.0
173
     0
291
     1
 45
0.0
1001
ACAD
1000
AcDbSavedByObjectVersion
1070
     0
  0
VISUALSTYLE
  5
26D
102
{ACAD_REACTORS
330
25E
102
}
330
25E
100
AcDbVisualStyle
  2
Facepattern
 70
    15
 71
     2
 72
     2
 73
     0
 90
        0
 40
-0.6
 41
-30.0
 62
     5
 63
     7
 74
     1
 91
        4
 64
     7
 65
   257
 75
     1
175
     1
 42
1.0
 92
        8
 66
     7
 43
1.0
 76
     1
 77
     6
 78
     2
 67
     7
 79
     5
170
     0
171
     0
290
     0
174
     0
 93
        1
 44
0.0
173
     0
291
     1
 45
0.0
1001
ACAD
1000
AcDbSavedByObjectVersion
1070
     0
  0
VISUALSTYLE
  5
25F
102
{ACAD_REACTORS
330
25E
102
}
330
25E
100
AcDbVisualStyle
  2
Flat
 70
     0
 71
     2
 72
     1
 73
     1
 90
        2
 40
-0.6
 41
30.0
 62
     5
 63
     7
 74
     0
 91
        4
 64
     7
 65
   257
 75
     1
175
     1
 42
1.0
 92
        8
 66
     7
 43
1.0
 76
     1
 77
     6
 78
     2
 67
     7
 79
     5
170
     0
171
     0
290
     0
174
     0
 93
       13
 44
0.0
173
     0
291
     1
 45
0.0
1001
ACAD
1000
AcDbSavedByObjectVersion
1070
     0
  0
VISUALSTYLE
  5
260
102
{ACAD_REACTORS
330
25E
102
}
330
25E
100
AcDbVisualStyle
  2
FlatWithEdges
 70
     1
 71
     2
 72
     1
 73
     1
 90
        2
 40
-0.6
 41
30.0
 62
     5
 63
     7
 74
     1
 91
        4
 64
     7
 65
   257
 75
     1
175
     1
 42
1.0
 92
        0
 66
   257
 43
1.0
 76
     1
 77
     6
 78
     2
 67
     7
 79
     5
170
     0
171
     0
290
     0
174
     0
 93
       13
 44
0.0
173
     0
291
     1
 45
0.0
1001
ACAD
1000
AcDbSavedByObjectVersion
1070
     0
  0
VISUALSTYLE
  5
261
102
{ACAD_REACTORS
330
25E
102
}
330
25E
100
AcDbVisualStyle
  2
Gouraud
 70
     2
 71
     2
 72
     2
 73
     1
 90
        2
 40
-0.6
 41
30.0
 62
     5
 63
     7
 74
     0
 91
        4
 64
     7
 65
   257
 75
     1
175
     1
 42
1.0
 92
        0
 66
     7
 43
1.0
 76
     1
 77
     6
 78
     2
 67
     7
 79
     5
170
     0
171
     0
290
     0
174
     0
 93
       13
 44
0.0
173
     0
291
     1
 45
0.0
1001
ACAD
1000
AcDbSavedByObjectVersion
1070
     0
  0
VISUALSTYLE
  5
262
102
{ACAD_REACTORS
330
25E
102
}
330
25E
100
AcDbVisualStyle
  2
GouraudWithEdges
 70
     3
 71
     2
 72
     2
 73
     1
 90
        2
 40
-0.6
 41
30.0
 62
     5
 63
     7
 74
     1
 91
        4
 64
     7
 65
   257
 75
     1
175
     1
 42
1.0
 92
        0
 66
   257
 43
1.0
 76
     1
 77
     6
 78
     2
 67
     7
 79
     5
170
     0
171
     0
290
     0
174
     0
 93
       13
 44
0.0
173
     0
291
     1
 45
0.0
1001
ACAD
1000
AcDbSavedByObjectVersion
1070
     0
  0
VISUALSTYLE
  5
26C
102
{ACAD_REACTORS
330
25E
102
}
330
25E
100
AcDbVisualStyle
  2
Linepattern
 70
    14
 71
     2
 72
     2
 73
     0
 90
        0
 40
-0.6
 41
-30.0
 62
     5
 63
     7
 74
     1
 91
        4
 64
     7
 65
   257
 75
     7
175
     7
 42
1.0
 92
        8
 66
     7
 43
1.0
 76
     1
 77
     6
 78
     2
 67
     7
 79
     5
170
     0
171
     0
290
     0
174
     0
 93
        1
 44
0.0
173
     0
291
     1
 45
0.0
1001
ACAD
1000
AcDbSavedByObjectVersion
1070
     0
  0
VISUALSTYLE
  5
268
102
{ACAD_REACTORS
330
25E
102
}
330
25E
100
AcDbVisualStyle
  2
Realistic
 70
     8
 71
     2
 72
     2
 73
     0
 90
        0
 40
-0.6
 41
-30.0
 62
     5
 63
     7
 74
     1
 91
        0
 64
     7
 65
   257
 75
     1
175
     1
 42
1.0
 92
        8
 66
     8
 43
1.0
 76
     1
 77
     6
 78
     2
 67
     7
 79
     5
170
     0
171
     0
290
     0
174
     0
 93
       13
 44
0.0
173
     0
291
     0
 45
0.0
1001
ACAD
1000
AcDbSavedByObjectVersion
1070
     0
  0
VISUALSTYLE
  5
26B
102
{ACAD_REACTORS
330
25E
102
}
330
25E
100
AcDbVisualStyle
  2
Thicken
 70
    13
 71
     2
 72
     2
 73
     0
 90
        0
 40
-0.6
 41
-30.0
 62
     5
 63
     7
 74
     1
 91
        4
 64
     7
 65
   257
 75
     1
175
     1
 42
1.0
 92
       12
 66
     7
 43
1.0
 76
     1
 77
     6
 78
     2
 67
     7
 79
     5
170
     0
171
     0
290
     0
174
     0
 93
        1
 44
0.0
173
     0
291
     1
 45
0.0
1001
ACAD
1000
AcDbSavedByObjectVersion
1070
     0
  0
DICTIONARYVAR
  5
27C
102
{ACAD_REACTORS
330
13C
102
}
330
13C
100
DictionaryVariables
280
     0
  1
STANDARD
  0
DICTIONARYVAR
  5
13E
102
{ACAD_REACTORS
330
13C
102
}
330
13C
100
DictionaryVariables
280
     0
  1
2
  0
DICTIONARYVAR
  5
13D
102
{ACAD_REACTORS
330
13C
102
}
330
13C
100
DictionaryVariables
280
     0
  1
1
  0
DICTIONARYVAR
  5
45E
102
{ACAD_REACTORS
330
13C
102
}
330
13C
100
DictionaryVariables
280
     0
  1
0
  0
DICTIONARYVAR
  5
45D
102
{ACAD_REACTORS
330
13C
102
}
330
13C
100
DictionaryVariables
280
     0
  1
127
  0
DICTIONARY
  5
516
330
1D
100
AcDbDictionary
280
     1
281
     1
  3
ACAD_XREC_ROUNDTRIP
360
517
  0
DICTIONARY
  5
518
330
21
100
AcDbDictionary
280
     1
281
     1
  3
ACAD_XREC_ROUNDTRIP
360
519
  0
DICTIONARY
  5
51C
330
25C
100
AcDbDictionary
280
     1
281
     1
  3
ACAD_XREC_ROUNDTRIP
360
51D
  0
DICTIONARY
  5
51A
330
25B
100
AcDbDictionary
280
     1
281
     1
  3
ACAD_XREC_ROUNDTRIP
360
51B
  0
DICTIONARY
  5
51E
330
25D
100
AcDbDictionary
280
     1
281
     1
  3
ACAD_XREC_ROUNDTRIP
360
51F
  0
DICTIONARY
  5
520
330
271
100
AcDbDictionary
280
     1
281
     1
  3
ACAD_XREC_ROUNDTRIP
360
521
  0
XRECORD
  5
517
102
{ACAD_REACTORS
330
516
102
}
330
516
100
AcDbXrecord
280
     1
102
SHADEPLOT
 70
     0
102
SHADEPLOTRESLEVEL
 70
     2
102
SHADEPLOTCUSTOMDPI
 70
   300
  0
XRECORD
  5
519
102
{ACAD_REACTORS
330
518
102
}
330
518
100
AcDbXrecord
280
     1
102
SHADEPLOT
 70
     0
102
SHADEPLOTRESLEVEL
 70
     2
102
SHADEPLOTCUSTOMDPI
 70
   300
  0
XRECORD
  5
51D
102
{ACAD_REACTORS
330
51C
102
}
330
51C
100
AcDbXrecord
280
     1
102
MATERIAL
148
0.0
149
0.0
149
0.0
 93
        0
 94
       63
282
     0
 72
     1
 77
     1
171
     1
175
     1
179
     1
273
     0
  0
XRECORD
  5
51B
102
{ACAD_REACTORS
330
51A
102
}
330
51A
100
AcDbXrecord
280
     1
102
MATERIAL
148
0.0
149
0.0
149
0.0
 93
        0
 94
       63
282
     0
 72
     1
 77
     1
171
     1
175
     1
179
     1
273
     0
  0
XRECORD
  5
51F
102
{ACAD_REACTORS
330
51E
102
}
330
51E
100
AcDbXrecord
280
     1
102
MATERIAL
148
0.0
149
0.0
149
0.0
 93
        0
 94
       63
282
     0
 72
     1
 77
     1
171
     1
175
     1
179
     1
273
     0
  0
XRECORD
  5
521
102
{ACAD_REACTORS
330
520
102
}
330
520
100
AcDbXrecord
280
     1
102
ACAD_ROUNDTRIP_PRE2007_TABLESTYLE
 90
      512
 91
        0
  1

 92
      512
 93
        0
  2

 94
      512
 95
        0
  3

  0
ENDSEC
  0
EOF
