  0
SECTION
  2
HEADER
  9
$ACADVER
  1
AC1014
  9
$ACADMAINTVER
 70
     9
  9
$DWGCODEPAGE
  3
ANSI_1252
  9
$INSBASE
 10
11.90920688209672
 20
25.7861877460522
 30
0.0
  9
$EXTMIN
 10
-4.926491015037008
 20
16.62075006953301
 30
0.0
  9
$EXTMAX
 10
15.46940982057008
 20
29.99693216104459
 30
0.0
  9
$LIMMIN
 10
0.0
 20
0.0
  9
$LIMMAX
 10
36.0
 20
36.0
  9
$ORTHOMODE
 70
     1
  9
$REGENMODE
 70
     1
  9
$FILLMODE
 70
     1
  9
$QTEXTMODE
 70
     0
  9
$MIRRTEXT
 70
     1
  9
$DRAGMODE
 70
     0
  9
$LTSCALE
 40
1.0
  9
$OSMODE
 70
    37
  9
$ATTMODE
 70
     1
  9
$TEXTSIZE
 40
0.2
  9
$TRACEWID
 40
0.05
  9
$TEXTSTYLE
  7
STANDARD
  9
$CLAYER
  8
ADP1DETAIL
  9
$CELTYPE
  6
BYLAYER
  9
$CECOLOR
 62
   256
  9
$CELTSCALE
 40
1.0
  9
$DELOBJ
 70
     1
  9
$DISPSILH
 70
     0
  9
$DIMSCALE
 40
1.0
  9
$DIMASZ
 40
0.125
  9
$DIMEXO
 40
0.0625
  9
$DIMDLI
 40
0.38
  9
$DIMRND
 40
0.0
  9
$DIMDLE
 40
0.0
  9
$DIMEXE
 40
0.18
  9
$DIMTP
 40
0.0
  9
$DIMTM
 40
0.0
  9
$DIMTXT
 40
0.125
  9
$DIMCEN
 40
0.1875
  9
$DIMTSZ
 40
0.125
  9
$DIMTOL
 70
     0
  9
$DIMLIM
 70
     0
  9
$DIMTIH
 70
     0
  9
$DIMTOH
 70
     0
  9
$DIMSE1
 70
     0
  9
$DIMSE2
 70
     0
  9
$DIMTAD
 70
     0
  9
$DIMZIN
 70
     3
  9
$DIMBLK
  1

  9
$DIMASO
 70
     1
  9
$DIMSHO
 70
     1
  9
$DIMPOST
  1

  9
$DIMAPOST
  1

  9
$DIMALT
 70
     0
  9
$DIMALTD
 70
     1
  9
$DIMALTF
 40
25.4
  9
$DIMLFAC
 40
1.0
  9
$DIMTOFL
 70
     0
  9
$DIMTVP
 40
0.0
  9
$DIMTIX
 70
     0
  9
$DIMSOXD
 70
     0
  9
$DIMSAH
 70
     0
  9
$DIMBLK1
  1

  9
$DIMBLK2
  1

  9
$DIMSTYLE
  2
STANDARD
  9
$DIMCLRD
 70
     0
  9
$DIMCLRE
 70
     0
  9
$DIMCLRT
 70
     0
  9
$DIMTFAC
 40
1.0
  9
$DIMGAP
 40
0.125
  9
$DIMJUST
 70
     0
  9
$DIMSD1
 70
     0
  9
$DIMSD2
 70
     0
  9
$DIMTOLJ
 70
     1
  9
$DIMTZIN
 70
     0
  9
$DIMALTZ
 70
     0
  9
$DIMALTTZ
 70
     0
  9
$DIMFIT
 70
     3
  9
$DIMUPT
 70
     0
  9
$DIMUNIT
 70
     2
  9
$DIMDEC
 70
     4
  9
$DIMTDEC
 70
     4
  9
$DIMALTU
 70
     2
  9
$DIMALTTD
 70
     2
  9
$DIMTXSTY
  7
STANDARD
  9
$DIMAUNIT
 70
     0
  9
$LUNITS
 70
     5
  9
$LUPREC
 70
     4
  9
$SKETCHINC
 40
0.1
  9
$FILLETRAD
 40
0.062
  9
$AUNITS
 70
     0
  9
$AUPREC
 70
     0
  9
$MENU
  1
acad
  9
$ELEVATION
 40
0.0
  9
$PELEVATION
 40
0.0
  9
$THICKNESS
 40
0.0
  9
$LIMCHECK
 70
     0
  9
$BLIPMODE
 70
     0
  9
$CHAMFERA
 40
0.0
  9
$CHAMFERB
 40
0.0
  9
$CHAMFERC
 40
0.0
  9
$CHAMFERD
 40
0.0
  9
$SKPOLY
 70
     0
  9
$TDCREATE
 40
2450406.621784525
  9
$TDUPDATE
 40
2452297.086193576
  9
$TDINDWG
 40
0.0923453125
  9
$TDUSRTIMER
 40
0.0923453125
  9
$USRTIMER
 70
     1
  9
$ANGBASE
 50
0.0
  9
$ANGDIR
 70
     0
  9
$PDMODE
 70
     0
  9
$PDSIZE
 40
0.0
  9
$PLINEWID
 40
0.0
  9
$COORDS
 70
     2
  9
$SPLFRAME
 70
     0
  9
$SPLINETYPE
 70
     6
  9
$SPLINESEGS
 70
     8
  9
$ATTDIA
 70
     0
  9
$ATTREQ
 70
     1
  9
$HANDLING
 70
 22529
  9
$HANDSEED
  5
264
  9
$SURFTAB1
 70
     6
  9
$SURFTAB2
 70
     6
  9
$SURFTYPE
 70
     6
  9
$SURFU
 70
     6
  9
$SURFV
 70
     6
  9
$UCSNAME
  2

  9
$UCSORG
 10
0.0
 20
0.0
 30
0.0
  9
$UCSXDIR
 10
1.0
 20
0.0
 30
0.0
  9
$UCSYDIR
 10
0.0
 20
1.0
 30
0.0
  9
$PUCSNAME
  2

  9
$PUCSORG
 10
0.0
 20
0.0
 30
0.0
  9
$PUCSXDIR
 10
1.0
 20
0.0
 30
0.0
  9
$PUCSYDIR
 10
0.0
 20
1.0
 30
0.0
  9
$USERI1
 70
     0
  9
$USERI2
 70
     0
  9
$USERI3
 70
     0
  9
$USERI4
 70
     0
  9
$USERI5
 70
     0
  9
$USERR1
 40
0.0
  9
$USERR2
 40
0.0
  9
$USERR3
 40
0.0
  9
$USERR4
 40
0.0
  9
$USERR5
 40
0.0
  9
$WORLDVIEW
 70
     1
  9
$SHADEDGE
 70
     3
  9
$SHADEDIF
 70
    70
  9
$TILEMODE
 70
     1
  9
$MAXACTVP
 70
    15
  9
$PINSBASE
 10
0.0008545028977096
 20
1.250283272183907
 30
0.0
  9
$PLIMCHECK
 70
     0
  9
$PEXTMIN
 10
1.000000000000000E+20
 20
1.000000000000000E+20
 30
1.000000000000000E+20
  9
$PEXTMAX
 10
-1.000000000000000E+20
 20
-1.000000000000000E+20
 30
-1.000000000000000E+20
  9
$PLIMMIN
 10
0.0
 20
0.0
  9
$PLIMMAX
 10
12.0
 20
9.0
  9
$UNITMODE
 70
     0
  9
$VISRETAIN
 70
     0
  9
$PLINEGEN
 70
     0
  9
$PSLTSCALE
 70
     1
  9
$TREEDEPTH
 70
  3020
  9
$PICKSTYLE
 70
     1
  9
$CMLSTYLE
  2
STANDARD
  9
$CMLJUST
 70
     0
  9
$CMLSCALE
 40
1.0
  9
$PROXYGRAPHICS
 70
     1
  9
$MEASUREMENT
 70
     0
  0
ENDSEC
  0
SECTION
  2
CLASSES
  0
CLASS
  1
ACDBDICTIONARYWDFLT
  2
AcDbDictionaryWithDefault
  3
AutoCAD 2000
 90
        0
280
     0
281
     0
  0
CLASS
  1
ACDBPLACEHOLDER
  2
AcDbPlaceHolder
  3
AutoCAD 2000
 90
        0
280
     0
281
     0
  0
CLASS
  1
LAYOUT
  2
AcDbLayout
  3
AutoCAD 2000
 90
        0
280
     0
281
     0
  0
CLASS
  1
DICTIONARYVAR
  2
AcDbDictionaryVar
  3
AutoCAD 2000
 90
        0
280
     0
281
     0
  0
CLASS
  1
LONG_TRANSACTION
  2
AcDbLongTransaction
  3
AutoCAD 2000
 90
        0
280
     0
281
     0
  0
CLASS
  1
LWPOLYLINE
  2
AcDbPolyline
  3
AutoCAD 2000
 90
        0
280
     0
281
     1
  0
CLASS
  1
HATCH
  2
AcDbHatch
  3
AutoCAD 2000
 90
        0
280
     0
281
     1
  0
CLASS
  1
XRECORD
  2
AcDbXrecord
  3
AutoCAD 2000
 90
        0
280
     0
281
     0
  0
CLASS
  1
LONG_TRANSACTION
  2
AcDbLongTransaction
  3
AutoCAD 2000
 90
        0
280
     0
281
     0
  0
CLASS
  1
LWPOLYLINE
  2
AcDbPolyline
  3
AutoCAD 2000
 90
        0
280
     0
281
     1
  0
CLASS
  1
HATCH
  2
AcDbHatch
  3
AutoCAD 2000
 90
        0
280
     0
281
     1
  0
CLASS
  1
XRECORD
  2
AcDbXrecord
  3
AutoCAD 2000
 90
        0
280
     0
281
     0
  0
CLASS
  1
LONG_TRANSACTION
  2
AcDbLongTransaction
  3
AutoCAD 2000
 90
        0
280
     0
281
     0
  0
CLASS
  1
LWPOLYLINE
  2
AcDbPolyline
  3
AutoCAD 2000
 90
        0
280
     0
281
     1
  0
CLASS
  1
HATCH
  2
AcDbHatch
  3
AutoCAD 2000
 90
        0
280
     0
281
     1
  0
CLASS
  1
XRECORD
  2
AcDbXrecord
  3
AutoCAD 2000
 90
        0
280
     0
281
     0
  0
CLASS
  1
LONG_TRANSACTION
  2
AcDbLongTransaction
  3
AutoCAD 2000
 90
        0
280
     0
281
     0
  0
CLASS
  1
LWPOLYLINE
  2
AcDbPolyline
  3
AutoCAD 2000
 90
        0
280
     0
281
     1
  0
CLASS
  1
HATCH
  2
AcDbHatch
  3
AutoCAD 2000
 90
        0
280
     0
281
     1
  0
CLASS
  1
XRECORD
  2
AcDbXrecord
  3
AutoCAD 2000
 90
        0
280
     0
281
     0
  0
CLASS
  1
LONG_TRANSACTION
  2
AcDbLongTransaction
  3
AutoCAD 2000
 90
        0
280
     0
281
     0
  0
CLASS
  1
LWPOLYLINE
  2
AcDbPolyline
  3
AutoCAD 2000
 90
        0
280
     0
281
     1
  0
CLASS
  1
HATCH
  2
AcDbHatch
  3
AutoCAD 2000
 90
        0
280
     0
281
     1
  0
CLASS
  1
XRECORD
  2
AcDbXrecord
  3
AutoCAD 2000
 90
        0
280
     0
281
     0
  0
ENDSEC
  0
SECTION
  2
TABLES
  0
TABLE
  2
VPORT
  5
8
330
0
100
AcDbSymbolTable
 70
     2
  0
VPORT
  5
241
330
8
100
AcDbSymbolTableRecord
100
AcDbViewportTableRecord
  2
*ACTIVE
 70
     0
 10
0.0
 20
0.0
 11
1.0
 21
1.0
 12
5.288360470538661
 22
23.30776986538871
 13
0.0
 23
0.0
 14
0.5740882589684922
 24
0.5740882589684922
 15
0.5
 25
0.5
 16
0.0
 26
0.0
 36
1.0
 17
0.0
 27
0.0
 37
0.0
 40
13.47957162183027
 41
1.570528967254408
 42
50.0
 43
0.0
 44
0.0
 50
0.0
 51
0.0
 71
     0
 72
   100
 73
     1
 74
     0
 75
     0
 76
     0
 77
     0
 78
     0
  0
ENDTAB
  0
TABLE
  2
LTYPE
  5
5
330
0
100
AcDbSymbolTable
 70
     1
  0
LTYPE
  5
12
330
5
100
AcDbSymbolTableRecord
100
AcDbLinetypeTableRecord
  2
BYBLOCK
 70
     0
  3

 72
    65
 73
     0
 40
0.0
  0
LTYPE
  5
13
330
5
100
AcDbSymbolTableRecord
100
AcDbLinetypeTableRecord
  2
BYLAYER
 70
     0
  3

 72
    65
 73
     0
 40
0.0
  0
LTYPE
  5
14
330
5
100
AcDbSymbolTableRecord
100
AcDbLinetypeTableRecord
  2
CONTINUOUS
 70
     0
  3
Solid line
 72
    65
 73
     0
 40
0.0
  0
ENDTAB
  0
TABLE
  2
LAYER
  5
2
330
0
100
AcDbSymbolTable
 70
     4
  0
LAYER
  5
F
330
2
100
AcDbSymbolTableRecord
100
AcDbLayerTableRecord
  2
0
 70
     0
 62
     7
  6
CONTINUOUS
  0
LAYER
  5
8B
330
2
100
AcDbSymbolTableRecord
100
AcDbLayerTableRecord
  2
ADPDIM
 70
     0
 62
     3
  6
CONTINUOUS
  0
LAYER
  5
8D
330
2
100
AcDbSymbolTableRecord
100
AcDbLayerTableRecord
  2
ADP1DETAIL
 70
     0
 62
     7
  6
CONTINUOUS
  0
LAYER
  5
8F
330
2
100
AcDbSymbolTableRecord
100
AcDbLayerTableRecord
  2
DEFPOINTS
 70
     0
 62
     7
  6
CONTINUOUS
  0
ENDTAB
  0
TABLE
  2
STYLE
  5
3
330
0
100
AcDbSymbolTable
 70
     2
  0
STYLE
  5
10
330
3
100
AcDbSymbolTableRecord
100
AcDbTextStyleTableRecord
  2
STANDARD
 70
     0
 40
0.0
 41
1.0
 50
0.0
 71
     0
 42
0.2
  3
txt
  4

  0
STYLE
  5
FD
330
3
100
AcDbSymbolTableRecord
100
AcDbTextStyleTableRecord
  2
ARIAL_WIDE
 70
     0
 40
0.0
 41
1.25
 50
0.0
 71
     0
 42
0.2
  3
ARIAL.TTF
  4

1001
ACAD
1000
Arial
1071
       34
  0
ENDTAB
  0
TABLE
  2
VIEW
  5
6
330
0
100
AcDbSymbolTable
 70
     0
  0
ENDTAB
  0
TABLE
  2
UCS
  5
7
330
0
100
AcDbSymbolTable
 70
     0
  0
ENDTAB
  0
TABLE
  2
APPID
  5
9
330
0
100
AcDbSymbolTable
 70
     1
  0
APPID
  5
11
330
9
100
AcDbSymbolTableRecord
100
AcDbRegAppTableRecord
  2
ACAD
 70
     0
  0
ENDTAB
  0
TABLE
  2
DIMSTYLE
  5
A
330
0
100
AcDbSymbolTable
 70
     1
  0
DIMSTYLE
105
E8
330
A
100
AcDbSymbolTableRecord
100
AcDbDimStyleTableRecord
  2
STANDARD
 70
     0
  3

  4

  5

  6

  7

 40
1.0
 41
0.18
 42
0.0625
 43
0.38
 44
0.18
 45
0.0
 46
0.0
 47
0.0
 48
0.0
140
0.18
141
0.09
142
0.0
143
25.4
144
1.0
145
0.0
146
1.0
147
0.09
 71
     0
 72
     0
 73
     1
 74
     1
 75
     0
 76
     0
 77
     0
 78
     0
170
     0
171
     2
172
     0
173
     0
174
     0
175
     0
176
     0
177
     0
178
     0
270
     2
271
     4
272
     4
273
     2
274
     2
340
10
275
     0
280
     0
281
     0
282
     0
283
     1
284
     0
285
     0
286
     0
287
     3
288
     0
  0
ENDTAB
  0
TABLE
  2
BLOCK_RECORD
  5
1
330
0
100
AcDbSymbolTable
 70
     3
  0
BLOCK_RECORD
  5
18
102
{ACAD_XDICTIONARY
360
152
102
}
330
1
100
AcDbSymbolTableRecord
100
AcDbBlockTableRecord
  2
*MODEL_SPACE
  0
BLOCK_RECORD
  5
15
102
{ACAD_XDICTIONARY
360
150
102
}
330
1
100
AcDbSymbolTableRecord
100
AcDbBlockTableRecord
  2
*PAPER_SPACE
  0
BLOCK_RECORD
  5
31
330
1
100
AcDbSymbolTableRecord
100
AcDbBlockTableRecord
  2
4441
  0
BLOCK_RECORD
  5
88
330
1
100
AcDbSymbolTableRecord
100
AcDbBlockTableRecord
  2
*D1
  0
BLOCK_RECORD
  5
89
330
1
100
AcDbSymbolTableRecord
100
AcDbBlockTableRecord
  2
*D2
  0
ENDTAB
  0
ENDSEC
  0
SECTION
  2
BLOCKS
  0
BLOCK
  5
92
330
18
100
AcDbEntity
  8
0
100
AcDbBlockBegin
  2
*MODEL_SPACE
 70
     0
 10
0.0
 20
0.0
 30
0.0
  3
*MODEL_SPACE
  1

  0
ENDBLK
  5
93
330
18
100
AcDbEntity
  8
0
100
AcDbBlockEnd
  0
BLOCK
  5
90
330
15
100
AcDbEntity
 67
     1
  8
0
100
AcDbBlockBegin
  2
*PAPER_SPACE
 70
     0
 10
0.0
 20
0.0
 30
0.0
  3
*PAPER_SPACE
  1

  0
ENDBLK
  5
91
330
15
100
AcDbEntity
 67
     1
  8
0
100
AcDbBlockEnd
  0
BLOCK
  5
95
330
31
100
AcDbEntity
  8
0
100
AcDbBlockBegin
  2
4441
 70
     0
 10
0.0
 20
0.0
 30
0.0
  3
4441
  1

  0
ARC
  5
96
330
31
100
AcDbEntity
  8
0
100
AcDbCircle
 10
2.131128572843903
 20
0.3179684149746849
 30
0.0
 40
0.125
100
AcDbArc
 50
274.0195737565656
 51
90.0
  0
ARC
  5
97
330
31
100
AcDbEntity
  8
0
100
AcDbCircle
 10
0.3823524555948391
 20
0.161368414974685
 30
0.0
 40
0.016
100
AcDbArc
 50
90.0
 51
174.0
  0
ARC
  5
98
330
31
100
AcDbEntity
  8
0
100
AcDbCircle
 10
0.2717699263779078
 20
1.036718414974684
 30
0.0
 40
0.53125
100
AcDbArc
 50
263.6450457150437
 51
313.0098162713345
  0
ARC
  5
99
330
31
100
AcDbEntity
  8
0
100
AcDbCircle
 10
0.131128572843904
 20
0.3179684149746849
 30
0.0
 40
0.125
100
AcDbArc
 50
90.0
 51
265.9804262434344
  0
ARC
  5
9A
330
31
100
AcDbEntity
  8
0
100
AcDbCircle
 10
0.0603972375810239
 20
0.0076011117305739
 30
0.0
 40
0.1957429538942399
100
AcDbArc
 50
359.3757275120109
 51
74.0995487402812
  0
LINE
  5
9B
330
31
100
AcDbEntity
  8
0
100
AcDbLine
 10
0.349878572843904
 20
0.005468414974685
 30
0.0
 11
0.3664401052689467
 21
0.1630408703869674
 31
0.0
  0
LINE
  5
9C
330
31
100
AcDbEntity
  8
0
100
AcDbLine
 10
0.349878572843904
 20
0.005468414974685
 30
0.0
 11
0.2558458548927965
 21
0.005468414974685
 31
0.0
  0
LINE
  5
9D
330
31
100
AcDbEntity
  8
0
100
AcDbLine
 10
0.131128572843904
 20
0.442968414974685
 30
0.0
 11
0.1929658099349621
 21
0.442968414974685
 31
0.0
  0
LINE
  5
9E
330
31
100
AcDbEntity
  8
0
100
AcDbLine
 10
0.1934816436388733
 20
0.442968414974685
 30
0.0
 11
0.2129671381166458
 21
0.5087328142309704
 31
0.0
  0
LINE
  5
9F
330
31
100
AcDbEntity
  8
0
100
AcDbLine
 10
1.787378572843904
 20
0.177368414974685
 30
0.0
 11
1.770817040418861
 21
0.3349408703869674
 31
0.0
  0
LINE
  5
A0
330
31
100
AcDbEntity
  8
0
100
AcDbLine
 10
0.474878572843904
 20
0.177368414974685
 30
0.0
 11
0.4914401052689468
 21
0.3349408703869674
 31
0.0
  0
LINE
  5
A1
330
31
100
AcDbEntity
  8
0
100
AcDbLine
 10
0.474878572843904
 20
0.177368414974685
 30
0.0
 11
0.3823524555948391
 21
0.177368414974685
 31
0.0
  0
ARC
  5
A2
330
31
100
AcDbEntity
  8
0
100
AcDbCircle
 10
2.201859908106783
 20
0.0076011117305739
 30
0.0
 40
0.1957429538942399
100
AcDbArc
 50
105.9004512597187
 51
180.624272487989
  0
LINE
  5
A3
330
31
100
AcDbEntity
  8
0
100
AcDbLine
 10
1.912378572843904
 20
0.005468414974685
 30
0.0
 11
1.895817040418861
 21
0.1630408703869674
 31
0.0
  0
LINE
  5
A4
330
31
100
AcDbEntity
  8
0
100
AcDbLine
 10
1.912378572843904
 20
0.005468414974685
 30
0.0
 11
2.006411290795011
 21
0.005468414974685
 31
0.0
  0
ARC
  5
A5
330
31
100
AcDbEntity
  8
0
100
AcDbCircle
 10
1.879904690092968
 20
0.161368414974685
 30
0.0
 40
0.016
100
AcDbArc
 50
5.99999999999999
 51
90.0
  0
LINE
  5
A6
330
31
100
AcDbEntity
  8
0
100
AcDbLine
 10
1.787378572843904
 20
0.177368414974685
 30
0.0
 11
1.879904690092968
 21
0.177368414974685
 31
0.0
  0
ARC
  5
A7
330
31
100
AcDbEntity
  8
0
100
AcDbCircle
 10
1.131128572843904
 20
0.005468414974685
 30
0.0
 40
0.625
100
AcDbArc
 50
33.37250147611143
 51
90.0
  0
ARC
  5
A8
330
31
100
AcDbEntity
  8
0
100
AcDbCircle
 10
1.131128572843904
 20
0.005468414974685
 30
0.0
 40
0.8125
100
AcDbArc
 50
52.28977333137304
 51
90.0
  0
ARC
  5
A9
330
31
100
AcDbEntity
  8
0
100
AcDbCircle
 10
1.131128572843904
 20
0.005468414974685
 30
0.0
 40
0.8125
100
AcDbArc
 50
90.0
 51
127.7102266686269
  0
ARC
  5
AA
330
31
100
AcDbEntity
  8
0
100
AcDbCircle
 10
1.131128572843904
 20
0.005468414974685
 30
0.0
 40
0.625
100
AcDbArc
 50
90.0
 51
146.6274985238885
  0
ARC
  5
AB
330
31
100
AcDbEntity
  8
0
100
AcDbCircle
 10
0.5073524555948393
 20
0.333268414974685
 30
0.0
 40
0.016
100
AcDbArc
 50
90.0
 51
174.0
  0
LINE
  5
AC
330
31
100
AcDbEntity
  8
0
100
AcDbLine
 10
0.6091835949008262
 20
0.349268414974685
 30
0.0
 11
0.5073524555948393
 21
0.349268414974685
 31
0.0
  0
ARC
  5
AD
330
31
100
AcDbEntity
  8
0
100
AcDbCircle
 10
1.9904872193099
 20
1.036718414974684
 30
0.0
 40
0.53125
100
AcDbArc
 50
226.9901837286654
 51
276.3549542849563
  0
LINE
  5
AE
330
31
100
AcDbEntity
  8
0
100
AcDbLine
 10
1.653073550786981
 20
0.349268414974685
 30
0.0
 11
1.754904690092968
 21
0.349268414974685
 31
0.0
  0
ARC
  5
AF
330
31
100
AcDbEntity
  8
0
100
AcDbCircle
 10
1.754904690092968
 20
0.333268414974685
 30
0.0
 40
0.016
100
AcDbArc
 50
5.99999999999999
 51
90.0
  0
LINE
  5
B0
330
31
100
AcDbEntity
  8
0
100
AcDbLine
 10
2.068775502048934
 20
0.442968414974685
 30
0.0
 11
2.049290007571161
 21
0.5087328142309704
 31
0.0
  0
LINE
  5
B1
330
31
100
AcDbEntity
  8
0
100
AcDbLine
 10
2.131128572843903
 20
0.442968414974685
 30
0.0
 11
2.069291335752845
 21
0.442968414974685
 31
0.0
  0
ENDBLK
  5
B2
330
31
100
AcDbEntity
  8
0
100
AcDbBlockEnd
  0
BLOCK
  5
B3
330
88
100
AcDbEntity
  8
0
100
AcDbBlockBegin
  2
*D1
 70
     1
 10
0.0
 20
0.0
 30
0.0
  3
*D1
  1

  0
LINE
  5
B4
330
88
100
AcDbEntity
  8
0
  6
BYBLOCK
 62
     0
100
AcDbLine
 10
9.660354565240043
 20
27.00592934293382
 30
0.0
 11
9.660354565240043
 21
27.77599968368525
 31
0.0
  0
LINE
  5
B5
330
88
100
AcDbEntity
  8
0
  6
BYBLOCK
 62
     0
100
AcDbLine
 10
11.91020077802579
 20
27.00592934293382
 30
0.0
 11
11.91020077802579
 21
27.77599968368525
 31
0.0
  0
LINE
  5
B6
330
88
100
AcDbEntity
  8
0
  6
BYBLOCK
 62
     0
100
AcDbLine
 10
9.660354565240043
 20
27.59599968368525
 30
0.0
 11
10.38944433829958
 21
27.59599968368525
 31
0.0
  0
LINE
  5
B7
330
88
100
AcDbEntity
  8
0
  6
BYBLOCK
 62
     0
100
AcDbLine
 10
11.91020077802579
 20
27.59599968368525
 30
0.0
 11
11.18111100496625
 21
27.59599968368525
 31
0.0
  0
LINE
  5
B8
330
88
100
AcDbEntity
  8
0
  6
BYBLOCK
 62
     0
100
AcDbLine
 10
9.535354565240043
 20
27.47099968368525
 30
0.0
 11
9.785354565240043
 21
27.72099968368525
 31
0.0
  0
LINE
  5
B9
330
88
100
AcDbEntity
  8
0
  6
BYBLOCK
 62
     0
100
AcDbLine
 10
11.78520077802579
 20
27.47099968368525
 30
0.0
 11
12.03520077802579
 21
27.72099968368525
 31
0.0
  0
TEXT
  5
BA
330
88
100
AcDbEntity
  8
0
  6
BYBLOCK
 62
     0
100
AcDbText
 10
10.51444433829958
 20
27.53349968368525
 30
0.0
 40
0.125
  1
2 1/4
 72
     1
 11
10.78527767163291
 21
27.59599968368525
 31
0.0
100
AcDbText
 73
     2
  0
POINT
  5
BB
330
88
100
AcDbEntity
  8
DEFPOINTS
  6
BYBLOCK
 62
     0
100
AcDbPoint
 10
9.660354565240043
 20
26.94342934293382
 30
0.0
  0
POINT
  5
BC
330
88
100
AcDbEntity
  8
DEFPOINTS
  6
BYBLOCK
 62
     0
100
AcDbPoint
 10
11.91020077802579
 20
26.94342934293382
 30
0.0
  0
POINT
  5
BD
330
88
100
AcDbEntity
  8
DEFPOINTS
  6
BYBLOCK
 62
     0
100
AcDbPoint
 10
11.91020077802579
 20
27.59599968368525
 30
0.0
  0
ENDBLK
  5
BE
330
88
100
AcDbEntity
  8
0
100
AcDbBlockEnd
  0
BLOCK
  5
BF
330
89
100
AcDbEntity
  8
0
100
AcDbBlockBegin
  2
*D2
 70
     1
 10
0.0
 20
0.0
 30
0.0
  3
*D2
  1

  0
LINE
  5
C0
330
89
100
AcDbEntity
  8
0
  6
BYBLOCK
 62
     0
100
AcDbLine
 10
11.54261829951133
 20
26.73183588446806
 30
0.0
 11
11.54261829951133
 21
26.25570259528517
 31
0.0
  0
LINE
  5
C1
330
89
100
AcDbEntity
  8
0
  6
BYBLOCK
 62
     0
100
AcDbLine
 10
10.02365388560972
 20
26.73183588446806
 30
0.0
 11
10.02365388560972
 21
26.25570259528517
 31
0.0
  0
LINE
  5
C2
330
89
100
AcDbEntity
  8
0
  6
BYBLOCK
 62
     0
100
AcDbLine
 10
11.54261829951133
 20
26.43570259528518
 30
0.0
 11
11.15813609256052
 21
26.43570259528518
 31
0.0
  0
LINE
  5
C3
330
89
100
AcDbEntity
  8
0
  6
BYBLOCK
 62
     0
100
AcDbLine
 10
10.02365388560972
 20
26.43570259528518
 30
0.0
 11
10.40813609256052
 21
26.43570259528518
 31
0.0
  0
LINE
  5
C4
330
89
100
AcDbEntity
  8
0
  6
BYBLOCK
 62
     0
100
AcDbLine
 10
11.41761829951133
 20
26.31070259528518
 30
0.0
 11
11.66761829951133
 21
26.56070259528517
 31
0.0
  0
LINE
  5
C5
330
89
100
AcDbEntity
  8
0
  6
BYBLOCK
 62
     0
100
AcDbLine
 10
9.89865388560972
 20
26.31070259528518
 30
0.0
 11
10.14865388560971
 21
26.56070259528517
 31
0.0
  0
TEXT
  5
C6
330
89
100
AcDbEntity
  8
0
  6
BYBLOCK
 62
     0
100
AcDbText
 10
10.53313609256052
 20
26.37320259528518
 30
0.0
 40
0.125
  1
1 1/2
 72
     1
 11
10.78313609256053
 21
26.43570259528518
 31
0.0
100
AcDbText
 73
     2
  0
POINT
  5
C7
330
89
100
AcDbEntity
  8
DEFPOINTS
  6
BYBLOCK
 62
     0
100
AcDbPoint
 10
11.54261829951133
 20
26.79433588446806
 30
0.0
  0
POINT
  5
C8
330
89
100
AcDbEntity
  8
DEFPOINTS
  6
BYBLOCK
 62
     0
100
AcDbPoint
 10
10.02365388560972
 20
26.79433588446806
 30
0.0
  0
POINT
  5
C9
330
89
100
AcDbEntity
  8
DEFPOINTS
  6
BYBLOCK
 62
     0
100
AcDbPoint
 10
10.02365388560972
 20
26.43570259528518
 30
0.0
  0
ENDBLK
  5
CA
330
89
100
AcDbEntity
  8
0
100
AcDbBlockEnd
  0
ENDSEC
  0
SECTION
  2
ENTITIES
  0
LWPOLYLINE
  5
CB
330
18
100
AcDbEntity
  8
ADP1DETAIL
100
AcDbPolyline
 90
        6
 70
     0
 43
0.0
 10
11.67295007647781
 20
25.78348157673473
 42
-0.4694824436982854
 10
3.499715543002778
 20
18.83788854336835
 42
-0.5210424736946537
 10
-0.1992406084731826
 20
27.38153948800112
 42
-0.4080694072704429
 10
5.691464193134104
 20
28.53141952005874
 42
-0.2926032869426014
 10
7.043224152496138
 20
24.59766274664882
 42
-0.2037106682877831
 10
5.656674822125138
 20
22.9033099874348
 42
-0.2037106682877831
  0
LWPOLYLINE
  5
D3
330
18
100
AcDbEntity
  8
ADP1DETAIL
100
AcDbPolyline
 90
        6
 70
     0
 43
0.0
 10
11.90920688209672
 20
25.7861877460522
 42
-0.4696224228937532
 10
3.455671840124161
 20
18.60573487374721
 42
-0.5215438550445814
 10
-0.397254091356551
 20
27.51057417692469
 42
-0.4091319244426703
 10
5.830071124821641
 20
28.72303338613191
 42
-0.2936521363308035
 10
7.27155040687912
 20
24.5366811721192
 42
-0.2041752371192355
 10
5.766419714747248
 20
22.69407170198735
 42
13.96137981055078
  0
ARC
  5
DB
330
18
100
AcDbEntity
  8
ADP1DETAIL
100
AcDbCircle
 10
4.573856022304006
 20
24.52279974039972
 30
0.0
 40
2.183221106303582
100
AcDbArc
 50
86.67937399918136
 51
303.1094728697061
  0
ARC
  5
DC
330
18
100
AcDbEntity
  8
ADP1DETAIL
100
AcDbCircle
 10
4.703004159321963
 20
25.70364534202405
 30
0.0
 40
5.193162324561663
100
AcDbArc
 50
260.3935294465013
 51
0.9541365565802168
  0
ARC
  5
DD
330
18
100
AcDbEntity
  8
ADP1DETAIL
100
AcDbCircle
 10
4.703004159321963
 20
25.70364534202405
 30
0.0
 40
4.956890020739085
100
AcDbArc
 50
260.3935294465013
 51
0.9541365565802168
  0
ARC
  5
DE
330
18
100
AcDbEntity
  8
ADP1DETAIL
100
AcDbCircle
 10
4.636642590643582
 20
24.40267198804442
 30
0.0
 40
3.902496671053177
100
AcDbArc
 50
149.2099618369964
 51
258.0224659706197
  0
ARC
  5
DF
330
18
100
AcDbEntity
  8
ADP1DETAIL
100
AcDbCircle
 10
4.636642590643582
 20
24.40267198804442
 30
0.0
 40
3.666224367230599
100
AcDbArc
 50
149.2099618369964
 51
258.0224659706197
  0
ARC
  5
E0
330
18
100
AcDbEntity
  8
ADP1DETAIL
100
AcDbCircle
 10
4.573856022304006
 20
24.52279974039972
 30
0.0
 40
1.946948802481004
100
AcDbArc
 50
62.05256936068277
 51
303.1094728697061
  0
ARC
  5
E1
330
18
100
AcDbEntity
  8
ADP1DETAIL
100
AcDbCircle
 10
3.333267589112949
 20
24.94854704588558
 30
0.0
 40
2.512055910452794
100
AcDbArc
 50
31.00904550174222
 51
144.2122812647615
  0
ARC
  5
E2
330
18
100
AcDbEntity
  8
ADP1DETAIL
100
AcDbCircle
 10
3.333267589112949
 20
24.94854704588558
 30
0.0
 40
2.275783606630216
100
AcDbArc
 50
58.95057691617857
 51
144.2122812647615
  0
ARC
  5
E3
330
18
100
AcDbEntity
  8
ADP1DETAIL
100
AcDbCircle
 10
3.294103265097625
 20
25.50848092327506
 30
0.0
 40
1.844659659554967
100
AcDbArc
 50
40.33125803899284
 51
48.88647140650881
  0
DIMENSION
  5
E4
330
18
100
AcDbEntity
  8
ADPDIM
100
AcDbDimension
  2
*D1
 10
11.91020077802579
 20
27.59599968368525
 30
0.0
 11
10.78527767163291
 21
27.59599968368525
 31
0.0
100
AcDbAlignedDimension
 13
9.660354565240043
 23
26.94342934293382
 33
0.0
 14
11.91020077802579
 24
26.94342934293382
 34
0.0
100
AcDbRotatedDimension
  0
LINE
  5
E5
330
18
100
AcDbEntity
  8
ADP1DETAIL
100
AcDbLine
 10
11.90920688209672
 20
25.7861877460522
 30
0.0
 11
9.659206882096716
 21
25.7861877460522
 31
0.0
  0
INSERT
  5
E6
330
18
100
AcDbEntity
  8
ADP1DETAIL
100
AcDbBlockReference
  2
4441
 10
9.654149098789014
 20
26.62107715228573
 30
0.0
  0
DIMENSION
  5
E7
330
18
100
AcDbEntity
  8
ADPDIM
100
AcDbDimension
  2
*D2
 10
10.02365388560972
 20
26.43570259528518
 30
0.0
 11
10.78313609256053
 21
26.43570259528518
 31
0.0
100
AcDbAlignedDimension
 13
11.54261829951133
 23
26.79433588446806
 33
0.0
 14
10.02365388560972
 24
26.79433588446806
 34
0.0
100
AcDbRotatedDimension
  0
TEXT
  5
FE
330
18
100
AcDbEntity
  8
ADPDIM
100
AcDbText
 10
-4.926491015037008
 20
17.92509692514124
 30
0.0
 40
0.1875
  1
J U L I U S  B L U M  &  C O . ,  I N C .      ( 8 0 0 )  5 2 6 - 6 2 9 3        W W W . J U L I U S B L U M . C O M        P A R T  N o .  4 4 4 1 - G L
 41
1.25
  7
ARIAL_WIDE
 72
     1
 11
5.271459402766538
 21
18.11259692514123
 31
0.0
100
AcDbText
 73
     3
  0
ENDSEC
  0
SECTION
  2
OBJECTS
  0
DICTIONARY
  5
C
330
0
100
AcDbDictionary
  3
ACAD_GROUP
350
D
  3
ACAD_LAYOUT
350
F7
  3
ACAD_MLINESTYLE
350
E
  3
ACAD_PLOTSETTINGS
350
F8
  3
ACAD_PLOTSTYLENAME
350
F5
  3
ACDBHEADERROUNDTRIPXREC
350
242
  3
ACDBVARIABLEDICTIONARY
350
158
  0
DICTIONARY
  5
152
330
18
100
AcDbDictionary
280
     1
  3
ACAD_LAYOUTSELFREF
360
263
  0
DICTIONARY
  5
150
330
15
100
AcDbDictionary
280
     1
  3
ACAD_LAYOUTSELFREF
360
262
  0
DICTIONARY
  5
D
102
{ACAD_REACTORS
330
C
102
}
330
C
100
AcDbDictionary
  0
DICTIONARY
  5
F7
102
{ACAD_REACTORS
330
C
102
}
330
C
100
AcDbDictionary
  0
DICTIONARY
  5
E
102
{ACAD_REACTORS
330
C
102
}
330
C
100
AcDbDictionary
  3
STANDARD
350
1B
  0
DICTIONARY
  5
F8
102
{ACAD_REACTORS
330
C
102
}
330
C
100
AcDbDictionary
  0
ACDBDICTIONARYWDFLT
  5
F5
102
{ACAD_REACTORS
330
C
102
}
330
C
100
AcDbDictionary
281
     1
  3
Normal
350
F6
100
AcDbDictionaryWithDefault
340
F6
  0
DICTIONARY
  5
242
102
{ACAD_REACTORS
330
C
102
}
330
C
100
AcDbDictionary
  3
CEPSNTYPE
350
24C
  3
FINGERPRINTGUID
350
24D
  3
HYPERLINKBASE
350
245
  3
INSUNITS
350
24B
  3
LAYOUTDICT
350
247
  3
LWETCUNION
350
24A
  3
PLOTSETDICT
350
248
  3
PLOTSTYLNAMDICT
350
249
  3
PSVPSCALE
350
24F
  3
PUCSBASE
350
252
  3
PUCSORGBACK
350
258
  3
PUCSORGBOTTOM
350
254
  3
PUCSORGFRONT
350
257
  3
PUCSORGLEFT
350
255
  3
PUCSORGRIGHT
350
256
  3
PUCSORGTOP
350
253
  3
PUCSORTHOREF
350
250
  3
PUCSORTHOVIEW
350
251
  3
STYLESHEET
350
246
  3
TSTACKALIGN
350
243
  3
TSTACKSIZE
350
244
  3
UCSBASE
350
25B
  3
UCSORGBACK
350
261
  3
UCSORGBOTTOM
350
25D
  3
UCSORGFRONT
350
260
  3
UCSORGLEFT
350
25E
  3
UCSORGRIGHT
350
25F
  3
UCSORGTOP
350
25C
  3
UCSORTHOREF
350
259
  3
UCSORTHOVIEW
350
25A
  3
VERSIONGUID
350
24E
  0
DICTIONARY
  5
158
102
{ACAD_REACTORS
330
C
102
}
330
C
100
AcDbDictionary
  3
DIMASSOC
350
159
  0
XRECORD
  5
263
102
{ACAD_REACTORS
330
152
102
}
330
152
100
AcDbXrecord
340
18
  0
XRECORD
  5
262
102
{ACAD_REACTORS
330
150
102
}
330
150
100
AcDbXrecord
340
15
  0
MLINESTYLE
  5
1B
102
{ACAD_REACTORS
330
E
102
}
330
E
100
AcDbMlineStyle
  2
STANDARD
 70
     0
  3

 62
     0
 51
90.0
 52
90.0
 71
     2
 49
0.5
 62
   256
  6
BYLAYER
 49
-0.5
 62
   256
  6
BYLAYER
  0
ACDBPLACEHOLDER
  5
F6
102
{ACAD_REACTORS
330
F5
102
}
330
F5
100
AcDbPlaceHolder
280
     0
  0
XRECORD
  5
24C
102
{ACAD_REACTORS
330
242
102
}
330
242
100
AcDbXrecord
 90
        0
  0
XRECORD
  5
24D
102
{ACAD_REACTORS
330
242
102
}
330
242
100
AcDbXrecord
  1
{D011063F-E36F-4653-B584-0F8FDF4E2DB1}
  0
XRECORD
  5
245
102
{ACAD_REACTORS
330
242
102
}
330
242
100
AcDbXrecord
  1

  0
XRECORD
  5
24B
102
{ACAD_REACTORS
330
242
102
}
330
242
100
AcDbXrecord
 90
        0
  0
XRECORD
  5
247
102
{ACAD_REACTORS
330
242
102
}
330
242
100
AcDbXrecord
340
F7
  0
XRECORD
  5
24A
102
{ACAD_REACTORS
330
242
102
}
330
242
100
AcDbXrecord
 90
    14877
  0
XRECORD
  5
248
102
{ACAD_REACTORS
330
242
102
}
330
242
100
AcDbXrecord
340
F8
  0
XRECORD
  5
249
102
{ACAD_REACTORS
330
242
102
}
330
242
100
AcDbXrecord
340
F5
  0
XRECORD
  5
24F
102
{ACAD_REACTORS
330
242
102
}
330
242
100
AcDbXrecord
 40
0.0
  0
XRECORD
  5
252
102
{ACAD_REACTORS
330
242
102
}
330
242
100
AcDbXrecord
340
0
  0
XRECORD
  5
258
102
{ACAD_REACTORS
330
242
102
}
330
242
100
AcDbXrecord
 10
0.0
 20
0.0
 30
0.0
  0
XRECORD
  5
254
102
{ACAD_REACTORS
330
242
102
}
330
242
100
AcDbXrecord
 10
0.0
 20
0.0
 30
0.0
  0
XRECORD
  5
257
102
{ACAD_REACTORS
330
242
102
}
330
242
100
AcDbXrecord
 10
0.0
 20
0.0
 30
0.0
  0
XRECORD
  5
255
102
{ACAD_REACTORS
330
242
102
}
330
242
100
AcDbXrecord
 10
0.0
 20
0.0
 30
0.0
  0
XRECORD
  5
256
102
{ACAD_REACTORS
330
242
102
}
330
242
100
AcDbXrecord
 10
0.0
 20
0.0
 30
0.0
  0
XRECORD
  5
253
102
{ACAD_REACTORS
330
242
102
}
330
242
100
AcDbXrecord
 10
0.0
 20
0.0
 30
0.0
  0
XRECORD
  5
250
102
{ACAD_REACTORS
330
242
102
}
330
242
100
AcDbXrecord
340
0
  0
XRECORD
  5
251
102
{ACAD_REACTORS
330
242
102
}
330
242
100
AcDbXrecord
 70
     0
  0
XRECORD
  5
246
102
{ACAD_REACTORS
330
242
102
}
330
242
100
AcDbXrecord
  1

  0
XRECORD
  5
243
102
{ACAD_REACTORS
330
242
102
}
330
242
100
AcDbXrecord
 90
        1
  0
XRECORD
  5
244
102
{ACAD_REACTORS
330
242
102
}
330
242
100
AcDbXrecord
 90
       70
  0
XRECORD
  5
25B
102
{ACAD_REACTORS
330
242
102
}
330
242
100
AcDbXrecord
340
0
  0
XRECORD
  5
261
102
{ACAD_REACTORS
330
242
102
}
330
242
100
AcDbXrecord
 10
0.0
 20
0.0
 30
0.0
  0
XRECORD
  5
25D
102
{ACAD_REACTORS
330
242
102
}
330
242
100
AcDbXrecord
 10
0.0
 20
0.0
 30
0.0
  0
XRECORD
  5
260
102
{ACAD_REACTORS
330
242
102
}
330
242
100
AcDbXrecord
 10
0.0
 20
0.0
 30
0.0
  0
XRECORD
  5
25E
102
{ACAD_REACTORS
330
242
102
}
330
242
100
AcDbXrecord
 10
0.0
 20
0.0
 30
0.0
  0
XRECORD
  5
25F
102
{ACAD_REACTORS
330
242
102
}
330
242
100
AcDbXrecord
 10
0.0
 20
0.0
 30
0.0
  0
XRECORD
  5
25C
102
{ACAD_REACTORS
330
242
102
}
330
242
100
AcDbXrecord
 10
0.0
 20
0.0
 30
0.0
  0
XRECORD
  5
259
102
{ACAD_REACTORS
330
242
102
}
330
242
100
AcDbXrecord
340
0
  0
XRECORD
  5
25A
102
{ACAD_REACTORS
330
242
102
}
330
242
100
AcDbXrecord
 70
     0
  0
XRECORD
  5
24E
102
{ACAD_REACTORS
330
242
102
}
330
242
100
AcDbXrecord
  1
{024ECC89-9141-47D1-9F33-7E05FBBA60D3}
  0
DICTIONARYVAR
  5
159
102
{ACAD_REACTORS
330
158
102
}
330
158
100
DictionaryVariables
280
     0
  1
1
  0
ENDSEC
  0
EOF
