  0
SECTION
  2
HEADER
  9
$ACADVER
  1
AC1014
  9
$ACADMAINTVER
 70
     9
  9
$DWGCODEPAGE
  3
ANSI_1252
  9
$INSBASE
 10
2.992932395617456
 20
3.487901391223207
 30
0.0
  9
$EXTMIN
 10
-5.460103307823683
 20
0.6623435289209847
 30
0.0
  9
$EXTMAX
 10
14.6445074527493
 20
10.36366347302444
 30
0.0
  9
$LIMMIN
 10
0.0
 20
0.0
  9
$LIMMAX
 10
36.0
 20
36.0
  9
$ORTHOMODE
 70
     1
  9
$REGENMODE
 70
     1
  9
$FILLMODE
 70
     1
  9
$QTEXTMODE
 70
     0
  9
$MIRRTEXT
 70
     1
  9
$DRAGMODE
 70
     0
  9
$LTSCALE
 40
1.0
  9
$OSMODE
 70
    37
  9
$ATTMODE
 70
     1
  9
$TEXTSIZE
 40
0.2
  9
$TRACEWID
 40
0.05
  9
$TEXTSTYLE
  7
STANDARD
  9
$CLAYER
  8
0
  9
$CELTYPE
  6
BYLAYER
  9
$CECOLOR
 62
   256
  9
$CELTSCALE
 40
1.0
  9
$DELOBJ
 70
     1
  9
$DISPSILH
 70
     0
  9
$DIMSCALE
 40
1.0
  9
$DIMASZ
 40
0.125
  9
$DIMEXO
 40
0.0625
  9
$DIMDLI
 40
0.38
  9
$DIMRND
 40
0.0
  9
$DIMDLE
 40
0.0
  9
$DIMEXE
 40
0.18
  9
$DIMTP
 40
0.0
  9
$DIMTM
 40
0.0
  9
$DIMTXT
 40
0.125
  9
$DIMCEN
 40
0.1875
  9
$DIMTSZ
 40
0.125
  9
$DIMTOL
 70
     0
  9
$DIMLIM
 70
     0
  9
$DIMTIH
 70
     0
  9
$DIMTOH
 70
     0
  9
$DIMSE1
 70
     0
  9
$DIMSE2
 70
     0
  9
$DIMTAD
 70
     0
  9
$DIMZIN
 70
     3
  9
$DIMBLK
  1

  9
$DIMASO
 70
     1
  9
$DIMSHO
 70
     1
  9
$DIMPOST
  1

  9
$DIMAPOST
  1

  9
$DIMALT
 70
     0
  9
$DIMALTD
 70
     1
  9
$DIMALTF
 40
25.4
  9
$DIMLFAC
 40
1.0
  9
$DIMTOFL
 70
     0
  9
$DIMTVP
 40
0.0
  9
$DIMTIX
 70
     0
  9
$DIMSOXD
 70
     0
  9
$DIMSAH
 70
     0
  9
$DIMBLK1
  1

  9
$DIMBLK2
  1

  9
$DIMSTYLE
  2
STANDARD
  9
$DIMCLRD
 70
     0
  9
$DIMCLRE
 70
     0
  9
$DIMCLRT
 70
     0
  9
$DIMTFAC
 40
1.0
  9
$DIMGAP
 40
0.125
  9
$DIMJUST
 70
     0
  9
$DIMSD1
 70
     0
  9
$DIMSD2
 70
     0
  9
$DIMTOLJ
 70
     1
  9
$DIMTZIN
 70
     3
  9
$DIMALTZ
 70
     3
  9
$DIMALTTZ
 70
     3
  9
$DIMFIT
 70
     5
  9
$DIMUPT
 70
     0
  9
$DIMUNIT
 70
     5
  9
$DIMDEC
 70
     4
  9
$DIMTDEC
 70
     4
  9
$DIMALTU
 70
     5
  9
$DIMALTTD
 70
     1
  9
$DIMTXSTY
  7
STANDARD
  9
$DIMAUNIT
 70
     0
  9
$LUNITS
 70
     5
  9
$LUPREC
 70
     4
  9
$SKETCHINC
 40
0.1
  9
$FILLETRAD
 40
0.187
  9
$AUNITS
 70
     0
  9
$AUPREC
 70
     0
  9
$MENU
  1
acad
  9
$ELEVATION
 40
0.0
  9
$PELEVATION
 40
0.0
  9
$THICKNESS
 40
0.0
  9
$LIMCHECK
 70
     0
  9
$BLIPMODE
 70
     0
  9
$CHAMFERA
 40
0.0
  9
$CHAMFERB
 40
0.0
  9
$CHAMFERC
 40
0.0
  9
$CHAMFERD
 40
0.0
  9
$SKPOLY
 70
     0
  9
$TDCREATE
 40
2450406.465590463
  9
$TDUPDATE
 40
2452297.086134791
  9
$TDINDWG
 40
0.0839185532
  9
$TDUSRTIMER
 40
0.0839185532
  9
$USRTIMER
 70
     1
  9
$ANGBASE
 50
0.0
  9
$ANGDIR
 70
     0
  9
$PDMODE
 70
     0
  9
$PDSIZE
 40
0.0
  9
$PLINEWID
 40
0.0
  9
$COORDS
 70
     2
  9
$SPLFRAME
 70
     0
  9
$SPLINETYPE
 70
     6
  9
$SPLINESEGS
 70
     8
  9
$ATTDIA
 70
     0
  9
$ATTREQ
 70
     1
  9
$HANDLING
 70
 22529
  9
$HANDSEED
  5
26F
  9
$SURFTAB1
 70
     6
  9
$SURFTAB2
 70
     6
  9
$SURFTYPE
 70
     6
  9
$SURFU
 70
     6
  9
$SURFV
 70
     6
  9
$UCSNAME
  2

  9
$UCSORG
 10
0.0
 20
0.0
 30
0.0
  9
$UCSXDIR
 10
1.0
 20
0.0
 30
0.0
  9
$UCSYDIR
 10
0.0
 20
1.0
 30
0.0
  9
$PUCSNAME
  2

  9
$PUCSORG
 10
0.0
 20
0.0
 30
0.0
  9
$PUCSXDIR
 10
1.0
 20
0.0
 30
0.0
  9
$PUCSYDIR
 10
0.0
 20
1.0
 30
0.0
  9
$USERI1
 70
     0
  9
$USERI2
 70
     0
  9
$USERI3
 70
     0
  9
$USERI4
 70
     0
  9
$USERI5
 70
     0
  9
$USERR1
 40
0.0
  9
$USERR2
 40
0.0
  9
$USERR3
 40
0.0
  9
$USERR4
 40
0.0
  9
$USERR5
 40
0.0
  9
$WORLDVIEW
 70
     1
  9
$SHADEDGE
 70
     3
  9
$SHADEDIF
 70
    70
  9
$TILEMODE
 70
     1
  9
$MAXACTVP
 70
    15
  9
$PINSBASE
 10
0.0008545024320483
 20
1.750284242913068
 30
0.0
  9
$PLIMCHECK
 70
     0
  9
$PEXTMIN
 10
1.000000000000000E+20
 20
1.000000000000000E+20
 30
1.000000000000000E+20
  9
$PEXTMAX
 10
-1.000000000000000E+20
 20
-1.000000000000000E+20
 30
-1.000000000000000E+20
  9
$PLIMMIN
 10
0.0
 20
0.0
  9
$PLIMMAX
 10
12.0
 20
9.0
  9
$UNITMODE
 70
     0
  9
$VISRETAIN
 70
     0
  9
$PLINEGEN
 70
     0
  9
$PSLTSCALE
 70
     1
  9
$TREEDEPTH
 70
  3020
  9
$PICKSTYLE
 70
     1
  9
$CMLSTYLE
  2
STANDARD
  9
$CMLJUST
 70
     0
  9
$CMLSCALE
 40
1.0
  9
$PROXYGRAPHICS
 70
     1
  9
$MEASUREMENT
 70
     0
  0
ENDSEC
  0
SECTION
  2
CLASSES
  0
CLASS
  1
ACDBDICTIONARYWDFLT
  2
AcDbDictionaryWithDefault
  3
AutoCAD 2000
 90
        0
280
     0
281
     0
  0
CLASS
  1
ACDBPLACEHOLDER
  2
AcDbPlaceHolder
  3
AutoCAD 2000
 90
        0
280
     0
281
     0
  0
CLASS
  1
LAYOUT
  2
AcDbLayout
  3
AutoCAD 2000
 90
        0
280
     0
281
     0
  0
CLASS
  1
DICTIONARYVAR
  2
AcDbDictionaryVar
  3
AutoCAD 2000
 90
        0
280
     0
281
     0
  0
CLASS
  1
LONG_TRANSACTION
  2
AcDbLongTransaction
  3
AutoCAD 2000
 90
        0
280
     0
281
     0
  0
CLASS
  1
LWPOLYLINE
  2
AcDbPolyline
  3
AutoCAD 2000
 90
        0
280
     0
281
     1
  0
CLASS
  1
HATCH
  2
AcDbHatch
  3
AutoCAD 2000
 90
        0
280
     0
281
     1
  0
CLASS
  1
XRECORD
  2
AcDbXrecord
  3
AutoCAD 2000
 90
        0
280
     0
281
     0
  0
CLASS
  1
LONG_TRANSACTION
  2
AcDbLongTransaction
  3
AutoCAD 2000
 90
        0
280
     0
281
     0
  0
CLASS
  1
LWPOLYLINE
  2
AcDbPolyline
  3
AutoCAD 2000
 90
        0
280
     0
281
     1
  0
CLASS
  1
HATCH
  2
AcDbHatch
  3
AutoCAD 2000
 90
        0
280
     0
281
     1
  0
CLASS
  1
XRECORD
  2
AcDbXrecord
  3
AutoCAD 2000
 90
        0
280
     0
281
     0
  0
CLASS
  1
LONG_TRANSACTION
  2
AcDbLongTransaction
  3
AutoCAD 2000
 90
        0
280
     0
281
     0
  0
CLASS
  1
LWPOLYLINE
  2
AcDbPolyline
  3
AutoCAD 2000
 90
        0
280
     0
281
     1
  0
CLASS
  1
HATCH
  2
AcDbHatch
  3
AutoCAD 2000
 90
        0
280
     0
281
     1
  0
CLASS
  1
XRECORD
  2
AcDbXrecord
  3
AutoCAD 2000
 90
        0
280
     0
281
     0
  0
CLASS
  1
LONG_TRANSACTION
  2
AcDbLongTransaction
  3
AutoCAD 2000
 90
        0
280
     0
281
     0
  0
CLASS
  1
LWPOLYLINE
  2
AcDbPolyline
  3
AutoCAD 2000
 90
        0
280
     0
281
     1
  0
CLASS
  1
HATCH
  2
AcDbHatch
  3
AutoCAD 2000
 90
        0
280
     0
281
     1
  0
CLASS
  1
XRECORD
  2
AcDbXrecord
  3
AutoCAD 2000
 90
        0
280
     0
281
     0
  0
CLASS
  1
LONG_TRANSACTION
  2
AcDbLongTransaction
  3
AutoCAD 2000
 90
        0
280
     0
281
     0
  0
CLASS
  1
LWPOLYLINE
  2
AcDbPolyline
  3
AutoCAD 2000
 90
        0
280
     0
281
     1
  0
CLASS
  1
HATCH
  2
AcDbHatch
  3
AutoCAD 2000
 90
        0
280
     0
281
     1
  0
CLASS
  1
XRECORD
  2
AcDbXrecord
  3
AutoCAD 2000
 90
        0
280
     0
281
     0
  0
ENDSEC
  0
SECTION
  2
TABLES
  0
TABLE
  2
VPORT
  5
8
330
0
100
AcDbSymbolTable
 70
     2
  0
VPORT
  5
24B
330
8
100
AcDbSymbolTableRecord
100
AcDbViewportTableRecord
  2
*ACTIVE
 70
     0
 10
0.0
 20
0.0
 11
1.0
 21
1.0
 12
4.608593830045952
 22
5.513066035102339
 13
0.0
 23
0.0
 14
0.5740882589684922
 24
0.5740882589684922
 15
0.5
 25
0.5
 16
0.0
 26
0.0
 36
1.0
 17
0.0
 27
0.0
 37
0.0
 40
12.88587918049056
 41
1.570528967254408
 42
50.0
 43
0.0
 44
0.0
 50
0.0
 51
0.0
 71
     0
 72
   100
 73
     1
 74
     0
 75
     0
 76
     0
 77
     0
 78
     0
  0
ENDTAB
  0
TABLE
  2
LTYPE
  5
5
330
0
100
AcDbSymbolTable
 70
     2
  0
LTYPE
  5
13
330
5
100
AcDbSymbolTableRecord
100
AcDbLinetypeTableRecord
  2
BYBLOCK
 70
     0
  3

 72
    65
 73
     0
 40
0.0
  0
LTYPE
  5
14
330
5
100
AcDbSymbolTableRecord
100
AcDbLinetypeTableRecord
  2
BYLAYER
 70
     0
  3

 72
    65
 73
     0
 40
0.0
  0
LTYPE
  5
15
330
5
100
AcDbSymbolTableRecord
100
AcDbLinetypeTableRecord
  2
CONTINUOUS
 70
     0
  3
Solid line
 72
    65
 73
     0
 40
0.0
  0
LTYPE
  5
49
330
5
100
AcDbSymbolTableRecord
100
AcDbLinetypeTableRecord
  2
CENTER2
 70
     0
  3
___ _ ___ _ ___ _ ___ _ ___ _ ___ _ ___ _ ___ _
 72
    65
 73
     4
 40
1.125
 49
0.75
 74
     0
 49
-0.125
 74
     0
 49
0.125
 74
     0
 49
-0.125
 74
     0
  0
ENDTAB
  0
TABLE
  2
LAYER
  5
2
330
0
100
AcDbSymbolTable
 70
     5
  0
LAYER
  5
10
330
2
100
AcDbSymbolTableRecord
100
AcDbLayerTableRecord
  2
0
 70
     0
 62
     7
  6
CONTINUOUS
  0
LAYER
  5
4D
330
2
100
AcDbSymbolTableRecord
100
AcDbLayerTableRecord
  2
ADP1DETAIL
 70
     0
 62
     7
  6
CONTINUOUS
  0
LAYER
  5
4E
330
2
100
AcDbSymbolTableRecord
100
AcDbLayerTableRecord
  2
ADP3DETAIL
 70
     0
 62
     1
  6
CONTINUOUS
  0
LAYER
  5
4F
330
2
100
AcDbSymbolTableRecord
100
AcDbLayerTableRecord
  2
DEFPOINTS
 70
     0
 62
     7
  6
CONTINUOUS
  0
LAYER
  5
50
330
2
100
AcDbSymbolTableRecord
100
AcDbLayerTableRecord
  2
ADPDIM
 70
     0
 62
     3
  6
CONTINUOUS
  0
ENDTAB
  0
TABLE
  2
STYLE
  5
3
330
0
100
AcDbSymbolTable
 70
     2
  0
STYLE
  5
11
330
3
100
AcDbSymbolTableRecord
100
AcDbTextStyleTableRecord
  2
STANDARD
 70
     0
 40
0.0
 41
1.0
 50
0.0
 71
     0
 42
0.2
  3
txt
  4

  0
STYLE
  5
B8
330
3
100
AcDbSymbolTableRecord
100
AcDbTextStyleTableRecord
  2
ARIAL_WIDE
 70
     0
 40
0.0
 41
1.25
 50
0.0
 71
     0
 42
0.2
  3
ARIAL.TTF
  4

1001
ACAD
1000
Arial
1071
       34
  0
ENDTAB
  0
TABLE
  2
VIEW
  5
6
330
0
100
AcDbSymbolTable
 70
     0
  0
ENDTAB
  0
TABLE
  2
UCS
  5
7
330
0
100
AcDbSymbolTable
 70
     0
  0
ENDTAB
  0
TABLE
  2
APPID
  5
9
330
0
100
AcDbSymbolTable
 70
     1
  0
APPID
  5
12
330
9
100
AcDbSymbolTableRecord
100
AcDbRegAppTableRecord
  2
ACAD
 70
     0
  0
ENDTAB
  0
TABLE
  2
DIMSTYLE
  5
A
330
0
100
AcDbSymbolTable
 70
     1
  0
DIMSTYLE
105
B6
330
A
100
AcDbSymbolTableRecord
100
AcDbDimStyleTableRecord
  2
STANDARD
 70
     0
  3

  4

  5

  6

  7

 40
1.0
 41
0.18
 42
0.0625
 43
0.38
 44
0.18
 45
0.0
 46
0.0
 47
0.0
 48
0.0
140
0.18
141
0.09
142
0.0
143
25.4
144
1.0
145
0.0
146
1.0
147
0.09
 71
     0
 72
     0
 73
     1
 74
     1
 75
     0
 76
     0
 77
     0
 78
     0
170
     0
171
     2
172
     0
173
     0
174
     0
175
     0
176
     0
177
     0
178
     0
270
     2
271
     4
272
     4
273
     2
274
     2
340
11
275
     0
280
     0
281
     0
282
     0
283
     1
284
     0
285
     0
286
     0
287
     3
288
     0
  0
ENDTAB
  0
TABLE
  2
BLOCK_RECORD
  5
1
330
0
100
AcDbSymbolTable
 70
     5
  0
BLOCK_RECORD
  5
1E
102
{ACAD_XDICTIONARY
360
F5
102
}
330
1
100
AcDbSymbolTableRecord
100
AcDbBlockTableRecord
  2
*MODEL_SPACE
  0
BLOCK_RECORD
  5
1A
102
{ACAD_XDICTIONARY
360
F7
102
}
330
1
100
AcDbSymbolTableRecord
100
AcDbBlockTableRecord
  2
*PAPER_SPACE
  0
BLOCK_RECORD
  5
29
330
1
100
AcDbSymbolTableRecord
100
AcDbBlockTableRecord
  2
4441
  0
BLOCK_RECORD
  5
41
330
1
100
AcDbSymbolTableRecord
100
AcDbBlockTableRecord
  2
*D1
  0
BLOCK_RECORD
  5
42
330
1
100
AcDbSymbolTableRecord
100
AcDbBlockTableRecord
  2
*D2
  0
BLOCK_RECORD
  5
43
330
1
100
AcDbSymbolTableRecord
100
AcDbBlockTableRecord
  2
*D3
  0
BLOCK_RECORD
  5
44
330
1
100
AcDbSymbolTableRecord
100
AcDbBlockTableRecord
  2
*D4
  0
ENDTAB
  0
ENDSEC
  0
SECTION
  2
BLOCKS
  0
BLOCK
  5
53
330
1E
100
AcDbEntity
  8
0
100
AcDbBlockBegin
  2
*MODEL_SPACE
 70
     0
 10
0.0
 20
0.0
 30
0.0
  3
*MODEL_SPACE
  1

  0
ENDBLK
  5
54
330
1E
100
AcDbEntity
  8
0
100
AcDbBlockEnd
  0
BLOCK
  5
51
330
1A
100
AcDbEntity
 67
     1
  8
0
100
AcDbBlockBegin
  2
*PAPER_SPACE
 70
     0
 10
0.0
 20
0.0
 30
0.0
  3
*PAPER_SPACE
  1

  0
ENDBLK
  5
52
330
1A
100
AcDbEntity
 67
     1
  8
0
100
AcDbBlockEnd
  0
BLOCK
  5
56
330
29
100
AcDbEntity
  8
0
100
AcDbBlockBegin
  2
4441
 70
     0
 10
0.0
 20
0.0
 30
0.0
  3
4441
  1

  0
ARC
  5
57
330
29
100
AcDbEntity
  8
0
100
AcDbCircle
 10
2.131128572843903
 20
0.3179684149746849
 30
0.0
 40
0.125
100
AcDbArc
 50
274.0195737565656
 51
90.0
  0
ARC
  5
58
330
29
100
AcDbEntity
  8
0
100
AcDbCircle
 10
0.3823524555948391
 20
0.161368414974685
 30
0.0
 40
0.016
100
AcDbArc
 50
90.0
 51
174.0
  0
ARC
  5
59
330
29
100
AcDbEntity
  8
0
100
AcDbCircle
 10
0.2717699263779078
 20
1.036718414974684
 30
0.0
 40
0.53125
100
AcDbArc
 50
263.6450457150437
 51
313.0098162713345
  0
ARC
  5
5A
330
29
100
AcDbEntity
  8
0
100
AcDbCircle
 10
0.131128572843904
 20
0.3179684149746849
 30
0.0
 40
0.125
100
AcDbArc
 50
90.0
 51
265.9804262434344
  0
ARC
  5
5B
330
29
100
AcDbEntity
  8
0
100
AcDbCircle
 10
0.0603972375810239
 20
0.0076011117305739
 30
0.0
 40
0.1957429538942399
100
AcDbArc
 50
359.3757275120109
 51
74.0995487402812
  0
LINE
  5
5C
330
29
100
AcDbEntity
  8
0
100
AcDbLine
 10
0.349878572843904
 20
0.005468414974685
 30
0.0
 11
0.3664401052689467
 21
0.1630408703869674
 31
0.0
  0
LINE
  5
5D
330
29
100
AcDbEntity
  8
0
100
AcDbLine
 10
0.349878572843904
 20
0.005468414974685
 30
0.0
 11
0.2558458548927965
 21
0.005468414974685
 31
0.0
  0
LINE
  5
5E
330
29
100
AcDbEntity
  8
0
100
AcDbLine
 10
0.131128572843904
 20
0.442968414974685
 30
0.0
 11
0.1929658099349621
 21
0.442968414974685
 31
0.0
  0
LINE
  5
5F
330
29
100
AcDbEntity
  8
0
100
AcDbLine
 10
0.1934816436388733
 20
0.442968414974685
 30
0.0
 11
0.2129671381166458
 21
0.5087328142309704
 31
0.0
  0
LINE
  5
60
330
29
100
AcDbEntity
  8
0
100
AcDbLine
 10
1.787378572843904
 20
0.177368414974685
 30
0.0
 11
1.770817040418861
 21
0.3349408703869674
 31
0.0
  0
LINE
  5
61
330
29
100
AcDbEntity
  8
0
100
AcDbLine
 10
0.474878572843904
 20
0.177368414974685
 30
0.0
 11
0.4914401052689468
 21
0.3349408703869674
 31
0.0
  0
LINE
  5
62
330
29
100
AcDbEntity
  8
0
100
AcDbLine
 10
0.474878572843904
 20
0.177368414974685
 30
0.0
 11
0.3823524555948391
 21
0.177368414974685
 31
0.0
  0
ARC
  5
63
330
29
100
AcDbEntity
  8
0
100
AcDbCircle
 10
2.201859908106783
 20
0.0076011117305739
 30
0.0
 40
0.1957429538942399
100
AcDbArc
 50
105.9004512597187
 51
180.624272487989
  0
LINE
  5
64
330
29
100
AcDbEntity
  8
0
100
AcDbLine
 10
1.912378572843904
 20
0.005468414974685
 30
0.0
 11
1.895817040418861
 21
0.1630408703869674
 31
0.0
  0
LINE
  5
65
330
29
100
AcDbEntity
  8
0
100
AcDbLine
 10
1.912378572843904
 20
0.005468414974685
 30
0.0
 11
2.006411290795011
 21
0.005468414974685
 31
0.0
  0
ARC
  5
66
330
29
100
AcDbEntity
  8
0
100
AcDbCircle
 10
1.879904690092968
 20
0.161368414974685
 30
0.0
 40
0.016
100
AcDbArc
 50
5.99999999999999
 51
90.0
  0
LINE
  5
67
330
29
100
AcDbEntity
  8
0
100
AcDbLine
 10
1.787378572843904
 20
0.177368414974685
 30
0.0
 11
1.879904690092968
 21
0.177368414974685
 31
0.0
  0
ARC
  5
68
330
29
100
AcDbEntity
  8
0
100
AcDbCircle
 10
1.131128572843904
 20
0.005468414974685
 30
0.0
 40
0.625
100
AcDbArc
 50
33.37250147611143
 51
90.0
  0
ARC
  5
69
330
29
100
AcDbEntity
  8
0
100
AcDbCircle
 10
1.131128572843904
 20
0.005468414974685
 30
0.0
 40
0.8125
100
AcDbArc
 50
52.28977333137304
 51
90.0
  0
ARC
  5
6A
330
29
100
AcDbEntity
  8
0
100
AcDbCircle
 10
1.131128572843904
 20
0.005468414974685
 30
0.0
 40
0.8125
100
AcDbArc
 50
90.0
 51
127.7102266686269
  0
ARC
  5
6B
330
29
100
AcDbEntity
  8
0
100
AcDbCircle
 10
1.131128572843904
 20
0.005468414974685
 30
0.0
 40
0.625
100
AcDbArc
 50
90.0
 51
146.6274985238885
  0
ARC
  5
6C
330
29
100
AcDbEntity
  8
0
100
AcDbCircle
 10
0.5073524555948393
 20
0.333268414974685
 30
0.0
 40
0.016
100
AcDbArc
 50
90.0
 51
174.0
  0
LINE
  5
6D
330
29
100
AcDbEntity
  8
0
100
AcDbLine
 10
0.6091835949008262
 20
0.349268414974685
 30
0.0
 11
0.5073524555948393
 21
0.349268414974685
 31
0.0
  0
ARC
  5
6E
330
29
100
AcDbEntity
  8
0
100
AcDbCircle
 10
1.9904872193099
 20
1.036718414974684
 30
0.0
 40
0.53125
100
AcDbArc
 50
226.9901837286654
 51
276.3549542849563
  0
LINE
  5
6F
330
29
100
AcDbEntity
  8
0
100
AcDbLine
 10
1.653073550786981
 20
0.349268414974685
 30
0.0
 11
1.754904690092968
 21
0.349268414974685
 31
0.0
  0
ARC
  5
70
330
29
100
AcDbEntity
  8
0
100
AcDbCircle
 10
1.754904690092968
 20
0.333268414974685
 30
0.0
 40
0.016
100
AcDbArc
 50
5.99999999999999
 51
90.0
  0
LINE
  5
71
330
29
100
AcDbEntity
  8
0
100
AcDbLine
 10
2.068775502048934
 20
0.442968414974685
 30
0.0
 11
2.049290007571161
 21
0.5087328142309704
 31
0.0
  0
LINE
  5
72
330
29
100
AcDbEntity
  8
0
100
AcDbLine
 10
2.131128572843903
 20
0.442968414974685
 30
0.0
 11
2.069291335752845
 21
0.442968414974685
 31
0.0
  0
ENDBLK
  5
73
330
29
100
AcDbEntity
  8
0
100
AcDbBlockEnd
  0
BLOCK
  5
74
330
41
100
AcDbEntity
  8
0
100
AcDbBlockBegin
  2
*D1
 70
     1
 10
0.0
 20
0.0
 30
0.0
  3
*D1
  1

  0
LINE
  5
75
330
41
100
AcDbEntity
  8
0
  6
BYBLOCK
 62
     0
100
AcDbLine
 10
2.596160875526225
 20
7.75165468479734
 30
0.0
 11
4.36932399492359
 21
5.98651608965825
 31
0.0
  0
LINE
  5
76
330
41
100
AcDbEntity
  8
0
  6
BYBLOCK
 62
     0
100
AcDbLine
 10
2.419384634842956
 20
7.751253773471485
 30
0.0
 11
2.772937116209493
 21
7.752055596123195
 31
0.0
  0
TEXT
  5
77
330
41
100
AcDbEntity
  8
0
  6
BYBLOCK
 62
     0
100
AcDbText
 10
4.413818738588799
 20
5.854034136977262
 30
0.0
 40
0.125
  1
R2 1/2
 50
315.1299410342688
 72
     1
 11
4.694148773606983
 21
5.663161319169659
 31
0.0
100
AcDbText
 73
     2
  0
POINT
  5
79
330
41
100
AcDbEntity
  8
DEFPOINTS
  6
BYBLOCK
 62
     0
100
AcDbPoint
 10
2.596160875526225
 20
7.75165468479734
 30
0.0
  0
POINT
  5
7A
330
41
100
AcDbEntity
  8
DEFPOINTS
  6
BYBLOCK
 62
     0
100
AcDbPoint
 10
4.36793239561746
 20
5.987901391223206
 30
0.0
  0
ENDBLK
  5
7B
330
41
100
AcDbEntity
  8
0
100
AcDbBlockEnd
  0
BLOCK
  5
7C
330
42
100
AcDbEntity
  8
0
100
AcDbBlockBegin
  2
*D2
 70
     1
 10
0.0
 20
0.0
 30
0.0
  3
*D2
  1

  0
LINE
  5
7D
330
42
100
AcDbEntity
  8
0
  6
BYBLOCK
 62
     0
100
AcDbLine
 10
1.108373295059523
 20
1.816327410788963
 30
0.0
 11
1.108373295059523
 21
1.34019412160608
 31
0.0
  0
LINE
  5
7E
330
42
100
AcDbEntity
  8
0
  6
BYBLOCK
 62
     0
100
AcDbLine
 10
2.627337708961136
 20
1.816327410788963
 30
0.0
 11
2.627337708961136
 21
1.34019412160608
 31
0.0
  0
LINE
  5
7F
330
42
100
AcDbEntity
  8
0
  6
BYBLOCK
 62
     0
100
AcDbLine
 10
1.108373295059523
 20
1.52019412160608
 30
0.0
 11
1.49285550201033
 21
1.52019412160608
 31
0.0
  0
LINE
  5
80
330
42
100
AcDbEntity
  8
0
  6
BYBLOCK
 62
     0
100
AcDbLine
 10
2.627337708961136
 20
1.52019412160608
 30
0.0
 11
2.24285550201033
 21
1.52019412160608
 31
0.0
  0
LINE
  5
81
330
42
100
AcDbEntity
  8
0
  6
BYBLOCK
 62
     0
100
AcDbLine
 10
0.9833732950595235
 20
1.39519412160608
 30
0.0
 11
1.233373295059523
 21
1.64519412160608
 31
0.0
  0
LINE
  5
82
330
42
100
AcDbEntity
  8
0
  6
BYBLOCK
 62
     0
100
AcDbLine
 10
2.502337708961136
 20
1.39519412160608
 30
0.0
 11
2.752337708961136
 21
1.64519412160608
 31
0.0
  0
TEXT
  5
83
330
42
100
AcDbEntity
  8
0
  6
BYBLOCK
 62
     0
100
AcDbText
 10
1.61785550201033
 20
1.45769412160608
 30
0.0
 40
0.125
  1
1 1/2
 72
     1
 11
1.86785550201033
 21
1.52019412160608
 31
0.0
100
AcDbText
 73
     2
  0
POINT
  5
84
330
42
100
AcDbEntity
  8
DEFPOINTS
  6
BYBLOCK
 62
     0
100
AcDbPoint
 10
1.108373295059523
 20
1.878827410788963
 30
0.0
  0
POINT
  5
85
330
42
100
AcDbEntity
  8
DEFPOINTS
  6
BYBLOCK
 62
     0
100
AcDbPoint
 10
2.627337708961136
 20
1.878827410788963
 30
0.0
  0
POINT
  5
86
330
42
100
AcDbEntity
  8
DEFPOINTS
  6
BYBLOCK
 62
     0
100
AcDbPoint
 10
2.627337708961136
 20
1.52019412160608
 30
0.0
  0
ENDBLK
  5
87
330
42
100
AcDbEntity
  8
0
100
AcDbBlockEnd
  0
BLOCK
  5
88
330
43
100
AcDbEntity
  8
0
100
AcDbBlockBegin
  2
*D3
 70
     1
 10
0.0
 20
0.0
 30
0.0
  3
*D3
  1

  0
LINE
  5
89
330
43
100
AcDbEntity
  8
0
  6
BYBLOCK
 62
     0
100
AcDbLine
 10
4.306823994923592
 20
5.986516089658252
 30
0.0
 11
3.541578449932702
 21
5.986516089658252
 31
0.0
  0
LINE
  5
8A
330
43
100
AcDbEntity
  8
0
  6
BYBLOCK
 62
     0
100
AcDbLine
 10
2.993432395617455
 20
3.487901391223207
 30
0.0
 11
3.901578449932701
 21
3.487901391223207
 31
0.0
  0
LINE
  5
8B
330
43
100
AcDbEntity
  8
0
  6
BYBLOCK
 62
     0
100
AcDbLine
 10
3.721578449932702
 20
5.986516089658252
 30
0.0
 11
3.721578449932702
 21
5.133042073774062
 31
0.0
  0
LINE
  5
8C
330
43
100
AcDbEntity
  8
0
  6
BYBLOCK
 62
     0
100
AcDbLine
 10
3.721578449932701
 20
3.487901391223207
 30
0.0
 11
3.721578449932702
 21
4.341375407107396
 31
0.0
  0
LINE
  5
8D
330
43
100
AcDbEntity
  8
0
  6
BYBLOCK
 62
     0
100
AcDbLine
 10
3.846578449932702
 20
5.861516089658252
 30
0.0
 11
3.596578449932702
 21
6.111516089658252
 31
0.0
  0
LINE
  5
8E
330
43
100
AcDbEntity
  8
0
  6
BYBLOCK
 62
     0
100
AcDbLine
 10
3.846578449932701
 20
3.362901391223207
 30
0.0
 11
3.596578449932701
 21
3.612901391223207
 31
0.0
  0
TEXT
  5
8F
330
43
100
AcDbEntity
  8
0
  6
BYBLOCK
 62
     0
100
AcDbText
 10
3.784078449932702
 20
4.466375407107396
 30
0.0
 40
0.125
  1
2 1/2
 50
90.0
 72
     1
 11
3.721578449932702
 21
4.737208740440729
 31
0.0
100
AcDbText
 73
     2
  0
POINT
  5
90
330
43
100
AcDbEntity
  8
DEFPOINTS
  6
BYBLOCK
 62
     0
100
AcDbPoint
 10
4.369323994923592
 20
5.986516089658252
 30
0.0
  0
POINT
  5
91
330
43
100
AcDbEntity
  8
DEFPOINTS
  6
BYBLOCK
 62
     0
100
AcDbPoint
 10
2.930932395617455
 20
3.487901391223207
 30
0.0
  0
POINT
  5
92
330
43
100
AcDbEntity
  8
DEFPOINTS
  6
BYBLOCK
 62
     0
100
AcDbPoint
 10
3.721578449932701
 20
3.487901391223207
 30
0.0
  0
ENDBLK
  5
93
330
43
100
AcDbEntity
  8
0
100
AcDbBlockEnd
  0
BLOCK
  5
94
330
44
100
AcDbEntity
  8
0
100
AcDbBlockBegin
  2
*D4
 70
     1
 10
0.0
 20
0.0
 30
0.0
  3
*D4
  1

  0
LINE
  5
95
330
44
100
AcDbEntity
  8
0
  6
BYBLOCK
 62
     0
100
AcDbLine
 10
0.7429323956174567
 20
2.090420869254731
 30
0.0
 11
0.7429323956174567
 21
2.86049121000616
 31
0.0
  0
LINE
  5
96
330
44
100
AcDbEntity
  8
0
  6
BYBLOCK
 62
     0
100
AcDbLine
 10
2.992778608403203
 20
2.090420869254731
 30
0.0
 11
2.992778608403203
 21
2.86049121000616
 31
0.0
  0
LINE
  5
97
330
44
100
AcDbEntity
  8
0
  6
BYBLOCK
 62
     0
100
AcDbLine
 10
0.7429323956174567
 20
2.68049121000616
 30
0.0
 11
1.472022168676996
 21
2.68049121000616
 31
0.0
  0
LINE
  5
98
330
44
100
AcDbEntity
  8
0
  6
BYBLOCK
 62
     0
100
AcDbLine
 10
2.992778608403203
 20
2.68049121000616
 30
0.0
 11
2.263688835343663
 21
2.68049121000616
 31
0.0
  0
LINE
  5
99
330
44
100
AcDbEntity
  8
0
  6
BYBLOCK
 62
     0
100
AcDbLine
 10
0.6179323956174567
 20
2.55549121000616
 30
0.0
 11
0.8679323956174565
 21
2.80549121000616
 31
0.0
  0
LINE
  5
9A
330
44
100
AcDbEntity
  8
0
  6
BYBLOCK
 62
     0
100
AcDbLine
 10
2.867778608403203
 20
2.55549121000616
 30
0.0
 11
3.117778608403203
 21
2.80549121000616
 31
0.0
  0
TEXT
  5
9B
330
44
100
AcDbEntity
  8
0
  6
BYBLOCK
 62
     0
100
AcDbText
 10
1.597022168676996
 20
2.61799121000616
 30
0.0
 40
0.125
  1
2 1/4
 72
     1
 11
1.86785550201033
 21
2.68049121000616
 31
0.0
100
AcDbText
 73
     2
  0
POINT
  5
9C
330
44
100
AcDbEntity
  8
DEFPOINTS
  6
BYBLOCK
 62
     0
100
AcDbPoint
 10
0.7429323956174567
 20
2.027920869254731
 30
0.0
  0
POINT
  5
9D
330
44
100
AcDbEntity
  8
DEFPOINTS
  6
BYBLOCK
 62
     0
100
AcDbPoint
 10
2.992778608403203
 20
2.027920869254731
 30
0.0
  0
POINT
  5
9E
330
44
100
AcDbEntity
  8
DEFPOINTS
  6
BYBLOCK
 62
     0
100
AcDbPoint
 10
2.992778608403203
 20
2.68049121000616
 30
0.0
  0
ENDBLK
  5
9F
330
44
100
AcDbEntity
  8
0
100
AcDbBlockEnd
  0
ENDSEC
  0
SECTION
  2
ENTITIES
  0
LINE
  5
A0
330
1E
100
AcDbEntity
  8
ADP3DETAIL
  6
CENTER2
100
AcDbLine
 10
7.578554096111661
 20
8.487901391223207
 30
0.0
 11
4.36793239561746
 21
8.487901391223207
 31
0.0
  0
LINE
  5
A1
330
1E
100
AcDbEntity
  8
ADP1DETAIL
100
AcDbLine
 10
6.86793239561746
 20
9.425401391223207
 30
0.0
 11
4.36793239561746
 21
9.425401391223207
 31
0.0
  0
LINE
  5
A2
330
1E
100
AcDbEntity
  8
ADP1DETAIL
100
AcDbLine
 10
6.86793239561746
 20
9.612901391223207
 30
0.0
 11
4.36793239561746
 21
9.612901391223207
 31
0.0
  0
LINE
  5
A3
330
1E
100
AcDbEntity
  8
ADP1DETAIL
100
AcDbLine
 10
6.867932395617456
 20
7.550401391223205
 30
0.0
 11
4.36793239561746
 21
7.550401391223207
 31
0.0
  0
LINE
  5
A4
330
1E
100
AcDbEntity
  8
ADP1DETAIL
100
AcDbLine
 10
6.867932395617456
 20
7.362901391223206
 30
0.0
 11
4.36793239561746
 21
7.362901391223208
 31
0.0
  0
ARC
  5
A5
330
1E
100
AcDbEntity
  8
ADP1DETAIL
100
AcDbCircle
 10
4.36793239561746
 20
5.987901391223205
 30
0.0
 40
3.4375
100
AcDbArc
 50
90.0
 51
180.0
  0
ARC
  5
A6
330
1E
100
AcDbEntity
  8
ADP1DETAIL
100
AcDbCircle
 10
4.36793239561746
 20
5.987901391223205
 30
0.0
 40
3.625
100
AcDbArc
 50
90.0
 51
180.0
  0
LINE
  5
A7
330
1E
100
AcDbEntity
  8
ADP1DETAIL
100
AcDbLine
 10
2.992932395617456
 20
3.487901391223207
 30
0.0
 11
0.7429323956174566
 21
3.487901391223207
 31
0.0
  0
DIMENSION
  5
A8
330
1E
100
AcDbEntity
  8
ADPDIM
100
AcDbDimension
  2
*D2
 10
2.627337708961136
 20
1.52019412160608
 30
0.0
 11
1.86785550201033
 21
1.52019412160608
 31
0.0
100
AcDbAlignedDimension
 13
1.108373295059523
 23
1.878827410788963
 33
0.0
 14
2.627337708961136
 24
1.878827410788963
 34
0.0
100
AcDbRotatedDimension
  0
DIMENSION
  5
A9
330
1E
100
AcDbEntity
  8
ADPDIM
100
AcDbDimension
  2
*D4
 10
2.992778608403203
 20
2.68049121000616
 30
0.0
 11
1.86785550201033
 21
2.68049121000616
 31
0.0
100
AcDbAlignedDimension
 13
0.7429323956174567
 23
2.027920869254731
 33
0.0
 14
2.992778608403203
 24
2.027920869254731
 34
0.0
100
AcDbRotatedDimension
  0
INSERT
  5
AA
330
1E
100
AcDbEntity
  8
ADP1DETAIL
100
AcDbBlockReference
  2
4441
 10
0.7367269291664264
 20
1.70556867860664
 30
0.0
  0
LINE
  5
AB
330
1E
100
AcDbEntity
  8
ADP1DETAIL
100
AcDbLine
 10
0.9304323956174565
 20
3.487901391223207
 30
0.0
 11
0.93043239561746
 21
5.987901391223207
 31
0.0
  0
LINE
  5
AC
330
1E
100
AcDbEntity
  8
ADP1DETAIL
100
AcDbLine
 10
0.7429323956174566
 20
3.487901391223207
 30
0.0
 11
0.7429323956174601
 21
5.987901391223207
 31
0.0
  0
ARC
  5
AD
330
1E
100
AcDbEntity
  8
ADP3DETAIL
  6
CENTER2
100
AcDbCircle
 10
4.36793239561746
 20
5.987901391223205
 30
0.0
 40
2.5
100
AcDbArc
 50
90.0
 51
180.0
  0
ARC
  5
AE
330
1E
100
AcDbEntity
  8
ADP1DETAIL
100
AcDbCircle
 10
4.36793239561746
 20
5.987901391223205
 30
0.0
 40
1.5625
100
AcDbArc
 50
90.0
 51
180.0
  0
ARC
  5
AF
330
1E
100
AcDbEntity
  8
ADP1DETAIL
100
AcDbCircle
 10
4.36793239561746
 20
5.987901391223205
 30
0.0
 40
1.375
100
AcDbArc
 50
90.0
 51
180.0
  0
DIMENSION
  5
B0
330
1E
100
AcDbEntity
  8
ADPDIM
100
AcDbDimension
  2
*D1
 10
4.36793239561746
 20
5.987901391223206
 30
0.0
 11
4.694148773606983
 21
5.663161319169659
 31
0.0
 70
     4
100
AcDbRadialDimension
 15
2.596160875526225
 25
7.75165468479734
 35
0.0
 40
-2.501963570486308
  0
DIMENSION
  5
B1
330
1E
100
AcDbEntity
  8
ADPDIM
100
AcDbDimension
  2
*D3
 10
3.721578449932701
 20
3.487901391223207
 30
0.0
 11
3.721578449932702
 21
4.737208740440729
 31
0.0
100
AcDbAlignedDimension
 13
4.369323994923592
 23
5.986516089658252
 33
0.0
 14
2.930932395617455
 24
3.487901391223207
 34
0.0
 50
90.0
100
AcDbRotatedDimension
  0
LINE
  5
B2
330
1E
100
AcDbEntity
  8
ADP3DETAIL
  6
CENTER2
100
AcDbLine
 10
1.867932395617456
 20
3.02651952635884
 30
0.0
 11
1.86793239561746
 21
5.987901391223205
 31
0.0
  0
LINE
  5
B3
330
1E
100
AcDbEntity
  8
ADP1DETAIL
100
AcDbLine
 10
2.805432395617456
 20
3.487901391223208
 30
0.0
 11
2.80543239561746
 21
5.987901391223204
 31
0.0
  0
LINE
  5
B4
330
1E
100
AcDbEntity
  8
ADP1DETAIL
100
AcDbLine
 10
2.992932395617456
 20
3.487901391223207
 30
0.0
 11
2.99293239561746
 21
5.987901391223203
 31
0.0
  0
LINE
  5
B5
330
1E
100
AcDbEntity
  8
ADP1DETAIL
100
AcDbLine
 10
6.86793239561746
 20
9.612901391223207
 30
0.0
 11
6.867932395617456
 21
7.362901391223206
 31
0.0
  0
TEXT
  5
B9
330
1E
100
AcDbEntity
  8
ADPDIM
100
AcDbText
 10
-5.460103307823683
 20
0.717851714459866
 30
0.0
 40
0.1875
  1
J U L I U S  B L U M  &  C O . ,  I N C .      ( 8 0 0 )  5 2 6 - 6 2 9 3        W W W . J U L I U S B L U M . C O M        P A R T  N o .  4 4 4 1 - C
 41
1.25
  7
ARIAL_WIDE
 72
     1
 11
4.592202072462811
 21
0.9053517144598659
 31
0.0
100
AcDbText
 73
     3
  0
ENDSEC
  0
SECTION
  2
OBJECTS
  0
DICTIONARY
  5
C
330
0
100
AcDbDictionary
  3
ACAD_GROUP
350
D
  3
ACAD_LAYOUT
350
19
  3
ACAD_MLINESTYLE
350
16
  3
ACAD_PLOTSETTINGS
350
18
  3
ACAD_PLOTSTYLENAME
350
E
  3
ACDBHEADERROUNDTRIPXREC
350
24C
  3
ACDBVARIABLEDICTIONARY
350
12A
  0
DICTIONARY
  5
F5
330
1E
100
AcDbDictionary
280
     1
  3
ACAD_LAYOUTSELFREF
360
26E
  0
DICTIONARY
  5
F7
330
1A
100
AcDbDictionary
280
     1
  3
ACAD_LAYOUTSELFREF
360
26D
  0
DICTIONARY
  5
D
102
{ACAD_REACTORS
330
C
102
}
330
C
100
AcDbDictionary
  0
DICTIONARY
  5
19
102
{ACAD_REACTORS
330
C
102
}
330
C
100
AcDbDictionary
  0
DICTIONARY
  5
16
102
{ACAD_REACTORS
330
C
102
}
330
C
100
AcDbDictionary
  3
STANDARD
350
17
  0
DICTIONARY
  5
18
102
{ACAD_REACTORS
330
C
102
}
330
C
100
AcDbDictionary
  0
ACDBDICTIONARYWDFLT
  5
E
102
{ACAD_REACTORS
330
C
102
}
330
C
100
AcDbDictionary
281
     1
  3
Normal
350
F
100
AcDbDictionaryWithDefault
340
F
  0
DICTIONARY
  5
24C
102
{ACAD_REACTORS
330
C
102
}
330
C
100
AcDbDictionary
  3
CEPSNTYPE
350
256
  3
DIMSTYLEDATA
350
25A
  3
FINGERPRINTGUID
350
257
  3
HYPERLINKBASE
350
24F
  3
INSUNITS
350
255
  3
LAYOUTDICT
350
251
  3
LWETCUNION
350
254
  3
PLOTSETDICT
350
252
  3
PLOTSTYLNAMDICT
350
253
  3
PSVPSCALE
350
259
  3
PUCSBASE
350
25D
  3
PUCSORGBACK
350
263
  3
PUCSORGBOTTOM
350
25F
  3
PUCSORGFRONT
350
262
  3
PUCSORGLEFT
350
260
  3
PUCSORGRIGHT
350
261
  3
PUCSORGTOP
350
25E
  3
PUCSORTHOREF
350
25B
  3
PUCSORTHOVIEW
350
25C
  3
STYLESHEET
350
250
  3
TSTACKALIGN
350
24D
  3
TSTACKSIZE
350
24E
  3
UCSBASE
350
266
  3
UCSORGBACK
350
26C
  3
UCSORGBOTTOM
350
268
  3
UCSORGFRONT
350
26B
  3
UCSORGLEFT
350
269
  3
UCSORGRIGHT
350
26A
  3
UCSORGTOP
350
267
  3
UCSORTHOREF
350
264
  3
UCSORTHOVIEW
350
265
  3
VERSIONGUID
350
258
  0
DICTIONARY
  5
12A
102
{ACAD_REACTORS
330
C
102
}
330
C
100
AcDbDictionary
  3
DIMASSOC
350
12C
  3
HIDETEXT
350
12B
  0
XRECORD
  5
26E
102
{ACAD_REACTORS
330
F5
102
}
330
F5
100
AcDbXrecord
340
1E
  0
XRECORD
  5
26D
102
{ACAD_REACTORS
330
F7
102
}
330
F7
100
AcDbXrecord
340
1A
  0
MLINESTYLE
  5
17
102
{ACAD_REACTORS
330
16
102
}
330
16
100
AcDbMlineStyle
  2
STANDARD
 70
     0
  3

 62
   256
 51
90.0
 52
90.0
 71
     2
 49
0.5
 62
   256
  6
BYLAYER
 49
-0.5
 62
   256
  6
BYLAYER
  0
ACDBPLACEHOLDER
  5
F
102
{ACAD_REACTORS
330
E
102
}
330
E
100
AcDbPlaceHolder
280
     0
  0
XRECORD
  5
256
102
{ACAD_REACTORS
330
24C
102
}
330
24C
100
AcDbXrecord
 90
        0
  0
XRECORD
  5
25A
102
{ACAD_REACTORS
330
24C
102
}
330
24C
100
AcDbXrecord
1000
DSTYLE
1002
{
1070
   277
 70
     5
1070
   279
 70
     2
1002
}
  0
XRECORD
  5
257
102
{ACAD_REACTORS
330
24C
102
}
330
24C
100
AcDbXrecord
  1
{B53E1221-C03F-4527-BB61-6E8C65BF38AC}
  0
XRECORD
  5
24F
102
{ACAD_REACTORS
330
24C
102
}
330
24C
100
AcDbXrecord
  1

  0
XRECORD
  5
255
102
{ACAD_REACTORS
330
24C
102
}
330
24C
100
AcDbXrecord
 90
        0
  0
XRECORD
  5
251
102
{ACAD_REACTORS
330
24C
102
}
330
24C
100
AcDbXrecord
340
19
  0
XRECORD
  5
254
102
{ACAD_REACTORS
330
24C
102
}
330
24C
100
AcDbXrecord
 90
    14877
  0
XRECORD
  5
252
102
{ACAD_REACTORS
330
24C
102
}
330
24C
100
AcDbXrecord
340
18
  0
XRECORD
  5
253
102
{ACAD_REACTORS
330
24C
102
}
330
24C
100
AcDbXrecord
340
E
  0
XRECORD
  5
259
102
{ACAD_REACTORS
330
24C
102
}
330
24C
100
AcDbXrecord
 40
0.0
  0
XRECORD
  5
25D
102
{ACAD_REACTORS
330
24C
102
}
330
24C
100
AcDbXrecord
340
0
  0
XRECORD
  5
263
102
{ACAD_REACTORS
330
24C
102
}
330
24C
100
AcDbXrecord
 10
0.0
 20
0.0
 30
0.0
  0
XRECORD
  5
25F
102
{ACAD_REACTORS
330
24C
102
}
330
24C
100
AcDbXrecord
 10
0.0
 20
0.0
 30
0.0
  0
XRECORD
  5
262
102
{ACAD_REACTORS
330
24C
102
}
330
24C
100
AcDbXrecord
 10
0.0
 20
0.0
 30
0.0
  0
XRECORD
  5
260
102
{ACAD_REACTORS
330
24C
102
}
330
24C
100
AcDbXrecord
 10
0.0
 20
0.0
 30
0.0
  0
XRECORD
  5
261
102
{ACAD_REACTORS
330
24C
102
}
330
24C
100
AcDbXrecord
 10
0.0
 20
0.0
 30
0.0
  0
XRECORD
  5
25E
102
{ACAD_REACTORS
330
24C
102
}
330
24C
100
AcDbXrecord
 10
0.0
 20
0.0
 30
0.0
  0
XRECORD
  5
25B
102
{ACAD_REACTORS
330
24C
102
}
330
24C
100
AcDbXrecord
340
0
  0
XRECORD
  5
25C
102
{ACAD_REACTORS
330
24C
102
}
330
24C
100
AcDbXrecord
 70
     0
  0
XRECORD
  5
250
102
{ACAD_REACTORS
330
24C
102
}
330
24C
100
AcDbXrecord
  1

  0
XRECORD
  5
24D
102
{ACAD_REACTORS
330
24C
102
}
330
24C
100
AcDbXrecord
 90
        1
  0
XRECORD
  5
24E
102
{ACAD_REACTORS
330
24C
102
}
330
24C
100
AcDbXrecord
 90
       70
  0
XRECORD
  5
266
102
{ACAD_REACTORS
330
24C
102
}
330
24C
100
AcDbXrecord
340
0
  0
XRECORD
  5
26C
102
{ACAD_REACTORS
330
24C
102
}
330
24C
100
AcDbXrecord
 10
0.0
 20
0.0
 30
0.0
  0
XRECORD
  5
268
102
{ACAD_REACTORS
330
24C
102
}
330
24C
100
AcDbXrecord
 10
0.0
 20
0.0
 30
0.0
  0
XRECORD
  5
26B
102
{ACAD_REACTORS
330
24C
102
}
330
24C
100
AcDbXrecord
 10
0.0
 20
0.0
 30
0.0
  0
XRECORD
  5
269
102
{ACAD_REACTORS
330
24C
102
}
330
24C
100
AcDbXrecord
 10
0.0
 20
0.0
 30
0.0
  0
XRECORD
  5
26A
102
{ACAD_REACTORS
330
24C
102
}
330
24C
100
AcDbXrecord
 10
0.0
 20
0.0
 30
0.0
  0
XRECORD
  5
267
102
{ACAD_REACTORS
330
24C
102
}
330
24C
100
AcDbXrecord
 10
0.0
 20
0.0
 30
0.0
  0
XRECORD
  5
264
102
{ACAD_REACTORS
330
24C
102
}
330
24C
100
AcDbXrecord
340
0
  0
XRECORD
  5
265
102
{ACAD_REACTORS
330
24C
102
}
330
24C
100
AcDbXrecord
 70
     0
  0
XRECORD
  5
258
102
{ACAD_REACTORS
330
24C
102
}
330
24C
100
AcDbXrecord
  1
{A0B6AC9D-04E8-49E8-ACC2-4CA1E4C9DC7F}
  0
DICTIONARYVAR
  5
12C
102
{ACAD_REACTORS
330
12A
102
}
330
12A
100
DictionaryVariables
280
     0
  1
2
  0
DICTIONARYVAR
  5
12B
102
{ACAD_REACTORS
330
12A
102
}
330
12A
100
DictionaryVariables
280
     0
  1
1
  0
ENDSEC
  0
EOF
