  0
SECTION
  2
HEADER
  9
$ACADVER
  1
AC1014
  9
$ACADMAINTVER
 70
     9
  9
$DWGCODEPAGE
  3
ANSI_1252
  9
$INSBASE
 10
10.73126138474142
 20
0.4341708769940454
 30
0.0
  9
$EXTMIN
 10
4.668219666153476
 20
-3.090473232856998
 30
0.0
  9
$EXTMAX
 10
18.05924967979604
 20
1.553069631348212
 30
0.0
  9
$LIMMIN
 10
0.0
 20
0.0
  9
$LIMMAX
 10
36.0
 20
36.0
  9
$ORTHOMODE
 70
     1
  9
$REGENMODE
 70
     1
  9
$FILLMODE
 70
     1
  9
$QTEXTMODE
 70
     0
  9
$MIRRTEXT
 70
     1
  9
$DRAGMODE
 70
     0
  9
$LTSCALE
 40
1.0
  9
$OSMODE
 70
    37
  9
$ATTMODE
 70
     1
  9
$TEXTSIZE
 40
0.2
  9
$TRACEWID
 40
0.05
  9
$TEXTSTYLE
  7
STANDARD
  9
$CLAYER
  8
ADPDIM
  9
$CELTYPE
  6
BYLAYER
  9
$CECOLOR
 62
   256
  9
$CELTSCALE
 40
1.0
  9
$DELOBJ
 70
     1
  9
$DISPSILH
 70
     0
  9
$DIMSCALE
 40
1.0
  9
$DIMASZ
 40
0.125
  9
$DIMEXO
 40
0.0625
  9
$DIMDLI
 40
0.38
  9
$DIMRND
 40
0.0
  9
$DIMDLE
 40
0.0
  9
$DIMEXE
 40
0.18
  9
$DIMTP
 40
0.0
  9
$DIMTM
 40
0.0
  9
$DIMTXT
 40
0.125
  9
$DIMCEN
 40
0.1875
  9
$DIMTSZ
 40
0.125
  9
$DIMTOL
 70
     0
  9
$DIMLIM
 70
     0
  9
$DIMTIH
 70
     0
  9
$DIMTOH
 70
     0
  9
$DIMSE1
 70
     0
  9
$DIMSE2
 70
     0
  9
$DIMTAD
 70
     0
  9
$DIMZIN
 70
     3
  9
$DIMBLK
  1

  9
$DIMASO
 70
     1
  9
$DIMSHO
 70
     1
  9
$DIMPOST
  1

  9
$DIMAPOST
  1

  9
$DIMALT
 70
     0
  9
$DIMALTD
 70
     1
  9
$DIMALTF
 40
25.4
  9
$DIMLFAC
 40
1.0
  9
$DIMTOFL
 70
     0
  9
$DIMTVP
 40
0.0
  9
$DIMTIX
 70
     0
  9
$DIMSOXD
 70
     0
  9
$DIMSAH
 70
     0
  9
$DIMBLK1
  1

  9
$DIMBLK2
  1

  9
$DIMSTYLE
  2
STANDARD
  9
$DIMCLRD
 70
     0
  9
$DIMCLRE
 70
     0
  9
$DIMCLRT
 70
     0
  9
$DIMTFAC
 40
1.0
  9
$DIMGAP
 40
0.125
  9
$DIMJUST
 70
     0
  9
$DIMSD1
 70
     0
  9
$DIMSD2
 70
     0
  9
$DIMTOLJ
 70
     1
  9
$DIMTZIN
 70
     3
  9
$DIMALTZ
 70
     3
  9
$DIMALTTZ
 70
     3
  9
$DIMFIT
 70
     5
  9
$DIMUPT
 70
     0
  9
$DIMUNIT
 70
     5
  9
$DIMDEC
 70
     4
  9
$DIMTDEC
 70
     4
  9
$DIMALTU
 70
     5
  9
$DIMALTTD
 70
     1
  9
$DIMTXSTY
  7
STANDARD
  9
$DIMAUNIT
 70
     0
  9
$LUNITS
 70
     5
  9
$LUPREC
 70
     4
  9
$SKETCHINC
 40
0.1
  9
$FILLETRAD
 40
0.0
  9
$AUNITS
 70
     0
  9
$AUPREC
 70
     0
  9
$MENU
  1
acad
  9
$ELEVATION
 40
0.0
  9
$PELEVATION
 40
0.0
  9
$THICKNESS
 40
0.0
  9
$LIMCHECK
 70
     0
  9
$BLIPMODE
 70
     0
  9
$CHAMFERA
 40
0.0
  9
$CHAMFERB
 40
0.0
  9
$CHAMFERC
 40
0.0
  9
$CHAMFERD
 40
0.0
  9
$SKPOLY
 70
     0
  9
$TDCREATE
 40
2450353.128433252
  9
$TDUPDATE
 40
2452297.086111284
  9
$TDINDWG
 40
0.0844809722
  9
$TDUSRTIMER
 40
0.0844809722
  9
$USRTIMER
 70
     1
  9
$ANGBASE
 50
0.0
  9
$ANGDIR
 70
     0
  9
$PDMODE
 70
     0
  9
$PDSIZE
 40
0.0
  9
$PLINEWID
 40
0.0
  9
$COORDS
 70
     2
  9
$SPLFRAME
 70
     0
  9
$SPLINETYPE
 70
     6
  9
$SPLINESEGS
 70
     8
  9
$ATTDIA
 70
     0
  9
$ATTREQ
 70
     1
  9
$HANDLING
 70
 22529
  9
$HANDSEED
  5
252
  9
$SURFTAB1
 70
     6
  9
$SURFTAB2
 70
     6
  9
$SURFTYPE
 70
     6
  9
$SURFU
 70
     6
  9
$SURFV
 70
     6
  9
$UCSNAME
  2

  9
$UCSORG
 10
0.0
 20
0.0
 30
0.0
  9
$UCSXDIR
 10
1.0
 20
0.0
 30
0.0
  9
$UCSYDIR
 10
0.0
 20
1.0
 30
0.0
  9
$PUCSNAME
  2

  9
$PUCSORG
 10
0.0
 20
0.0
 30
0.0
  9
$PUCSXDIR
 10
1.0
 20
0.0
 30
0.0
  9
$PUCSYDIR
 10
0.0
 20
1.0
 30
0.0
  9
$USERI1
 70
     0
  9
$USERI2
 70
     0
  9
$USERI3
 70
     0
  9
$USERI4
 70
     0
  9
$USERI5
 70
     0
  9
$USERR1
 40
0.0
  9
$USERR2
 40
0.0
  9
$USERR3
 40
0.0
  9
$USERR4
 40
0.0
  9
$USERR5
 40
0.0
  9
$WORLDVIEW
 70
     1
  9
$SHADEDGE
 70
     3
  9
$SHADEDIF
 70
    70
  9
$TILEMODE
 70
     1
  9
$MAXACTVP
 70
    15
  9
$PINSBASE
 10
0.0
 20
0.0
 30
0.0
  9
$PLIMCHECK
 70
     0
  9
$PEXTMIN
 10
1.000000000000000E+20
 20
1.000000000000000E+20
 30
1.000000000000000E+20
  9
$PEXTMAX
 10
-1.000000000000000E+20
 20
-1.000000000000000E+20
 30
-1.000000000000000E+20
  9
$PLIMMIN
 10
0.0
 20
0.0
  9
$PLIMMAX
 10
12.0
 20
9.0
  9
$UNITMODE
 70
     0
  9
$VISRETAIN
 70
     0
  9
$PLINEGEN
 70
     0
  9
$PSLTSCALE
 70
     1
  9
$TREEDEPTH
 70
  3020
  9
$PICKSTYLE
 70
     1
  9
$CMLSTYLE
  2
STANDARD
  9
$CMLJUST
 70
     0
  9
$CMLSCALE
 40
1.0
  9
$PROXYGRAPHICS
 70
     1
  9
$MEASUREMENT
 70
     0
  0
ENDSEC
  0
SECTION
  2
CLASSES
  0
CLASS
  1
ACDBDICTIONARYWDFLT
  2
AcDbDictionaryWithDefault
  3
AutoCAD 2000
 90
        0
280
     0
281
     0
  0
CLASS
  1
ACDBPLACEHOLDER
  2
AcDbPlaceHolder
  3
AutoCAD 2000
 90
        0
280
     0
281
     0
  0
CLASS
  1
LAYOUT
  2
AcDbLayout
  3
AutoCAD 2000
 90
        0
280
     0
281
     0
  0
CLASS
  1
DICTIONARYVAR
  2
AcDbDictionaryVar
  3
AutoCAD 2000
 90
        0
280
     0
281
     0
  0
CLASS
  1
LONG_TRANSACTION
  2
AcDbLongTransaction
  3
AutoCAD 2000
 90
        0
280
     0
281
     0
  0
CLASS
  1
LWPOLYLINE
  2
AcDbPolyline
  3
AutoCAD 2000
 90
        0
280
     0
281
     1
  0
CLASS
  1
HATCH
  2
AcDbHatch
  3
AutoCAD 2000
 90
        0
280
     0
281
     1
  0
CLASS
  1
XRECORD
  2
AcDbXrecord
  3
AutoCAD 2000
 90
        0
280
     0
281
     0
  0
CLASS
  1
LONG_TRANSACTION
  2
AcDbLongTransaction
  3
AutoCAD 2000
 90
        0
280
     0
281
     0
  0
CLASS
  1
LWPOLYLINE
  2
AcDbPolyline
  3
AutoCAD 2000
 90
        0
280
     0
281
     1
  0
CLASS
  1
HATCH
  2
AcDbHatch
  3
AutoCAD 2000
 90
        0
280
     0
281
     1
  0
CLASS
  1
XRECORD
  2
AcDbXrecord
  3
AutoCAD 2000
 90
        0
280
     0
281
     0
  0
CLASS
  1
LONG_TRANSACTION
  2
AcDbLongTransaction
  3
AutoCAD 2000
 90
        0
280
     0
281
     0
  0
CLASS
  1
LWPOLYLINE
  2
AcDbPolyline
  3
AutoCAD 2000
 90
        0
280
     0
281
     1
  0
CLASS
  1
HATCH
  2
AcDbHatch
  3
AutoCAD 2000
 90
        0
280
     0
281
     1
  0
CLASS
  1
XRECORD
  2
AcDbXrecord
  3
AutoCAD 2000
 90
        0
280
     0
281
     0
  0
CLASS
  1
LONG_TRANSACTION
  2
AcDbLongTransaction
  3
AutoCAD 2000
 90
        0
280
     0
281
     0
  0
CLASS
  1
LWPOLYLINE
  2
AcDbPolyline
  3
AutoCAD 2000
 90
        0
280
     0
281
     1
  0
CLASS
  1
HATCH
  2
AcDbHatch
  3
AutoCAD 2000
 90
        0
280
     0
281
     1
  0
CLASS
  1
XRECORD
  2
AcDbXrecord
  3
AutoCAD 2000
 90
        0
280
     0
281
     0
  0
CLASS
  1
LONG_TRANSACTION
  2
AcDbLongTransaction
  3
AutoCAD 2000
 90
        0
280
     0
281
     0
  0
CLASS
  1
LWPOLYLINE
  2
AcDbPolyline
  3
AutoCAD 2000
 90
        0
280
     0
281
     1
  0
CLASS
  1
HATCH
  2
AcDbHatch
  3
AutoCAD 2000
 90
        0
280
     0
281
     1
  0
CLASS
  1
XRECORD
  2
AcDbXrecord
  3
AutoCAD 2000
 90
        0
280
     0
281
     0
  0
ENDSEC
  0
SECTION
  2
TABLES
  0
TABLE
  2
VPORT
  5
8
330
0
100
AcDbSymbolTable
 70
     2
  0
VPORT
  5
22E
330
8
100
AcDbSymbolTableRecord
100
AcDbViewportTableRecord
  2
*ACTIVE
 70
     0
 10
0.0
 20
0.0
 11
1.0
 21
1.0
 12
11.37506655858792
 22
-0.7692143417095716
 13
0.0
 23
0.0
 14
0.5740882589684922
 24
0.5740882589684922
 15
0.5
 25
0.5
 16
0.0
 26
0.0
 36
1.0
 17
0.0
 27
0.0
 37
0.0
 40
8.582083975164245
 41
1.570528967254408
 42
50.0
 43
0.0
 44
0.0
 50
0.0
 51
0.0
 71
     0
 72
   100
 73
     1
 74
     0
 75
     0
 76
     0
 77
     0
 78
     0
  0
ENDTAB
  0
TABLE
  2
LTYPE
  5
5
330
0
100
AcDbSymbolTable
 70
     1
  0
LTYPE
  5
13
330
5
100
AcDbSymbolTableRecord
100
AcDbLinetypeTableRecord
  2
BYBLOCK
 70
     0
  3

 72
    65
 73
     0
 40
0.0
  0
LTYPE
  5
14
330
5
100
AcDbSymbolTableRecord
100
AcDbLinetypeTableRecord
  2
BYLAYER
 70
     0
  3

 72
    65
 73
     0
 40
0.0
  0
LTYPE
  5
15
330
5
100
AcDbSymbolTableRecord
100
AcDbLinetypeTableRecord
  2
CONTINUOUS
 70
     0
  3
Solid line
 72
    65
 73
     0
 40
0.0
  0
ENDTAB
  0
TABLE
  2
LAYER
  5
2
330
0
100
AcDbSymbolTable
 70
     4
  0
LAYER
  5
10
330
2
100
AcDbSymbolTableRecord
100
AcDbLayerTableRecord
  2
0
 70
     0
 62
     7
  6
CONTINUOUS
  0
LAYER
  5
25
330
2
100
AcDbSymbolTableRecord
100
AcDbLayerTableRecord
  2
ADPDIM
 70
     0
 62
     3
  6
CONTINUOUS
  0
LAYER
  5
26
330
2
100
AcDbSymbolTableRecord
100
AcDbLayerTableRecord
  2
ADP1DETAIL
 70
     0
 62
     7
  6
CONTINUOUS
  0
LAYER
  5
27
330
2
100
AcDbSymbolTableRecord
100
AcDbLayerTableRecord
  2
DEFPOINTS
 70
     0
 62
     7
  6
CONTINUOUS
  0
ENDTAB
  0
TABLE
  2
STYLE
  5
3
330
0
100
AcDbSymbolTable
 70
     2
  0
STYLE
  5
11
330
3
100
AcDbSymbolTableRecord
100
AcDbTextStyleTableRecord
  2
STANDARD
 70
     0
 40
0.0
 41
1.0
 50
0.0
 71
     0
 42
0.2
  3
txt
  4

  0
STYLE
  5
9B
330
3
100
AcDbSymbolTableRecord
100
AcDbTextStyleTableRecord
  2
ARIAL_WIDE
 70
     0
 40
0.0
 41
1.25
 50
0.0
 71
     0
 42
0.2
  3
ARIAL.TTF
  4

1001
ACAD
1000
Arial
1071
       34
  0
ENDTAB
  0
TABLE
  2
VIEW
  5
6
330
0
100
AcDbSymbolTable
 70
     0
  0
ENDTAB
  0
TABLE
  2
UCS
  5
7
330
0
100
AcDbSymbolTable
 70
     0
  0
ENDTAB
  0
TABLE
  2
APPID
  5
9
330
0
100
AcDbSymbolTable
 70
     1
  0
APPID
  5
12
330
9
100
AcDbSymbolTableRecord
100
AcDbRegAppTableRecord
  2
ACAD
 70
     0
  0
ENDTAB
  0
TABLE
  2
DIMSTYLE
  5
A
330
0
100
AcDbSymbolTable
 70
     1
  0
DIMSTYLE
105
99
330
A
100
AcDbSymbolTableRecord
100
AcDbDimStyleTableRecord
  2
STANDARD
 70
     0
  3

  4

  5

  6

  7

 40
1.0
 41
0.18
 42
0.0625
 43
0.38
 44
0.18
 45
0.0
 46
0.0
 47
0.0
 48
0.0
140
0.18
141
0.09
142
0.0
143
25.4
144
1.0
145
0.0
146
1.0
147
0.09
 71
     0
 72
     0
 73
     1
 74
     1
 75
     0
 76
     0
 77
     0
 78
     0
170
     0
171
     2
172
     0
173
     0
174
     0
175
     0
176
     0
177
     0
178
     0
270
     2
271
     4
272
     4
273
     2
274
     2
340
11
275
     0
280
     0
281
     0
282
     0
283
     1
284
     0
285
     0
286
     0
287
     3
288
     0
  0
ENDTAB
  0
TABLE
  2
BLOCK_RECORD
  5
1
330
0
100
AcDbSymbolTable
 70
     3
  0
BLOCK_RECORD
  5
1E
102
{ACAD_XDICTIONARY
360
D8
102
}
330
1
100
AcDbSymbolTableRecord
100
AcDbBlockTableRecord
  2
*MODEL_SPACE
  0
BLOCK_RECORD
  5
1A
102
{ACAD_XDICTIONARY
360
DA
102
}
330
1
100
AcDbSymbolTableRecord
100
AcDbBlockTableRecord
  2
*PAPER_SPACE
  0
BLOCK_RECORD
  5
22
330
1
100
AcDbSymbolTableRecord
100
AcDbBlockTableRecord
  2
4441
  0
BLOCK_RECORD
  5
23
330
1
100
AcDbSymbolTableRecord
100
AcDbBlockTableRecord
  2
*D1
  0
BLOCK_RECORD
  5
24
330
1
100
AcDbSymbolTableRecord
100
AcDbBlockTableRecord
  2
*D2
  0
ENDTAB
  0
ENDSEC
  0
SECTION
  2
BLOCKS
  0
BLOCK
  5
2A
330
1E
100
AcDbEntity
  8
0
100
AcDbBlockBegin
  2
*MODEL_SPACE
 70
     0
 10
0.0
 20
0.0
 30
0.0
  3
*MODEL_SPACE
  1

  0
ENDBLK
  5
2B
330
1E
100
AcDbEntity
  8
0
100
AcDbBlockEnd
  0
BLOCK
  5
28
330
1A
100
AcDbEntity
 67
     1
  8
0
100
AcDbBlockBegin
  2
*PAPER_SPACE
 70
     0
 10
0.0
 20
0.0
 30
0.0
  3
*PAPER_SPACE
  1

  0
ENDBLK
  5
29
330
1A
100
AcDbEntity
 67
     1
  8
0
100
AcDbBlockEnd
  0
BLOCK
  5
2D
330
22
100
AcDbEntity
  8
0
100
AcDbBlockBegin
  2
4441
 70
     0
 10
0.0
 20
0.0
 30
0.0
  3
4441
  1

  0
ARC
  5
2E
330
22
100
AcDbEntity
  8
0
100
AcDbCircle
 10
2.131128572843903
 20
0.3179684149746849
 30
0.0
 40
0.125
100
AcDbArc
 50
274.0195737565656
 51
90.0
  0
ARC
  5
2F
330
22
100
AcDbEntity
  8
0
100
AcDbCircle
 10
0.3823524555948391
 20
0.161368414974685
 30
0.0
 40
0.016
100
AcDbArc
 50
90.0
 51
174.0
  0
ARC
  5
30
330
22
100
AcDbEntity
  8
0
100
AcDbCircle
 10
0.2717699263779078
 20
1.036718414974684
 30
0.0
 40
0.53125
100
AcDbArc
 50
263.6450457150437
 51
313.0098162713345
  0
ARC
  5
31
330
22
100
AcDbEntity
  8
0
100
AcDbCircle
 10
0.131128572843904
 20
0.3179684149746849
 30
0.0
 40
0.125
100
AcDbArc
 50
90.0
 51
265.9804262434344
  0
ARC
  5
32
330
22
100
AcDbEntity
  8
0
100
AcDbCircle
 10
0.0603972375810239
 20
0.0076011117305739
 30
0.0
 40
0.1957429538942399
100
AcDbArc
 50
359.3757275120109
 51
74.0995487402812
  0
LINE
  5
33
330
22
100
AcDbEntity
  8
0
100
AcDbLine
 10
0.349878572843904
 20
0.005468414974685
 30
0.0
 11
0.3664401052689467
 21
0.1630408703869674
 31
0.0
  0
LINE
  5
34
330
22
100
AcDbEntity
  8
0
100
AcDbLine
 10
0.349878572843904
 20
0.005468414974685
 30
0.0
 11
0.2558458548927965
 21
0.005468414974685
 31
0.0
  0
LINE
  5
35
330
22
100
AcDbEntity
  8
0
100
AcDbLine
 10
0.131128572843904
 20
0.442968414974685
 30
0.0
 11
0.1929658099349621
 21
0.442968414974685
 31
0.0
  0
LINE
  5
36
330
22
100
AcDbEntity
  8
0
100
AcDbLine
 10
0.1934816436388733
 20
0.442968414974685
 30
0.0
 11
0.2129671381166458
 21
0.5087328142309704
 31
0.0
  0
LINE
  5
37
330
22
100
AcDbEntity
  8
0
100
AcDbLine
 10
1.787378572843904
 20
0.177368414974685
 30
0.0
 11
1.770817040418861
 21
0.3349408703869674
 31
0.0
  0
LINE
  5
38
330
22
100
AcDbEntity
  8
0
100
AcDbLine
 10
0.474878572843904
 20
0.177368414974685
 30
0.0
 11
0.4914401052689468
 21
0.3349408703869674
 31
0.0
  0
LINE
  5
39
330
22
100
AcDbEntity
  8
0
100
AcDbLine
 10
0.474878572843904
 20
0.177368414974685
 30
0.0
 11
0.3823524555948391
 21
0.177368414974685
 31
0.0
  0
ARC
  5
3A
330
22
100
AcDbEntity
  8
0
100
AcDbCircle
 10
2.201859908106783
 20
0.0076011117305739
 30
0.0
 40
0.1957429538942399
100
AcDbArc
 50
105.9004512597187
 51
180.624272487989
  0
LINE
  5
3B
330
22
100
AcDbEntity
  8
0
100
AcDbLine
 10
1.912378572843904
 20
0.005468414974685
 30
0.0
 11
1.895817040418861
 21
0.1630408703869674
 31
0.0
  0
LINE
  5
3C
330
22
100
AcDbEntity
  8
0
100
AcDbLine
 10
1.912378572843904
 20
0.005468414974685
 30
0.0
 11
2.006411290795011
 21
0.005468414974685
 31
0.0
  0
ARC
  5
3D
330
22
100
AcDbEntity
  8
0
100
AcDbCircle
 10
1.879904690092968
 20
0.161368414974685
 30
0.0
 40
0.016
100
AcDbArc
 50
5.99999999999999
 51
90.0
  0
LINE
  5
3E
330
22
100
AcDbEntity
  8
0
100
AcDbLine
 10
1.787378572843904
 20
0.177368414974685
 30
0.0
 11
1.879904690092968
 21
0.177368414974685
 31
0.0
  0
ARC
  5
3F
330
22
100
AcDbEntity
  8
0
100
AcDbCircle
 10
1.131128572843904
 20
0.005468414974685
 30
0.0
 40
0.625
100
AcDbArc
 50
33.37250147611143
 51
90.0
  0
ARC
  5
40
330
22
100
AcDbEntity
  8
0
100
AcDbCircle
 10
1.131128572843904
 20
0.005468414974685
 30
0.0
 40
0.8125
100
AcDbArc
 50
52.28977333137304
 51
90.0
  0
ARC
  5
41
330
22
100
AcDbEntity
  8
0
100
AcDbCircle
 10
1.131128572843904
 20
0.005468414974685
 30
0.0
 40
0.8125
100
AcDbArc
 50
90.0
 51
127.7102266686269
  0
ARC
  5
42
330
22
100
AcDbEntity
  8
0
100
AcDbCircle
 10
1.131128572843904
 20
0.005468414974685
 30
0.0
 40
0.625
100
AcDbArc
 50
90.0
 51
146.6274985238885
  0
ARC
  5
43
330
22
100
AcDbEntity
  8
0
100
AcDbCircle
 10
0.5073524555948393
 20
0.333268414974685
 30
0.0
 40
0.016
100
AcDbArc
 50
90.0
 51
174.0
  0
LINE
  5
44
330
22
100
AcDbEntity
  8
0
100
AcDbLine
 10
0.6091835949008262
 20
0.349268414974685
 30
0.0
 11
0.5073524555948393
 21
0.349268414974685
 31
0.0
  0
ARC
  5
45
330
22
100
AcDbEntity
  8
0
100
AcDbCircle
 10
1.9904872193099
 20
1.036718414974684
 30
0.0
 40
0.53125
100
AcDbArc
 50
226.9901837286654
 51
276.3549542849563
  0
LINE
  5
46
330
22
100
AcDbEntity
  8
0
100
AcDbLine
 10
1.653073550786981
 20
0.349268414974685
 30
0.0
 11
1.754904690092968
 21
0.349268414974685
 31
0.0
  0
ARC
  5
47
330
22
100
AcDbEntity
  8
0
100
AcDbCircle
 10
1.754904690092968
 20
0.333268414974685
 30
0.0
 40
0.016
100
AcDbArc
 50
5.99999999999999
 51
90.0
  0
LINE
  5
48
330
22
100
AcDbEntity
  8
0
100
AcDbLine
 10
2.068775502048934
 20
0.442968414974685
 30
0.0
 11
2.049290007571161
 21
0.5087328142309704
 31
0.0
  0
LINE
  5
49
330
22
100
AcDbEntity
  8
0
100
AcDbLine
 10
2.131128572843903
 20
0.442968414974685
 30
0.0
 11
2.069291335752845
 21
0.442968414974685
 31
0.0
  0
ENDBLK
  5
4A
330
22
100
AcDbEntity
  8
0
100
AcDbBlockEnd
  0
BLOCK
  5
4B
330
23
100
AcDbEntity
  8
0
100
AcDbBlockBegin
  2
*D1
 70
     1
 10
0.0
 20
0.0
 30
0.0
  3
*D1
  1

  0
LINE
  5
4C
330
23
100
AcDbEntity
  8
0
  6
BYBLOCK
 62
     0
100
AcDbLine
 10
8.433348310375402
 20
-1.190073457279883
 30
0.0
 11
8.433348310375402
 21
-1.666206746462766
 31
0.0
  0
LINE
  5
4D
330
23
100
AcDbEntity
  8
0
  6
BYBLOCK
 62
     0
100
AcDbLine
 10
9.952312724277016
 20
-1.190073457279883
 30
0.0
 11
9.952312724277016
 21
-1.666206746462766
 31
0.0
  0
LINE
  5
4E
330
23
100
AcDbEntity
  8
0
  6
BYBLOCK
 62
     0
100
AcDbLine
 10
8.433348310375402
 20
-1.486206746462766
 30
0.0
 11
8.817830517326209
 21
-1.486206746462766
 31
0.0
  0
LINE
  5
4F
330
23
100
AcDbEntity
  8
0
  6
BYBLOCK
 62
     0
100
AcDbLine
 10
9.952312724277016
 20
-1.486206746462766
 30
0.0
 11
9.567830517326209
 21
-1.486206746462766
 31
0.0
  0
LINE
  5
50
330
23
100
AcDbEntity
  8
0
  6
BYBLOCK
 62
     0
100
AcDbLine
 10
8.308348310375402
 20
-1.611206746462766
 30
0.0
 11
8.558348310375402
 21
-1.361206746462766
 31
0.0
  0
LINE
  5
51
330
23
100
AcDbEntity
  8
0
  6
BYBLOCK
 62
     0
100
AcDbLine
 10
9.827312724277016
 20
-1.611206746462766
 30
0.0
 11
10.07731272427701
 21
-1.361206746462766
 31
0.0
  0
TEXT
  5
52
330
23
100
AcDbEntity
  8
0
  6
BYBLOCK
 62
     0
100
AcDbText
 10
8.942830517326209
 20
-1.548706746462766
 30
0.0
 40
0.125
  1
1 1/2
 72
     1
 11
9.192830517326209
 21
-1.486206746462766
 31
0.0
100
AcDbText
 73
     2
  0
POINT
  5
54
330
23
100
AcDbEntity
  8
DEFPOINTS
  6
BYBLOCK
 62
     0
100
AcDbPoint
 10
8.433348310375402
 20
-1.127573457279883
 30
0.0
  0
POINT
  5
55
330
23
100
AcDbEntity
  8
DEFPOINTS
  6
BYBLOCK
 62
     0
100
AcDbPoint
 10
9.952312724277016
 20
-1.127573457279883
 30
0.0
  0
POINT
  5
56
330
23
100
AcDbEntity
  8
DEFPOINTS
  6
BYBLOCK
 62
     0
100
AcDbPoint
 10
9.952312724277016
 20
-1.486206746462766
 30
0.0
  0
ENDBLK
  5
57
330
23
100
AcDbEntity
  8
0
100
AcDbBlockEnd
  0
BLOCK
  5
58
330
24
100
AcDbEntity
  8
0
100
AcDbBlockBegin
  2
*D2
 70
     1
 10
0.0
 20
0.0
 30
0.0
  3
*D2
  1

  0
LINE
  5
59
330
24
100
AcDbEntity
  8
0
  6
BYBLOCK
 62
     0
100
AcDbLine
 10
8.067907410933335
 20
-0.9159799988141156
 30
0.0
 11
8.067907410933335
 21
-0.1459096580626861
 31
0.0
  0
LINE
  5
5A
330
24
100
AcDbEntity
  8
0
  6
BYBLOCK
 62
     0
100
AcDbLine
 10
10.31775362371908
 20
-0.9159799988141156
 30
0.0
 11
10.31775362371908
 21
-0.1459096580626861
 31
0.0
  0
LINE
  5
5B
330
24
100
AcDbEntity
  8
0
  6
BYBLOCK
 62
     0
100
AcDbLine
 10
8.067907410933335
 20
-0.325909658062686
 30
0.0
 11
8.796997183992875
 21
-0.325909658062686
 31
0.0
  0
LINE
  5
5C
330
24
100
AcDbEntity
  8
0
  6
BYBLOCK
 62
     0
100
AcDbLine
 10
10.31775362371908
 20
-0.325909658062686
 30
0.0
 11
9.588663850659543
 21
-0.325909658062686
 31
0.0
  0
LINE
  5
5D
330
24
100
AcDbEntity
  8
0
  6
BYBLOCK
 62
     0
100
AcDbLine
 10
7.942907410933335
 20
-0.450909658062686
 30
0.0
 11
8.192907410933335
 21
-0.200909658062686
 31
0.0
  0
LINE
  5
5E
330
24
100
AcDbEntity
  8
0
  6
BYBLOCK
 62
     0
100
AcDbLine
 10
10.19275362371908
 20
-0.450909658062686
 30
0.0
 11
10.44275362371908
 21
-0.200909658062686
 31
0.0
  0
TEXT
  5
5F
330
24
100
AcDbEntity
  8
0
  6
BYBLOCK
 62
     0
100
AcDbText
 10
8.921997183992875
 20
-0.388409658062686
 30
0.0
 40
0.125
  1
2 1/4
 72
     1
 11
9.192830517326209
 21
-0.325909658062686
 31
0.0
100
AcDbText
 73
     2
  0
POINT
  5
60
330
24
100
AcDbEntity
  8
DEFPOINTS
  6
BYBLOCK
 62
     0
100
AcDbPoint
 10
8.067907410933335
 20
-0.9784799988141156
 30
0.0
  0
POINT
  5
61
330
24
100
AcDbEntity
  8
DEFPOINTS
  6
BYBLOCK
 62
     0
100
AcDbPoint
 10
10.31775362371908
 20
-0.9784799988141156
 30
0.0
  0
POINT
  5
62
330
24
100
AcDbEntity
  8
DEFPOINTS
  6
BYBLOCK
 62
     0
100
AcDbPoint
 10
10.31775362371908
 20
-0.325909658062686
 30
0.0
  0
ENDBLK
  5
63
330
24
100
AcDbEntity
  8
0
100
AcDbBlockEnd
  0
ENDSEC
  0
SECTION
  2
ENTITIES
  0
LWPOLYLINE
  5
64
330
1E
100
AcDbEntity
  8
ADP1DETAIL
100
AcDbPolyline
 90
        7
 70
     0
 43
0.0
 10
10.72285284447705
 20
0.9251363238696246
 10
12.47912521484406
 20
0.9251363238696246
 42
-0.1250486630876161
 10
13.68841594641009
 20
0.7274321170740894
 42
-0.1256815583632025
 10
14.24034019038096
 20
0.1194916811778182
 42
-0.0792366066750611
 10
14.66375669993473
 20
-1.236429670428229
 42
0.2017386908605227
 10
15.14154186635727
 20
-2.168934512480506
 42
0.5207110650115161
 10
15.79279130797415
 20
-1.77040176902755
 42
-32.52174252302538
  0
LWPOLYLINE
  5
6D
330
1E
100
AcDbEntity
  8
ADP1DETAIL
100
AcDbPolyline
 90
        3
 70
     0
 43
0.0
 10
14.18267646339893
 20
0.2035159690659212
 42
0.2118867024815958
 10
12.8613533479821
 20
0.8493497112646704
 10
10.72700646075222
 20
0.8493497112646702
  0
LINE
  5
72
330
1E
100
AcDbEntity
  8
ADP1DETAIL
100
AcDbLine
 10
10.72285284447705
 20
1.254643335195517
 30
0.0
 11
12.98656601228594
 21
1.254643335195517
 31
0.0
  0
LINE
  5
73
330
1E
100
AcDbEntity
  8
ADP1DETAIL
100
AcDbLine
 10
12.95361531115335
 20
0.4341708769940454
 30
0.0
 11
10.73126138474142
 21
0.4341708769940454
 31
0.0
  0
LWPOLYLINE
  5
74
330
1E
100
AcDbEntity
  8
ADP1DETAIL
100
AcDbPolyline
 90
        3
 70
     0
 43
0.0
 10
7.596011791133872
 20
0.7204992905967826
 10
8.221894628513535
 20
-2.146517195497336
 42
0.2617298009733131
 10
8.719450215615632
 20
-2.438130900520751
 42
-1.053430959559987
  0
LWPOLYLINE
  5
79
330
1E
100
AcDbEntity
  8
ADP1DETAIL
100
AcDbPolyline
 90
        3
 70
     0
 43
0.0
 10
9.845858003919619
 20
0.7204992905967826
 10
9.219975166539956
 20
-2.146517195497336
 42
-0.2617298009733131
 10
8.722419579437859
 20
-2.438130900520751
 42
1.053430959559987
  0
DIMENSION
  5
7E
330
1E
100
AcDbEntity
  8
ADPDIM
100
AcDbDimension
  2
*D2
 10
9.845858003919619
 20
1.373069631348212
 30
0.0
 11
8.720934897526745
 21
1.373069631348212
 31
0.0
 12
-0.4718956197994651
 22
1.698979289410898
 32
0.0
100
AcDbAlignedDimension
 13
7.59601179113387
 23
0.7204992905967828
 33
0.0
 14
9.845858003919619
 24
0.7204992905967828
 34
0.0
100
AcDbRotatedDimension
  0
DIMENSION
  5
7F
330
1E
100
AcDbEntity
  8
ADPDIM
100
AcDbDimension
  2
*D1
 10
9.480417104477552
 20
0.2127725429481315
 30
0.0
 11
8.720934897526745
 21
0.2127725429481315
 31
0.0
 12
-0.4718956197994651
 22
1.698979289410898
 32
0.0
100
AcDbAlignedDimension
 13
7.961452690575937
 23
0.5714058321310152
 33
0.0
 14
9.480417104477552
 24
0.5714058321310152
 34
0.0
100
AcDbRotatedDimension
  0
INSERT
  5
80
330
1E
100
AcDbEntity
  8
ADP1DETAIL
100
AcDbBlockReference
  2
4441
 10
7.589806324682841
 20
0.3981470999486918
 30
0.0
  0
LWPOLYLINE
  5
81
330
1E
100
AcDbEntity
  8
ADP1DETAIL
100
AcDbPolyline
 90
        4
 70
     0
 43
0.0
 10
8.87399280464777
 20
-0.7451452270968915
 10
9.364958251523351
 20
-0.3085484370900842
 42
0.1599827257099311
 10
9.470400495147636
 20
0.0769747661612108
 10
9.502184897526745
 20
0.4036155149233768
  0
LWPOLYLINE
  5
87
330
1E
100
AcDbEntity
  8
ADP1DETAIL
100
AcDbPolyline
 90
        4
 70
     0
 43
0.0
 10
8.567876990405721
 20
-0.7451452270968915
 10
8.07691154353014
 20
-0.3085484370900842
 42
-0.1599827257099311
 10
7.971469299905855
 20
0.0769747661612108
 10
7.939684897526745
 20
0.4036155149233768
  0
LINE
  5
8D
330
1E
100
AcDbEntity
  8
ADP1DETAIL
100
AcDbLine
 10
10.73126138474142
 20
0.4341708769940454
 30
0.0
 11
10.72285284447705
 21
1.254643335195517
 31
0.0
  0
ARC
  5
8E
330
1E
100
AcDbEntity
  8
ADP1DETAIL
100
AcDbCircle
 10
15.38380412929865
 20
-1.950083109115048
 30
0.0
 40
0.4971463209082209
100
AcDbArc
 50
242.9887196080763
 51
1.877529730188536
  0
ARC
  5
8F
330
1E
100
AcDbEntity
  8
ADP1DETAIL
100
AcDbCircle
 10
15.8148376376586
 20
-1.350209934955256
 30
0.0
 40
1.232405243259374
100
AcDbArc
 50
200.4978372685564
 51
237.794456020525
  0
ARC
  5
90
330
1E
100
AcDbEntity
  8
ADP1DETAIL
100
AcDbCircle
 10
10.3546581795891
 20
-1.774667605321566
 30
0.0
 40
4.617666572192366
100
AcDbArc
 50
10.54008845759722
 51
23.94859711391901
  0
ARC
  5
91
330
1E
100
AcDbEntity
  8
ADP1DETAIL
100
AcDbCircle
 10
12.85176539333731
 20
-0.6002380525942629
 30
0.0
 40
1.859773150047573
100
AcDbArc
 50
22.10889590577771
 51
85.84342564124193
  0
ARC
  5
92
330
1E
100
AcDbEntity
  8
ADP1DETAIL
100
AcDbCircle
 10
12.94066295720624
 20
-1.437786409975041
 30
0.0
 40
1.577408748370839
100
AcDbArc
 50
33.34031711639943
 51
98.7796692480189
  0
ARC
  5
93
330
1E
100
AcDbEntity
  8
ADP1DETAIL
100
AcDbCircle
 10
12.97999698894806
 20
-0.8576988992595291
 30
0.0
 40
1.292139122432535
100
AcDbArc
 50
15.16150184850449
 51
91.16989247108362
  0
LINE
  5
94
330
1E
100
AcDbEntity
  8
ADP1DETAIL
100
AcDbLine
 10
12.69989491243241
 20
0.1211392162344476
 30
0.0
 11
12.6113010461797
 21
0.4341708769940454
 31
0.0
  0
ARC
  5
95
330
1E
100
AcDbEntity
  8
ADP1DETAIL
100
AcDbCircle
 10
6.54078543464117
 20
-3.864198661016673
 30
0.0
 40
8.382462440865637
100
AcDbArc
 50
14.38448416313278
 51
23.51451734913659
  0
ARC
  5
96
330
1E
100
AcDbEntity
  8
ADP1DETAIL
100
AcDbCircle
 10
15.44243828107338
 20
-1.586601307230763
 30
0.0
 40
0.347244814848223
100
AcDbArc
 50
182.0276393100471
 51
304.3541231570248
  0
ARC
  5
97
330
1E
100
AcDbEntity
  8
ADP1DETAIL
100
AcDbCircle
 10
21.34945395973647
 20
0.6450553642424427
 30
0.0
 40
6.644421256656515
100
AcDbArc
 50
193.7123472745969
 51
199.7379222829642
  0
ARC
  5
98
330
1E
100
AcDbEntity
  8
ADP1DETAIL
100
AcDbCircle
 10
15.76239636554153
 20
-1.89208782007565
 30
0.0
 40
0.1254246688062728
100
AcDbArc
 50
340.5777302160725
 51
171.3733334568203
  0
TEXT
  5
9C
330
1E
100
AcDbEntity
  8
ADPDIM
100
AcDbText
 10
4.668219666153476
 20
-3.053467775831077
 30
0.0
 40
0.125
  1
J U L I U S  B L U M  &  C O . ,  I N C .      ( 8 0 0 )  5 2 6 - 6 2 9 3        W W W . J U L I U S B L U M . C O M        P A R T  N o .  4 4 4 1 - B
 41
1.25
  7
ARIAL_WIDE
 72
     1
 11
11.36373467297475
 21
-2.928467775831077
 31
0.0
100
AcDbText
 73
     3
  0
ENDSEC
  0
SECTION
  2
OBJECTS
  0
DICTIONARY
  5
C
330
0
100
AcDbDictionary
  3
ACAD_GROUP
350
D
  3
ACAD_LAYOUT
350
19
  3
ACAD_MLINESTYLE
350
16
  3
ACAD_PLOTSETTINGS
350
18
  3
ACAD_PLOTSTYLENAME
350
E
  3
ACDBHEADERROUNDTRIPXREC
350
22F
  3
ACDBVARIABLEDICTIONARY
350
10D
  0
DICTIONARY
  5
D8
330
1E
100
AcDbDictionary
280
     1
  3
ACAD_LAYOUTSELFREF
360
251
  0
DICTIONARY
  5
DA
330
1A
100
AcDbDictionary
280
     1
  3
ACAD_LAYOUTSELFREF
360
250
  0
DICTIONARY
  5
D
102
{ACAD_REACTORS
330
C
102
}
330
C
100
AcDbDictionary
  0
DICTIONARY
  5
19
102
{ACAD_REACTORS
330
C
102
}
330
C
100
AcDbDictionary
  0
DICTIONARY
  5
16
102
{ACAD_REACTORS
330
C
102
}
330
C
100
AcDbDictionary
  3
STANDARD
350
17
  0
DICTIONARY
  5
18
102
{ACAD_REACTORS
330
C
102
}
330
C
100
AcDbDictionary
  0
ACDBDICTIONARYWDFLT
  5
E
102
{ACAD_REACTORS
330
C
102
}
330
C
100
AcDbDictionary
281
     1
  3
Normal
350
F
100
AcDbDictionaryWithDefault
340
F
  0
DICTIONARY
  5
22F
102
{ACAD_REACTORS
330
C
102
}
330
C
100
AcDbDictionary
  3
CEPSNTYPE
350
239
  3
DIMSTYLEDATA
350
23D
  3
FINGERPRINTGUID
350
23A
  3
HYPERLINKBASE
350
232
  3
INSUNITS
350
238
  3
LAYOUTDICT
350
234
  3
LWETCUNION
350
237
  3
PLOTSETDICT
350
235
  3
PLOTSTYLNAMDICT
350
236
  3
PSVPSCALE
350
23C
  3
PUCSBASE
350
240
  3
PUCSORGBACK
350
246
  3
PUCSORGBOTTOM
350
242
  3
PUCSORGFRONT
350
245
  3
PUCSORGLEFT
350
243
  3
PUCSORGRIGHT
350
244
  3
PUCSORGTOP
350
241
  3
PUCSORTHOREF
350
23E
  3
PUCSORTHOVIEW
350
23F
  3
STYLESHEET
350
233
  3
TSTACKALIGN
350
230
  3
TSTACKSIZE
350
231
  3
UCSBASE
350
249
  3
UCSORGBACK
350
24F
  3
UCSORGBOTTOM
350
24B
  3
UCSORGFRONT
350
24E
  3
UCSORGLEFT
350
24C
  3
UCSORGRIGHT
350
24D
  3
UCSORGTOP
350
24A
  3
UCSORTHOREF
350
247
  3
UCSORTHOVIEW
350
248
  3
VERSIONGUID
350
23B
  0
DICTIONARY
  5
10D
102
{ACAD_REACTORS
330
C
102
}
330
C
100
AcDbDictionary
  3
DIMASSOC
350
10F
  3
HIDETEXT
350
10E
  0
XRECORD
  5
251
102
{ACAD_REACTORS
330
D8
102
}
330
D8
100
AcDbXrecord
340
1E
  0
XRECORD
  5
250
102
{ACAD_REACTORS
330
DA
102
}
330
DA
100
AcDbXrecord
340
1A
  0
MLINESTYLE
  5
17
102
{ACAD_REACTORS
330
16
102
}
330
16
100
AcDbMlineStyle
  2
STANDARD
 70
     0
  3

 62
   256
 51
90.0
 52
90.0
 71
     2
 49
0.5
 62
   256
  6
BYLAYER
 49
-0.5
 62
   256
  6
BYLAYER
  0
ACDBPLACEHOLDER
  5
F
102
{ACAD_REACTORS
330
E
102
}
330
E
100
AcDbPlaceHolder
280
     0
  0
XRECORD
  5
239
102
{ACAD_REACTORS
330
22F
102
}
330
22F
100
AcDbXrecord
 90
        0
  0
XRECORD
  5
23D
102
{ACAD_REACTORS
330
22F
102
}
330
22F
100
AcDbXrecord
1000
DSTYLE
1002
{
1070
   277
 70
     5
1070
   279
 70
     2
1002
}
  0
XRECORD
  5
23A
102
{ACAD_REACTORS
330
22F
102
}
330
22F
100
AcDbXrecord
  1
{085A1900-658C-44F0-8733-790002233FFD}
  0
XRECORD
  5
232
102
{ACAD_REACTORS
330
22F
102
}
330
22F
100
AcDbXrecord
  1

  0
XRECORD
  5
238
102
{ACAD_REACTORS
330
22F
102
}
330
22F
100
AcDbXrecord
 90
        0
  0
XRECORD
  5
234
102
{ACAD_REACTORS
330
22F
102
}
330
22F
100
AcDbXrecord
340
19
  0
XRECORD
  5
237
102
{ACAD_REACTORS
330
22F
102
}
330
22F
100
AcDbXrecord
 90
    14877
  0
XRECORD
  5
235
102
{ACAD_REACTORS
330
22F
102
}
330
22F
100
AcDbXrecord
340
18
  0
XRECORD
  5
236
102
{ACAD_REACTORS
330
22F
102
}
330
22F
100
AcDbXrecord
340
E
  0
XRECORD
  5
23C
102
{ACAD_REACTORS
330
22F
102
}
330
22F
100
AcDbXrecord
 40
0.0
  0
XRECORD
  5
240
102
{ACAD_REACTORS
330
22F
102
}
330
22F
100
AcDbXrecord
340
0
  0
XRECORD
  5
246
102
{ACAD_REACTORS
330
22F
102
}
330
22F
100
AcDbXrecord
 10
0.0
 20
0.0
 30
0.0
  0
XRECORD
  5
242
102
{ACAD_REACTORS
330
22F
102
}
330
22F
100
AcDbXrecord
 10
0.0
 20
0.0
 30
0.0
  0
XRECORD
  5
245
102
{ACAD_REACTORS
330
22F
102
}
330
22F
100
AcDbXrecord
 10
0.0
 20
0.0
 30
0.0
  0
XRECORD
  5
243
102
{ACAD_REACTORS
330
22F
102
}
330
22F
100
AcDbXrecord
 10
0.0
 20
0.0
 30
0.0
  0
XRECORD
  5
244
102
{ACAD_REACTORS
330
22F
102
}
330
22F
100
AcDbXrecord
 10
0.0
 20
0.0
 30
0.0
  0
XRECORD
  5
241
102
{ACAD_REACTORS
330
22F
102
}
330
22F
100
AcDbXrecord
 10
0.0
 20
0.0
 30
0.0
  0
XRECORD
  5
23E
102
{ACAD_REACTORS
330
22F
102
}
330
22F
100
AcDbXrecord
340
0
  0
XRECORD
  5
23F
102
{ACAD_REACTORS
330
22F
102
}
330
22F
100
AcDbXrecord
 70
     0
  0
XRECORD
  5
233
102
{ACAD_REACTORS
330
22F
102
}
330
22F
100
AcDbXrecord
  1

  0
XRECORD
  5
230
102
{ACAD_REACTORS
330
22F
102
}
330
22F
100
AcDbXrecord
 90
        1
  0
XRECORD
  5
231
102
{ACAD_REACTORS
330
22F
102
}
330
22F
100
AcDbXrecord
 90
       70
  0
XRECORD
  5
249
102
{ACAD_REACTORS
330
22F
102
}
330
22F
100
AcDbXrecord
340
0
  0
XRECORD
  5
24F
102
{ACAD_REACTORS
330
22F
102
}
330
22F
100
AcDbXrecord
 10
0.0
 20
0.0
 30
0.0
  0
XRECORD
  5
24B
102
{ACAD_REACTORS
330
22F
102
}
330
22F
100
AcDbXrecord
 10
0.0
 20
0.0
 30
0.0
  0
XRECORD
  5
24E
102
{ACAD_REACTORS
330
22F
102
}
330
22F
100
AcDbXrecord
 10
0.0
 20
0.0
 30
0.0
  0
XRECORD
  5
24C
102
{ACAD_REACTORS
330
22F
102
}
330
22F
100
AcDbXrecord
 10
0.0
 20
0.0
 30
0.0
  0
XRECORD
  5
24D
102
{ACAD_REACTORS
330
22F
102
}
330
22F
100
AcDbXrecord
 10
0.0
 20
0.0
 30
0.0
  0
XRECORD
  5
24A
102
{ACAD_REACTORS
330
22F
102
}
330
22F
100
AcDbXrecord
 10
0.0
 20
0.0
 30
0.0
  0
XRECORD
  5
247
102
{ACAD_REACTORS
330
22F
102
}
330
22F
100
AcDbXrecord
340
0
  0
XRECORD
  5
248
102
{ACAD_REACTORS
330
22F
102
}
330
22F
100
AcDbXrecord
 70
     0
  0
XRECORD
  5
23B
102
{ACAD_REACTORS
330
22F
102
}
330
22F
100
AcDbXrecord
  1
{62379C19-4DCA-4FEF-A53B-B13AB9CA9BE7}
  0
DICTIONARYVAR
  5
10F
102
{ACAD_REACTORS
330
10D
102
}
330
10D
100
DictionaryVariables
280
     0
  1
2
  0
DICTIONARYVAR
  5
10E
102
{ACAD_REACTORS
330
10D
102
}
330
10D
100
DictionaryVariables
280
     0
  1
1
  0
ENDSEC
  0
EOF
