  0
SECTION
  2
HEADER
  9
$ACADVER
  1
AC1014
  9
$ACADMAINTVER
 70
     9
  9
$DWGCODEPAGE
  3
ANSI_1252
  9
$INSBASE
 10
13.52109048733923
 20
7.513908549978761
 30
0.0
  9
$EXTMIN
 10
7.740501469150352
 20
6.169225579252208
 30
0.0
  9
$EXTMAX
 10
17.92933907999619
 20
9.977055916471455
 30
0.0
  9
$LIMMIN
 10
0.0
 20
0.0
  9
$LIMMAX
 10
36.0
 20
36.0
  9
$ORTHOMODE
 70
     1
  9
$REGENMODE
 70
     1
  9
$FILLMODE
 70
     1
  9
$QTEXTMODE
 70
     0
  9
$MIRRTEXT
 70
     1
  9
$DRAGMODE
 70
     0
  9
$LTSCALE
 40
1.0
  9
$OSMODE
 70
    37
  9
$ATTMODE
 70
     1
  9
$TEXTSIZE
 40
0.2
  9
$TRACEWID
 40
0.05
  9
$TEXTSTYLE
  7
STANDARD
  9
$CLAYER
  8
ADP1DETAIL
  9
$CELTYPE
  6
BYLAYER
  9
$CECOLOR
 62
   256
  9
$CELTSCALE
 40
1.0
  9
$DELOBJ
 70
     1
  9
$DISPSILH
 70
     0
  9
$DIMSCALE
 40
1.0
  9
$DIMASZ
 40
0.125
  9
$DIMEXO
 40
0.0625
  9
$DIMDLI
 40
0.38
  9
$DIMRND
 40
0.0
  9
$DIMDLE
 40
0.0
  9
$DIMEXE
 40
0.18
  9
$DIMTP
 40
0.0
  9
$DIMTM
 40
0.0
  9
$DIMTXT
 40
0.125
  9
$DIMCEN
 40
0.1875
  9
$DIMTSZ
 40
0.125
  9
$DIMTOL
 70
     0
  9
$DIMLIM
 70
     0
  9
$DIMTIH
 70
     0
  9
$DIMTOH
 70
     0
  9
$DIMSE1
 70
     0
  9
$DIMSE2
 70
     0
  9
$DIMTAD
 70
     0
  9
$DIMZIN
 70
     3
  9
$DIMBLK
  1

  9
$DIMASO
 70
     1
  9
$DIMSHO
 70
     1
  9
$DIMPOST
  1

  9
$DIMAPOST
  1

  9
$DIMALT
 70
     0
  9
$DIMALTD
 70
     1
  9
$DIMALTF
 40
25.4
  9
$DIMLFAC
 40
1.0
  9
$DIMTOFL
 70
     0
  9
$DIMTVP
 40
0.0
  9
$DIMTIX
 70
     0
  9
$DIMSOXD
 70
     0
  9
$DIMSAH
 70
     0
  9
$DIMBLK1
  1

  9
$DIMBLK2
  1

  9
$DIMSTYLE
  2
STANDARD
  9
$DIMCLRD
 70
     0
  9
$DIMCLRE
 70
     0
  9
$DIMCLRT
 70
     0
  9
$DIMTFAC
 40
1.0
  9
$DIMGAP
 40
0.125
  9
$DIMJUST
 70
     0
  9
$DIMSD1
 70
     0
  9
$DIMSD2
 70
     0
  9
$DIMTOLJ
 70
     1
  9
$DIMTZIN
 70
     3
  9
$DIMALTZ
 70
     3
  9
$DIMALTTZ
 70
     3
  9
$DIMFIT
 70
     5
  9
$DIMUPT
 70
     0
  9
$DIMUNIT
 70
     5
  9
$DIMDEC
 70
     5
  9
$DIMTDEC
 70
     5
  9
$DIMALTU
 70
     5
  9
$DIMALTTD
 70
     1
  9
$DIMTXSTY
  7
STANDARD
  9
$DIMAUNIT
 70
     0
  9
$LUNITS
 70
     5
  9
$LUPREC
 70
     5
  9
$SKETCHINC
 40
0.1
  9
$FILLETRAD
 40
0.0
  9
$AUNITS
 70
     0
  9
$AUPREC
 70
     0
  9
$MENU
  1
acad
  9
$ELEVATION
 40
0.0
  9
$PELEVATION
 40
0.0
  9
$THICKNESS
 40
0.0
  9
$LIMCHECK
 70
     0
  9
$BLIPMODE
 70
     0
  9
$CHAMFERA
 40
0.0
  9
$CHAMFERB
 40
0.0
  9
$CHAMFERC
 40
0.0
  9
$CHAMFERD
 40
0.0
  9
$SKPOLY
 70
     0
  9
$TDCREATE
 40
2450368.575430555
  9
$TDUPDATE
 40
2452297.085972754
  9
$TDINDWG
 40
0.0865431481
  9
$TDUSRTIMER
 40
0.0865431481
  9
$USRTIMER
 70
     1
  9
$ANGBASE
 50
0.0
  9
$ANGDIR
 70
     0
  9
$PDMODE
 70
     0
  9
$PDSIZE
 40
0.0
  9
$PLINEWID
 40
0.0
  9
$COORDS
 70
     2
  9
$SPLFRAME
 70
     0
  9
$SPLINETYPE
 70
     6
  9
$SPLINESEGS
 70
     8
  9
$ATTDIA
 70
     0
  9
$ATTREQ
 70
     1
  9
$HANDLING
 70
 22529
  9
$HANDSEED
  5
27F
  9
$SURFTAB1
 70
     6
  9
$SURFTAB2
 70
     6
  9
$SURFTYPE
 70
     6
  9
$SURFU
 70
     6
  9
$SURFV
 70
     6
  9
$UCSNAME
  2

  9
$UCSORG
 10
0.0
 20
0.0
 30
0.0
  9
$UCSXDIR
 10
1.0
 20
0.0
 30
0.0
  9
$UCSYDIR
 10
0.0
 20
1.0
 30
0.0
  9
$PUCSNAME
  2

  9
$PUCSORG
 10
0.0
 20
0.0
 30
0.0
  9
$PUCSXDIR
 10
1.0
 20
0.0
 30
0.0
  9
$PUCSYDIR
 10
0.0
 20
1.0
 30
0.0
  9
$USERI1
 70
     0
  9
$USERI2
 70
     0
  9
$USERI3
 70
     0
  9
$USERI4
 70
     0
  9
$USERI5
 70
     0
  9
$USERR1
 40
0.0
  9
$USERR2
 40
0.0
  9
$USERR3
 40
0.0
  9
$USERR4
 40
0.0
  9
$USERR5
 40
0.0
  9
$WORLDVIEW
 70
     1
  9
$SHADEDGE
 70
     3
  9
$SHADEDIF
 70
    70
  9
$TILEMODE
 70
     1
  9
$MAXACTVP
 70
    15
  9
$PINSBASE
 10
0.1250035762786868
 20
0.0
 30
0.0
  9
$PLIMCHECK
 70
     0
  9
$PEXTMIN
 10
1.000000000000000E+20
 20
1.000000000000000E+20
 30
1.000000000000000E+20
  9
$PEXTMAX
 10
-1.000000000000000E+20
 20
-1.000000000000000E+20
 30
-1.000000000000000E+20
  9
$PLIMMIN
 10
0.0
 20
0.0
  9
$PLIMMAX
 10
12.0
 20
9.0
  9
$UNITMODE
 70
     0
  9
$VISRETAIN
 70
     0
  9
$PLINEGEN
 70
     0
  9
$PSLTSCALE
 70
     1
  9
$TREEDEPTH
 70
  3020
  9
$PICKSTYLE
 70
     1
  9
$CMLSTYLE
  2
STANDARD
  9
$CMLJUST
 70
     0
  9
$CMLSCALE
 40
1.0
  9
$PROXYGRAPHICS
 70
     1
  9
$MEASUREMENT
 70
     0
  0
ENDSEC
  0
SECTION
  2
CLASSES
  0
CLASS
  1
ACDBDICTIONARYWDFLT
  2
AcDbDictionaryWithDefault
  3
AutoCAD 2000
 90
        0
280
     0
281
     0
  0
CLASS
  1
ACDBPLACEHOLDER
  2
AcDbPlaceHolder
  3
AutoCAD 2000
 90
        0
280
     0
281
     0
  0
CLASS
  1
LAYOUT
  2
AcDbLayout
  3
AutoCAD 2000
 90
        0
280
     0
281
     0
  0
CLASS
  1
DICTIONARYVAR
  2
AcDbDictionaryVar
  3
AutoCAD 2000
 90
        0
280
     0
281
     0
  0
CLASS
  1
LONG_TRANSACTION
  2
AcDbLongTransaction
  3
AutoCAD 2000
 90
        0
280
     0
281
     0
  0
CLASS
  1
LWPOLYLINE
  2
AcDbPolyline
  3
AutoCAD 2000
 90
        0
280
     0
281
     1
  0
CLASS
  1
HATCH
  2
AcDbHatch
  3
AutoCAD 2000
 90
        0
280
     0
281
     1
  0
CLASS
  1
XRECORD
  2
AcDbXrecord
  3
AutoCAD 2000
 90
        0
280
     0
281
     0
  0
CLASS
  1
LONG_TRANSACTION
  2
AcDbLongTransaction
  3
AutoCAD 2000
 90
        0
280
     0
281
     0
  0
CLASS
  1
LWPOLYLINE
  2
AcDbPolyline
  3
AutoCAD 2000
 90
        0
280
     0
281
     1
  0
CLASS
  1
HATCH
  2
AcDbHatch
  3
AutoCAD 2000
 90
        0
280
     0
281
     1
  0
CLASS
  1
XRECORD
  2
AcDbXrecord
  3
AutoCAD 2000
 90
        0
280
     0
281
     0
  0
CLASS
  1
LONG_TRANSACTION
  2
AcDbLongTransaction
  3
AutoCAD 2000
 90
        0
280
     0
281
     0
  0
CLASS
  1
LWPOLYLINE
  2
AcDbPolyline
  3
AutoCAD 2000
 90
        0
280
     0
281
     1
  0
CLASS
  1
HATCH
  2
AcDbHatch
  3
AutoCAD 2000
 90
        0
280
     0
281
     1
  0
CLASS
  1
XRECORD
  2
AcDbXrecord
  3
AutoCAD 2000
 90
        0
280
     0
281
     0
  0
CLASS
  1
LONG_TRANSACTION
  2
AcDbLongTransaction
  3
AutoCAD 2000
 90
        0
280
     0
281
     0
  0
CLASS
  1
LWPOLYLINE
  2
AcDbPolyline
  3
AutoCAD 2000
 90
        0
280
     0
281
     1
  0
CLASS
  1
HATCH
  2
AcDbHatch
  3
AutoCAD 2000
 90
        0
280
     0
281
     1
  0
CLASS
  1
XRECORD
  2
AcDbXrecord
  3
AutoCAD 2000
 90
        0
280
     0
281
     0
  0
CLASS
  1
LONG_TRANSACTION
  2
AcDbLongTransaction
  3
AutoCAD 2000
 90
        0
280
     0
281
     0
  0
CLASS
  1
LWPOLYLINE
  2
AcDbPolyline
  3
AutoCAD 2000
 90
        0
280
     0
281
     1
  0
CLASS
  1
HATCH
  2
AcDbHatch
  3
AutoCAD 2000
 90
        0
280
     0
281
     1
  0
CLASS
  1
XRECORD
  2
AcDbXrecord
  3
AutoCAD 2000
 90
        0
280
     0
281
     0
  0
ENDSEC
  0
SECTION
  2
TABLES
  0
TABLE
  2
VPORT
  5
8
330
0
100
AcDbSymbolTable
 70
     2
  0
VPORT
  5
25B
330
8
100
AcDbSymbolTableRecord
100
AcDbViewportTableRecord
  2
*ACTIVE
 70
     0
 10
0.0
 20
0.0
 11
1.0
 21
1.0
 12
12.84327877277974
 22
8.072479320308755
 13
0.0
 23
0.0
 14
0.5740882589684922
 24
0.5740882589684922
 15
0.5
 25
0.5
 16
0.0
 26
0.0
 36
1.0
 17
0.0
 27
0.0
 37
0.0
 40
6.53160656286848
 41
1.570528967254408
 42
50.0
 43
0.0
 44
0.0
 50
0.0
 51
0.0
 71
     0
 72
   100
 73
     1
 74
     0
 75
     0
 76
     0
 77
     0
 78
     0
  0
ENDTAB
  0
TABLE
  2
LTYPE
  5
5
330
0
100
AcDbSymbolTable
 70
     2
  0
LTYPE
  5
13
330
5
100
AcDbSymbolTableRecord
100
AcDbLinetypeTableRecord
  2
BYBLOCK
 70
     0
  3

 72
    65
 73
     0
 40
0.0
  0
LTYPE
  5
14
330
5
100
AcDbSymbolTableRecord
100
AcDbLinetypeTableRecord
  2
BYLAYER
 70
     0
  3

 72
    65
 73
     0
 40
0.0
  0
LTYPE
  5
15
330
5
100
AcDbSymbolTableRecord
100
AcDbLinetypeTableRecord
  2
CONTINUOUS
 70
     0
  3
Solid line
 72
    65
 73
     0
 40
0.0
  0
LTYPE
  5
4E
330
5
100
AcDbSymbolTableRecord
100
AcDbLinetypeTableRecord
  2
HIDDEN2
 70
     0
  3
_ _ _ _ _ _ _ _ _ _ _ _ _ _ _ _ _ _ _ _ _ _ _ _
 72
    65
 73
     2
 40
0.1875
 49
0.125
 74
     0
 49
-0.0625
 74
     0
  0
ENDTAB
  0
TABLE
  2
LAYER
  5
2
330
0
100
AcDbSymbolTable
 70
     5
  0
LAYER
  5
10
330
2
100
AcDbSymbolTableRecord
100
AcDbLayerTableRecord
  2
0
 70
     0
 62
     7
  6
CONTINUOUS
  0
LAYER
  5
4F
330
2
100
AcDbSymbolTableRecord
100
AcDbLayerTableRecord
  2
ADP2DETAIL
 70
     0
 62
     5
  6
CONTINUOUS
  0
LAYER
  5
50
330
2
100
AcDbSymbolTableRecord
100
AcDbLayerTableRecord
  2
ADPDIM
 70
     0
 62
     3
  6
CONTINUOUS
  0
LAYER
  5
52
330
2
100
AcDbSymbolTableRecord
100
AcDbLayerTableRecord
  2
ADP1DETAIL
 70
     0
 62
     7
  6
CONTINUOUS
  0
LAYER
  5
54
330
2
100
AcDbSymbolTableRecord
100
AcDbLayerTableRecord
  2
DEFPOINTS
 70
     0
 62
     7
  6
CONTINUOUS
  0
ENDTAB
  0
TABLE
  2
STYLE
  5
3
330
0
100
AcDbSymbolTable
 70
     2
  0
STYLE
  5
11
330
3
100
AcDbSymbolTableRecord
100
AcDbTextStyleTableRecord
  2
STANDARD
 70
     0
 40
0.0
 41
1.0
 50
0.0
 71
     0
 42
0.2
  3
txt
  4

  0
STYLE
  5
C8
330
3
100
AcDbSymbolTableRecord
100
AcDbTextStyleTableRecord
  2
ARIAL_WIDE
 70
     0
 40
0.0
 41
1.25
 50
0.0
 71
     0
 42
0.2
  3
ARIAL.TTF
  4

1001
ACAD
1000
Arial
1071
       34
  0
ENDTAB
  0
TABLE
  2
VIEW
  5
6
330
0
100
AcDbSymbolTable
 70
     0
  0
ENDTAB
  0
TABLE
  2
UCS
  5
7
330
0
100
AcDbSymbolTable
 70
     0
  0
ENDTAB
  0
TABLE
  2
APPID
  5
9
330
0
100
AcDbSymbolTable
 70
     1
  0
APPID
  5
12
330
9
100
AcDbSymbolTableRecord
100
AcDbRegAppTableRecord
  2
ACAD
 70
     0
  0
ENDTAB
  0
TABLE
  2
DIMSTYLE
  5
A
330
0
100
AcDbSymbolTable
 70
     1
  0
DIMSTYLE
105
C6
330
A
100
AcDbSymbolTableRecord
100
AcDbDimStyleTableRecord
  2
STANDARD
 70
     0
  3

  4

  5

  6

  7

 40
1.0
 41
0.18
 42
0.0625
 43
0.38
 44
0.18
 45
0.0
 46
0.0
 47
0.0
 48
0.0
140
0.18
141
0.09
142
0.0
143
25.4
144
1.0
145
0.0
146
1.0
147
0.09
 71
     0
 72
     0
 73
     1
 74
     1
 75
     0
 76
     0
 77
     0
 78
     0
170
     0
171
     2
172
     0
173
     0
174
     0
175
     0
176
     0
177
     0
178
     0
270
     2
271
     4
272
     4
273
     2
274
     2
340
11
275
     0
280
     0
281
     0
282
     0
283
     1
284
     0
285
     0
286
     0
287
     3
288
     0
  0
ENDTAB
  0
TABLE
  2
BLOCK_RECORD
  5
1
330
0
100
AcDbSymbolTable
 70
     2
  0
BLOCK_RECORD
  5
1E
102
{ACAD_XDICTIONARY
360
105
102
}
330
1
100
AcDbSymbolTableRecord
100
AcDbBlockTableRecord
  2
*MODEL_SPACE
  0
BLOCK_RECORD
  5
1A
102
{ACAD_XDICTIONARY
360
107
102
}
330
1
100
AcDbSymbolTableRecord
100
AcDbBlockTableRecord
  2
*PAPER_SPACE
  0
BLOCK_RECORD
  5
4B
330
1
100
AcDbSymbolTableRecord
100
AcDbBlockTableRecord
  2
*D0
  0
BLOCK_RECORD
  5
4C
330
1
100
AcDbSymbolTableRecord
100
AcDbBlockTableRecord
  2
*D1
  0
ENDTAB
  0
ENDSEC
  0
SECTION
  2
BLOCKS
  0
BLOCK
  5
57
330
1E
100
AcDbEntity
  8
0
100
AcDbBlockBegin
  2
*MODEL_SPACE
 70
     0
 10
0.0
 20
0.0
 30
0.0
  3
*MODEL_SPACE
  1

  0
ENDBLK
  5
58
330
1E
100
AcDbEntity
  8
0
100
AcDbBlockEnd
  0
BLOCK
  5
55
330
1A
100
AcDbEntity
 67
     1
  8
0
100
AcDbBlockBegin
  2
*PAPER_SPACE
 70
     0
 10
0.0
 20
0.0
 30
0.0
  3
*PAPER_SPACE
  1

  0
ENDBLK
  5
56
330
1A
100
AcDbEntity
 67
     1
  8
0
100
AcDbBlockEnd
  0
BLOCK
  5
5A
330
4B
100
AcDbEntity
  8
0
100
AcDbBlockBegin
  2
*D0
 70
     1
 10
0.0
 20
0.0
 30
0.0
  3
*D0
  1

  0
LINE
  5
5B
330
4B
100
AcDbEntity
  8
0
  6
BYBLOCK
 62
     0
100
AcDbLine
 10
12.08492027457327
 20
9.012578762744718
 30
0.0
 11
12.08492027457327
 21
9.543070549321067
 31
0.0
  0
LINE
  5
5C
330
4B
100
AcDbEntity
  8
0
  6
BYBLOCK
 62
     0
100
AcDbLine
 10
13.58492027457327
 20
9.012578762744718
 30
0.0
 11
13.58492027457327
 21
9.543070549321067
 31
0.0
  0
LINE
  5
5D
330
4B
100
AcDbEntity
  8
0
  6
BYBLOCK
 62
     0
100
AcDbLine
 10
12.08492027457327
 20
9.363070549321067
 30
0.0
 11
12.45992027457327
 21
9.363070549321067
 31
0.0
  0
LINE
  5
5E
330
4B
100
AcDbEntity
  8
0
  6
BYBLOCK
 62
     0
100
AcDbLine
 10
13.58492027457327
 20
9.363070549321067
 30
0.0
 11
13.20992027457327
 21
9.363070549321067
 31
0.0
  0
LINE
  5
5F
330
4B
100
AcDbEntity
  8
0
  6
BYBLOCK
 62
     0
100
AcDbLine
 10
11.95992027457327
 20
9.238070549321067
 30
0.0
 11
12.20992027457327
 21
9.488070549321067
 31
0.0
  0
LINE
  5
60
330
4B
100
AcDbEntity
  8
0
  6
BYBLOCK
 62
     0
100
AcDbLine
 10
13.45992027457327
 20
9.238070549321067
 30
0.0
 11
13.70992027457327
 21
9.488070549321067
 31
0.0
  0
TEXT
  5
61
330
4B
100
AcDbEntity
  8
0
  6
BYBLOCK
 62
     0
100
AcDbText
 10
12.58492027457327
 20
9.300570549321067
 30
0.0
 40
0.125
  1
1 1/2
 72
     1
 11
12.83492027457327
 21
9.363070549321067
 31
0.0
100
AcDbText
 73
     2
  0
POINT
  5
63
330
4B
100
AcDbEntity
  8
DEFPOINTS
  6
BYBLOCK
 62
     0
100
AcDbPoint
 10
12.08492027457327
 20
8.950078762744718
 30
0.0
  0
POINT
  5
64
330
4B
100
AcDbEntity
  8
DEFPOINTS
  6
BYBLOCK
 62
     0
100
AcDbPoint
 10
13.58492027457327
 20
8.950078762744718
 30
0.0
  0
POINT
  5
65
330
4B
100
AcDbEntity
  8
DEFPOINTS
  6
BYBLOCK
 62
     0
100
AcDbPoint
 10
13.58492027457327
 20
9.363070549321067
 30
0.0
  0
ENDBLK
  5
66
330
4B
100
AcDbEntity
  8
0
100
AcDbBlockEnd
  0
BLOCK
  5
67
330
4C
100
AcDbEntity
  8
0
100
AcDbBlockBegin
  2
*D1
 70
     1
 10
0.0
 20
0.0
 30
0.0
  3
*D1
  1

  0
LINE
  5
68
330
4C
100
AcDbEntity
  8
0
  6
BYBLOCK
 62
     0
100
AcDbLine
 10
13.58359048733923
 20
9.013908549978761
 30
0.0
 11
14.05828376394104
 21
9.013908549978761
 31
0.0
  0
LINE
  5
69
330
4C
100
AcDbEntity
  8
0
  6
BYBLOCK
 62
     0
100
AcDbLine
 10
13.58359048733922
 20
7.513908549978761
 30
0.0
 11
14.05828376394104
 21
7.513908549978761
 31
0.0
  0
LINE
  5
6A
330
4C
100
AcDbEntity
  8
0
  6
BYBLOCK
 62
     0
100
AcDbLine
 10
13.87828376394104
 20
9.013908549978761
 30
0.0
 11
13.87828376394104
 21
8.638908549978761
 31
0.0
  0
LINE
  5
6B
330
4C
100
AcDbEntity
  8
0
  6
BYBLOCK
 62
     0
100
AcDbLine
 10
13.87828376394104
 20
7.513908549978761
 30
0.0
 11
13.87828376394104
 21
7.888908549978761
 31
0.0
  0
LINE
  5
6C
330
4C
100
AcDbEntity
  8
0
  6
BYBLOCK
 62
     0
100
AcDbLine
 10
14.00328376394104
 20
8.888908549978761
 30
0.0
 11
13.75328376394104
 21
9.138908549978761
 31
0.0
  0
LINE
  5
6D
330
4C
100
AcDbEntity
  8
0
  6
BYBLOCK
 62
     0
100
AcDbLine
 10
14.00328376394104
 20
7.388908549978761
 30
0.0
 11
13.75328376394104
 21
7.638908549978761
 31
0.0
  0
TEXT
  5
6E
330
4C
100
AcDbEntity
  8
0
  6
BYBLOCK
 62
     0
100
AcDbText
 10
13.94078376394104
 20
8.013908549978761
 30
0.0
 40
0.125
  1
1 1/2
 50
90.0
 72
     1
 11
13.87828376394104
 21
8.263908549978761
 31
0.0
100
AcDbText
 73
     2
  0
POINT
  5
6F
330
4C
100
AcDbEntity
  8
DEFPOINTS
  6
BYBLOCK
 62
     0
100
AcDbPoint
 10
13.52109048733923
 20
9.013908549978761
 30
0.0
  0
POINT
  5
70
330
4C
100
AcDbEntity
  8
DEFPOINTS
  6
BYBLOCK
 62
     0
100
AcDbPoint
 10
13.52109048733923
 20
7.513908549978761
 30
0.0
  0
POINT
  5
71
330
4C
100
AcDbEntity
  8
DEFPOINTS
  6
BYBLOCK
 62
     0
100
AcDbPoint
 10
13.87828376394104
 20
7.513908549978761
 30
0.0
  0
ENDBLK
  5
72
330
4C
100
AcDbEntity
  8
0
100
AcDbBlockEnd
  0
ENDSEC
  0
SECTION
  2
ENTITIES
  0
LINE
  5
73
330
1E
100
AcDbEntity
  8
ADP1DETAIL
100
AcDbLine
 10
13.53577572295292
 20
9.566776535977195
 30
0.0
 11
12.14235551434131
 21
9.566776535977195
 31
0.0
  0
LINE
  5
74
330
1E
100
AcDbEntity
  8
ADP2DETAIL
  6
HIDDEN2
100
AcDbLine
 10
12.29860551434131
 20
9.723026535977195
 30
0.0
 11
13.37952572295292
 21
9.723026535977195
 31
0.0
  0
LINE
  5
75
330
1E
100
AcDbEntity
  8
ADP1DETAIL
100
AcDbLine
 10
12.07985551434131
 20
9.977055916471455
 30
0.0
 11
13.59827572295292
 21
9.977055916471455
 31
0.0
  0
ARC
  5
76
330
1E
100
AcDbEntity
  8
ADP1DETAIL
100
AcDbCircle
 10
12.28970179554831
 20
7.239712708553825
 30
0.0
 40
0.6296294546398661
100
AcDbArc
 50
270.9972411168814
 51
299.5459647873847
  0
LINE
  5
77
330
1E
100
AcDbEntity
  8
ADP2DETAIL
  6
HIDDEN2
100
AcDbLine
 10
12.29446017026746
 20
6.801890303367939
 30
0.0
 11
13.37538037887907
 21
6.801890303367939
 31
0.0
  0
LINE
  5
78
330
1E
100
AcDbEntity
  8
ADP1DETAIL
100
AcDbLine
 10
13.53163037887908
 20
6.958140303367939
 30
0.0
 11
12.13821017026746
 21
6.958140303367939
 31
0.0
  0
DIMENSION
  5
79
330
1E
100
AcDbEntity
  8
ADPDIM
100
AcDbDimension
  2
*D0
 10
13.58492027457327
 20
9.363070549321067
 30
0.0
 11
12.83492027457327
 21
9.363070549321067
 31
0.0
100
AcDbAlignedDimension
 13
12.08492027457327
 23
8.950078762744718
 33
0.0
 14
13.58492027457327
 24
8.950078762744718
 34
0.0
100
AcDbRotatedDimension
  0
LWPOLYLINE
  5
7A
330
1E
100
AcDbEntity
  8
ADP1DETAIL
100
AcDbPolyline
 90
        8
 70
     1
 43
0.0
 10
12.08492027457327
 20
7.577738337212804
 10
12.08492027457327
 20
8.950078762744718
 42
-0.4142135623730951
 10
12.14875006180731
 20
9.013908549978761
 10
13.52109048733923
 20
9.013908549978761
 42
-0.4142135623730951
 10
13.58492027457327
 20
8.950078762744718
 10
13.58492027457327
 20
7.577738337212804
 42
-0.4142135623730951
 10
13.52109048733923
 20
7.513908549978761
 10
12.14875006180731
 20
7.513908549978761
 42
-0.4142135623730951
  0
LINE
  5
84
330
1E
100
AcDbEntity
  8
ADP2DETAIL
  6
HIDDEN2
100
AcDbLine
 10
12.2432181469137
 20
8.886248975510675
 30
0.0
 11
13.42662240223284
 21
8.886248975510676
 31
0.0
  0
LINE
  5
85
330
1E
100
AcDbEntity
  8
ADP2DETAIL
  6
HIDDEN2
100
AcDbLine
 10
13.42662240223284
 20
7.641568124446846
 30
0.0
 11
12.24321814691369
 21
7.641568124446847
 31
0.0
  0
ARC
  5
86
330
1E
100
AcDbEntity
  8
ADP1DETAIL
100
AcDbCircle
 10
11.79065918445131
 20
8.809127029003725
 30
0.0
 40
0.6296294546398661
100
AcDbArc
 50
180.9972411168813
 51
209.5459647873847
  0
LINE
  5
87
330
1E
100
AcDbEntity
  8
ADP1DETAIL
100
AcDbLine
 10
11.50908677926542
 20
7.567198445672955
 30
0.0
 11
11.50908677926542
 21
8.960618654284569
 31
0.0
  0
LINE
  5
88
330
1E
100
AcDbEntity
  8
ADP2DETAIL
  6
HIDDEN2
100
AcDbLine
 10
11.35283677926542
 20
8.804368654284568
 30
0.0
 11
11.35283677926542
 21
7.723448445672957
 31
0.0
  0
LINE
  5
89
330
1E
100
AcDbEntity
  8
ADP2DETAIL
  6
HIDDEN2
100
AcDbLine
 10
12.21257984904135
 20
7.672206422319188
 30
0.0
 11
12.21257984904136
 21
8.855610677638335
 31
0.0
  0
LINE
  5
8A
330
1E
100
AcDbEntity
  8
ADP1DETAIL
100
AcDbLine
 10
12.07571017026746
 20
6.54786092287368
 30
0.0
 11
12.07571017026746
 21
6.895640303367939
 31
0.0
  0
LINE
  5
8B
330
1E
100
AcDbEntity
  8
ADP1DETAIL
100
AcDbLine
 10
12.22453274244584
 20
6.54786092287368
 30
0.0
 11
12.24128733543541
 21
6.610389915170887
 31
0.0
  0
LINE
  5
8C
330
1E
100
AcDbEntity
  8
ADP1DETAIL
100
AcDbLine
 10
12.07571017026746
 20
6.54786092287368
 30
0.0
 11
12.22453274244584
 21
6.54786092287368
 31
0.0
  0
LINE
  5
8D
330
1E
100
AcDbEntity
  8
ADP2DETAIL
  6
HIDDEN2
100
AcDbLine
 10
12.26321017026746
 20
6.610106788347425
 30
0.0
 11
12.26321017026746
 21
6.770640303367939
 31
0.0
  0
ARC
  5
8E
330
1E
100
AcDbEntity
  8
ADP2DETAIL
  6
HIDDEN2
100
AcDbCircle
 10
12.29446017026746
 20
6.770640303367941
 30
0.0
 40
0.03125
100
AcDbArc
 50
90.0
 51
180.0000000000003
  0
LINE
  5
8F
330
1E
100
AcDbEntity
  8
ADP1DETAIL
100
AcDbLine
 10
12.24117027457327
 20
6.610389915170887
 30
0.0
 11
12.30066003163843
 21
6.610178621143229
 31
0.0
  0
ARC
  5
90
330
1E
100
AcDbEntity
  8
ADP1DETAIL
100
AcDbCircle
 10
12.13821017026746
 20
6.895640303367941
 30
0.0
 40
0.0625
100
AcDbArc
 50
90.0
 51
180.0
  0
ARC
  5
91
330
1E
100
AcDbEntity
  8
ADP1DETAIL
100
AcDbCircle
 10
11.79065918445131
 20
7.718690070953801
 30
0.0
 40
0.6296294546398661
100
AcDbArc
 50
150.4540352126152
 51
179.0027588831186
  0
LINE
  5
92
330
1E
100
AcDbEntity
  8
ADP1DETAIL
100
AcDbLine
 10
11.09880739877116
 20
7.504698445672957
 30
0.0
 11
11.44658677926542
 21
7.504698445672955
 31
0.0
  0
LINE
  5
93
330
1E
100
AcDbEntity
  8
ADP2DETAIL
  6
HIDDEN2
100
AcDbLine
 10
11.16125811039351
 20
7.692198445672957
 30
0.0
 11
11.32158677926542
 21
7.692198445672957
 31
0.0
  0
LINE
  5
94
330
1E
100
AcDbEntity
  8
ADP1DETAIL
100
AcDbLine
 10
11.09880739877116
 20
7.504698445672957
 30
0.0
 11
11.09880739877116
 21
7.653521017851337
 31
0.0
  0
LINE
  5
95
330
1E
100
AcDbEntity
  8
ADP1DETAIL
100
AcDbLine
 10
11.16133639106837
 20
7.670158549978763
 30
0.0
 11
11.16112509704071
 21
7.72964830704393
 31
0.0
  0
LINE
  5
96
330
1E
100
AcDbEntity
  8
ADP1DETAIL
100
AcDbLine
 10
11.09880739877116
 20
7.653521017851337
 30
0.0
 11
11.16133639106837
 21
7.670275610840908
 31
0.0
  0
ARC
  5
97
330
1E
100
AcDbEntity
  8
ADP1DETAIL
100
AcDbCircle
 10
11.44658677926542
 20
7.567198445672956
 30
0.0
 40
0.0625
100
AcDbArc
 50
270.0
 51
0.0
  0
ARC
  5
98
330
1E
100
AcDbEntity
  8
ADP2DETAIL
  6
HIDDEN2
100
AcDbCircle
 10
11.32158677926542
 20
7.723448445672958
 30
0.0
 40
0.03125
100
AcDbArc
 50
269.9999999999997
 51
0.0
  0
ARC
  5
99
330
1E
100
AcDbEntity
  8
ADP1DETAIL
100
AcDbCircle
 10
10.91133639106837
 20
8.263908549978763
 30
0.0
 40
0.40625
100
AcDbArc
 50
0.0
 51
35.29652908109443
  0
ARC
  5
9A
330
1E
100
AcDbEntity
  8
ADP1DETAIL
100
AcDbCircle
 10
10.91133639106837
 20
8.263908549978763
 30
0.0
 40
0.40625
100
AcDbArc
 50
324.7034709189055
 51
0.0
  0
ARC
  5
9B
330
1E
100
AcDbEntity
  8
ADP2DETAIL
  6
HIDDEN2
100
AcDbCircle
 10
12.24321814691369
 20
7.672206422319187
 30
0.0
 40
0.0306382978723398
100
AcDbArc
 50
179.9999999999982
 51
270.0
  0
LINE
  5
9C
330
1E
100
AcDbEntity
  8
ADP1DETAIL
100
AcDbLine
 10
11.09880739877116
 20
9.023118654284569
 30
0.0
 11
11.44658677926542
 21
9.023118654284569
 31
0.0
  0
LINE
  5
9D
330
1E
100
AcDbEntity
  8
ADP2DETAIL
  6
HIDDEN2
100
AcDbLine
 10
11.16105326424491
 20
8.835618654284569
 30
0.0
 11
11.32158677926542
 21
8.835618654284568
 31
0.0
  0
LINE
  5
9E
330
1E
100
AcDbEntity
  8
ADP1DETAIL
100
AcDbLine
 10
11.09880739877116
 20
9.023118654284569
 30
0.0
 11
11.09880739877116
 21
8.874296082106191
 31
0.0
  0
LINE
  5
9F
330
1E
100
AcDbEntity
  8
ADP1DETAIL
100
AcDbLine
 10
11.16133639106837
 20
8.857658549978763
 30
0.0
 11
11.16112509704071
 21
8.798168792913596
 31
0.0
  0
LINE
  5
A0
330
1E
100
AcDbEntity
  8
ADP1DETAIL
100
AcDbLine
 10
11.09880739877116
 20
8.874296082106191
 30
0.0
 11
11.16133639106837
 21
8.857541489116618
 31
0.0
  0
ARC
  5
A1
330
1E
100
AcDbEntity
  8
ADP1DETAIL
100
AcDbCircle
 10
11.44658677926542
 20
8.960618654284571
 30
0.0
 40
0.0625
100
AcDbArc
 50
0.0
 51
90.0
  0
ARC
  5
A2
330
1E
100
AcDbEntity
  8
ADP2DETAIL
  6
HIDDEN2
100
AcDbCircle
 10
11.32158677926542
 20
8.804368654284568
 30
0.0
 40
0.03125
100
AcDbArc
 50
0.0
 51
90.00000000000031
  0
ARC
  5
A3
330
1E
100
AcDbEntity
  8
ADP2DETAIL
  6
HIDDEN2
100
AcDbCircle
 10
12.2432181469137
 20
8.855610677638335
 30
0.0
 40
0.0306382978723398
100
AcDbArc
 50
90.0
 51
180.0
  0
LINE
  5
A4
330
1E
100
AcDbEntity
  8
ADP1DETAIL
100
AcDbLine
 10
12.07985551434131
 20
9.977055916471455
 30
0.0
 11
12.07985551434131
 21
9.629276535977195
 31
0.0
  0
LINE
  5
A5
330
1E
100
AcDbEntity
  8
ADP2DETAIL
  6
HIDDEN2
100
AcDbLine
 10
12.26735551434131
 20
9.977055916471455
 30
0.0
 11
12.26735551434131
 21
9.754276535977195
 31
0.0
  0
ARC
  5
A6
330
1E
100
AcDbEntity
  8
ADP1DETAIL
100
AcDbCircle
 10
12.14235551434131
 20
9.629276535977194
 30
0.0
 40
0.0625
100
AcDbArc
 50
180.0
 51
270.0
  0
ARC
  5
A7
330
1E
100
AcDbEntity
  8
ADP2DETAIL
  6
HIDDEN2
100
AcDbCircle
 10
12.29860551434131
 20
9.754276535977194
 30
0.0
 40
0.03125
100
AcDbArc
 50
179.9999999999996
 51
270.0
  0
LINE
  5
A8
330
1E
100
AcDbEntity
  8
ADP1DETAIL
100
AcDbLine
 10
14.57932383852307
 20
9.023118654284569
 30
0.0
 11
14.57932383852307
 21
7.504698445672957
 31
0.0
  0
LINE
  5
A9
330
1E
100
AcDbEntity
  8
ADP2DETAIL
  6
HIDDEN2
100
AcDbLine
 10
14.32529445802881
 20
8.804368654284568
 30
0.0
 11
14.32529445802881
 21
7.723448445672957
 31
0.0
  0
LINE
  5
AA
330
1E
100
AcDbEntity
  8
ADP1DETAIL
100
AcDbLine
 10
14.16904445802881
 20
7.567198445672955
 30
0.0
 11
14.16904445802881
 21
8.960618654284569
 31
0.0
  0
DIMENSION
  5
AB
330
1E
100
AcDbEntity
  8
ADPDIM
100
AcDbDimension
  2
*D1
 10
13.87828376394104
 20
7.513908549978761
 30
0.0
 11
13.87828376394104
 21
8.263908549978761
 31
0.0
100
AcDbAlignedDimension
 13
13.52109048733923
 23
9.013908549978761
 33
0.0
 14
13.52109048733923
 24
7.513908549978761
 34
0.0
 50
270.0
100
AcDbRotatedDimension
  0
LINE
  5
AC
330
1E
100
AcDbEntity
  8
ADP2DETAIL
  6
HIDDEN2
100
AcDbLine
 10
13.45726070010518
 20
8.855610677638335
 30
0.0
 11
13.45726070010518
 21
7.672206422319187
 31
0.0
  0
ARC
  5
AD
330
1E
100
AcDbEntity
  8
ADP1DETAIL
100
AcDbCircle
 10
13.38013875359823
 20
7.239712708553825
 30
0.0
 40
0.6296294546398661
100
AcDbArc
 50
240.4540352126152
 51
269.0027588831185
  0
ARC
  5
AE
330
1E
100
AcDbEntity
  8
ADP1DETAIL
100
AcDbCircle
 10
12.83492027457327
 20
6.360389915170888
 30
0.0
 40
0.40625
100
AcDbArc
 50
90.0
 51
125.2965290810944
  0
ARC
  5
AF
330
1E
100
AcDbEntity
  8
ADP1DETAIL
100
AcDbCircle
 10
12.83492027457327
 20
6.360389915170888
 30
0.0
 40
0.40625
100
AcDbArc
 50
54.70347091890556
 51
90.0
  0
LINE
  5
B0
330
1E
100
AcDbEntity
  8
ADP1DETAIL
100
AcDbLine
 10
13.59413037887907
 20
6.54786092287368
 30
0.0
 11
13.59413037887907
 21
6.895640303367939
 31
0.0
  0
LINE
  5
B1
330
1E
100
AcDbEntity
  8
ADP1DETAIL
100
AcDbLine
 10
13.44530780670069
 20
6.54786092287368
 30
0.0
 11
13.42855321371112
 21
6.610389915170887
 31
0.0
  0
LINE
  5
B2
330
1E
100
AcDbEntity
  8
ADP1DETAIL
100
AcDbLine
 10
13.59413037887907
 20
6.54786092287368
 30
0.0
 11
13.44530780670069
 21
6.54786092287368
 31
0.0
  0
LINE
  5
B3
330
1E
100
AcDbEntity
  8
ADP2DETAIL
  6
HIDDEN2
100
AcDbLine
 10
13.40663037887907
 20
6.610311634496027
 30
0.0
 11
13.40663037887907
 21
6.770640303367939
 31
0.0
  0
ARC
  5
B4
330
1E
100
AcDbEntity
  8
ADP2DETAIL
  6
HIDDEN2
100
AcDbCircle
 10
13.37538037887908
 20
6.770640303367941
 30
0.0
 40
0.03125
100
AcDbArc
 50
359.9999999999997
 51
90.0
  0
LINE
  5
B5
330
1E
100
AcDbEntity
  8
ADP1DETAIL
100
AcDbLine
 10
13.42867027457327
 20
6.610389915170887
 30
0.0
 11
13.3691805175081
 21
6.610178621143229
 31
0.0
  0
ARC
  5
B6
330
1E
100
AcDbEntity
  8
ADP1DETAIL
100
AcDbCircle
 10
13.53163037887908
 20
6.895640303367939
 30
0.0
 40
0.0625
100
AcDbArc
 50
0.0000000000000799
 51
90.0
  0
CIRCLE
  5
B7
330
1E
100
AcDbEntity
  8
ADP1DETAIL
100
AcDbCircle
 10
12.83906561864712
 20
8.263908549978761
 30
0.0
 40
0.2234042553191489
  0
ARC
  5
B8
330
1E
100
AcDbEntity
  8
ADP2DETAIL
  6
HIDDEN2
100
AcDbCircle
 10
13.42662240223284
 20
7.672206422319187
 30
0.0
 40
0.0306382978723398
100
AcDbArc
 50
270.0
 51
0.0
  0
LINE
  5
B9
330
1E
100
AcDbEntity
  8
ADP2DETAIL
  6
HIDDEN2
100
AcDbLine
 10
14.57932383852307
 20
7.692198445672956
 30
0.0
 11
14.35654445802881
 21
7.692198445672957
 31
0.0
  0
LINE
  5
BA
330
1E
100
AcDbEntity
  8
ADP1DETAIL
100
AcDbLine
 10
14.57932383852307
 20
7.504698445672957
 30
0.0
 11
14.23154445802881
 21
7.504698445672955
 31
0.0
  0
ARC
  5
BB
330
1E
100
AcDbEntity
  8
ADP2DETAIL
  6
HIDDEN2
100
AcDbCircle
 10
14.35654445802881
 20
7.723448445672958
 30
0.0
 40
0.03125
100
AcDbArc
 50
180.0
 51
270.0000000000002
  0
ARC
  5
BC
330
1E
100
AcDbEntity
  8
ADP1DETAIL
100
AcDbCircle
 10
14.23154445802881
 20
7.567198445672956
 30
0.0
 40
0.0625
100
AcDbArc
 50
180.0
 51
270.0
  0
ARC
  5
BD
330
1E
100
AcDbEntity
  8
ADP2DETAIL
  6
HIDDEN2
100
AcDbCircle
 10
13.42662240223284
 20
8.855610677638336
 30
0.0
 40
0.0306382978723398
100
AcDbArc
 50
359.9999999999965
 51
90.0
  0
LINE
  5
BE
330
1E
100
AcDbEntity
  8
ADP2DETAIL
  6
HIDDEN2
100
AcDbLine
 10
13.41077572295292
 20
9.977055916471455
 30
0.0
 11
13.41077572295292
 21
9.754276535977195
 31
0.0
  0
ARC
  5
BF
330
1E
100
AcDbEntity
  8
ADP2DETAIL
  6
HIDDEN2
100
AcDbCircle
 10
13.37952572295292
 20
9.754276535977194
 30
0.0
 40
0.03125
100
AcDbArc
 50
270.0
 51
0.0000000000003197
  0
LINE
  5
C0
330
1E
100
AcDbEntity
  8
ADP1DETAIL
100
AcDbLine
 10
13.59827572295292
 20
9.977055916471455
 30
0.0
 11
13.59827572295293
 21
9.629276535977195
 31
0.0
  0
ARC
  5
C1
330
1E
100
AcDbEntity
  8
ADP1DETAIL
100
AcDbCircle
 10
13.53577572295292
 20
9.629276535977194
 30
0.0
 40
0.0625
100
AcDbArc
 50
270.0
 51
0.0
  0
LINE
  5
C2
330
1E
100
AcDbEntity
  8
ADP2DETAIL
  6
HIDDEN2
100
AcDbLine
 10
14.57932383852307
 20
8.835618654284569
 30
0.0
 11
14.35654445802881
 21
8.835618654284568
 31
0.0
  0
LINE
  5
C3
330
1E
100
AcDbEntity
  8
ADP1DETAIL
100
AcDbLine
 10
14.57932383852307
 20
9.023118654284569
 30
0.0
 11
14.23154445802881
 21
9.023118654284569
 31
0.0
  0
ARC
  5
C4
330
1E
100
AcDbEntity
  8
ADP2DETAIL
  6
HIDDEN2
100
AcDbCircle
 10
14.35654445802881
 20
8.804368654284568
 30
0.0
 40
0.03125
100
AcDbArc
 50
89.99999999999969
 51
180.0
  0
ARC
  5
C5
330
1E
100
AcDbEntity
  8
ADP1DETAIL
100
AcDbCircle
 10
14.23154445802881
 20
8.960618654284571
 30
0.0
 40
0.0625
100
AcDbArc
 50
90.0
 51
180.0
  0
TEXT
  5
C9
330
1E
100
AcDbEntity
  8
ADPDIM
100
AcDbText
 10
7.740501469150352
 20
6.196979672021649
 30
0.0
 40
0.09375
  1
J U L I U S  B L U M  &  C O . ,  I N C .      ( 8 0 0 )  5 2 6 - 6 2 9 3        W W W . J U L I U S B L U M . C O M        P A R T  N o .  4 4 2 9 - U L
 41
1.25
  7
ARIAL_WIDE
 72
     1
 11
12.83492027457327
 21
6.290729672021649
 31
0.0
100
AcDbText
 73
     3
  0
ENDSEC
  0
SECTION
  2
OBJECTS
  0
DICTIONARY
  5
C
330
0
100
AcDbDictionary
  3
ACAD_GROUP
350
D
  3
ACAD_LAYOUT
350
19
  3
ACAD_MLINESTYLE
350
16
  3
ACAD_PLOTSETTINGS
350
18
  3
ACAD_PLOTSTYLENAME
350
E
  3
ACDBHEADERROUNDTRIPXREC
350
25C
  3
ACDBVARIABLEDICTIONARY
350
13A
  0
DICTIONARY
  5
105
330
1E
100
AcDbDictionary
280
     1
  3
ACAD_LAYOUTSELFREF
360
27E
  0
DICTIONARY
  5
107
330
1A
100
AcDbDictionary
280
     1
  3
ACAD_LAYOUTSELFREF
360
27D
  0
DICTIONARY
  5
D
102
{ACAD_REACTORS
330
C
102
}
330
C
100
AcDbDictionary
  0
DICTIONARY
  5
19
102
{ACAD_REACTORS
330
C
102
}
330
C
100
AcDbDictionary
  0
DICTIONARY
  5
16
102
{ACAD_REACTORS
330
C
102
}
330
C
100
AcDbDictionary
  3
STANDARD
350
17
  0
DICTIONARY
  5
18
102
{ACAD_REACTORS
330
C
102
}
330
C
100
AcDbDictionary
  0
ACDBDICTIONARYWDFLT
  5
E
102
{ACAD_REACTORS
330
C
102
}
330
C
100
AcDbDictionary
281
     1
  3
Normal
350
F
100
AcDbDictionaryWithDefault
340
F
  0
DICTIONARY
  5
25C
102
{ACAD_REACTORS
330
C
102
}
330
C
100
AcDbDictionary
  3
CEPSNTYPE
350
266
  3
DIMSTYLEDATA
350
26A
  3
FINGERPRINTGUID
350
267
  3
HYPERLINKBASE
350
25F
  3
INSUNITS
350
265
  3
LAYOUTDICT
350
261
  3
LWETCUNION
350
264
  3
PLOTSETDICT
350
262
  3
PLOTSTYLNAMDICT
350
263
  3
PSVPSCALE
350
269
  3
PUCSBASE
350
26D
  3
PUCSORGBACK
350
273
  3
PUCSORGBOTTOM
350
26F
  3
PUCSORGFRONT
350
272
  3
PUCSORGLEFT
350
270
  3
PUCSORGRIGHT
350
271
  3
PUCSORGTOP
350
26E
  3
PUCSORTHOREF
350
26B
  3
PUCSORTHOVIEW
350
26C
  3
STYLESHEET
350
260
  3
TSTACKALIGN
350
25D
  3
TSTACKSIZE
350
25E
  3
UCSBASE
350
276
  3
UCSORGBACK
350
27C
  3
UCSORGBOTTOM
350
278
  3
UCSORGFRONT
350
27B
  3
UCSORGLEFT
350
279
  3
UCSORGRIGHT
350
27A
  3
UCSORGTOP
350
277
  3
UCSORTHOREF
350
274
  3
UCSORTHOVIEW
350
275
  3
VERSIONGUID
350
268
  0
DICTIONARY
  5
13A
102
{ACAD_REACTORS
330
C
102
}
330
C
100
AcDbDictionary
  3
DIMASSOC
350
13C
  3
HIDETEXT
350
13B
  0
XRECORD
  5
27E
102
{ACAD_REACTORS
330
105
102
}
330
105
100
AcDbXrecord
340
1E
  0
XRECORD
  5
27D
102
{ACAD_REACTORS
330
107
102
}
330
107
100
AcDbXrecord
340
1A
  0
MLINESTYLE
  5
17
102
{ACAD_REACTORS
330
16
102
}
330
16
100
AcDbMlineStyle
  2
STANDARD
 70
     0
  3

 62
   256
 51
90.0
 52
90.0
 71
     2
 49
0.5
 62
   256
  6
BYLAYER
 49
-0.5
 62
   256
  6
BYLAYER
  0
ACDBPLACEHOLDER
  5
F
102
{ACAD_REACTORS
330
E
102
}
330
E
100
AcDbPlaceHolder
280
     0
  0
XRECORD
  5
266
102
{ACAD_REACTORS
330
25C
102
}
330
25C
100
AcDbXrecord
 90
        0
  0
XRECORD
  5
26A
102
{ACAD_REACTORS
330
25C
102
}
330
25C
100
AcDbXrecord
1000
DSTYLE
1002
{
1070
   277
 70
     5
1070
   279
 70
     2
1002
}
  0
XRECORD
  5
267
102
{ACAD_REACTORS
330
25C
102
}
330
25C
100
AcDbXrecord
  1
{FE8063A3-4FAE-47CE-9245-581C6B250EF1}
  0
XRECORD
  5
25F
102
{ACAD_REACTORS
330
25C
102
}
330
25C
100
AcDbXrecord
  1

  0
XRECORD
  5
265
102
{ACAD_REACTORS
330
25C
102
}
330
25C
100
AcDbXrecord
 90
        0
  0
XRECORD
  5
261
102
{ACAD_REACTORS
330
25C
102
}
330
25C
100
AcDbXrecord
340
19
  0
XRECORD
  5
264
102
{ACAD_REACTORS
330
25C
102
}
330
25C
100
AcDbXrecord
 90
    14877
  0
XRECORD
  5
262
102
{ACAD_REACTORS
330
25C
102
}
330
25C
100
AcDbXrecord
340
18
  0
XRECORD
  5
263
102
{ACAD_REACTORS
330
25C
102
}
330
25C
100
AcDbXrecord
340
E
  0
XRECORD
  5
269
102
{ACAD_REACTORS
330
25C
102
}
330
25C
100
AcDbXrecord
 40
0.0
  0
XRECORD
  5
26D
102
{ACAD_REACTORS
330
25C
102
}
330
25C
100
AcDbXrecord
340
0
  0
XRECORD
  5
273
102
{ACAD_REACTORS
330
25C
102
}
330
25C
100
AcDbXrecord
 10
0.0
 20
0.0
 30
0.0
  0
XRECORD
  5
26F
102
{ACAD_REACTORS
330
25C
102
}
330
25C
100
AcDbXrecord
 10
0.0
 20
0.0
 30
0.0
  0
XRECORD
  5
272
102
{ACAD_REACTORS
330
25C
102
}
330
25C
100
AcDbXrecord
 10
0.0
 20
0.0
 30
0.0
  0
XRECORD
  5
270
102
{ACAD_REACTORS
330
25C
102
}
330
25C
100
AcDbXrecord
 10
0.0
 20
0.0
 30
0.0
  0
XRECORD
  5
271
102
{ACAD_REACTORS
330
25C
102
}
330
25C
100
AcDbXrecord
 10
0.0
 20
0.0
 30
0.0
  0
XRECORD
  5
26E
102
{ACAD_REACTORS
330
25C
102
}
330
25C
100
AcDbXrecord
 10
0.0
 20
0.0
 30
0.0
  0
XRECORD
  5
26B
102
{ACAD_REACTORS
330
25C
102
}
330
25C
100
AcDbXrecord
340
0
  0
XRECORD
  5
26C
102
{ACAD_REACTORS
330
25C
102
}
330
25C
100
AcDbXrecord
 70
     0
  0
XRECORD
  5
260
102
{ACAD_REACTORS
330
25C
102
}
330
25C
100
AcDbXrecord
  1

  0
XRECORD
  5
25D
102
{ACAD_REACTORS
330
25C
102
}
330
25C
100
AcDbXrecord
 90
        1
  0
XRECORD
  5
25E
102
{ACAD_REACTORS
330
25C
102
}
330
25C
100
AcDbXrecord
 90
       70
  0
XRECORD
  5
276
102
{ACAD_REACTORS
330
25C
102
}
330
25C
100
AcDbXrecord
340
0
  0
XRECORD
  5
27C
102
{ACAD_REACTORS
330
25C
102
}
330
25C
100
AcDbXrecord
 10
0.0
 20
0.0
 30
0.0
  0
XRECORD
  5
278
102
{ACAD_REACTORS
330
25C
102
}
330
25C
100
AcDbXrecord
 10
0.0
 20
0.0
 30
0.0
  0
XRECORD
  5
27B
102
{ACAD_REACTORS
330
25C
102
}
330
25C
100
AcDbXrecord
 10
0.0
 20
0.0
 30
0.0
  0
XRECORD
  5
279
102
{ACAD_REACTORS
330
25C
102
}
330
25C
100
AcDbXrecord
 10
0.0
 20
0.0
 30
0.0
  0
XRECORD
  5
27A
102
{ACAD_REACTORS
330
25C
102
}
330
25C
100
AcDbXrecord
 10
0.0
 20
0.0
 30
0.0
  0
XRECORD
  5
277
102
{ACAD_REACTORS
330
25C
102
}
330
25C
100
AcDbXrecord
 10
0.0
 20
0.0
 30
0.0
  0
XRECORD
  5
274
102
{ACAD_REACTORS
330
25C
102
}
330
25C
100
AcDbXrecord
340
0
  0
XRECORD
  5
275
102
{ACAD_REACTORS
330
25C
102
}
330
25C
100
AcDbXrecord
 70
     0
  0
XRECORD
  5
268
102
{ACAD_REACTORS
330
25C
102
}
330
25C
100
AcDbXrecord
  1
{27583ED6-3D3D-4323-858B-0192C6BD66F3}
  0
DICTIONARYVAR
  5
13C
102
{ACAD_REACTORS
330
13A
102
}
330
13A
100
DictionaryVariables
280
     0
  1
2
  0
DICTIONARYVAR
  5
13B
102
{ACAD_REACTORS
330
13A
102
}
330
13A
100
DictionaryVariables
280
     0
  1
1
  0
ENDSEC
  0
EOF
