  0
SECTION
  2
HEADER
  9
$ACADVER
  1
AC1015
  9
$ACADMAINTVER
 70
    20
  9
$DWGCODEPAGE
  3
ANSI_1252
  9
$INSBASE
 10
19.80435978886183
 20
12.58758362530503
 30
0.0
  9
$EXTMIN
 10
8.837402437857122
 20
11.45764169871998
 30
-0.0015258207003583
  9
$EXTMAX
 10
22.21875006777555
 20
16.50860601815931
 30
0.0000000349246037
  9
$LIMMIN
 10
0.0
 20
0.0
  9
$LIMMAX
 10
36.0
 20
36.0
  9
$ORTHOMODE
 70
     1
  9
$REGENMODE
 70
     1
  9
$FILLMODE
 70
     1
  9
$QTEXTMODE
 70
     0
  9
$MIRRTEXT
 70
     1
  9
$LTSCALE
 40
1.0
  9
$ATTMODE
 70
     1
  9
$TEXTSIZE
 40
0.2
  9
$TRACEWID
 40
0.05
  9
$TEXTSTYLE
  7
STANDARD
  9
$CLAYER
  8
ADP1DETAIL
  9
$CELTYPE
  6
BYLAYER
  9
$CECOLOR
 62
   256
  9
$CELTSCALE
 40
1.0
  9
$DISPSILH
 70
     0
  9
$DIMSCALE
 40
1.0
  9
$DIMASZ
 40
0.125
  9
$DIMEXO
 40
0.0625
  9
$DIMDLI
 40
0.38
  9
$DIMRND
 40
0.0
  9
$DIMDLE
 40
0.0
  9
$DIMEXE
 40
0.18
  9
$DIMTP
 40
0.0
  9
$DIMTM
 40
0.0
  9
$DIMTXT
 40
0.125
  9
$DIMCEN
 40
0.1875
  9
$DIMTSZ
 40
0.125
  9
$DIMTOL
 70
     0
  9
$DIMLIM
 70
     0
  9
$DIMTIH
 70
     0
  9
$DIMTOH
 70
     0
  9
$DIMSE1
 70
     0
  9
$DIMSE2
 70
     0
  9
$DIMTAD
 70
     0
  9
$DIMZIN
 70
     2
  9
$DIMBLK
  1

  9
$DIMASO
 70
     1
  9
$DIMSHO
 70
     1
  9
$DIMPOST
  1

  9
$DIMAPOST
  1

  9
$DIMALT
 70
     0
  9
$DIMALTD
 70
     1
  9
$DIMALTF
 40
25.4
  9
$DIMLFAC
 40
1.0
  9
$DIMTOFL
 70
     0
  9
$DIMTVP
 40
0.0
  9
$DIMTIX
 70
     0
  9
$DIMSOXD
 70
     0
  9
$DIMSAH
 70
     0
  9
$DIMBLK1
  1

  9
$DIMBLK2
  1

  9
$DIMSTYLE
  2
STANDARD
  9
$DIMCLRD
 70
     0
  9
$DIMCLRE
 70
     0
  9
$DIMCLRT
 70
     0
  9
$DIMTFAC
 40
1.0
  9
$DIMGAP
 40
0.125
  9
$DIMJUST
 70
     0
  9
$DIMSD1
 70
     0
  9
$DIMSD2
 70
     0
  9
$DIMTOLJ
 70
     1
  9
$DIMTZIN
 70
     0
  9
$DIMALTZ
 70
     0
  9
$DIMALTTZ
 70
     0
  9
$DIMUPT
 70
     0
  9
$DIMDEC
 70
     2
  9
$DIMTDEC
 70
     4
  9
$DIMALTU
 70
     2
  9
$DIMALTTD
 70
     2
  9
$DIMTXSTY
  7
STANDARD
  9
$DIMAUNIT
 70
     0
  9
$DIMADEC
 70
     0
  9
$DIMALTRND
 40
0.0
  9
$DIMAZIN
 70
     0
  9
$DIMDSEP
 70
    46
  9
$DIMATFIT
 70
     3
  9
$DIMFRAC
 70
     2
  9
$DIMLDRBLK
  1

  9
$DIMLUNIT
 70
     5
  9
$DIMLWD
 70
    -2
  9
$DIMLWE
 70
    -2
  9
$DIMTMOVE
 70
     0
  9
$LUNITS
 70
     5
  9
$LUPREC
 70
     5
  9
$SKETCHINC
 40
0.1
  9
$FILLETRAD
 40
0.0
  9
$AUNITS
 70
     0
  9
$AUPREC
 70
     0
  9
$MENU
  1
acad
  9
$ELEVATION
 40
0.0
  9
$PELEVATION
 40
0.0
  9
$THICKNESS
 40
0.0
  9
$LIMCHECK
 70
     0
  9
$CHAMFERA
 40
0.0
  9
$CHAMFERB
 40
0.0
  9
$CHAMFERC
 40
0.0
  9
$CHAMFERD
 40
0.0
  9
$SKPOLY
 70
     0
  9
$TDCREATE
 40
2450366.651843171
  9
$TDUCREATE
 40
2450366.818509838
  9
$TDUPDATE
 40
2453964.016258634
  9
$TDUUPDATE
 40
2453964.182925301
  9
$TDINDWG
 40
0.0866918519
  9
$TDUSRTIMER
 40
0.0866918519
  9
$USRTIMER
 70
     1
  9
$ANGBASE
 50
0.0
  9
$ANGDIR
 70
     0
  9
$PDMODE
 70
     0
  9
$PDSIZE
 40
0.0
  9
$PLINEWID
 40
0.0
  9
$SPLFRAME
 70
     0
  9
$SPLINETYPE
 70
     6
  9
$SPLINESEGS
 70
     8
  9
$HANDSEED
  5
43B
  9
$SURFTAB1
 70
     6
  9
$SURFTAB2
 70
     6
  9
$SURFTYPE
 70
     6
  9
$SURFU
 70
     6
  9
$SURFV
 70
     6
  9
$UCSBASE
  2

  9
$UCSNAME
  2

  9
$UCSORG
 10
0.0
 20
0.0
 30
0.0
  9
$UCSXDIR
 10
1.0
 20
0.0
 30
0.0
  9
$UCSYDIR
 10
0.0
 20
1.0
 30
0.0
  9
$UCSORTHOREF
  2

  9
$UCSORTHOVIEW
 70
     0
  9
$UCSORGTOP
 10
0.0
 20
0.0
 30
0.0
  9
$UCSORGBOTTOM
 10
0.0
 20
0.0
 30
0.0
  9
$UCSORGLEFT
 10
0.0
 20
0.0
 30
0.0
  9
$UCSORGRIGHT
 10
0.0
 20
0.0
 30
0.0
  9
$UCSORGFRONT
 10
0.0
 20
0.0
 30
0.0
  9
$UCSORGBACK
 10
0.0
 20
0.0
 30
0.0
  9
$PUCSBASE
  2

  9
$PUCSNAME
  2

  9
$PUCSORG
 10
0.0
 20
0.0
 30
0.0
  9
$PUCSXDIR
 10
1.0
 20
0.0
 30
0.0
  9
$PUCSYDIR
 10
0.0
 20
1.0
 30
0.0
  9
$PUCSORTHOREF
  2

  9
$PUCSORTHOVIEW
 70
     0
  9
$PUCSORGTOP
 10
0.0
 20
0.0
 30
0.0
  9
$PUCSORGBOTTOM
 10
0.0
 20
0.0
 30
0.0
  9
$PUCSORGLEFT
 10
0.0
 20
0.0
 30
0.0
  9
$PUCSORGRIGHT
 10
0.0
 20
0.0
 30
0.0
  9
$PUCSORGFRONT
 10
0.0
 20
0.0
 30
0.0
  9
$PUCSORGBACK
 10
0.0
 20
0.0
 30
0.0
  9
$USERI1
 70
     0
  9
$USERI2
 70
     0
  9
$USERI3
 70
     0
  9
$USERI4
 70
     0
  9
$USERI5
 70
     0
  9
$USERR1
 40
0.0
  9
$USERR2
 40
0.0
  9
$USERR3
 40
0.0
  9
$USERR4
 40
0.0
  9
$USERR5
 40
0.0
  9
$WORLDVIEW
 70
     1
  9
$SHADEDGE
 70
     3
  9
$SHADEDIF
 70
    70
  9
$TILEMODE
 70
     1
  9
$MAXACTVP
 70
    15
  9
$PINSBASE
 10
0.1250013113021854
 20
0.0
 30
0.0
  9
$PLIMCHECK
 70
     0
  9
$PEXTMIN
 10
1.000000000000000E+20
 20
1.000000000000000E+20
 30
1.000000000000000E+20
  9
$PEXTMAX
 10
-1.000000000000000E+20
 20
-1.000000000000000E+20
 30
-1.000000000000000E+20
  9
$PLIMMIN
 10
0.0
 20
0.0
  9
$PLIMMAX
 10
12.0
 20
9.0
  9
$UNITMODE
 70
     0
  9
$VISRETAIN
 70
     0
  9
$PLINEGEN
 70
     0
  9
$PSLTSCALE
 70
     1
  9
$TREEDEPTH
 70
  3020
  9
$CMLSTYLE
  2
STANDARD
  9
$CMLJUST
 70
     0
  9
$CMLSCALE
 40
1.0
  9
$PROXYGRAPHICS
 70
     1
  9
$MEASUREMENT
 70
     0
  9
$CELWEIGHT
370
    -1
  9
$ENDCAPS
280
     0
  9
$JOINSTYLE
280
     0
  9
$LWDISPLAY
290
     0
  9
$INSUNITS
 70
     0
  9
$HYPERLINKBASE
  1

  9
$STYLESHEET
  1

  9
$XEDIT
290
     1
  9
$CEPSNTYPE
380
     0
  9
$PSTYLEMODE
290
     1
  9
$FINGERPRINTGUID
  2
{F9D812F5-7117-4B05-AFA5-AE5BF1B127E0}
  9
$VERSIONGUID
  2
{8001F21C-766B-422C-BFD5-C274E07EB606}
  9
$EXTNAMES
290
     1
  9
$PSVPSCALE
 40
0.0
  9
$OLESTARTUP
290
     0
  0
ENDSEC
  0
SECTION
  2
CLASSES
  0
CLASS
  1
ACDBDICTIONARYWDFLT
  2
AcDbDictionaryWithDefault
  3
ObjectDBX Classes
 90
        0
280
     0
281
     0
  0
CLASS
  1
ACDBPLACEHOLDER
  2
AcDbPlaceHolder
  3
ObjectDBX Classes
 90
        0
280
     0
281
     0
  0
CLASS
  1
LAYOUT
  2
AcDbLayout
  3
ObjectDBX Classes
 90
        0
280
     0
281
     0
  0
CLASS
  1
DICTIONARYVAR
  2
AcDbDictionaryVar
  3
ObjectDBX Classes
 90
        0
280
     0
281
     0
  0
CLASS
  1
MATERIAL
  2
AcDbMaterial
  3
ObjectDBX Classes
 90
     1024
280
     0
281
     0
  0
CLASS
  1
VISUALSTYLE
  2
AcDbVisualStyle
  3
ObjectDBX Classes
 90
     4095
280
     0
281
     0
  0
CLASS
  1
TABLESTYLE
  2
AcDbTableStyle
  3
ObjectDBX Classes
 90
     4095
280
     0
281
     0
  0
ENDSEC
  0
SECTION
  2
TABLES
  0
TABLE
  2
VPORT
  5
13
330
0
100
AcDbSymbolTable
 70
     1
  0
VPORT
  5
2FA
330
13
100
AcDbSymbolTableRecord
100
AcDbViewportTableRecord
  2
*Active
 70
     0
 10
0.0
 20
0.0
 11
1.0
 21
1.0
 12
15.52807625281633
 22
13.98312385843965
 13
0.0
 23
0.0
 14
0.5740882589684922
 24
0.5740882589684922
 15
0.5
 25
0.5
 16
0.0
 26
0.0
 36
1.0
 17
0.0
 27
0.0
 37
0.0
 40
7.799236633817165
 41
1.726930320150659
 42
50.0
 43
0.0
 44
0.0
 50
0.0
 51
0.0
 71
     0
 72
   100
 73
     1
 74
     0
 75
     0
 76
     0
 77
     0
 78
     0
281
     0
 65
     1
110
0.0
120
0.0
130
0.0
111
1.0
121
0.0
131
0.0
112
0.0
122
1.0
132
0.0
 79
     0
146
0.0
  0
ENDTAB
  0
TABLE
  2
LTYPE
  5
F
330
0
100
AcDbSymbolTable
 70
     3
  0
LTYPE
  5
10
330
F
100
AcDbSymbolTableRecord
100
AcDbLinetypeTableRecord
  2
BYBLOCK
 70
     0
  3

 72
    65
 73
     0
 40
0.0
  0
LTYPE
  5
6
330
F
100
AcDbSymbolTableRecord
100
AcDbLinetypeTableRecord
  2
BYLAYER
 70
     0
  3

 72
    65
 73
     0
 40
0.0
  0
LTYPE
  5
5
330
F
100
AcDbSymbolTableRecord
100
AcDbLinetypeTableRecord
  2
CONTINUOUS
 70
     0
  3
Solid line
 72
    65
 73
     0
 40
0.0
  0
LTYPE
  5
46
330
F
100
AcDbSymbolTableRecord
100
AcDbLinetypeTableRecord
  2
HIDDEN2
 70
     0
  3
_ _ _ _ _ _ _ _ _ _ _ _ _ _ _ _ _ _ _ _ _ _ _ _
 72
    65
 73
     2
 40
0.1875
 49
0.125
 74
     0
 49
-0.0625
 74
     0
  0
ENDTAB
  0
TABLE
  2
LAYER
  5
B
330
0
100
AcDbSymbolTable
 70
     5
  0
LAYER
  5
C
330
B
100
AcDbSymbolTableRecord
100
AcDbLayerTableRecord
  2
0
 70
     0
 62
     7
  6
CONTINUOUS
370
    -3
390
C4
  0
LAYER
  5
4
330
B
100
AcDbSymbolTableRecord
100
AcDbLayerTableRecord
  2
ADPDIM
 70
     0
 62
     3
  6
CONTINUOUS
370
    -3
390
C4
  0
LAYER
  5
1C
330
B
100
AcDbSymbolTableRecord
100
AcDbLayerTableRecord
  2
ADP1DETAIL
 70
     0
 62
     7
  6
CONTINUOUS
370
    -3
390
C4
  0
LAYER
  5
58
330
B
100
AcDbSymbolTableRecord
100
AcDbLayerTableRecord
  2
DEFPOINTS
 70
     0
 62
     7
  6
CONTINUOUS
290
     0
370
    -3
390
C4
  0
LAYER
  5
45
330
B
100
AcDbSymbolTableRecord
100
AcDbLayerTableRecord
  2
ADP2DETAIL
 70
     0
 62
     5
  6
CONTINUOUS
370
    -3
390
C4
  0
ENDTAB
  0
TABLE
  2
STYLE
  5
D
330
0
100
AcDbSymbolTable
 70
     2
  0
STYLE
  5
E
330
D
100
AcDbSymbolTableRecord
100
AcDbTextStyleTableRecord
  2
STANDARD
 70
     0
 40
0.0
 41
1.0
 50
0.0
 71
     0
 42
0.2
  3
txt
  4

  0
STYLE
  5
CB
330
D
100
AcDbSymbolTableRecord
100
AcDbTextStyleTableRecord
  2
ARIAL_WIDE
 70
     0
 40
0.0
 41
1.25
 50
0.0
 71
     0
 42
0.2
  3
ARIAL.TTF
  4

1001
ACAD
1000
Arial
1071
       34
  0
ENDTAB
  0
TABLE
  2
VIEW
  5
11
330
0
100
AcDbSymbolTable
 70
     0
  0
ENDTAB
  0
TABLE
  2
UCS
  5
12
330
0
100
AcDbSymbolTable
 70
     0
  0
ENDTAB
  0
TABLE
  2
APPID
  5
15
330
0
100
AcDbSymbolTable
 70
     2
  0
APPID
  5
16
330
15
100
AcDbSymbolTableRecord
100
AcDbRegAppTableRecord
  2
ACAD
 70
     0
  0
APPID
  5
380
330
15
100
AcDbSymbolTableRecord
100
AcDbRegAppTableRecord
  2
DCO15
 70
     0
  0
ENDTAB
  0
TABLE
  2
DIMSTYLE
  5
17
330
0
100
AcDbSymbolTable
 70
     2
100
AcDbDimStyleTable
 71
     0
  0
DIMSTYLE
105
1E
102
{ACAD_REACTORS
330
4E
330
B4
330
3A0
102
}
330
17
100
AcDbSymbolTableRecord
100
AcDbDimStyleTableRecord
  2
STANDARD
 70
     0
340
E
  0
ENDTAB
  0
TABLE
  2
BLOCK_RECORD
  5
1
330
0
100
AcDbSymbolTable
 70
     9
  0
BLOCK_RECORD
  5
2
102
{ACAD_XDICTIONARY
360
147
102
}
330
1
100
AcDbSymbolTableRecord
100
AcDbBlockTableRecord
  2
*MODEL_SPACE
340
C7
  0
BLOCK_RECORD
  5
8
102
{ACAD_XDICTIONARY
360
149
102
}
330
1
100
AcDbSymbolTableRecord
100
AcDbBlockTableRecord
  2
*PAPER_SPACE
340
C8
  0
BLOCK_RECORD
  5
14B
330
1
100
AcDbSymbolTableRecord
100
AcDbBlockTableRecord
  2
*D0
340
0
  0
BLOCK_RECORD
  5
15A
330
1
100
AcDbSymbolTableRecord
100
AcDbBlockTableRecord
  2
*D1
340
0
  0
BLOCK_RECORD
  5
167
330
1
100
AcDbSymbolTableRecord
100
AcDbBlockTableRecord
  2
*D2
340
0
  0
BLOCK_RECORD
  5
366
330
1
100
AcDbSymbolTableRecord
100
AcDbBlockTableRecord
  2
*D4
340
0
  0
BLOCK_RECORD
  5
373
330
1
100
AcDbSymbolTableRecord
100
AcDbBlockTableRecord
  2
*D5
340
0
  0
BLOCK_RECORD
  5
3B6
330
1
100
AcDbSymbolTableRecord
100
AcDbBlockTableRecord
  2
*D7
340
0
  0
BLOCK_RECORD
  5
3C3
330
1
100
AcDbSymbolTableRecord
100
AcDbBlockTableRecord
  2
*D8
340
0
  0
ENDTAB
  0
ENDSEC
  0
SECTION
  2
BLOCKS
  0
BLOCK
  5
3
330
2
100
AcDbEntity
  8
0
100
AcDbBlockBegin
  2
*MODEL_SPACE
 70
     0
 10
0.0
 20
0.0
 30
0.0
  3
*MODEL_SPACE
  1

  0
ENDBLK
  5
7
330
2
100
AcDbEntity
  8
0
100
AcDbBlockEnd
  0
BLOCK
  5
9
330
8
100
AcDbEntity
 67
     1
  8
0
100
AcDbBlockBegin
  2
*PAPER_SPACE
 70
     0
 10
0.0
 20
0.0
 30
0.0
  3
*PAPER_SPACE
  1

  0
ENDBLK
  5
A
330
8
100
AcDbEntity
 67
     1
  8
0
100
AcDbBlockEnd
  0
BLOCK
  5
156
330
14B
100
AcDbEntity
  8
0
100
AcDbBlockBegin
  2
*D0
 70
     1
 10
0.0
 20
0.0
 30
0.0
  3
*D0
  1

  0
LINE
  5
322
330
14B
100
AcDbEntity
  8
ADPDIM
 62
     0
100
AcDbLine
 10
14.48137345186552
 20
12.52508362530503
 30
0.0
 11
14.48137345186552
 21
12.21801465951795
 31
0.0
  0
LINE
  5
323
330
14B
100
AcDbEntity
  8
ADPDIM
 62
     0
100
AcDbLine
 10
19.80435978886183
 20
12.52508362530503
 30
0.0
 11
19.80435978886183
 21
12.21801465951795
 31
0.0
  0
LINE
  5
324
330
14B
100
AcDbEntity
  8
ADPDIM
 62
     0
100
AcDbLine
 10
14.48137345186552
 20
12.39801465951795
 30
0.0
 11
16.74703328703034
 21
12.39801465951795
 31
0.0
  0
LINE
  5
325
330
14B
100
AcDbEntity
  8
ADPDIM
 62
     0
100
AcDbLine
 10
19.80435978886183
 20
12.39801465951795
 30
0.0
 11
17.53869995369701
 21
12.39801465951795
 31
0.0
  0
LINE
  5
326
330
14B
100
AcDbEntity
  8
ADPDIM
 62
     0
100
AcDbLine
 10
19.67935978886183
 20
12.27301465951795
 30
0.0
 11
19.92935978886183
 21
12.52301465951795
 31
0.0
  0
LINE
  5
327
330
14B
100
AcDbEntity
  8
ADPDIM
 62
     0
100
AcDbLine
 10
14.35637345186552
 20
12.27301465951795
 30
0.0
 11
14.60637345186552
 21
12.52301465951795
 31
0.0
  0
MTEXT
  5
328
330
14B
100
AcDbEntity
  8
ADPDIM
 62
     0
100
AcDbMText
 10
17.14286662036367
 20
12.39801465951795
 30
0.0
 40
0.125
 41
0.0
 71
     5
 72
     1
  1
\A1;5 1/4
 73
     1
 44
1.0
1001
ACAD
1000
MTEXTBEGIN
1070
    73
1070
     1
1070
    44
1040
1.0
1070
    74
1070
     0
1000
MTEXTEND
  0
POINT
  5
329
330
14B
100
AcDbEntity
  8
DEFPOINTS
 62
     0
100
AcDbPoint
 10
14.48137345186552
 20
12.58758362530503
 30
0.0
  0
POINT
  5
32A
330
14B
100
AcDbEntity
  8
DEFPOINTS
 62
     0
100
AcDbPoint
 10
19.80435978886183
 20
12.58758362530502
 30
0.0
  0
POINT
  5
32B
330
14B
100
AcDbEntity
  8
DEFPOINTS
 62
     0
100
AcDbPoint
 10
19.80435978886183
 20
12.39801465951795
 30
0.0
  0
ENDBLK
  5
157
330
14B
100
AcDbEntity
  8
0
100
AcDbBlockEnd
  0
BLOCK
  5
165
330
15A
100
AcDbEntity
  8
0
100
AcDbBlockBegin
  2
*D1
 70
     1
 10
0.0
 20
0.0
 30
0.0
  3
*D1
  1

  0
LINE
  5
32E
330
15A
100
AcDbEntity
  8
ADPDIM
 62
     0
100
AcDbLine
 10
11.76834916314827
 20
12.704990013524
 30
0.0
 11
11.76834916314827
 21
12.21792406883407
 31
0.0
  0
LINE
  5
32F
330
15A
100
AcDbEntity
  8
ADPDIM
 62
     0
100
AcDbLine
 10
12.85961058340313
 20
12.704990013524
 30
0.0
 11
12.85961058340313
 21
12.21792406883407
 31
0.0
  0
LINE
  5
330
330
15A
100
AcDbEntity
  8
ADPDIM
 62
     0
100
AcDbLine
 10
11.76834916314827
 20
12.39792406883407
 30
0.0
 11
12.16814653994237
 21
12.39792406883407
 31
0.0
  0
LINE
  5
331
330
15A
100
AcDbEntity
  8
ADPDIM
 62
     0
100
AcDbLine
 10
12.85961058340313
 20
12.39792406883407
 30
0.0
 11
12.45981320660903
 21
12.39792406883407
 31
0.0
  0
LINE
  5
332
330
15A
100
AcDbEntity
  8
ADPDIM
 62
     0
100
AcDbLine
 10
12.73461058340313
 20
12.27292406883407
 30
0.0
 11
12.98461058340313
 21
12.52292406883407
 31
0.0
  0
LINE
  5
333
330
15A
100
AcDbEntity
  8
ADPDIM
 62
     0
100
AcDbLine
 10
11.64334916314826
 20
12.27292406883407
 30
0.0
 11
11.89334916314827
 21
12.52292406883407
 31
0.0
  0
MTEXT
  5
334
330
15A
100
AcDbEntity
  8
ADPDIM
 62
     0
100
AcDbMText
 10
12.3139798732757
 20
12.39792406883407
 30
0.0
 40
0.125
 41
0.0
 71
     5
 72
     1
  1
\A1;1
 73
     1
 44
1.0
1001
ACAD
1000
MTEXTBEGIN
1070
    73
1070
     1
1070
    44
1040
1.0
1070
    74
1070
     0
1000
MTEXTEND
  0
POINT
  5
335
330
15A
100
AcDbEntity
  8
DEFPOINTS
 62
     0
100
AcDbPoint
 10
11.76834916314827
 20
12.767490013524
 30
0.0
  0
POINT
  5
336
330
15A
100
AcDbEntity
  8
DEFPOINTS
 62
     0
100
AcDbPoint
 10
12.85961058340313
 20
12.767490013524
 30
0.0
  0
POINT
  5
337
330
15A
100
AcDbEntity
  8
DEFPOINTS
 62
     0
100
AcDbPoint
 10
12.85961058340313
 20
12.39792406883407
 30
0.0
  0
ENDBLK
  5
166
330
15A
100
AcDbEntity
  8
0
100
AcDbBlockEnd
  0
BLOCK
  5
172
330
167
100
AcDbEntity
  8
0
100
AcDbBlockBegin
  2
*D2
 70
     1
 10
0.0
 20
0.0
 30
0.0
  3
*D2
  1

  0
LINE
  5
338
330
167
100
AcDbEntity
  8
ADPDIM
 62
     0
100
AcDbLine
 10
11.44163846281149
 20
12.91813332231261
 30
0.0
 11
11.44163846281149
 21
13.54046761781161
 31
0.0
  0
LINE
  5
339
330
167
100
AcDbEntity
  8
ADPDIM
 62
     0
100
AcDbLine
 10
13.18632128373991
 20
12.91813332231261
 30
0.0
 11
13.18632128373991
 21
13.54046761781161
 31
0.0
  0
LINE
  5
33A
330
167
100
AcDbEntity
  8
ADPDIM
 62
     0
100
AcDbLine
 10
11.44163846281149
 20
13.36046761781161
 30
0.0
 11
11.91814653994236
 21
13.36046761781161
 31
0.0
  0
LINE
  5
33B
330
167
100
AcDbEntity
  8
ADPDIM
 62
     0
100
AcDbLine
 10
13.18632128373991
 20
13.36046761781161
 30
0.0
 11
12.70981320660903
 21
13.36046761781161
 31
0.0
  0
LINE
  5
33C
330
167
100
AcDbEntity
  8
ADPDIM
 62
     0
100
AcDbLine
 10
13.06132128373991
 20
13.23546761781161
 30
0.0
 11
13.31132128373991
 21
13.48546761781161
 31
0.0
  0
LINE
  5
33D
330
167
100
AcDbEntity
  8
ADPDIM
 62
     0
100
AcDbLine
 10
11.31663846281149
 20
13.23546761781161
 30
0.0
 11
11.56663846281149
 21
13.48546761781161
 31
0.0
  0
MTEXT
  5
33E
330
167
100
AcDbEntity
  8
ADPDIM
 62
     0
100
AcDbMText
 10
12.3139798732757
 20
13.36046761781161
 30
0.0
 40
0.125
 41
0.0
 71
     5
 72
     1
  1
\A1;1 3/4
 73
     1
 44
1.0
1001
ACAD
1000
MTEXTBEGIN
1070
    73
1070
     1
1070
    44
1040
1.0
1070
    74
1070
     0
1000
MTEXTEND
  0
POINT
  5
33F
330
167
100
AcDbEntity
  8
DEFPOINTS
 62
     0
100
AcDbPoint
 10
11.44163846281149
 20
12.85563332231261
 30
0.0
  0
POINT
  5
340
330
167
100
AcDbEntity
  8
DEFPOINTS
 62
     0
100
AcDbPoint
 10
13.18632128373991
 20
12.85563332231261
 30
0.0
  0
POINT
  5
341
330
167
100
AcDbEntity
  8
DEFPOINTS
 62
     0
100
AcDbPoint
 10
13.18632128373991
 20
13.36046761781161
 30
0.0
  0
ENDBLK
  5
173
330
167
100
AcDbEntity
  8
0
100
AcDbBlockEnd
  0
BLOCK
  5
367
330
366
100
AcDbEntity
  8
0
100
AcDbBlockBegin
  2
*D4
 70
     1
 10
0.0
 20
0.0
 30
0.0
  3
*D4
  1

  0
LINE
  5
368
330
366
100
AcDbEntity
  8
0
  6
ByBlock
 62
     0
100
AcDbLine
 10
11.76834916314827
 20
12.704990013524
 30
0.0
 11
11.76834916314827
 21
12.21792406883407
 31
0.0
  0
LINE
  5
369
330
366
100
AcDbEntity
  8
0
  6
ByBlock
 62
     0
100
AcDbLine
 10
12.85961058340313
 20
12.704990013524
 30
0.0
 11
12.85961058340313
 21
12.21792406883407
 31
0.0
  0
LINE
  5
36A
330
366
100
AcDbEntity
  8
0
  6
ByBlock
 62
     0
100
AcDbLine
 10
11.76834916314827
 20
12.39792406883407
 30
0.0
 11
11.51834916314826
 21
12.39792406883407
 31
0.0
  0
LINE
  5
36B
330
366
100
AcDbEntity
  8
0
  6
ByBlock
 62
     0
100
AcDbLine
 10
12.85961058340313
 20
12.39792406883407
 30
0.0
 11
13.10961058340313
 21
12.39792406883407
 31
0.0
  0
LINE
  5
36C
330
366
100
AcDbEntity
  8
0
  6
ByBlock
 62
     0
100
AcDbLine
 10
11.64334916314826
 20
12.27292406883407
 30
0.0
 11
11.89334916314827
 21
12.52292406883407
 31
0.0
  0
LINE
  5
36D
330
366
100
AcDbEntity
  8
0
  6
ByBlock
 62
     0
100
AcDbLine
 10
12.73461058340313
 20
12.27292406883407
 30
0.0
 11
12.98461058340313
 21
12.52292406883407
 31
0.0
  0
TEXT
  5
36E
330
366
100
AcDbEntity
  8
0
  6
ByBlock
 62
     0
100
AcDbText
 10
13.23461058340313
 20
12.33542406883407
 30
0.0
 40
0.125
  1
1 1/16
 72
     1
 11
13.5262772500698
 21
12.39792406883407
 31
0.0
100
AcDbText
 73
     2
  0
POINT
  5
36F
330
366
100
AcDbEntity
  8
DEFPOINTS
  6
ByBlock
 62
     0
100
AcDbPoint
 10
11.76834916314827
 20
12.767490013524
 30
0.0
  0
POINT
  5
370
330
366
100
AcDbEntity
  8
DEFPOINTS
  6
ByBlock
 62
     0
100
AcDbPoint
 10
12.85961058340313
 20
12.767490013524
 30
0.0
  0
POINT
  5
371
330
366
100
AcDbEntity
  8
DEFPOINTS
  6
ByBlock
 62
     0
100
AcDbPoint
 10
12.85961058340313
 20
12.39792406883407
 30
0.0
  0
ENDBLK
  5
372
330
366
100
AcDbEntity
  8
0
100
AcDbBlockEnd
  0
BLOCK
  5
374
330
373
100
AcDbEntity
  8
0
100
AcDbBlockBegin
  2
*D5
 70
     1
 10
0.0
 20
0.0
 30
0.0
  3
*D5
  1

  0
LINE
  5
375
330
373
100
AcDbEntity
  8
0
  6
ByBlock
 62
     0
100
AcDbLine
 10
11.44163846281149
 20
12.91813332231261
 30
0.0
 11
11.44163846281149
 21
13.54046761781161
 31
0.0
  0
LINE
  5
376
330
373
100
AcDbEntity
  8
0
  6
ByBlock
 62
     0
100
AcDbLine
 10
13.18632128373991
 20
12.91813332231261
 30
0.0
 11
13.18632128373991
 21
13.54046761781161
 31
0.0
  0
LINE
  5
377
330
373
100
AcDbEntity
  8
0
  6
ByBlock
 62
     0
100
AcDbLine
 10
11.44163846281149
 20
13.36046761781161
 30
0.0
 11
11.91814653994236
 21
13.36046761781161
 31
0.0
  0
LINE
  5
378
330
373
100
AcDbEntity
  8
0
  6
ByBlock
 62
     0
100
AcDbLine
 10
13.18632128373991
 20
13.36046761781161
 30
0.0
 11
12.70981320660903
 21
13.36046761781161
 31
0.0
  0
LINE
  5
379
330
373
100
AcDbEntity
  8
0
  6
ByBlock
 62
     0
100
AcDbLine
 10
11.31663846281149
 20
13.23546761781161
 30
0.0
 11
11.56663846281149
 21
13.48546761781161
 31
0.0
  0
LINE
  5
37A
330
373
100
AcDbEntity
  8
0
  6
ByBlock
 62
     0
100
AcDbLine
 10
13.06132128373991
 20
13.23546761781161
 30
0.0
 11
13.31132128373991
 21
13.48546761781161
 31
0.0
  0
TEXT
  5
37B
330
373
100
AcDbEntity
  8
0
  6
ByBlock
 62
     0
100
AcDbText
 10
12.04314653994236
 20
13.29796761781161
 30
0.0
 40
0.125
  1
1 3/4
 72
     1
 11
12.3139798732757
 21
13.36046761781161
 31
0.0
100
AcDbText
 73
     2
  0
POINT
  5
37C
330
373
100
AcDbEntity
  8
DEFPOINTS
  6
ByBlock
 62
     0
100
AcDbPoint
 10
11.44163846281149
 20
12.85563332231261
 30
0.0
  0
POINT
  5
37D
330
373
100
AcDbEntity
  8
DEFPOINTS
  6
ByBlock
 62
     0
100
AcDbPoint
 10
13.18632128373991
 20
12.85563332231261
 30
0.0
  0
POINT
  5
37E
330
373
100
AcDbEntity
  8
DEFPOINTS
  6
ByBlock
 62
     0
100
AcDbPoint
 10
13.18632128373991
 20
13.36046761781161
 30
0.0
  0
ENDBLK
  5
37F
330
373
100
AcDbEntity
  8
0
100
AcDbBlockEnd
  0
BLOCK
  5
3C1
330
3B6
100
AcDbEntity
  8
0
100
AcDbBlockBegin
  2
*D7
 70
     1
 10
0.0
 20
0.0
 30
0.0
  3
*D7
  1

  0
LINE
  5
402
330
3B6
100
AcDbEntity
  8
ADPDIM
 62
     0
370
    -2
100
AcDbLine
 10
11.77496399558419
 20
12.68447578978505
 30
0.0
 11
11.77496399558419
 21
12.19740984509512
 31
0.0
  0
LINE
  5
403
330
3B6
100
AcDbEntity
  8
ADPDIM
 62
     0
370
    -2
100
AcDbLine
 10
12.86622541583906
 20
12.68447578978505
 30
0.0
 11
12.86622541583906
 21
12.19740984509512
 31
0.0
  0
LINE
  5
404
330
3B6
100
AcDbEntity
  8
ADPDIM
 62
     0
370
    -2
100
AcDbLine
 10
11.59496399558419
 20
12.37740984509512
 30
0.0
 11
11.41496399558419
 21
12.37740984509512
 31
0.0
  0
LINE
  5
405
330
3B6
100
AcDbEntity
  8
ADPDIM
 62
     0
370
    -2
100
AcDbLine
 10
13.04622541583906
 20
12.37740984509512
 30
0.0
 11
13.22622541583906
 21
12.37740984509512
 31
0.0
  0
SOLID
  5
406
330
3B6
100
AcDbEntity
  8
ADPDIM
 62
     0
100
AcDbTrace
 10
11.59496399558419
 20
12.40740984509512
 30
0.0
 11
11.59496399558419
 21
12.34740984509512
 31
0.0
 12
11.77496399558419
 22
12.37740984509512
 32
0.0
 13
11.77496399558419
 23
12.37740984509512
 33
0.0
  0
SOLID
  5
407
330
3B6
100
AcDbEntity
  8
ADPDIM
 62
     0
100
AcDbTrace
 10
13.04622541583906
 20
12.40740984509512
 30
0.0
 11
13.04622541583906
 21
12.34740984509512
 31
0.0
 12
12.86622541583906
 22
12.37740984509512
 32
0.0
 13
12.86622541583906
 23
12.37740984509512
 33
0.0
  0
MTEXT
  5
408
330
3B6
100
AcDbEntity
  8
ADPDIM
 62
     0
100
AcDbMText
 10
12.32059470571162
 20
12.37740984509512
 30
0.0
 40
0.125
 41
0.0
 71
     5
 72
     1
  1
\A1;1 1/16
 73
     1
 44
1.0
1001
ACAD
1000
MTEXTBEGIN
1070
    73
1070
     1
1070
    44
1040
1.0
1070
    74
1070
     0
1000
MTEXTEND
  0
POINT
  5
409
330
3B6
100
AcDbEntity
  8
DEFPOINTS
 62
     0
100
AcDbPoint
 10
11.77496399558419
 20
12.74697578978505
 30
0.0
  0
POINT
  5
40A
330
3B6
100
AcDbEntity
  8
DEFPOINTS
 62
     0
100
AcDbPoint
 10
12.86622541583906
 20
12.74697578978505
 30
0.0
  0
POINT
  5
40B
330
3B6
100
AcDbEntity
  8
DEFPOINTS
 62
     0
100
AcDbPoint
 10
12.86622541583906
 20
12.37740984509512
 30
0.0
  0
ENDBLK
  5
3C2
330
3B6
100
AcDbEntity
  8
0
100
AcDbBlockEnd
  0
BLOCK
  5
3CE
330
3C3
100
AcDbEntity
  8
0
100
AcDbBlockBegin
  2
*D8
 70
     1
 10
0.0
 20
0.0
 30
0.0
  3
*D8
  1

  0
LINE
  5
3DA
330
3C3
100
AcDbEntity
  8
ADPDIM
 62
     0
370
    -2
100
AcDbLine
 10
11.23306000774577
 20
14.87961337357944
 30
0.0
 11
11.23306000774577
 21
15.50194766907845
 31
0.0
  0
LINE
  5
3DB
330
3C3
100
AcDbEntity
  8
ADPDIM
 62
     0
370
    -2
100
AcDbLine
 10
12.97774282867419
 20
14.87961337357944
 30
0.0
 11
12.97774282867419
 21
15.50194766907845
 31
0.0
  0
LINE
  5
3DC
330
3C3
100
AcDbEntity
  8
ADPDIM
 62
     0
370
    -2
100
AcDbLine
 10
11.41306000774577
 20
15.32194766907845
 30
0.0
 11
11.59540141820998
 21
15.32194766907845
 31
0.0
  0
LINE
  5
3DD
330
3C3
100
AcDbEntity
  8
ADPDIM
 62
     0
370
    -2
100
AcDbLine
 10
12.79774282867419
 20
15.32194766907845
 30
0.0
 11
12.61540141820998
 21
15.32194766907845
 31
0.0
  0
SOLID
  5
3DE
330
3C3
100
AcDbEntity
  8
ADPDIM
 62
     0
100
AcDbTrace
 10
11.41306000774577
 20
15.35194766907845
 30
0.0
 11
11.41306000774577
 21
15.29194766907845
 31
0.0
 12
11.23306000774577
 22
15.32194766907845
 32
0.0
 13
11.23306000774577
 23
15.32194766907845
 33
0.0
  0
SOLID
  5
3DF
330
3C3
100
AcDbEntity
  8
ADPDIM
 62
     0
100
AcDbTrace
 10
12.79774282867419
 20
15.35194766907845
 30
0.0
 11
12.79774282867419
 21
15.29194766907845
 31
0.0
 12
12.97774282867419
 22
15.32194766907845
 32
0.0
 13
12.97774282867419
 23
15.32194766907845
 33
0.0
  0
MTEXT
  5
3E0
330
3C3
100
AcDbEntity
  8
ADPDIM
 62
     0
100
AcDbMText
 10
12.10540141820998
 20
15.32194766907845
 30
0.0
 40
0.18
 41
0.0
 71
     5
 72
     1
  1
\A1;1.7447
 73
     1
 44
1.0
1001
ACAD
1000
MTEXTBEGIN
1070
    73
1070
     1
1070
    44
1040
1.0
1070
    74
1070
     0
1000
MTEXTEND
  0
POINT
  5
3E1
330
3C3
100
AcDbEntity
  8
DEFPOINTS
 62
     0
100
AcDbPoint
 10
11.23306000774577
 20
14.81711337357944
 30
0.0
  0
POINT
  5
3E2
330
3C3
100
AcDbEntity
  8
DEFPOINTS
 62
     0
100
AcDbPoint
 10
12.97774282867419
 20
14.81711337357944
 30
0.0
  0
POINT
  5
3E3
330
3C3
100
AcDbEntity
  8
DEFPOINTS
 62
     0
100
AcDbPoint
 10
12.97774282867419
 20
15.32194766907845
 30
0.0
  0
ENDBLK
  5
3CF
330
3C3
100
AcDbEntity
  8
0
100
AcDbBlockEnd
  0
ENDSEC
  0
SECTION
  2
ENTITIES
  0
LINE
  5
1F
330
2
100
AcDbEntity
  8
ADP1DETAIL
100
AcDbLine
 10
11.65248665092377
 20
13.173740013524
 30
0.0
 11
12.97547309562762
 21
13.173740013524
 31
0.0
  0
ARC
  5
20
330
2
100
AcDbEntity
  8
ADP1DETAIL
100
AcDbCircle
 10
13.27524637445963
 20
12.84743946780434
 30
0.0
 40
0.125
100
AcDbArc
 50
293.6761468266874
 51
90.0
  0
ARC
  5
21
330
2
100
AcDbEntity
  8
ADP1DETAIL
100
AcDbCircle
 10
13.45435716916924
 20
12.51876239712485
 30
0.0
 40
0.2500000000000005
100
AcDbArc
 50
121.0415745356509
 51
165.8427577143244
  0
LINE
  5
22
330
2
100
AcDbEntity
  8
ADP1DETAIL
100
AcDbLine
 10
13.13559999347058
 20
12.97253704098087
 30
0.0
 11
13.11887931359749
 21
13.03493946780434
 31
0.0
  0
ARC
  5
23
330
2
100
AcDbEntity
  8
ADP1DETAIL
100
AcDbCircle
 10
13.15058710925914
 20
13.21118202039239
 30
0.0
 40
0.1790721129837708
100
AcDbArc
 50
192.0689699612933
 51
259.80102176739
  0
LINE
  5
24
330
2
100
AcDbEntity
  8
ADP1DETAIL
100
AcDbLine
 10
11.49235975308082
 20
12.97253704098087
 30
0.0
 11
11.50908043295391
 21
13.03493946780434
 31
0.0
  0
ARC
  5
25
330
2
100
AcDbEntity
  8
ADP1DETAIL
100
AcDbCircle
 10
11.35271337209177
 20
12.84743946780434
 30
0.0
 40
0.125
100
AcDbArc
 50
90.0
 51
246.3238531733126
  0
ARC
  5
26
330
2
100
AcDbEntity
  8
ADP1DETAIL
100
AcDbCircle
 10
11.17360257738216
 20
12.51876239712485
 30
0.0
 40
0.2500000000000005
100
AcDbArc
 50
14.15724228567562
 51
58.95842546434906
  0
LINE
  5
27
330
2
100
AcDbEntity
  8
ADP1DETAIL
100
AcDbLine
 10
11.35271337209177
 20
12.97253704098087
 30
0.0
 11
11.49235975308082
 21
12.97253704098087
 31
0.0
  0
ARC
  5
28
330
2
100
AcDbEntity
  8
ADP1DETAIL
100
AcDbCircle
 10
11.47737263729226
 20
13.21118202039239
 30
0.0
 40
0.1790721129837708
100
AcDbArc
 50
280.19897823261
 51
347.9310300387068
  0
LINE
  5
29
330
2
100
AcDbEntity
  8
ADP1DETAIL
100
AcDbLine
 10
13.27524637445963
 20
12.97253704098087
 30
0.0
 11
13.13559999347058
 21
12.97253704098087
 31
0.0
  0
LINE
  5
2A
330
2
100
AcDbEntity
  8
ADP1DETAIL
100
AcDbLine
 10
19.80435978886183
 20
12.58758362530503
 30
0.0
 11
19.80435978886183
 21
13.15629055924366
 31
0.0
  0
LINE
  5
2B
330
2
100
AcDbEntity
  8
ADP1DETAIL
100
AcDbLine
 10
17.97137345186552
 20
16.25733392668037
 30
0.0
 11
17.97137345186552
 21
16.00460440153685
 31
0.0
  0
LINE
  5
2C
330
2
100
AcDbEntity
  8
ADP1DETAIL
100
AcDbLine
 10
18.23137345186552
 20
16.50733392668036
 30
0.0
 11
18.23137345186552
 21
16.29388468084945
 31
0.0
  0
LWPOLYLINE
  5
2D
330
2
100
AcDbEntity
  8
ADP1DETAIL
100
AcDbPolyline
 90
        3
 70
     0
 43
0.0
 10
17.97137345186552
 20
16.00460440153685
 10
17.97137345186552
 20
15.7764762381804
 42
0.2711863860665363
 10
17.80137345186552
 20
15.41733392668038
  0
LINE
  5
32
330
2
100
AcDbEntity
  8
ADP1DETAIL
100
AcDbLine
 10
18.23137345186552
 20
16.50733392668036
 30
0.0
 11
17.14137345186552
 21
16.50733392668036
 31
0.0
  0
LINE
  5
33
330
2
100
AcDbEntity
  8
ADP1DETAIL
100
AcDbLine
 10
17.97137345186553
 20
16.25733392668037
 30
0.0
 11
17.14137345186552
 21
16.25733392668037
 31
0.0
  0
LINE
  5
34
330
2
100
AcDbEntity
  8
ADP1DETAIL
100
AcDbLine
 10
17.80137345186552
 20
16.08733392668036
 30
0.0
 11
17.14137345186552
 21
16.08733392668036
 31
0.0
  0
LINE
  5
35
330
2
100
AcDbEntity
  8
ADP1DETAIL
100
AcDbLine
 10
17.97137345186553
 20
14.82594314620453
 30
0.0
 11
17.97137345186553
 21
14.57733392668037
 31
0.0
  0
LINE
  5
36
330
2
100
AcDbEntity
  8
ADP1DETAIL
100
AcDbLine
 10
18.23137345186552
 20
14.54078317251128
 30
0.0
 11
18.23137345186552
 21
14.32733392668037
 31
0.0
  0
LINE
  5
37
330
2
100
AcDbEntity
  8
ADP1DETAIL
100
AcDbLine
 10
17.14137345186552
 20
14.74733392668037
 30
0.0
 11
17.80137345186553
 21
14.74733392668037
 31
0.0
  0
LINE
  5
38
330
2
100
AcDbEntity
  8
ADP1DETAIL
100
AcDbLine
 10
17.14137345186552
 20
14.57733392668036
 30
0.0
 11
17.97137345186553
 21
14.57733392668037
 31
0.0
  0
LINE
  5
39
330
2
100
AcDbEntity
  8
ADP1DETAIL
100
AcDbLine
 10
17.14137345186552
 20
14.32733392668036
 30
0.0
 11
18.23137345186552
 21
14.32733392668037
 31
0.0
  0
LWPOLYLINE
  5
3A
330
2
100
AcDbEntity
  8
ADP1DETAIL
100
AcDbPolyline
 90
        3
 70
     0
 43
0.0
 10
17.97137345186552
 20
14.83006345182388
 10
17.97137345186552
 20
15.05819161518033
 42
-0.2711863860665363
 10
17.80137345186552
 20
15.41733392668035
  0
LINE
  5
3F
330
2
100
AcDbEntity
  8
ADP1DETAIL
100
AcDbLine
 10
19.80137345186552
 20
14.54078317251128
 30
0.0
 11
19.80137345186552
 21
16.28976414472774
 31
0.0
  0
LINE
  5
40
330
2
100
AcDbEntity
  8
ADP1DETAIL
100
AcDbLine
 10
17.97137345186553
 20
14.82594314620453
 30
0.0
 11
19.80137345186552
 21
14.82594314620453
 31
0.0
  0
LINE
  5
41
330
2
100
AcDbEntity
  8
ADP1DETAIL
100
AcDbLine
 10
18.23137345186552
 20
14.54078317251128
 30
0.0
 11
19.80137345186552
 21
14.54078317251128
 31
0.0
  0
LINE
  5
42
330
2
100
AcDbEntity
  8
ADP1DETAIL
100
AcDbLine
 10
18.23137345186552
 20
16.28976414472774
 30
0.0
 11
19.80137345186552
 21
16.28976414472774
 31
0.0
  0
LINE
  5
43
330
2
100
AcDbEntity
  8
ADP1DETAIL
100
AcDbLine
 10
17.97137345186552
 20
16.00460440153685
 30
0.0
 11
19.80137345186552
 21
16.00460440153685
 31
0.0
  0
LINE
  5
44
330
2
100
AcDbEntity
  8
ADP2DETAIL
  6
HIDDEN2
100
AcDbLine
 10
19.80137345186552
 20
15.96761317500787
 30
0.0
 11
17.14137345186552
 21
15.9661517581967
 31
0.0
  0
LINE
  5
47
330
2
100
AcDbEntity
  8
ADP2DETAIL
  6
HIDDEN2
100
AcDbLine
 10
19.80137345186552
 20
15.73948524215373
 30
0.0
 11
17.14137345186552
 21
15.73802382534256
 31
0.0
  0
LINE
  5
48
330
2
100
AcDbEntity
  8
ADP2DETAIL
  6
HIDDEN2
100
AcDbLine
 10
19.80137345186552
 20
15.09106207508529
 30
0.0
 11
17.14137345186552
 21
15.09252349189646
 31
0.0
  0
LINE
  5
49
330
2
100
AcDbEntity
  8
ADP2DETAIL
  6
HIDDEN2
100
AcDbLine
 10
19.80137345186552
 20
14.86293414223115
 30
0.0
 11
17.14137345186552
 21
14.86439555904232
 31
0.0
  0
LINE
  5
4A
330
2
100
AcDbEntity
  8
ADP2DETAIL
  6
HIDDEN2
100
AcDbLine
 10
17.81137345186552
 20
14.86476366026919
 30
0.0
 11
17.88242262386855
 21
14.86480269502648
 31
0.0
  0
LINE
  5
4B
330
2
100
AcDbEntity
  8
ADP2DETAIL
  6
HIDDEN2
100
AcDbLine
 10
17.81137345186552
 20
15.09289159312333
 30
0.0
 11
17.84220515532938
 21
15.0929085322097
 31
0.0
  0
LINE
  5
4C
330
2
100
AcDbEntity
  8
ADP2DETAIL
  6
HIDDEN2
100
AcDbLine
 10
17.81137345186552
 20
15.73765572411568
 30
0.0
 11
17.84159054194051
 21
15.73763912270087
 31
0.0
  0
LINE
  5
4D
330
2
100
AcDbEntity
  8
ADP2DETAIL
  6
HIDDEN2
100
AcDbLine
 10
17.81137345186552
 20
15.96578365696982
 30
0.0
 11
17.88137310952382
 21
15.96574519882077
 31
0.0
  0
DIMENSION
  5
4E
330
2
100
AcDbEntity
  8
ADPDIM
100
AcDbDimension
  2
*D0
 10
19.80435978886183
 20
12.39801465951795
 30
0.0
 11
17.14286662036367
 21
12.39801465951795
 31
0.0
 70
    32
 71
     5
 42
-1.0
  3
STANDARD
100
AcDbAlignedDimension
 13
14.48137345186552
 23
12.58758362530503
 33
0.0
 14
19.80435978886183
 24
12.58758362530502
 34
0.0
100
AcDbRotatedDimension
1001
ACAD
1000
DSTYLE
1002
{
1070
   270
1070
     7
1070
   270
1070
     7
1070
   270
1070
     7
1070
   270
1070
     7
1070
   270
1070
     7
1070
    41
1040
0.125
1070
    73
1070
     0
1070
    74
1070
     0
1070
    78
1070
     2
1070
   140
1040
0.125
1070
   141
1040
0.1875
1070
   142
1040
0.125
1070
   147
1040
0.125
1070
   171
1070
     1
1070
   271
1070
     2
1070
   276
1070
     2
1070
   277
1070
     5
1002
}
  0
LINE
  5
5D
330
2
100
AcDbEntity
  8
ADP1DETAIL
100
AcDbLine
 10
17.96448679441232
 20
12.95508758670053
 30
0.0
 11
17.94776611453922
 21
13.017490013524
 31
0.0
  0
LINE
  5
5E
330
2
100
AcDbEntity
  8
ADP1DETAIL
100
AcDbLine
 10
17.94788317540137
 20
13.017490013524
 30
0.0
 11
17.88839341833621
 21
13.01727871949634
 31
0.0
  0
ARC
  5
5F
330
2
100
AcDbEntity
  8
ADP1DETAIL
100
AcDbCircle
 10
18.10413317540137
 20
12.829990013524
 30
0.0
 40
0.125
100
AcDbArc
 50
293.6761468266874
 51
90.0
  0
LINE
  5
60
330
2
100
AcDbEntity
  8
ADP1DETAIL
100
AcDbLine
 10
18.10413317540137
 20
12.95508758670053
 30
0.0
 11
17.96448679441232
 21
12.95508758670053
 31
0.0
  0
ARC
  5
61
330
2
100
AcDbEntity
  8
ADP1DETAIL
100
AcDbCircle
 10
18.28324397011098
 20
12.5013129428445
 30
0.0
 40
0.2500000000000005
100
AcDbArc
 50
121.0415745356509
 51
161.6703911787003
  0
ARC
  5
62
330
2
100
AcDbEntity
  8
ADP1DETAIL
100
AcDbCircle
 10
17.97947391020088
 20
13.19373256611205
 30
0.0
 40
0.1790721129837708
100
AcDbArc
 50
192.0689699612933
 51
259.80102176739
  0
ARC
  5
63
330
2
100
AcDbEntity
  8
ADP1DETAIL
100
AcDbCircle
 10
16.306259438234
 20
13.19373256611205
 30
0.0
 40
0.1790721129837708
100
AcDbArc
 50
280.19897823261
 51
347.9310300387068
  0
LINE
  5
64
330
2
100
AcDbEntity
  8
ADP2DETAIL
  6
HIDDEN2
100
AcDbLine
 10
14.48137345186552
 20
12.75727248773745
 30
0.0
 11
19.80435978886183
 21
12.76019696206772
 31
0.0
  0
LINE
  5
65
330
2
100
AcDbEntity
  8
ADP1DETAIL
100
AcDbLine
 10
14.48137345186552
 20
12.94776469722517
 30
0.0
 11
19.80435978886183
 21
12.94776469722516
 31
0.0
  0
LINE
  5
66
330
2
100
AcDbEntity
  8
ADP1DETAIL
100
AcDbLine
 10
14.48137345186552
 20
13.02359227564189
 30
0.0
 11
19.80435978886183
 21
13.02359227564189
 31
0.0
  0
LINE
  5
67
330
2
100
AcDbEntity
  8
ADP1DETAIL
100
AcDbLine
 10
16.33785017303351
 20
13.017490013524
 30
0.0
 11
16.39733993009867
 21
13.01727871949634
 31
0.0
  0
LINE
  5
68
330
2
100
AcDbEntity
  8
ADP1DETAIL
100
AcDbLine
 10
16.32124655402256
 20
12.95508758670053
 30
0.0
 11
16.33796723389565
 21
13.017490013524
 31
0.0
  0
ARC
  5
69
330
2
100
AcDbEntity
  8
ADP1DETAIL
100
AcDbCircle
 10
16.18160017303351
 20
12.829990013524
 30
0.0
 40
0.125
100
AcDbArc
 50
90.0
 51
246.3238531733126
  0
ARC
  5
6A
330
2
100
AcDbEntity
  8
ADP1DETAIL
100
AcDbCircle
 10
16.0024893783239
 20
12.5013129428445
 30
0.0
 40
0.2500000000000005
100
AcDbArc
 50
18.32960882129964
 51
58.95842546434906
  0
LINE
  5
6B
330
2
100
AcDbEntity
  8
ADP1DETAIL
100
AcDbLine
 10
16.18160017303351
 20
12.95508758670053
 30
0.0
 11
16.32124655402256
 21
12.95508758670053
 31
0.0
  0
LINE
  5
6C
330
2
100
AcDbEntity
  8
ADP1DETAIL
100
AcDbLine
 10
19.80435978886183
 20
12.58758362530502
 30
0.0
 11
14.48137345186552
 21
12.58758362530503
 31
0.0
  0
LINE
  5
6D
330
2
100
AcDbEntity
  8
ADP1DETAIL
100
AcDbLine
 10
14.48137345186552
 20
13.15629055924366
 30
0.0
 11
19.80435978886183
 21
13.15629055924366
 31
0.0
  0
LINE
  5
6E
330
2
100
AcDbEntity
  8
ADP1DETAIL
100
AcDbLine
 10
14.48137345186552
 20
12.58758362530503
 30
0.0
 11
14.48137345186552
 21
13.15629055924366
 31
0.0
  0
LINE
  5
6F
330
2
100
AcDbEntity
  8
ADP2DETAIL
  6
HIDDEN2
100
AcDbLine
 10
14.48137345186552
 20
15.73948524215373
 30
0.0
 11
17.14137345186552
 21
15.73802382534256
 31
0.0
  0
LINE
  5
70
330
2
100
AcDbEntity
  8
ADP2DETAIL
  6
HIDDEN2
100
AcDbLine
 10
14.48137345186552
 20
15.96761317500787
 30
0.0
 11
17.14137345186552
 21
15.9661517581967
 31
0.0
  0
LINE
  5
71
330
2
100
AcDbEntity
  8
ADP2DETAIL
  6
HIDDEN2
100
AcDbLine
 10
14.48137345186552
 20
15.09106207508529
 30
0.0
 11
17.14137345186552
 21
15.09252349189646
 31
0.0
  0
LINE
  5
72
330
2
100
AcDbEntity
  8
ADP2DETAIL
  6
HIDDEN2
100
AcDbLine
 10
14.48137345186552
 20
14.86293414223115
 30
0.0
 11
17.14137345186552
 21
14.86439555904232
 31
0.0
  0
LINE
  5
73
330
2
100
AcDbEntity
  8
ADP1DETAIL
100
AcDbLine
 10
11.4160096133152
 20
12.57990836126114
 30
0.0
 11
13.2119501332362
 21
12.57990836126114
 31
0.0
  0
LINE
  5
74
330
2
100
AcDbEntity
  8
ADP1DETAIL
100
AcDbLine
 10
11.97162748554873
 20
12.767449650069
 30
0.0
 11
12.65633226100266
 21
12.767449650069
 31
0.0
  0
LWPOLYLINE
  5
75
330
2
100
AcDbEntity
  8
ADP1DETAIL
100
AcDbPolyline
 90
        3
 70
     0
 43
0.0
 10
16.31137345186552
 20
14.83006345182388
 10
16.31137345186552
 20
15.05819161518033
 42
0.2711863860665363
 10
16.48137345186552
 20
15.41733392668035
  0
LWPOLYLINE
  5
7A
330
2
100
AcDbEntity
  8
ADP1DETAIL
100
AcDbPolyline
 90
        3
 70
     0
 43
0.0
 10
16.31137345186552
 20
16.00460440153685
 10
16.31137345186552
 20
15.7764762381804
 42
-0.2711863860665363
 10
16.48137345186552
 20
15.41733392668038
  0
LINE
  5
7F
330
2
100
AcDbEntity
  8
ADP1DETAIL
100
AcDbLine
 10
16.05137345186552
 20
16.50733392668036
 30
0.0
 11
16.05137345186552
 21
16.29388468084945
 31
0.0
  0
LINE
  5
80
330
2
100
AcDbEntity
  8
ADP1DETAIL
100
AcDbLine
 10
16.31137345186552
 20
14.82594314620453
 30
0.0
 11
16.31137345186552
 21
14.57733392668037
 31
0.0
  0
LINE
  5
81
330
2
100
AcDbEntity
  8
ADP1DETAIL
100
AcDbLine
 10
16.31137345186552
 20
14.82594314620453
 30
0.0
 11
14.48137345186552
 21
14.82594314620453
 31
0.0
  0
LINE
  5
82
330
2
100
AcDbEntity
  8
ADP1DETAIL
100
AcDbLine
 10
16.31137345186552
 20
16.00460440153685
 30
0.0
 11
14.48137345186552
 21
16.00460440153685
 31
0.0
  0
LINE
  5
83
330
2
100
AcDbEntity
  8
ADP1DETAIL
100
AcDbLine
 10
16.05137345186552
 20
16.28976414472774
 30
0.0
 11
14.48137345186552
 21
16.28976414472774
 31
0.0
  0
LINE
  5
84
330
2
100
AcDbEntity
  8
ADP1DETAIL
100
AcDbLine
 10
16.05137345186552
 20
14.54078317251128
 30
0.0
 11
14.48137345186552
 21
14.54078317251128
 31
0.0
  0
LINE
  5
85
330
2
100
AcDbEntity
  8
ADP1DETAIL
100
AcDbLine
 10
16.31137345186552
 20
16.25733392668037
 30
0.0
 11
16.31137345186552
 21
16.00460440153685
 31
0.0
  0
LINE
  5
86
330
2
100
AcDbEntity
  8
ADP1DETAIL
100
AcDbLine
 10
16.05137345186552
 20
14.54078317251128
 30
0.0
 11
16.05137345186552
 21
14.32733392668037
 31
0.0
  0
LINE
  5
87
330
2
100
AcDbEntity
  8
ADP1DETAIL
100
AcDbLine
 10
16.48137345186552
 20
16.08733392668036
 30
0.0
 11
16.48137345186551
 21
14.74733392668037
 31
0.0
  0
LINE
  5
88
330
2
100
AcDbEntity
  8
ADP1DETAIL
100
AcDbLine
 10
16.48137345186552
 20
16.08733392668036
 30
0.0
 11
17.14137345186552
 21
16.08733392668036
 31
0.0
  0
LINE
  5
89
330
2
100
AcDbEntity
  8
ADP1DETAIL
100
AcDbLine
 10
17.81137345186552
 20
16.08733392668036
 30
0.0
 11
17.81137345186553
 21
14.74733392668036
 31
0.0
  0
LINE
  5
8A
330
2
100
AcDbEntity
  8
ADP1DETAIL
100
AcDbLine
 10
17.14137345186552
 20
14.74733392668037
 30
0.0
 11
16.48137345186551
 21
14.74733392668037
 31
0.0
  0
LINE
  5
8B
330
2
100
AcDbEntity
  8
ADP1DETAIL
100
AcDbLine
 10
16.31137345186551
 20
16.25733392668037
 30
0.0
 11
17.14137345186552
 21
16.25733392668037
 31
0.0
  0
LINE
  5
8C
330
2
100
AcDbEntity
  8
ADP1DETAIL
100
AcDbLine
 10
17.14137345186552
 20
14.57733392668036
 30
0.0
 11
16.31137345186552
 21
14.57733392668037
 31
0.0
  0
LINE
  5
8D
330
2
100
AcDbEntity
  8
ADP1DETAIL
100
AcDbLine
 10
14.48137345186552
 20
14.54078317251128
 30
0.0
 11
14.48137345186552
 21
16.28976414472774
 31
0.0
  0
LINE
  5
8E
330
2
100
AcDbEntity
  8
ADP1DETAIL
100
AcDbLine
 10
17.14137345186552
 20
14.32733392668036
 30
0.0
 11
16.05137345186552
 21
14.32733392668037
 31
0.0
  0
LINE
  5
8F
330
2
100
AcDbEntity
  8
ADP1DETAIL
100
AcDbLine
 10
16.05137345186552
 20
16.50733392668036
 30
0.0
 11
17.14137345186552
 21
16.50733392668036
 31
0.0
  0
LINE
  5
90
330
2
100
AcDbEntity
  8
ADP1DETAIL
100
AcDbLine
 10
12.85961058340313
 20
12.767490013524
 30
0.0
 11
12.87931762751545
 21
12.579990013524
 31
0.0
  0
LINE
  5
91
330
2
100
AcDbEntity
  8
ADP1DETAIL
100
AcDbLine
 10
12.92433349228665
 20
12.95508758670053
 30
0.0
 11
12.90761281241355
 21
13.017490013524
 31
0.0
  0
LINE
  5
92
330
2
100
AcDbEntity
  8
ADP1DETAIL
100
AcDbLine
 10
12.9077298732757
 20
13.017490013524
 30
0.0
 11
12.84824011621053
 21
13.01727871949634
 31
0.0
  0
LINE
  5
93
330
2
100
AcDbEntity
  8
ADP1DETAIL
100
AcDbLine
 10
13.00577489584813
 20
12.57993370533723
 30
0.0
 11
12.87931762751545
 21
12.579990013524
 31
0.0
  0
LINE
  5
94
330
2
100
AcDbEntity
  8
ADP1DETAIL
100
AcDbLine
 10
13.0639798732757
 20
12.95508758670053
 30
0.0
 11
12.92433349228665
 21
12.95508758670053
 31
0.0
  0
LINE
  5
95
330
2
100
AcDbEntity
  8
ADP1DETAIL
100
AcDbLine
 10
12.65633226100266
 20
12.767449650069
 30
0.0
 11
12.85961058340313
 21
12.767490013524
 31
0.0
  0
ARC
  5
96
330
2
100
AcDbEntity
  8
ADP1DETAIL
100
AcDbCircle
 10
12.85919835230066
 20
13.64681280690694
 30
0.0
 40
0.6296294546398661
100
AcDbArc
 50
240.4540352126153
 51
269.0027588831186
  0
ARC
  5
97
330
2
100
AcDbEntity
  8
ADP1DETAIL
100
AcDbCircle
 10
13.0639798732757
 20
12.829990013524
 30
0.0
 40
0.125
100
AcDbArc
 50
293.6761468266874
 51
90.0
  0
ARC
  5
98
330
2
100
AcDbEntity
  8
ADP1DETAIL
100
AcDbCircle
 10
13.24309066798531
 20
12.5013129428445
 30
0.0
 40
0.2500000000000005
100
AcDbArc
 50
121.0415745356509
 51
161.6703911787003
  0
ARC
  5
99
330
2
100
AcDbEntity
  8
ADP1DETAIL
100
AcDbCircle
 10
12.3139798732757
 20
12.767490013524
 30
0.0
 40
0.40625
100
AcDbArc
 50
90.0
 51
125.2965290810944
  0
LINE
  5
9A
330
2
100
AcDbEntity
  8
ADP1DETAIL
100
AcDbLine
 10
11.97162748554873
 20
12.767449650069
 30
0.0
 11
11.76834916314827
 21
12.767490013524
 31
0.0
  0
LINE
  5
9B
330
2
100
AcDbEntity
  8
ADP1DETAIL
100
AcDbLine
 10
11.76834916314827
 20
12.767490013524
 30
0.0
 11
11.74864211903595
 21
12.579990013524
 31
0.0
  0
LINE
  5
9C
330
2
100
AcDbEntity
  8
ADP1DETAIL
100
AcDbLine
 10
11.70362625426475
 20
12.95508758670053
 30
0.0
 11
11.72034693413784
 21
13.017490013524
 31
0.0
  0
LINE
  5
9D
330
2
100
AcDbEntity
  8
ADP1DETAIL
100
AcDbLine
 10
11.7202298732757
 20
13.017490013524
 30
0.0
 11
11.77971963034087
 21
13.01727871949634
 31
0.0
  0
ARC
  5
9E
330
2
100
AcDbEntity
  8
ADP1DETAIL
100
AcDbCircle
 10
12.3139798732757
 20
12.548740013524
 30
0.0
 40
0.40625
100
AcDbArc
 50
89.96700790642552
 51
147.427785052191
  0
ARC
  5
9F
330
2
100
AcDbEntity
  8
ADP1DETAIL
100
AcDbCircle
 10
11.76876139425074
 20
13.64681280690694
 30
0.0
 40
0.6296294546398661
100
AcDbArc
 50
270.9972411168814
 51
299.5459647873847
  0
ARC
  5
A0
330
2
100
AcDbEntity
  8
ADP1DETAIL
100
AcDbCircle
 10
11.38486907856609
 20
12.5013129428445
 30
0.0
 40
0.2500000000000005
100
AcDbArc
 50
18.32960882129964
 51
58.95842546434906
  0
ARC
  5
A1
330
2
100
AcDbEntity
  8
ADP1DETAIL
100
AcDbCircle
 10
11.5639798732757
 20
12.829990013524
 30
0.0
 40
0.125
100
AcDbArc
 50
90.0
 51
246.3238531733126
  0
LINE
  5
A2
330
2
100
AcDbEntity
  8
ADP1DETAIL
100
AcDbLine
 10
11.5639798732757
 20
12.95508758670053
 30
0.0
 11
11.70362625426475
 21
12.95508758670053
 31
0.0
  0
LINE
  5
A3
330
2
100
AcDbEntity
  8
ADP1DETAIL
100
AcDbLine
 10
11.62218485070326
 20
12.57993370533723
 30
0.0
 11
11.74864211903595
 21
12.579990013524
 31
0.0
  0
ARC
  5
A4
330
2
100
AcDbEntity
  8
ADP1DETAIL
100
AcDbCircle
 10
12.3139798732757
 20
12.767490013524
 30
0.0
 40
0.40625
100
AcDbArc
 50
54.7034709189056
 51
90.0
  0
ARC
  5
A5
330
2
100
AcDbEntity
  8
ADP1DETAIL
100
AcDbCircle
 10
12.3139798732757
 20
12.548740013524
 30
0.0
 40
0.40625
100
AcDbArc
 50
32.57221494780893
 51
90.03299209357448
  0
DIMENSION
  5
B4
330
2
100
AcDbEntity
  8
ADPDIM
100
AcDbDimension
  2
*D2
 10
13.18632128373991
 20
13.36046761781161
 30
0.0
 11
12.3139798732757
 21
13.36046761781161
 31
0.0
 70
    32
 71
     5
 42
-1.0
  3
STANDARD
100
AcDbAlignedDimension
 13
11.44163846281149
 23
12.85563332231261
 33
0.0
 14
13.18632128373991
 24
12.85563332231261
 34
0.0
100
AcDbRotatedDimension
1001
ACAD
1000
DSTYLE
1002
{
1070
   270
1070
     7
1070
   270
1070
     7
1070
   270
1070
     7
1070
   270
1070
     7
1070
   270
1070
     7
1070
    41
1040
0.125
1070
    73
1070
     0
1070
    74
1070
     0
1070
    78
1070
     2
1070
   140
1040
0.125
1070
   141
1040
0.1875
1070
   142
1040
0.125
1070
   147
1040
0.125
1070
   171
1070
     1
1070
   271
1070
     2
1070
   276
1070
     2
1070
   277
1070
     5
1002
}
  0
TEXT
  5
CC
330
2
100
AcDbEntity
  8
ADPDIM
100
AcDbText
 10
8.839033647004281
 20
11.49708711770142
 30
0.0
 40
0.125
  1
J U L I U S  B L U M  &  C O . ,  I N C .      ( 8 0 0 )  5 2 6 - 6 2 9 3        W W W . J U L I U S B L U M . C O M        P A R T  N o .  4 4 2 9 - T
 41
1.25
  7
ARIAL_WIDE
 72
     1
 11
15.52842015791833
 21
11.62208711770142
 31
0.0
100
AcDbText
 73
     3
  0
DIMENSION
  5
3A0
330
2
100
AcDbEntity
  8
ADPDIM
100
AcDbDimension
  2
*D7
 10
12.86622541583906
 20
12.37740984509512
 30
0.0
 11
12.32059470571162
 21
12.37740984509512
 31
0.0
 70
    32
 71
     5
 42
1.091261420254866
  3
STANDARD
100
AcDbAlignedDimension
 13
11.77496399558419
 23
12.74697578978505
 33
0.0
 14
12.86622541583906
 24
12.74697578978505
 34
0.0
100
AcDbRotatedDimension
1001
ACAD
1000
DSTYLE
1002
{
1070
   140
1040
0.125
1070
   276
1070
     2
1070
   277
1070
     5
1002
}
  0
ENDSEC
  0
SECTION
  2
OBJECTS
  0
DICTIONARY
  5
1B
330
0
100
AcDbDictionary
281
     1
  3
ACAD_COLOR
350
35A
  3
ACAD_GROUP
350
19
  3
ACAD_LAYOUT
350
C5
  3
ACAD_MATERIAL
350
345
  3
ACAD_MLINESTYLE
350
1A
  3
ACAD_PLOTSETTINGS
350
C6
  3
ACAD_PLOTSTYLENAME
350
C3
  3
ACAD_TABLESTYLE
350
35B
  3
ACAD_VISUALSTYLE
350
349
  3
AcDbVariableDictionary
350
176
  3
ASE_INDEX_DICTIONARY
350
40D
  3
DWGPROPS
350
42E
  0
DICTIONARY
  5
147
330
2
100
AcDbDictionary
280
     1
281
     1
  3
ACAD_LAYOUTSELFREF
360
31E
  0
DICTIONARY
  5
149
330
8
100
AcDbDictionary
280
     1
281
     1
  3
ACAD_LAYOUTSELFREF
360
31F
  0
DICTIONARY
  5
35A
102
{ACAD_REACTORS
330
1B
102
}
330
1B
100
AcDbDictionary
281
     1
  0
DICTIONARY
  5
19
102
{ACAD_REACTORS
330
1B
102
}
330
1B
100
AcDbDictionary
281
     1
  0
DICTIONARY
  5
C5
102
{ACAD_REACTORS
330
1B
102
}
330
1B
100
AcDbDictionary
281
     1
  3
Layout1
350
C8
  3
Model
350
C7
  0
DICTIONARY
  5
345
102
{ACAD_REACTORS
330
1B
102
}
330
1B
100
AcDbDictionary
281
     1
  3
ByBlock
350
347
  3
ByLayer
350
346
  3
Global
350
348
  0
DICTIONARY
  5
1A
102
{ACAD_REACTORS
330
1B
102
}
330
1B
100
AcDbDictionary
281
     1
  3
STANDARD
350
1D
  0
DICTIONARY
  5
C6
102
{ACAD_REACTORS
330
1B
102
}
330
1B
100
AcDbDictionary
281
     1
  0
ACDBDICTIONARYWDFLT
  5
C3
102
{ACAD_REACTORS
330
1B
102
}
330
1B
100
AcDbDictionary
281
     1
  3
Normal
350
C4
100
AcDbDictionaryWithDefault
340
C4
  0
DICTIONARY
  5
35B
102
{ACAD_REACTORS
330
1B
102
}
330
1B
100
AcDbDictionary
281
     1
  3
Standard
350
35C
  0
DICTIONARY
  5
349
102
{ACAD_REACTORS
330
1B
102
}
330
1B
100
AcDbDictionary
281
     1
  3
2dWireframe
350
34F
  3
3D Hidden
350
351
  3
3dWireframe
350
350
  3
Basic
350
34E
  3
Brighten
350
355
  3
ColorChange
350
359
  3
Conceptual
350
352
  3
Dim
350
354
  3
Facepattern
350
358
  3
Flat
350
34A
  3
FlatWithEdges
350
34B
  3
Gouraud
350
34C
  3
GouraudWithEdges
350
34D
  3
Linepattern
350
357
  3
Realistic
350
353
  3
Thicken
350
356
  0
DICTIONARY
  5
176
102
{ACAD_REACTORS
330
1B
102
}
330
1B
100
AcDbDictionary
281
     1
  3
CTABLESTYLE
350
42B
  3
DIMASSOC
350
177
  3
INDEXCTL
350
42D
  3
SORTENTS
350
42C
  0
DICTIONARY
  5
40D
102
{ACAD_REACTORS
330
1B
102
}
330
1B
100
AcDbDictionary
281
     1
  3
ASEBlockHierarchyIndexRecord
350
40E
1001
DCO15
1040
1569093500.746
  0
XRECORD
  5
42E
102
{ACAD_REACTORS
330
1B
102
}
330
1B
100
AcDbXrecord
280
     1
  1
DWGPROPS COOKIE
  2

  3

  4

  6

  7

  8
Yu Hu
  9

300
=
301
=
302
=
303
=
304
=
305
=
306
=
307
=
308
=
309
=
 40
0.0866917361111111
 41
2450366.651843171
 42
2453964.016258634
  1

 90
        0
  0
XRECORD
  5
31E
102
{ACAD_REACTORS
330
147
102
}
330
147
100
AcDbXrecord
280
     1
340
2
  0
XRECORD
  5
31F
102
{ACAD_REACTORS
330
149
102
}
330
149
100
AcDbXrecord
280
     1
340
8
  0
LAYOUT
  5
C8
102
{ACAD_XDICTIONARY
360
431
102
}
102
{ACAD_REACTORS
330
C5
102
}
330
C5
100
AcDbPlotSettings
  1

  2
Fax
  4

  6

 40
0.0
 41
0.0
 42
0.0
 43
0.0
 44
0.0
 45
0.0
 46
0.0
 47
0.0
 48
0.0
 49
0.0
140
0.0
141
0.0
142
1.0
143
1.0
 70
   688
 72
     0
 73
     0
 74
     5
  7
Default R14 pen assignments.ctb
 75
    16
147
1.0
148
0.0
149
0.0
100
AcDbLayout
  1
Layout1
 70
     1
 71
     1
 10
0.0
 20
0.0
 11
12.0
 21
9.0
 12
0.1250013113021854
 22
0.0
 32
0.0
 14
1.000000000000000E+20
 24
1.000000000000000E+20
 34
1.000000000000000E+20
 15
-1.000000000000000E+20
 25
-1.000000000000000E+20
 35
-1.000000000000000E+20
146
0.0
 13
0.0
 23
0.0
 33
0.0
 16
1.0
 26
0.0
 36
0.0
 17
0.0
 27
1.0
 37
0.0
 76
     0
330
8
  0
LAYOUT
  5
C7
102
{ACAD_XDICTIONARY
360
42F
102
}
102
{ACAD_REACTORS
330
C5
102
}
330
C5
100
AcDbPlotSettings
  1

  2
Fax
  4

  6

 40
0.0
 41
0.0
 42
0.0
 43
0.0
 44
0.0
 45
0.0
 46
0.0
 47
0.0
 48
0.0
 49
0.0
140
0.0
141
0.0
142
1.0
143
1.0
 70
  1712
 72
     0
 73
     0
 74
     0
  7
Default R14 pen assignments.ctb
 75
     0
147
1.0
148
0.0
149
0.0
100
AcDbLayout
  1
Model
 70
     1
 71
     0
 10
0.0
 20
0.0
 11
12.0
 21
9.0
 12
0.0
 22
0.0
 32
0.0
 14
0.0
 24
0.0
 34
0.0
 15
0.0
 25
0.0
 35
0.0
146
0.0
 13
0.0
 23
0.0
 33
0.0
 16
1.0
 26
0.0
 36
0.0
 17
0.0
 27
1.0
 37
0.0
 76
     0
330
2
331
2FA
  0
MATERIAL
  5
347
102
{ACAD_XDICTIONARY
360
435
102
}
102
{ACAD_REACTORS
330
345
102
}
330
345
100
AcDbMaterial
  1
ByBlock
  0
MATERIAL
  5
346
102
{ACAD_XDICTIONARY
360
433
102
}
102
{ACAD_REACTORS
330
345
102
}
330
345
100
AcDbMaterial
  1
ByLayer
  0
MATERIAL
  5
348
102
{ACAD_XDICTIONARY
360
437
102
}
102
{ACAD_REACTORS
330
345
102
}
330
345
100
AcDbMaterial
  1
Global
  0
MLINESTYLE
  5
1D
102
{ACAD_REACTORS
330
1A
102
}
330
1A
100
AcDbMlineStyle
  2
STANDARD
 70
     0
  3

 62
     0
 51
90.0
 52
90.0
 71
     2
 49
0.5
 62
   256
  6
BYLAYER
 49
-0.5
 62
   256
  6
BYLAYER
  0
ACDBPLACEHOLDER
  5
C4
102
{ACAD_REACTORS
330
C3
102
}
330
C3
  0
TABLESTYLE
  5
35C
102
{ACAD_XDICTIONARY
360
439
102
}
102
{ACAD_REACTORS
330
35B
102
}
330
35B
100
AcDbTableStyle
  3
Standard
 70
     0
 71
     0
 40
0.06
 41
0.06
280
     0
281
     0
  7
STANDARD
140
0.18
170
     2
 62
     0
 63
     7
283
     0
274
    -2
284
     1
 64
     0
275
    -2
285
     1
 65
     0
276
    -2
286
     1
 66
     0
277
    -2
287
     1
 67
     0
278
    -2
288
     1
 68
     0
279
    -2
289
     1
 69
     0
  7
STANDARD
140
0.25
170
     5
 62
     0
 63
     7
283
     0
274
    -2
284
     1
 64
     0
275
    -2
285
     1
 65
     0
276
    -2
286
     1
 66
     0
277
    -2
287
     1
 67
     0
278
    -2
288
     1
 68
     0
279
    -2
289
     1
 69
     0
  7
STANDARD
140
0.18
170
     5
 62
     0
 63
     7
283
     0
274
    -2
284
     1
 64
     0
275
    -2
285
     1
 65
     0
276
    -2
286
     1
 66
     0
277
    -2
287
     1
 67
     0
278
    -2
288
     1
 68
     0
279
    -2
289
     1
 69
     0
  0
VISUALSTYLE
  5
34F
102
{ACAD_REACTORS
330
349
102
}
330
349
100
AcDbVisualStyle
  2
2dWireframe
 70
     4
 71
     0
 72
     2
 73
     0
 90
        0
 40
-0.6
 41
-30.0
 62
     5
 63
     7
 74
     1
 91
        4
 64
     7
 65
   257
 75
     1
175
     1
 42
1.0
 92
        0
 66
   257
 43
1.0
 76
     1
 77
     6
 78
     2
 67
     7
 79
     5
170
     0
171
     0
290
     0
174
     0
 93
        1
 44
0.0
173
     0
291
     0
 45
0.0
1001
ACAD
1000
AcDbSavedByObjectVersion
1070
     0
  0
VISUALSTYLE
  5
351
102
{ACAD_REACTORS
330
349
102
}
330
349
100
AcDbVisualStyle
  2
3D Hidden
 70
     6
 71
     1
 72
     2
 73
     2
 90
        0
 40
-0.6
 41
-30.0
 62
     5
 63
     7
 74
     2
 91
        2
 64
     7
 65
   257
 75
     2
175
     1
 42
40.0
 92
        0
 66
   257
 43
1.0
 76
     1
 77
     6
 78
     2
 67
     7
 79
     3
170
     0
171
     0
290
     0
174
     0
 93
        1
 44
0.0
173
     0
291
     0
 45
0.0
1001
ACAD
1000
AcDbSavedByObjectVersion
1070
     0
  0
VISUALSTYLE
  5
350
102
{ACAD_REACTORS
330
349
102
}
330
349
100
AcDbVisualStyle
  2
3dWireframe
 70
     5
 71
     0
 72
     2
 73
     0
 90
        0
 40
-0.6
 41
-30.0
 62
     5
 63
     7
 74
     1
 91
        4
 64
     7
 65
   257
 75
     1
175
     1
 42
1.0
 92
        0
 66
   257
 43
1.0
 76
     1
 77
     6
 78
     2
 67
     7
 79
     5
170
     0
171
     0
290
     0
174
     0
 93
        1
 44
0.0
173
     0
291
     0
 45
0.0
1001
ACAD
1000
AcDbSavedByObjectVersion
1070
     0
  0
VISUALSTYLE
  5
34E
102
{ACAD_REACTORS
330
349
102
}
330
349
100
AcDbVisualStyle
  2
Basic
 70
     7
 71
     1
 72
     0
 73
     1
 90
        0
 40
-0.6
 41
-30.0
 62
     5
 63
     7
 74
     0
 91
        4
 64
     7
 65
   257
 75
     1
175
     1
 42
1.0
 92
        8
 66
     7
 43
1.0
 76
     1
 77
     6
 78
     2
 67
     7
 79
     5
170
     0
171
     0
290
     0
174
     0
 93
        1
 44
0.0
173
     0
291
     1
 45
0.0
1001
ACAD
1000
AcDbSavedByObjectVersion
1070
     0
  0
VISUALSTYLE
  5
355
102
{ACAD_REACTORS
330
349
102
}
330
349
100
AcDbVisualStyle
  2
Brighten
 70
    12
 71
     2
 72
     2
 73
     0
 90
        0
 40
-0.6
 41
-30.0
 62
     5
 63
     7
 74
     1
 91
        4
 64
     7
 65
   257
 75
     1
175
     1
 42
1.0
 92
        8
 66
     7
 43
1.0
 76
     1
 77
     6
 78
     2
 67
     7
 79
     5
170
     0
171
     0
290
     0
174
     0
 93
        1
 44
50.0
173
     0
291
     1
 45
0.0
1001
ACAD
1000
AcDbSavedByObjectVersion
1070
     0
  0
VISUALSTYLE
  5
359
102
{ACAD_REACTORS
330
349
102
}
330
349
100
AcDbVisualStyle
  2
ColorChange
 70
    16
 71
     2
 72
     2
 73
     3
 90
        0
 40
-0.6
 41
-30.0
 62
     5
 63
     8
 74
     1
 91
        4
 64
     7
 65
   257
 75
     1
175
     1
 42
1.0
 92
        8
 66
     8
 43
1.0
 76
     1
 77
     6
 78
     2
 67
     7
 79
     5
170
     0
171
     0
290
     0
174
     0
 93
        1
 44
0.0
173
     0
291
     1
 45
0.0
1001
ACAD
1000
AcDbSavedByObjectVersion
1070
     0
  0
VISUALSTYLE
  5
352
102
{ACAD_REACTORS
330
349
102
}
330
349
100
AcDbVisualStyle
  2
Conceptual
 70
     9
 71
     3
 72
     2
 73
     0
 90
        0
 40
-0.6
 41
-30.0
 62
     5
 63
     7
 74
     2
 91
        2
 64
     7
 65
   257
 75
     1
175
     1
 42
40.0
 92
        8
 66
     7
 43
1.0
 76
     1
 77
     6
 78
     2
 67
     7
 79
     3
170
     0
171
     0
290
     0
174
     0
 93
        1
 44
0.0
173
     0
291
     0
 45
0.0
1001
ACAD
1000
AcDbSavedByObjectVersion
1070
     0
  0
VISUALSTYLE
  5
354
102
{ACAD_REACTORS
330
349
102
}
330
349
100
AcDbVisualStyle
  2
Dim
 70
    11
 71
     2
 72
     2
 73
     0
 90
        0
 40
-0.6
 41
-30.0
 62
     5
 63
     7
 74
     1
 91
        4
 64
     7
 65
   257
 75
     1
175
     1
 42
1.0
 92
        8
 66
     7
 43
1.0
 76
     1
 77
     6
 78
     2
 67
     7
 79
     5
170
     0
171
     0
290
     0
174
     0
 93
        1
 44
-50.0
173
     0
291
     1
 45
0.0
1001
ACAD
1000
AcDbSavedByObjectVersion
1070
     0
  0
VISUALSTYLE
  5
358
102
{ACAD_REACTORS
330
349
102
}
330
349
100
AcDbVisualStyle
  2
Facepattern
 70
    15
 71
     2
 72
     2
 73
     0
 90
        0
 40
-0.6
 41
-30.0
 62
     5
 63
     7
 74
     1
 91
        4
 64
     7
 65
   257
 75
     1
175
     1
 42
1.0
 92
        8
 66
     7
 43
1.0
 76
     1
 77
     6
 78
     2
 67
     7
 79
     5
170
     0
171
     0
290
     0
174
     0
 93
        1
 44
0.0
173
     0
291
     1
 45
0.0
1001
ACAD
1000
AcDbSavedByObjectVersion
1070
     0
  0
VISUALSTYLE
  5
34A
102
{ACAD_REACTORS
330
349
102
}
330
349
100
AcDbVisualStyle
  2
Flat
 70
     0
 71
     2
 72
     1
 73
     1
 90
        2
 40
-0.6
 41
30.0
 62
     5
 63
     7
 74
     0
 91
        4
 64
     7
 65
   257
 75
     1
175
     1
 42
1.0
 92
        8
 66
     7
 43
1.0
 76
     1
 77
     6
 78
     2
 67
     7
 79
     5
170
     0
171
     0
290
     0
174
     0
 93
       13
 44
0.0
173
     0
291
     1
 45
0.0
1001
ACAD
1000
AcDbSavedByObjectVersion
1070
     0
  0
VISUALSTYLE
  5
34B
102
{ACAD_REACTORS
330
349
102
}
330
349
100
AcDbVisualStyle
  2
FlatWithEdges
 70
     1
 71
     2
 72
     1
 73
     1
 90
        2
 40
-0.6
 41
30.0
 62
     5
 63
     7
 74
     1
 91
        4
 64
     7
 65
   257
 75
     1
175
     1
 42
1.0
 92
        0
 66
   257
 43
1.0
 76
     1
 77
     6
 78
     2
 67
     7
 79
     5
170
     0
171
     0
290
     0
174
     0
 93
       13
 44
0.0
173
     0
291
     1
 45
0.0
1001
ACAD
1000
AcDbSavedByObjectVersion
1070
     0
  0
VISUALSTYLE
  5
34C
102
{ACAD_REACTORS
330
349
102
}
330
349
100
AcDbVisualStyle
  2
Gouraud
 70
     2
 71
     2
 72
     2
 73
     1
 90
        2
 40
-0.6
 41
30.0
 62
     5
 63
     7
 74
     0
 91
        4
 64
     7
 65
   257
 75
     1
175
     1
 42
1.0
 92
        0
 66
     7
 43
1.0
 76
     1
 77
     6
 78
     2
 67
     7
 79
     5
170
     0
171
     0
290
     0
174
     0
 93
       13
 44
0.0
173
     0
291
     1
 45
0.0
1001
ACAD
1000
AcDbSavedByObjectVersion
1070
     0
  0
VISUALSTYLE
  5
34D
102
{ACAD_REACTORS
330
349
102
}
330
349
100
AcDbVisualStyle
  2
GouraudWithEdges
 70
     3
 71
     2
 72
     2
 73
     1
 90
        2
 40
-0.6
 41
30.0
 62
     5
 63
     7
 74
     1
 91
        4
 64
     7
 65
   257
 75
     1
175
     1
 42
1.0
 92
        0
 66
   257
 43
1.0
 76
     1
 77
     6
 78
     2
 67
     7
 79
     5
170
     0
171
     0
290
     0
174
     0
 93
       13
 44
0.0
173
     0
291
     1
 45
0.0
1001
ACAD
1000
AcDbSavedByObjectVersion
1070
     0
  0
VISUALSTYLE
  5
357
102
{ACAD_REACTORS
330
349
102
}
330
349
100
AcDbVisualStyle
  2
Linepattern
 70
    14
 71
     2
 72
     2
 73
     0
 90
        0
 40
-0.6
 41
-30.0
 62
     5
 63
     7
 74
     1
 91
        4
 64
     7
 65
   257
 75
     7
175
     7
 42
1.0
 92
        8
 66
     7
 43
1.0
 76
     1
 77
     6
 78
     2
 67
     7
 79
     5
170
     0
171
     0
290
     0
174
     0
 93
        1
 44
0.0
173
     0
291
     1
 45
0.0
1001
ACAD
1000
AcDbSavedByObjectVersion
1070
     0
  0
VISUALSTYLE
  5
353
102
{ACAD_REACTORS
330
349
102
}
330
349
100
AcDbVisualStyle
  2
Realistic
 70
     8
 71
     2
 72
     2
 73
     0
 90
        0
 40
-0.6
 41
-30.0
 62
     5
 63
     7
 74
     1
 91
        0
 64
     7
 65
   257
 75
     1
175
     1
 42
1.0
 92
        8
 66
     8
 43
1.0
 76
     1
 77
     6
 78
     2
 67
     7
 79
     5
170
     0
171
     0
290
     0
174
     0
 93
       13
 44
0.0
173
     0
291
     0
 45
0.0
1001
ACAD
1000
AcDbSavedByObjectVersion
1070
     0
  0
VISUALSTYLE
  5
356
102
{ACAD_REACTORS
330
349
102
}
330
349
100
AcDbVisualStyle
  2
Thicken
 70
    13
 71
     2
 72
     2
 73
     0
 90
        0
 40
-0.6
 41
-30.0
 62
     5
 63
     7
 74
     1
 91
        4
 64
     7
 65
   257
 75
     1
175
     1
 42
1.0
 92
       12
 66
     7
 43
1.0
 76
     1
 77
     6
 78
     2
 67
     7
 79
     5
170
     0
171
     0
290
     0
174
     0
 93
        1
 44
0.0
173
     0
291
     1
 45
0.0
1001
ACAD
1000
AcDbSavedByObjectVersion
1070
     0
  0
DICTIONARYVAR
  5
42B
102
{ACAD_REACTORS
330
176
102
}
330
176
100
DictionaryVariables
280
     0
  1
STANDARD
  0
DICTIONARYVAR
  5
177
102
{ACAD_REACTORS
330
176
102
}
330
176
100
DictionaryVariables
280
     0
  1
1
  0
DICTIONARYVAR
  5
42D
102
{ACAD_REACTORS
330
176
102
}
330
176
100
DictionaryVariables
280
     0
  1
0
  0
DICTIONARYVAR
  5
42C
102
{ACAD_REACTORS
330
176
102
}
330
176
100
DictionaryVariables
280
     0
  1
127
  0
XRECORD
  5
40E
102
{ACAD_REACTORS
330
40D
102
}
330
40D
100
AcDbXrecord
280
     1
  0
DICTIONARY
  5
431
330
C8
100
AcDbDictionary
280
     1
281
     1
  3
ACAD_XREC_ROUNDTRIP
360
432
  0
DICTIONARY
  5
42F
330
C7
100
AcDbDictionary
280
     1
281
     1
  3
ACAD_XREC_ROUNDTRIP
360
430
  0
DICTIONARY
  5
435
330
347
100
AcDbDictionary
280
     1
281
     1
  3
ACAD_XREC_ROUNDTRIP
360
436
  0
DICTIONARY
  5
433
330
346
100
AcDbDictionary
280
     1
281
     1
  3
ACAD_XREC_ROUNDTRIP
360
434
  0
DICTIONARY
  5
437
330
348
100
AcDbDictionary
280
     1
281
     1
  3
ACAD_XREC_ROUNDTRIP
360
438
  0
DICTIONARY
  5
439
330
35C
100
AcDbDictionary
280
     1
281
     1
  3
ACAD_XREC_ROUNDTRIP
360
43A
  0
XRECORD
  5
432
102
{ACAD_REACTORS
330
431
102
}
330
431
100
AcDbXrecord
280
     1
102
SHADEPLOT
 70
     0
102
SHADEPLOTRESLEVEL
 70
     2
102
SHADEPLOTCUSTOMDPI
 70
   300
  0
XRECORD
  5
430
102
{ACAD_REACTORS
330
42F
102
}
330
42F
100
AcDbXrecord
280
     1
102
SHADEPLOT
 70
     0
102
SHADEPLOTRESLEVEL
 70
     2
102
SHADEPLOTCUSTOMDPI
 70
   300
  0
XRECORD
  5
436
102
{ACAD_REACTORS
330
435
102
}
330
435
100
AcDbXrecord
280
     1
102
MATERIAL
148
0.0
149
0.0
149
0.0
 93
        0
 94
       63
282
     0
 72
     1
 77
     1
171
     1
175
     1
179
     1
273
     0
  0
XRECORD
  5
434
102
{ACAD_REACTORS
330
433
102
}
330
433
100
AcDbXrecord
280
     1
102
MATERIAL
148
0.0
149
0.0
149
0.0
 93
        0
 94
       63
282
     0
 72
     1
 77
     1
171
     1
175
     1
179
     1
273
     0
  0
XRECORD
  5
438
102
{ACAD_REACTORS
330
437
102
}
330
437
100
AcDbXrecord
280
     1
102
MATERIAL
148
0.0
149
0.0
149
0.0
 93
        0
 94
       63
282
     0
 72
     1
 77
     1
171
     1
175
     1
179
     1
273
     0
  0
XRECORD
  5
43A
102
{ACAD_REACTORS
330
439
102
}
330
439
100
AcDbXrecord
280
     1
102
ACAD_ROUNDTRIP_PRE2007_TABLESTYLE
 90
      512
 91
        0
  1

 92
      512
 93
        0
  2

 94
      512
 95
        0
  3

  0
ENDSEC
  0
EOF
