  0
SECTION
  2
HEADER
  9
$ACADVER
  1
AC1015
  9
$ACADMAINTVER
 70
    20
  9
$DWGCODEPAGE
  3
ANSI_1252
  9
$INSBASE
 10
11.4342630376796
 20
13.27760973831525
 30
0.0
  9
$EXTMIN
 10
5.906093875492127
 20
5.882417760403203
 30
0.0
  9
$EXTMAX
 10
22.91773268858899
 20
14.74060089925588
 30
0.0
  9
$LIMMIN
 10
0.0
 20
0.0
  9
$LIMMAX
 10
36.0
 20
36.0
  9
$ORTHOMODE
 70
     1
  9
$REGENMODE
 70
     1
  9
$FILLMODE
 70
     1
  9
$QTEXTMODE
 70
     0
  9
$MIRRTEXT
 70
     1
  9
$LTSCALE
 40
1.0
  9
$ATTMODE
 70
     1
  9
$TEXTSIZE
 40
0.2
  9
$TRACEWID
 40
0.05
  9
$TEXTSTYLE
  7
STANDARD
  9
$CLAYER
  8
ADPDIM
  9
$CELTYPE
  6
BYLAYER
  9
$CECOLOR
 62
   256
  9
$CELTSCALE
 40
1.0
  9
$DISPSILH
 70
     0
  9
$DIMSCALE
 40
1.0
  9
$DIMASZ
 40
0.125
  9
$DIMEXO
 40
0.0625
  9
$DIMDLI
 40
0.38
  9
$DIMRND
 40
0.0
  9
$DIMDLE
 40
0.0
  9
$DIMEXE
 40
0.18
  9
$DIMTP
 40
0.0
  9
$DIMTM
 40
0.0
  9
$DIMTXT
 40
0.125
  9
$DIMCEN
 40
0.1875
  9
$DIMTSZ
 40
0.125
  9
$DIMTOL
 70
     0
  9
$DIMLIM
 70
     0
  9
$DIMTIH
 70
     0
  9
$DIMTOH
 70
     0
  9
$DIMSE1
 70
     0
  9
$DIMSE2
 70
     0
  9
$DIMTAD
 70
     0
  9
$DIMZIN
 70
     2
  9
$DIMBLK
  1

  9
$DIMASO
 70
     1
  9
$DIMSHO
 70
     1
  9
$DIMPOST
  1

  9
$DIMAPOST
  1

  9
$DIMALT
 70
     0
  9
$DIMALTD
 70
     1
  9
$DIMALTF
 40
25.4
  9
$DIMLFAC
 40
1.0
  9
$DIMTOFL
 70
     0
  9
$DIMTVP
 40
0.0
  9
$DIMTIX
 70
     0
  9
$DIMSOXD
 70
     0
  9
$DIMSAH
 70
     0
  9
$DIMBLK1
  1

  9
$DIMBLK2
  1

  9
$DIMSTYLE
  2
STANDARD
  9
$DIMCLRD
 70
     0
  9
$DIMCLRE
 70
     0
  9
$DIMCLRT
 70
     0
  9
$DIMTFAC
 40
1.0
  9
$DIMGAP
 40
0.125
  9
$DIMJUST
 70
     0
  9
$DIMSD1
 70
     0
  9
$DIMSD2
 70
     0
  9
$DIMTOLJ
 70
     1
  9
$DIMTZIN
 70
     0
  9
$DIMALTZ
 70
     0
  9
$DIMALTTZ
 70
     0
  9
$DIMUPT
 70
     0
  9
$DIMDEC
 70
     2
  9
$DIMTDEC
 70
     4
  9
$DIMALTU
 70
     2
  9
$DIMALTTD
 70
     2
  9
$DIMTXSTY
  7
STANDARD
  9
$DIMAUNIT
 70
     0
  9
$DIMADEC
 70
     0
  9
$DIMALTRND
 40
0.0
  9
$DIMAZIN
 70
     0
  9
$DIMDSEP
 70
    46
  9
$DIMATFIT
 70
     3
  9
$DIMFRAC
 70
     2
  9
$DIMLDRBLK
  1

  9
$DIMLUNIT
 70
     5
  9
$DIMLWD
 70
    -2
  9
$DIMLWE
 70
    -2
  9
$DIMTMOVE
 70
     0
  9
$LUNITS
 70
     5
  9
$LUPREC
 70
     5
  9
$SKETCHINC
 40
0.1
  9
$FILLETRAD
 40
0.0
  9
$AUNITS
 70
     0
  9
$AUPREC
 70
     0
  9
$MENU
  1
acad
  9
$ELEVATION
 40
0.0
  9
$PELEVATION
 40
0.0
  9
$THICKNESS
 40
0.0
  9
$LIMCHECK
 70
     0
  9
$CHAMFERA
 40
0.0
  9
$CHAMFERB
 40
0.0
  9
$CHAMFERC
 40
0.0
  9
$CHAMFERD
 40
0.0
  9
$SKPOLY
 70
     0
  9
$TDCREATE
 40
2450366.651843171
  9
$TDUCREATE
 40
2450366.818509838
  9
$TDUPDATE
 40
2453964.014293183
  9
$TDUUPDATE
 40
2453964.180959850
  9
$TDINDWG
 40
0.0901756481
  9
$TDUSRTIMER
 40
0.0901756481
  9
$USRTIMER
 70
     1
  9
$ANGBASE
 50
0.0
  9
$ANGDIR
 70
     0
  9
$PDMODE
 70
     0
  9
$PDSIZE
 40
0.0
  9
$PLINEWID
 40
0.0
  9
$SPLFRAME
 70
     0
  9
$SPLINETYPE
 70
     6
  9
$SPLINESEGS
 70
     8
  9
$HANDSEED
  5
312
  9
$SURFTAB1
 70
     6
  9
$SURFTAB2
 70
     6
  9
$SURFTYPE
 70
     6
  9
$SURFU
 70
     6
  9
$SURFV
 70
     6
  9
$UCSBASE
  2

  9
$UCSNAME
  2

  9
$UCSORG
 10
0.0
 20
0.0
 30
0.0
  9
$UCSXDIR
 10
1.0
 20
0.0
 30
0.0
  9
$UCSYDIR
 10
0.0
 20
1.0
 30
0.0
  9
$UCSORTHOREF
  2

  9
$UCSORTHOVIEW
 70
     0
  9
$UCSORGTOP
 10
0.0
 20
0.0
 30
0.0
  9
$UCSORGBOTTOM
 10
0.0
 20
0.0
 30
0.0
  9
$UCSORGLEFT
 10
0.0
 20
0.0
 30
0.0
  9
$UCSORGRIGHT
 10
0.0
 20
0.0
 30
0.0
  9
$UCSORGFRONT
 10
0.0
 20
0.0
 30
0.0
  9
$UCSORGBACK
 10
0.0
 20
0.0
 30
0.0
  9
$PUCSBASE
  2

  9
$PUCSNAME
  2

  9
$PUCSORG
 10
0.0
 20
0.0
 30
0.0
  9
$PUCSXDIR
 10
1.0
 20
0.0
 30
0.0
  9
$PUCSYDIR
 10
0.0
 20
1.0
 30
0.0
  9
$PUCSORTHOREF
  2

  9
$PUCSORTHOVIEW
 70
     0
  9
$PUCSORGTOP
 10
0.0
 20
0.0
 30
0.0
  9
$PUCSORGBOTTOM
 10
0.0
 20
0.0
 30
0.0
  9
$PUCSORGLEFT
 10
0.0
 20
0.0
 30
0.0
  9
$PUCSORGRIGHT
 10
0.0
 20
0.0
 30
0.0
  9
$PUCSORGFRONT
 10
0.0
 20
0.0
 30
0.0
  9
$PUCSORGBACK
 10
0.0
 20
0.0
 30
0.0
  9
$USERI1
 70
     0
  9
$USERI2
 70
     0
  9
$USERI3
 70
     0
  9
$USERI4
 70
     0
  9
$USERI5
 70
     0
  9
$USERR1
 40
0.0
  9
$USERR2
 40
0.0
  9
$USERR3
 40
0.0
  9
$USERR4
 40
0.0
  9
$USERR5
 40
0.0
  9
$WORLDVIEW
 70
     1
  9
$SHADEDGE
 70
     3
  9
$SHADEDIF
 70
    70
  9
$TILEMODE
 70
     1
  9
$MAXACTVP
 70
    15
  9
$PINSBASE
 10
0.1250013113021854
 20
0.0
 30
0.0
  9
$PLIMCHECK
 70
     0
  9
$PEXTMIN
 10
1.000000000000000E+20
 20
1.000000000000000E+20
 30
1.000000000000000E+20
  9
$PEXTMAX
 10
-1.000000000000000E+20
 20
-1.000000000000000E+20
 30
-1.000000000000000E+20
  9
$PLIMMIN
 10
0.0
 20
0.0
  9
$PLIMMAX
 10
12.0
 20
9.0
  9
$UNITMODE
 70
     0
  9
$VISRETAIN
 70
     0
  9
$PLINEGEN
 70
     0
  9
$PSLTSCALE
 70
     1
  9
$TREEDEPTH
 70
  3020
  9
$CMLSTYLE
  2
STANDARD
  9
$CMLJUST
 70
     0
  9
$CMLSCALE
 40
1.0
  9
$PROXYGRAPHICS
 70
     1
  9
$MEASUREMENT
 70
     0
  9
$CELWEIGHT
370
    -1
  9
$ENDCAPS
280
     0
  9
$JOINSTYLE
280
     0
  9
$LWDISPLAY
290
     0
  9
$INSUNITS
 70
     0
  9
$HYPERLINKBASE
  1

  9
$STYLESHEET
  1

  9
$XEDIT
290
     1
  9
$CEPSNTYPE
380
     0
  9
$PSTYLEMODE
290
     1
  9
$FINGERPRINTGUID
  2
{B70B198F-9542-4B76-A007-DBABFEA930E8}
  9
$VERSIONGUID
  2
{F67BC3B2-6EDA-4568-ADC4-8AAF8CED1913}
  9
$EXTNAMES
290
     1
  9
$PSVPSCALE
 40
0.0
  9
$OLESTARTUP
290
     0
  0
ENDSEC
  0
SECTION
  2
CLASSES
  0
CLASS
  1
ACDBDICTIONARYWDFLT
  2
AcDbDictionaryWithDefault
  3
ObjectDBX Classes
 90
        0
280
     0
281
     0
  0
CLASS
  1
ACDBPLACEHOLDER
  2
AcDbPlaceHolder
  3
ObjectDBX Classes
 90
        0
280
     0
281
     0
  0
CLASS
  1
LAYOUT
  2
AcDbLayout
  3
ObjectDBX Classes
 90
        0
280
     0
281
     0
  0
CLASS
  1
DICTIONARYVAR
  2
AcDbDictionaryVar
  3
ObjectDBX Classes
 90
        0
280
     0
281
     0
  0
CLASS
  1
MATERIAL
  2
AcDbMaterial
  3
ObjectDBX Classes
 90
     1024
280
     0
281
     0
  0
CLASS
  1
VISUALSTYLE
  2
AcDbVisualStyle
  3
ObjectDBX Classes
 90
     4095
280
     0
281
     0
  0
CLASS
  1
TABLESTYLE
  2
AcDbTableStyle
  3
ObjectDBX Classes
 90
     4095
280
     0
281
     0
  0
ENDSEC
  0
SECTION
  2
TABLES
  0
TABLE
  2
VPORT
  5
13
330
0
100
AcDbSymbolTable
 70
     1
  0
VPORT
  5
1D9
330
13
100
AcDbSymbolTableRecord
100
AcDbViewportTableRecord
  2
*Active
 70
     0
 10
0.0
 20
0.0
 11
1.0
 21
1.0
 12
12.22403520379264
 22
13.86760294612696
 13
0.0
 23
0.0
 14
0.5740882589684922
 24
0.5740882589684922
 15
0.5
 25
0.5
 16
0.0
 26
0.0
 36
1.0
 17
0.0
 27
0.0
 37
0.0
 40
3.779529755469972
 41
1.726930320150659
 42
50.0
 43
0.0
 44
0.0
 50
0.0
 51
0.0
 71
     0
 72
   100
 73
     1
 74
     0
 75
     0
 76
     0
 77
     0
 78
     0
281
     0
 65
     1
110
0.0
120
0.0
130
0.0
111
1.0
121
0.0
131
0.0
112
0.0
122
1.0
132
0.0
 79
     0
146
0.0
  0
ENDTAB
  0
TABLE
  2
LTYPE
  5
F
330
0
100
AcDbSymbolTable
 70
     1
  0
LTYPE
  5
10
330
F
100
AcDbSymbolTableRecord
100
AcDbLinetypeTableRecord
  2
BYBLOCK
 70
     0
  3

 72
    65
 73
     0
 40
0.0
  0
LTYPE
  5
6
330
F
100
AcDbSymbolTableRecord
100
AcDbLinetypeTableRecord
  2
BYLAYER
 70
     0
  3

 72
    65
 73
     0
 40
0.0
  0
LTYPE
  5
5
330
F
100
AcDbSymbolTableRecord
100
AcDbLinetypeTableRecord
  2
CONTINUOUS
 70
     0
  3
Solid line
 72
    65
 73
     0
 40
0.0
  0
ENDTAB
  0
TABLE
  2
LAYER
  5
B
330
0
100
AcDbSymbolTable
 70
     4
  0
LAYER
  5
C
330
B
100
AcDbSymbolTableRecord
100
AcDbLayerTableRecord
  2
0
 70
     0
 62
     7
  6
CONTINUOUS
370
    -3
390
75
  0
LAYER
  5
4
330
B
100
AcDbSymbolTableRecord
100
AcDbLayerTableRecord
  2
ADPDIM
 70
     0
 62
     3
  6
CONTINUOUS
370
    -3
390
75
  0
LAYER
  5
2E
330
B
100
AcDbSymbolTableRecord
100
AcDbLayerTableRecord
  2
ADP1DETAIL
 70
     0
 62
     7
  6
CONTINUOUS
370
    -3
390
75
  0
LAYER
  5
28
330
B
100
AcDbSymbolTableRecord
100
AcDbLayerTableRecord
  2
DEFPOINTS
 70
     0
 62
     7
  6
CONTINUOUS
290
     0
370
    -3
390
75
  0
ENDTAB
  0
TABLE
  2
STYLE
  5
D
330
0
100
AcDbSymbolTable
 70
     2
  0
STYLE
  5
E
330
D
100
AcDbSymbolTableRecord
100
AcDbTextStyleTableRecord
  2
STANDARD
 70
     0
 40
0.0
 41
1.0
 50
0.0
 71
     0
 42
0.2
  3
txt
  4

  0
STYLE
  5
7C
330
D
100
AcDbSymbolTableRecord
100
AcDbTextStyleTableRecord
  2
ARIAL_WIDE
 70
     0
 40
0.0
 41
1.25
 50
0.0
 71
     0
 42
0.2
  3
ARIAL.TTF
  4

1001
ACAD
1000
Arial
1071
       34
  0
ENDTAB
  0
TABLE
  2
VIEW
  5
11
330
0
100
AcDbSymbolTable
 70
     0
  0
ENDTAB
  0
TABLE
  2
UCS
  5
12
330
0
100
AcDbSymbolTable
 70
     0
  0
ENDTAB
  0
TABLE
  2
APPID
  5
15
330
0
100
AcDbSymbolTable
 70
     2
  0
APPID
  5
16
330
15
100
AcDbSymbolTableRecord
100
AcDbRegAppTableRecord
  2
ACAD
 70
     0
  0
APPID
  5
245
330
15
100
AcDbSymbolTableRecord
100
AcDbRegAppTableRecord
  2
DCO15
 70
     0
  0
ENDTAB
  0
TABLE
  2
DIMSTYLE
  5
17
330
0
100
AcDbSymbolTable
 70
     1
100
AcDbDimStyleTable
 71
     0
  0
DIMSTYLE
105
1D
102
{ACAD_REACTORS
330
265
330
266
102
}
330
17
100
AcDbSymbolTableRecord
100
AcDbDimStyleTableRecord
  2
STANDARD
 70
     0
340
E
  0
ENDTAB
  0
TABLE
  2
BLOCK_RECORD
  5
1
330
0
100
AcDbSymbolTable
 70
     6
  0
BLOCK_RECORD
  5
2
102
{ACAD_XDICTIONARY
360
DE
102
}
330
1
100
AcDbSymbolTableRecord
100
AcDbBlockTableRecord
  2
*MODEL_SPACE
340
78
  0
BLOCK_RECORD
  5
8
102
{ACAD_XDICTIONARY
360
E0
102
}
330
1
100
AcDbSymbolTableRecord
100
AcDbBlockTableRecord
  2
*PAPER_SPACE
340
79
  0
BLOCK_RECORD
  5
E2
330
1
100
AcDbSymbolTableRecord
100
AcDbBlockTableRecord
  2
*D0
340
0
  0
BLOCK_RECORD
  5
22B
330
1
100
AcDbSymbolTableRecord
100
AcDbBlockTableRecord
  2
*D1
340
0
  0
BLOCK_RECORD
  5
238
330
1
100
AcDbSymbolTableRecord
100
AcDbBlockTableRecord
  2
*D2
340
0
  0
BLOCK_RECORD
  5
27B
330
1
100
AcDbSymbolTableRecord
100
AcDbBlockTableRecord
  2
*D4
340
0
  0
BLOCK_RECORD
  5
288
330
1
100
AcDbSymbolTableRecord
100
AcDbBlockTableRecord
  2
*D5
340
0
  0
ENDTAB
  0
ENDSEC
  0
SECTION
  2
BLOCKS
  0
BLOCK
  5
3
330
2
100
AcDbEntity
  8
0
100
AcDbBlockBegin
  2
*MODEL_SPACE
 70
     0
 10
0.0
 20
0.0
 30
0.0
  3
*MODEL_SPACE
  1

  0
ENDBLK
  5
7
330
2
100
AcDbEntity
  8
0
100
AcDbBlockEnd
  0
BLOCK
  5
9
330
8
100
AcDbEntity
 67
     1
  8
0
100
AcDbBlockBegin
  2
*PAPER_SPACE
 70
     0
 10
0.0
 20
0.0
 30
0.0
  3
*PAPER_SPACE
  1

  0
ENDBLK
  5
A
330
8
100
AcDbEntity
 67
     1
  8
0
100
AcDbBlockEnd
  0
BLOCK
  5
ED
330
E2
100
AcDbEntity
  8
0
100
AcDbBlockBegin
  2
*D0
 70
     1
 10
0.0
 20
0.0
 30
0.0
  3
*D0
  1

  0
LINE
  5
201
330
E2
100
AcDbEntity
  8
ADPDIM
 62
     0
100
AcDbLine
 10
11.44163846281149
 20
14.01051116867829
 30
0.0
 11
11.44163846281149
 21
13.37554408746084
 31
0.0
  0
LINE
  5
202
330
E2
100
AcDbEntity
  8
ADPDIM
 62
     0
100
AcDbLine
 10
13.18632128373991
 20
14.01051116867829
 30
0.0
 11
13.18632128373991
 21
13.37554408746084
 31
0.0
  0
LINE
  5
203
330
E2
100
AcDbEntity
  8
ADPDIM
 62
     0
100
AcDbLine
 10
11.44163846281149
 20
13.55554408746084
 30
0.0
 11
11.91814653994236
 21
13.55554408746084
 31
0.0
  0
LINE
  5
204
330
E2
100
AcDbEntity
  8
ADPDIM
 62
     0
100
AcDbLine
 10
13.18632128373991
 20
13.55554408746084
 30
0.0
 11
12.70981320660903
 21
13.55554408746084
 31
0.0
  0
LINE
  5
205
330
E2
100
AcDbEntity
  8
ADPDIM
 62
     0
100
AcDbLine
 10
13.06132128373991
 20
13.43054408746084
 30
0.0
 11
13.31132128373991
 21
13.68054408746084
 31
0.0
  0
LINE
  5
206
330
E2
100
AcDbEntity
  8
ADPDIM
 62
     0
100
AcDbLine
 10
11.31663846281149
 20
13.43054408746084
 30
0.0
 11
11.56663846281149
 21
13.68054408746084
 31
0.0
  0
MTEXT
  5
207
330
E2
100
AcDbEntity
  8
ADPDIM
 62
     0
100
AcDbMText
 10
12.3139798732757
 20
13.55554408746084
 30
0.0
 40
0.125
 41
0.0
 71
     5
 72
     1
  1
\A1;1 3/4
 73
     1
 44
1.0
1001
ACAD
1000
MTEXTBEGIN
1070
    73
1070
     1
1070
    44
1040
1.0
1070
    74
1070
     0
1000
MTEXTEND
  0
POINT
  5
208
330
E2
100
AcDbEntity
  8
DEFPOINTS
 62
     0
100
AcDbPoint
 10
11.44163846281149
 20
14.07301116867829
 30
0.0
  0
POINT
  5
209
330
E2
100
AcDbEntity
  8
DEFPOINTS
 62
     0
100
AcDbPoint
 10
13.18632128373991
 20
14.07301116867829
 30
0.0
  0
POINT
  5
20A
330
E2
100
AcDbEntity
  8
DEFPOINTS
 62
     0
100
AcDbPoint
 10
13.18632128373991
 20
13.55554408746084
 30
0.0
  0
ENDBLK
  5
EE
330
E2
100
AcDbEntity
  8
0
100
AcDbBlockEnd
  0
BLOCK
  5
22C
330
22B
100
AcDbEntity
  8
0
100
AcDbBlockBegin
  2
*D1
 70
     1
 10
0.0
 20
0.0
 30
0.0
  3
*D1
  1

  0
LINE
  5
22D
330
22B
100
AcDbEntity
  8
0
  6
ByBlock
 62
     0
100
AcDbLine
 10
11.76834916314827
 20
12.704990013524
 30
0.0
 11
11.76834916314827
 21
12.21792406883407
 31
0.0
  0
LINE
  5
22E
330
22B
100
AcDbEntity
  8
0
  6
ByBlock
 62
     0
100
AcDbLine
 10
12.85961058340313
 20
12.704990013524
 30
0.0
 11
12.85961058340313
 21
12.21792406883407
 31
0.0
  0
LINE
  5
22F
330
22B
100
AcDbEntity
  8
0
  6
ByBlock
 62
     0
100
AcDbLine
 10
11.76834916314827
 20
12.39792406883407
 30
0.0
 11
11.51834916314826
 21
12.39792406883407
 31
0.0
  0
LINE
  5
230
330
22B
100
AcDbEntity
  8
0
  6
ByBlock
 62
     0
100
AcDbLine
 10
12.85961058340313
 20
12.39792406883407
 30
0.0
 11
13.10961058340313
 21
12.39792406883407
 31
0.0
  0
LINE
  5
231
330
22B
100
AcDbEntity
  8
0
  6
ByBlock
 62
     0
100
AcDbLine
 10
11.64334916314826
 20
12.27292406883407
 30
0.0
 11
11.89334916314827
 21
12.52292406883407
 31
0.0
  0
LINE
  5
232
330
22B
100
AcDbEntity
  8
0
  6
ByBlock
 62
     0
100
AcDbLine
 10
12.73461058340313
 20
12.27292406883407
 30
0.0
 11
12.98461058340313
 21
12.52292406883407
 31
0.0
  0
TEXT
  5
233
330
22B
100
AcDbEntity
  8
0
  6
ByBlock
 62
     0
100
AcDbText
 10
13.23461058340313
 20
12.33542406883407
 30
0.0
 40
0.125
  1
1 1/16
 72
     1
 11
13.5262772500698
 21
12.39792406883407
 31
0.0
100
AcDbText
 73
     2
  0
POINT
  5
234
330
22B
100
AcDbEntity
  8
DEFPOINTS
  6
ByBlock
 62
     0
100
AcDbPoint
 10
11.76834916314827
 20
12.767490013524
 30
0.0
  0
POINT
  5
235
330
22B
100
AcDbEntity
  8
DEFPOINTS
  6
ByBlock
 62
     0
100
AcDbPoint
 10
12.85961058340313
 20
12.767490013524
 30
0.0
  0
POINT
  5
236
330
22B
100
AcDbEntity
  8
DEFPOINTS
  6
ByBlock
 62
     0
100
AcDbPoint
 10
12.85961058340313
 20
12.39792406883407
 30
0.0
  0
ENDBLK
  5
237
330
22B
100
AcDbEntity
  8
0
100
AcDbBlockEnd
  0
BLOCK
  5
239
330
238
100
AcDbEntity
  8
0
100
AcDbBlockBegin
  2
*D2
 70
     1
 10
0.0
 20
0.0
 30
0.0
  3
*D2
  1

  0
LINE
  5
23A
330
238
100
AcDbEntity
  8
0
  6
ByBlock
 62
     0
100
AcDbLine
 10
11.44163846281149
 20
12.91813332231261
 30
0.0
 11
11.44163846281149
 21
13.54046761781161
 31
0.0
  0
LINE
  5
23B
330
238
100
AcDbEntity
  8
0
  6
ByBlock
 62
     0
100
AcDbLine
 10
13.18632128373991
 20
12.91813332231261
 30
0.0
 11
13.18632128373991
 21
13.54046761781161
 31
0.0
  0
LINE
  5
23C
330
238
100
AcDbEntity
  8
0
  6
ByBlock
 62
     0
100
AcDbLine
 10
11.44163846281149
 20
13.36046761781161
 30
0.0
 11
11.91814653994236
 21
13.36046761781161
 31
0.0
  0
LINE
  5
23D
330
238
100
AcDbEntity
  8
0
  6
ByBlock
 62
     0
100
AcDbLine
 10
13.18632128373991
 20
13.36046761781161
 30
0.0
 11
12.70981320660903
 21
13.36046761781161
 31
0.0
  0
LINE
  5
23E
330
238
100
AcDbEntity
  8
0
  6
ByBlock
 62
     0
100
AcDbLine
 10
11.31663846281149
 20
13.23546761781161
 30
0.0
 11
11.56663846281149
 21
13.48546761781161
 31
0.0
  0
LINE
  5
23F
330
238
100
AcDbEntity
  8
0
  6
ByBlock
 62
     0
100
AcDbLine
 10
13.06132128373991
 20
13.23546761781161
 30
0.0
 11
13.31132128373991
 21
13.48546761781161
 31
0.0
  0
TEXT
  5
240
330
238
100
AcDbEntity
  8
0
  6
ByBlock
 62
     0
100
AcDbText
 10
12.04314653994236
 20
13.29796761781161
 30
0.0
 40
0.125
  1
1 3/4
 72
     1
 11
12.3139798732757
 21
13.36046761781161
 31
0.0
100
AcDbText
 73
     2
  0
POINT
  5
241
330
238
100
AcDbEntity
  8
DEFPOINTS
  6
ByBlock
 62
     0
100
AcDbPoint
 10
11.44163846281149
 20
12.85563332231261
 30
0.0
  0
POINT
  5
242
330
238
100
AcDbEntity
  8
DEFPOINTS
  6
ByBlock
 62
     0
100
AcDbPoint
 10
13.18632128373991
 20
12.85563332231261
 30
0.0
  0
POINT
  5
243
330
238
100
AcDbEntity
  8
DEFPOINTS
  6
ByBlock
 62
     0
100
AcDbPoint
 10
13.18632128373991
 20
13.36046761781161
 30
0.0
  0
ENDBLK
  5
244
330
238
100
AcDbEntity
  8
0
100
AcDbBlockEnd
  0
BLOCK
  5
286
330
27B
100
AcDbEntity
  8
0
100
AcDbBlockBegin
  2
*D4
 70
     1
 10
0.0
 20
0.0
 30
0.0
  3
*D4
  1

  0
LINE
  5
2D1
330
27B
100
AcDbEntity
  8
ADPDIM
 62
     0
370
    -2
100
AcDbLine
 10
11.76922025551633
 20
13.87512329496826
 30
0.0
 11
11.76922025551633
 21
13.38805735027833
 31
0.0
  0
LINE
  5
2D2
330
27B
100
AcDbEntity
  8
ADPDIM
 62
     0
370
    -2
100
AcDbLine
 10
12.86048167577119
 20
13.87512329496826
 30
0.0
 11
12.86048167577119
 21
13.38805735027833
 31
0.0
  0
LINE
  5
2D3
330
27B
100
AcDbEntity
  8
ADPDIM
 62
     0
370
    -2
100
AcDbLine
 10
11.58922025551633
 20
13.56805735027833
 30
0.0
 11
11.40922025551633
 21
13.56805735027833
 31
0.0
  0
LINE
  5
2D4
330
27B
100
AcDbEntity
  8
ADPDIM
 62
     0
370
    -2
100
AcDbLine
 10
13.04048167577119
 20
13.56805735027833
 30
0.0
 11
13.22048167577119
 21
13.56805735027833
 31
0.0
  0
SOLID
  5
2D5
330
27B
100
AcDbEntity
  8
ADPDIM
 62
     0
100
AcDbTrace
 10
11.58922025551633
 20
13.59805735027833
 30
0.0
 11
11.58922025551633
 21
13.53805735027833
 31
0.0
 12
11.76922025551633
 22
13.56805735027833
 32
0.0
 13
11.76922025551633
 23
13.56805735027833
 33
0.0
  0
SOLID
  5
2D6
330
27B
100
AcDbEntity
  8
ADPDIM
 62
     0
100
AcDbTrace
 10
13.04048167577119
 20
13.59805735027833
 30
0.0
 11
13.04048167577119
 21
13.53805735027833
 31
0.0
 12
12.86048167577119
 22
13.56805735027833
 32
0.0
 13
12.86048167577119
 23
13.56805735027833
 33
0.0
  0
MTEXT
  5
2D7
330
27B
100
AcDbEntity
  8
ADPDIM
 62
     0
100
AcDbMText
 10
12.31485096564376
 20
13.56805735027833
 30
0.0
 40
0.125
 41
0.0
 71
     5
 72
     1
  1
\A1;1 1/16
 73
     1
 44
1.0
1001
ACAD
1000
MTEXTBEGIN
1070
    73
1070
     1
1070
    44
1040
1.0
1070
    74
1070
     0
1000
MTEXTEND
  0
POINT
  5
2D8
330
27B
100
AcDbEntity
  8
DEFPOINTS
 62
     0
100
AcDbPoint
 10
11.76922025551633
 20
13.93762329496826
 30
0.0
  0
POINT
  5
2D9
330
27B
100
AcDbEntity
  8
DEFPOINTS
 62
     0
100
AcDbPoint
 10
12.86048167577119
 20
13.93762329496826
 30
0.0
  0
POINT
  5
2DA
330
27B
100
AcDbEntity
  8
DEFPOINTS
 62
     0
100
AcDbPoint
 10
12.86048167577119
 20
13.56805735027833
 30
0.0
  0
ENDBLK
  5
287
330
27B
100
AcDbEntity
  8
0
100
AcDbBlockEnd
  0
BLOCK
  5
293
330
288
100
AcDbEntity
  8
0
100
AcDbBlockBegin
  2
*D5
 70
     1
 10
0.0
 20
0.0
 30
0.0
  3
*D5
  1

  0
LINE
  5
2DB
330
288
100
AcDbEntity
  8
ADPDIM
 62
     0
370
    -2
100
AcDbLine
 10
11.44250955517955
 20
14.08826660375687
 30
0.0
 11
11.44250955517955
 21
14.71060089925587
 31
0.0
  0
LINE
  5
2DC
330
288
100
AcDbEntity
  8
ADPDIM
 62
     0
370
    -2
100
AcDbLine
 10
13.18719237610797
 20
14.08826660375687
 30
0.0
 11
13.18719237610797
 21
14.71060089925587
 31
0.0
  0
LINE
  5
2DD
330
288
100
AcDbEntity
  8
ADPDIM
 62
     0
370
    -2
100
AcDbLine
 10
11.62250955517955
 20
14.53060089925587
 30
0.0
 11
11.95401763231043
 21
14.53060089925587
 31
0.0
  0
LINE
  5
2DE
330
288
100
AcDbEntity
  8
ADPDIM
 62
     0
370
    -2
100
AcDbLine
 10
13.00719237610797
 20
14.53060089925587
 30
0.0
 11
12.67568429897709
 21
14.53060089925587
 31
0.0
  0
SOLID
  5
2DF
330
288
100
AcDbEntity
  8
ADPDIM
 62
     0
100
AcDbTrace
 10
11.62250955517955
 20
14.56060089925587
 30
0.0
 11
11.62250955517955
 21
14.50060089925587
 31
0.0
 12
11.44250955517955
 22
14.53060089925587
 32
0.0
 13
11.44250955517955
 23
14.53060089925587
 33
0.0
  0
SOLID
  5
2E0
330
288
100
AcDbEntity
  8
ADPDIM
 62
     0
100
AcDbTrace
 10
13.00719237610797
 20
14.56060089925587
 30
0.0
 11
13.00719237610797
 21
14.50060089925587
 31
0.0
 12
13.18719237610797
 22
14.53060089925587
 32
0.0
 13
13.18719237610797
 23
14.53060089925587
 33
0.0
  0
MTEXT
  5
2E1
330
288
100
AcDbEntity
  8
ADPDIM
 62
     0
100
AcDbMText
 10
12.31485096564376
 20
14.53060089925587
 30
0.0
 40
0.125
 41
0.0
 71
     5
 72
     1
  1
\A1;1 3/4
 73
     1
 44
1.0
1001
ACAD
1000
MTEXTBEGIN
1070
    73
1070
     1
1070
    44
1040
1.0
1070
    74
1070
     0
1000
MTEXTEND
  0
POINT
  5
2E2
330
288
100
AcDbEntity
  8
DEFPOINTS
 62
     0
100
AcDbPoint
 10
11.44250955517955
 20
14.02576660375687
 30
0.0
  0
POINT
  5
2E3
330
288
100
AcDbEntity
  8
DEFPOINTS
 62
     0
100
AcDbPoint
 10
13.18719237610797
 20
14.02576660375687
 30
0.0
  0
POINT
  5
2E4
330
288
100
AcDbEntity
  8
DEFPOINTS
 62
     0
100
AcDbPoint
 10
13.18719237610797
 20
14.53060089925587
 30
0.0
  0
ENDBLK
  5
294
330
288
100
AcDbEntity
  8
0
100
AcDbBlockEnd
  0
ENDSEC
  0
SECTION
  2
ENTITIES
  0
LINE
  5
2D
330
2
100
AcDbEntity
  8
ADP1DETAIL
100
AcDbLine
 10
13.1842630376796
 20
13.27760973831525
 30
0.0
 11
11.4342630376796
 21
13.27760973831525
 31
0.0
  0
ARC
  5
2F
330
2
100
AcDbEntity
  8
ADP1DETAIL
100
AcDbCircle
 10
16.1842630376796
 20
10.27760973831525
 30
0.0
 40
1.75
100
AcDbArc
 50
44.02198612337294
 51
270.3060516481223
  0
LWPOLYLINE
  5
30
330
2
100
AcDbEntity
  8
ADP1DETAIL
100
AcDbPolyline
 90
        2
 70
     0
 43
0.0
 10
15.83980766838356
 20
8.110588067675465
 42
0.264265327080432
 10
16.83151916989018
 20
8.924443266917219
 42
0.6716262045361308
  0
LWPOLYLINE
  5
34
330
2
100
AcDbEntity
  8
ADP1DETAIL
100
AcDbPolyline
 90
        2
 70
     0
 43
0.0
 10
15.74656478366099
 20
8.359558921848559
 42
0.1167390679376886
 10
16.19361080887302
 20
8.527634704443709
 42
0.6716262045361308
  0
LWPOLYLINE
  5
38
330
2
100
AcDbEntity
  8
ADP1DETAIL
100
AcDbPolyline
 90
        2
 70
     0
 43
0.0
 10
16.29031029677314
 20
6.977192520035423
 42
0.5841679866174565
 10
17.35760116772519
 20
11.21210298739795
  0
LWPOLYLINE
  5
3C
330
2
100
AcDbEntity
  8
ADP1DETAIL
100
AcDbPolyline
 90
        3
 70
     0
 43
0.0
 10
11.69998230186795
 20
10.7690077374857
 42
0.2343154439444634
 10
13.2680172130526
 20
7.331543443715411
 42
0.2438785361379147
 10
16.26708851400405
 20
6.969691607613654
 42
0.2438785361379147
  0
LWPOLYLINE
  5
41
330
2
100
AcDbEntity
  8
ADP1DETAIL
100
AcDbPolyline
 90
        3
 70
     0
 43
0.0
 10
12.91762751134272
 20
10.72958949984306
 42
0.2297262298062948
 10
13.99571498934141
 20
8.310616713195361
 42
0.2375167893914564
 10
15.83980766838356
 20
8.110588067675465
 42
0.2375167893914564
  0
LINE
  5
46
330
2
100
AcDbEntity
  8
ADP1DETAIL
100
AcDbLine
 10
12.91840457575095
 20
13.27760973831525
 30
0.0
 11
12.91762751134272
 21
10.72958949984306
 31
0.0
  0
LINE
  5
47
330
2
100
AcDbEntity
  8
ADP1DETAIL
100
AcDbLine
 10
11.69998230186795
 20
10.7690077374857
 30
0.0
 11
11.70012149960826
 21
13.27760973831525
 31
0.0
  0
LWPOLYLINE
  5
48
330
2
100
AcDbEntity
  8
ADP1DETAIL
100
AcDbPolyline
 90
        3
 70
     0
 43
0.0
 10
13.18334677553107
 20
10.72098749901351
 42
0.2281200318626575
 10
14.15407686574207
 20
8.524895221619473
 42
0.2350907192403398
 10
15.74656478366099
 20
8.359558921848559
 42
0.2350907192403398
  0
LWPOLYLINE
  5
4D
330
2
100
AcDbEntity
  8
ADP1DETAIL
100
AcDbPolyline
 90
        2
 70
     0
 43
0.0
 10
16.36033139872662
 20
6.720720753440559
 42
0.600306747330813
 10
17.44264111310815
 20
11.4937448538681
  0
LWPOLYLINE
  5
51
330
2
100
AcDbEntity
  8
ADP1DETAIL
100
AcDbPolyline
 90
        3
 70
     0
 43
0.0
 10
11.4342630376796
 20
10.77760973831525
 42
0.2349649103620299
 10
13.10897184375331
 20
7.118231971595832
 42
0.2447167611231338
 10
16.36033139872662
 20
6.720720753440559
  0
ARC
  5
56
330
2
100
AcDbEntity
  8
ADP1DETAIL
100
AcDbCircle
 10
16.1842630376796
 20
10.27760973831525
 30
0.0
 40
1.5
100
AcDbArc
 50
38.5352132082135
 51
295.5630512821183
  0
LINE
  5
57
330
2
100
AcDbEntity
  8
ADP1DETAIL
100
AcDbLine
 10
11.4342630376796
 20
10.6146087200822
 30
0.0
 11
11.4342630376796
 21
13.27760973831525
 31
0.0
  0
LINE
  5
58
330
2
100
AcDbEntity
  8
ADP1DETAIL
100
AcDbLine
 10
13.1842630376796
 20
13.27760973831525
 30
0.0
 11
13.18334677553107
 21
10.72098749901351
 31
0.0
  0
TEXT
  5
7D
330
2
100
AcDbEntity
  8
ADPDIM
100
AcDbText
 10
5.906093875492127
 20
5.928674581685604
 30
0.0
 40
0.15625
  1
J U L I U S  B L U M  &  C O . ,  I N C .      ( 8 0 0 )  5 2 6 - 6 2 9 3        W W W . J U L I U S B L U M . C O M        P A R T  N o .  4 4 2 9 - S R
 41
1.25
  7
ARIAL_WIDE
 72
     1
 11
14.41191328204055
 21
6.084924581685604
 31
0.0
100
AcDbText
 73
     3
  0
ARC
  5
263
330
2
100
AcDbEntity
  8
ADP1DETAIL
100
AcDbCircle
 10
12.31485096564376
 20
13.93762329496826
 30
0.0
 40
0.40625
100
AcDbArc
 50
54.7034709189056
 51
90.0
  0
ARC
  5
264
330
2
100
AcDbEntity
  8
ADP1DETAIL
100
AcDbCircle
 10
12.31485096564376
 20
13.71887329496826
 30
0.0
 40
0.40625
100
AcDbArc
 50
32.57221494780888
 51
90.03299209357448
  0
DIMENSION
  5
265
330
2
100
AcDbEntity
  8
ADPDIM
100
AcDbDimension
  2
*D4
 10
12.86048167577119
 20
13.56805735027833
 30
0.0
 11
12.31485096564376
 21
13.56805735027833
 31
0.0
 70
    32
 71
     5
 42
1.091261420254866
  3
STANDARD
100
AcDbAlignedDimension
 13
11.76922025551633
 23
13.93762329496826
 33
0.0
 14
12.86048167577119
 24
13.93762329496826
 34
0.0
100
AcDbRotatedDimension
1001
ACAD
1000
DSTYLE
1002
{
1070
   140
1040
0.125
1070
   276
1070
     2
1070
   277
1070
     5
1002
}
  0
DIMENSION
  5
266
330
2
100
AcDbEntity
  8
ADPDIM
100
AcDbDimension
  2
*D5
 10
13.18719237610797
 20
14.53060089925587
 30
0.0
 11
12.31485096564376
 21
14.53060089925587
 31
0.0
 70
    32
 71
     5
 42
1.744682820928417
  3
STANDARD
100
AcDbAlignedDimension
 13
11.44250955517955
 23
14.02576660375687
 33
0.0
 14
13.18719237610797
 24
14.02576660375687
 34
0.0
100
AcDbRotatedDimension
1001
ACAD
1000
DSTYLE
1002
{
1070
   140
1040
0.125
1070
   276
1070
     2
1070
   277
1070
     5
1002
}
  0
LINE
  5
267
330
2
100
AcDbEntity
  8
ADP1DETAIL
100
AcDbLine
 10
11.56485096564376
 20
14.12522086814479
 30
0.0
 11
11.70449734663281
 21
14.12522086814479
 31
0.0
  0
LINE
  5
268
330
2
100
AcDbEntity
  8
ADP1DETAIL
100
AcDbLine
 10
11.62305594307132
 20
13.75006698678149
 30
0.0
 11
11.74951321140401
 21
13.75012329496826
 31
0.0
  0
ARC
  5
269
330
2
100
AcDbEntity
  8
ADP1DETAIL
100
AcDbCircle
 10
11.38574017093415
 20
13.67144622428877
 30
0.0
 40
0.2500000000000005
100
AcDbArc
 50
18.32960882129966
 51
58.95842546434901
  0
ARC
  5
26A
330
2
100
AcDbEntity
  8
ADP1DETAIL
100
AcDbCircle
 10
11.56485096564376
 20
14.00012329496826
 30
0.0
 40
0.125
100
AcDbArc
 50
90.0
 51
246.3238531733126
  0
ARC
  5
26B
330
2
100
AcDbEntity
  8
ADP1DETAIL
100
AcDbCircle
 10
11.7696324866188
 20
14.8169460883512
 30
0.0
 40
0.6296294546398661
100
AcDbArc
 50
270.9972411168814
 51
299.5459647873847
  0
ARC
  5
26C
330
2
100
AcDbEntity
  8
ADP1DETAIL
100
AcDbCircle
 10
12.31485096564376
 20
13.71887329496826
 30
0.0
 40
0.40625
100
AcDbArc
 50
89.96700790642551
 51
147.427785052191
  0
LINE
  5
26D
330
2
100
AcDbEntity
  8
ADP1DETAIL
100
AcDbLine
 10
11.9724985779168
 20
13.93758293151326
 30
0.0
 11
11.76922025551633
 21
13.93762329496826
 31
0.0
  0
LINE
  5
26E
330
2
100
AcDbEntity
  8
ADP1DETAIL
100
AcDbLine
 10
11.76922025551633
 20
13.93762329496826
 30
0.0
 11
11.74951321140401
 21
13.75012329496826
 31
0.0
  0
LINE
  5
26F
330
2
100
AcDbEntity
  8
ADP1DETAIL
100
AcDbLine
 10
11.70449734663281
 20
14.12522086814479
 30
0.0
 11
11.72121802650591
 21
14.18762329496826
 31
0.0
  0
LINE
  5
270
330
2
100
AcDbEntity
  8
ADP1DETAIL
100
AcDbLine
 10
11.72110096564376
 20
14.18762329496826
 30
0.0
 11
11.78059072270893
 21
14.1874120009406
 31
0.0
  0
ARC
  5
271
330
2
100
AcDbEntity
  8
ADP1DETAIL
100
AcDbCircle
 10
12.31485096564376
 20
13.93762329496826
 30
0.0
 40
0.40625
100
AcDbArc
 50
90.0
 51
125.2965290810943
  0
ARC
  5
272
330
2
100
AcDbEntity
  8
ADP1DETAIL
100
AcDbCircle
 10
13.06485096564376
 20
14.00012329496826
 30
0.0
 40
0.125
100
AcDbArc
 50
293.6761468266874
 51
90.0
  0
ARC
  5
273
330
2
100
AcDbEntity
  8
ADP1DETAIL
100
AcDbCircle
 10
13.24396176035337
 20
13.67144622428877
 30
0.0
 40
0.2500000000000005
100
AcDbArc
 50
121.0415745356509
 51
161.6703911787003
  0
ARC
  5
274
330
2
100
AcDbEntity
  8
ADP1DETAIL
100
AcDbCircle
 10
12.86006944466872
 20
14.8169460883512
 30
0.0
 40
0.6296294546398661
100
AcDbArc
 50
240.4540352126153
 51
269.0027588831186
  0
LINE
  5
275
330
2
100
AcDbEntity
  8
ADP1DETAIL
100
AcDbLine
 10
12.65720335337072
 20
13.93758293151326
 30
0.0
 11
12.86048167577119
 21
13.93762329496826
 31
0.0
  0
LINE
  5
276
330
2
100
AcDbEntity
  8
ADP1DETAIL
100
AcDbLine
 10
12.86048167577119
 20
13.93762329496826
 30
0.0
 11
12.88018871988351
 21
13.75012329496826
 31
0.0
  0
LINE
  5
277
330
2
100
AcDbEntity
  8
ADP1DETAIL
100
AcDbLine
 10
12.92520458465471
 20
14.12522086814479
 30
0.0
 11
12.90848390478162
 21
14.18762329496826
 31
0.0
  0
LINE
  5
278
330
2
100
AcDbEntity
  8
ADP1DETAIL
100
AcDbLine
 10
12.90860096564376
 20
14.18762329496826
 30
0.0
 11
12.84911120857859
 21
14.1874120009406
 31
0.0
  0
LINE
  5
279
330
2
100
AcDbEntity
  8
ADP1DETAIL
100
AcDbLine
 10
13.0066459882162
 20
13.75006698678149
 30
0.0
 11
12.88018871988351
 21
13.75012329496826
 31
0.0
  0
LINE
  5
27A
330
2
100
AcDbEntity
  8
ADP1DETAIL
100
AcDbLine
 10
13.06485096564376
 20
14.12522086814479
 30
0.0
 11
12.92520458465471
 21
14.12522086814479
 31
0.0
  0
ENDSEC
  0
SECTION
  2
OBJECTS
  0
DICTIONARY
  5
1B
330
0
100
AcDbDictionary
281
     1
  3
ACAD_COLOR
350
225
  3
ACAD_GROUP
350
19
  3
ACAD_LAYOUT
350
76
  3
ACAD_MATERIAL
350
210
  3
ACAD_MLINESTYLE
350
1A
  3
ACAD_PLOTSETTINGS
350
77
  3
ACAD_PLOTSTYLENAME
350
74
  3
ACAD_TABLESTYLE
350
226
  3
ACAD_VISUALSTYLE
350
214
  3
AcDbVariableDictionary
350
F3
  3
ASE_INDEX_DICTIONARY
350
2E6
  3
DWGPROPS
350
305
  0
DICTIONARY
  5
DE
330
2
100
AcDbDictionary
280
     1
281
     1
  3
ACAD_LAYOUTSELFREF
360
1FD
  0
DICTIONARY
  5
E0
330
8
100
AcDbDictionary
280
     1
281
     1
  3
ACAD_LAYOUTSELFREF
360
1FE
  0
DICTIONARY
  5
225
102
{ACAD_REACTORS
330
1B
102
}
330
1B
100
AcDbDictionary
281
     1
  0
DICTIONARY
  5
19
102
{ACAD_REACTORS
330
1B
102
}
330
1B
100
AcDbDictionary
281
     1
  0
DICTIONARY
  5
76
102
{ACAD_REACTORS
330
1B
102
}
330
1B
100
AcDbDictionary
281
     1
  3
Layout1
350
79
  3
Model
350
78
  0
DICTIONARY
  5
210
102
{ACAD_REACTORS
330
1B
102
}
330
1B
100
AcDbDictionary
281
     1
  3
ByBlock
350
212
  3
ByLayer
350
211
  3
Global
350
213
  0
DICTIONARY
  5
1A
102
{ACAD_REACTORS
330
1B
102
}
330
1B
100
AcDbDictionary
281
     1
  3
STANDARD
350
1C
  0
DICTIONARY
  5
77
102
{ACAD_REACTORS
330
1B
102
}
330
1B
100
AcDbDictionary
281
     1
  0
ACDBDICTIONARYWDFLT
  5
74
102
{ACAD_REACTORS
330
1B
102
}
330
1B
100
AcDbDictionary
281
     1
  3
Normal
350
75
100
AcDbDictionaryWithDefault
340
75
  0
DICTIONARY
  5
226
102
{ACAD_REACTORS
330
1B
102
}
330
1B
100
AcDbDictionary
281
     1
  3
Standard
350
227
  0
DICTIONARY
  5
214
102
{ACAD_REACTORS
330
1B
102
}
330
1B
100
AcDbDictionary
281
     1
  3
2dWireframe
350
21A
  3
3D Hidden
350
21C
  3
3dWireframe
350
21B
  3
Basic
350
219
  3
Brighten
350
220
  3
ColorChange
350
224
  3
Conceptual
350
21D
  3
Dim
350
21F
  3
Facepattern
350
223
  3
Flat
350
215
  3
FlatWithEdges
350
216
  3
Gouraud
350
217
  3
GouraudWithEdges
350
218
  3
Linepattern
350
222
  3
Realistic
350
21E
  3
Thicken
350
221
  0
DICTIONARY
  5
F3
102
{ACAD_REACTORS
330
1B
102
}
330
1B
100
AcDbDictionary
281
     1
  3
CTABLESTYLE
350
302
  3
DIMASSOC
350
F4
  3
INDEXCTL
350
304
  3
SORTENTS
350
303
  0
DICTIONARY
  5
2E6
102
{ACAD_REACTORS
330
1B
102
}
330
1B
100
AcDbDictionary
281
     1
  3
ASEBlockHierarchyIndexRecord
350
2E7
1001
DCO15
1040
1569093330.931
  0
XRECORD
  5
305
102
{ACAD_REACTORS
330
1B
102
}
330
1B
100
AcDbXrecord
280
     1
  1
DWGPROPS COOKIE
  2

  3

  4

  6

  7

  8
Yu Hu
  9

300
=
301
=
302
=
303
=
304
=
305
=
306
=
307
=
308
=
309
=
 40
0.0901755324074074
 41
2450366.651843171
 42
2453964.014293183
  1

 90
        0
  0
XRECORD
  5
1FD
102
{ACAD_REACTORS
330
DE
102
}
330
DE
100
AcDbXrecord
280
     1
340
2
  0
XRECORD
  5
1FE
102
{ACAD_REACTORS
330
E0
102
}
330
E0
100
AcDbXrecord
280
     1
340
8
  0
LAYOUT
  5
79
102
{ACAD_XDICTIONARY
360
308
102
}
102
{ACAD_REACTORS
330
76
102
}
330
76
100
AcDbPlotSettings
  1

  2
Fax
  4

  6

 40
0.0
 41
0.0
 42
0.0
 43
0.0
 44
0.0
 45
0.0
 46
0.0
 47
0.0
 48
0.0
 49
0.0
140
0.0
141
0.0
142
1.0
143
1.0
 70
   688
 72
     0
 73
     0
 74
     5
  7
Default R14 pen assignments.ctb
 75
    16
147
1.0
148
0.0
149
0.0
100
AcDbLayout
  1
Layout1
 70
     1
 71
     1
 10
0.0
 20
0.0
 11
12.0
 21
9.0
 12
0.1250013113021854
 22
0.0
 32
0.0
 14
1.000000000000000E+20
 24
1.000000000000000E+20
 34
1.000000000000000E+20
 15
-1.000000000000000E+20
 25
-1.000000000000000E+20
 35
-1.000000000000000E+20
146
0.0
 13
0.0
 23
0.0
 33
0.0
 16
1.0
 26
0.0
 36
0.0
 17
0.0
 27
1.0
 37
0.0
 76
     0
330
8
  0
LAYOUT
  5
78
102
{ACAD_XDICTIONARY
360
306
102
}
102
{ACAD_REACTORS
330
76
102
}
330
76
100
AcDbPlotSettings
  1

  2
Fax
  4

  6

 40
0.0
 41
0.0
 42
0.0
 43
0.0
 44
0.0
 45
0.0
 46
0.0
 47
0.0
 48
0.0
 49
0.0
140
0.0
141
0.0
142
1.0
143
1.0
 70
  1712
 72
     0
 73
     0
 74
     0
  7
Default R14 pen assignments.ctb
 75
     0
147
1.0
148
0.0
149
0.0
100
AcDbLayout
  1
Model
 70
     1
 71
     0
 10
0.0
 20
0.0
 11
12.0
 21
9.0
 12
0.0
 22
0.0
 32
0.0
 14
0.0
 24
0.0
 34
0.0
 15
0.0
 25
0.0
 35
0.0
146
0.0
 13
0.0
 23
0.0
 33
0.0
 16
1.0
 26
0.0
 36
0.0
 17
0.0
 27
1.0
 37
0.0
 76
     0
330
2
331
1D9
  0
MATERIAL
  5
212
102
{ACAD_XDICTIONARY
360
30C
102
}
102
{ACAD_REACTORS
330
210
102
}
330
210
100
AcDbMaterial
  1
ByBlock
  0
MATERIAL
  5
211
102
{ACAD_XDICTIONARY
360
30A
102
}
102
{ACAD_REACTORS
330
210
102
}
330
210
100
AcDbMaterial
  1
ByLayer
  0
MATERIAL
  5
213
102
{ACAD_XDICTIONARY
360
30E
102
}
102
{ACAD_REACTORS
330
210
102
}
330
210
100
AcDbMaterial
  1
Global
  0
MLINESTYLE
  5
1C
102
{ACAD_REACTORS
330
1A
102
}
330
1A
100
AcDbMlineStyle
  2
STANDARD
 70
     0
  3

 62
     0
 51
90.0
 52
90.0
 71
     2
 49
0.5
 62
   256
  6
BYLAYER
 49
-0.5
 62
   256
  6
BYLAYER
  0
ACDBPLACEHOLDER
  5
75
102
{ACAD_REACTORS
330
74
102
}
330
74
  0
TABLESTYLE
  5
227
102
{ACAD_XDICTIONARY
360
310
102
}
102
{ACAD_REACTORS
330
226
102
}
330
226
100
AcDbTableStyle
  3
Standard
 70
     0
 71
     0
 40
0.06
 41
0.06
280
     0
281
     0
  7
STANDARD
140
0.18
170
     2
 62
     0
 63
     7
283
     0
274
    -2
284
     1
 64
     0
275
    -2
285
     1
 65
     0
276
    -2
286
     1
 66
     0
277
    -2
287
     1
 67
     0
278
    -2
288
     1
 68
     0
279
    -2
289
     1
 69
     0
  7
STANDARD
140
0.25
170
     5
 62
     0
 63
     7
283
     0
274
    -2
284
     1
 64
     0
275
    -2
285
     1
 65
     0
276
    -2
286
     1
 66
     0
277
    -2
287
     1
 67
     0
278
    -2
288
     1
 68
     0
279
    -2
289
     1
 69
     0
  7
STANDARD
140
0.18
170
     5
 62
     0
 63
     7
283
     0
274
    -2
284
     1
 64
     0
275
    -2
285
     1
 65
     0
276
    -2
286
     1
 66
     0
277
    -2
287
     1
 67
     0
278
    -2
288
     1
 68
     0
279
    -2
289
     1
 69
     0
  0
VISUALSTYLE
  5
21A
102
{ACAD_REACTORS
330
214
102
}
330
214
100
AcDbVisualStyle
  2
2dWireframe
 70
     4
 71
     0
 72
     2
 73
     0
 90
        0
 40
-0.6
 41
-30.0
 62
     5
 63
     7
 74
     1
 91
        4
 64
     7
 65
   257
 75
     1
175
     1
 42
1.0
 92
        0
 66
   257
 43
1.0
 76
     1
 77
     6
 78
     2
 67
     7
 79
     5
170
     0
171
     0
290
     0
174
     0
 93
        1
 44
0.0
173
     0
291
     0
 45
0.0
1001
ACAD
1000
AcDbSavedByObjectVersion
1070
     0
  0
VISUALSTYLE
  5
21C
102
{ACAD_REACTORS
330
214
102
}
330
214
100
AcDbVisualStyle
  2
3D Hidden
 70
     6
 71
     1
 72
     2
 73
     2
 90
        0
 40
-0.6
 41
-30.0
 62
     5
 63
     7
 74
     2
 91
        2
 64
     7
 65
   257
 75
     2
175
     1
 42
40.0
 92
        0
 66
   257
 43
1.0
 76
     1
 77
     6
 78
     2
 67
     7
 79
     3
170
     0
171
     0
290
     0
174
     0
 93
        1
 44
0.0
173
     0
291
     0
 45
0.0
1001
ACAD
1000
AcDbSavedByObjectVersion
1070
     0
  0
VISUALSTYLE
  5
21B
102
{ACAD_REACTORS
330
214
102
}
330
214
100
AcDbVisualStyle
  2
3dWireframe
 70
     5
 71
     0
 72
     2
 73
     0
 90
        0
 40
-0.6
 41
-30.0
 62
     5
 63
     7
 74
     1
 91
        4
 64
     7
 65
   257
 75
     1
175
     1
 42
1.0
 92
        0
 66
   257
 43
1.0
 76
     1
 77
     6
 78
     2
 67
     7
 79
     5
170
     0
171
     0
290
     0
174
     0
 93
        1
 44
0.0
173
     0
291
     0
 45
0.0
1001
ACAD
1000
AcDbSavedByObjectVersion
1070
     0
  0
VISUALSTYLE
  5
219
102
{ACAD_REACTORS
330
214
102
}
330
214
100
AcDbVisualStyle
  2
Basic
 70
     7
 71
     1
 72
     0
 73
     1
 90
        0
 40
-0.6
 41
-30.0
 62
     5
 63
     7
 74
     0
 91
        4
 64
     7
 65
   257
 75
     1
175
     1
 42
1.0
 92
        8
 66
     7
 43
1.0
 76
     1
 77
     6
 78
     2
 67
     7
 79
     5
170
     0
171
     0
290
     0
174
     0
 93
        1
 44
0.0
173
     0
291
     1
 45
0.0
1001
ACAD
1000
AcDbSavedByObjectVersion
1070
     0
  0
VISUALSTYLE
  5
220
102
{ACAD_REACTORS
330
214
102
}
330
214
100
AcDbVisualStyle
  2
Brighten
 70
    12
 71
     2
 72
     2
 73
     0
 90
        0
 40
-0.6
 41
-30.0
 62
     5
 63
     7
 74
     1
 91
        4
 64
     7
 65
   257
 75
     1
175
     1
 42
1.0
 92
        8
 66
     7
 43
1.0
 76
     1
 77
     6
 78
     2
 67
     7
 79
     5
170
     0
171
     0
290
     0
174
     0
 93
        1
 44
50.0
173
     0
291
     1
 45
0.0
1001
ACAD
1000
AcDbSavedByObjectVersion
1070
     0
  0
VISUALSTYLE
  5
224
102
{ACAD_REACTORS
330
214
102
}
330
214
100
AcDbVisualStyle
  2
ColorChange
 70
    16
 71
     2
 72
     2
 73
     3
 90
        0
 40
-0.6
 41
-30.0
 62
     5
 63
     8
 74
     1
 91
        4
 64
     7
 65
   257
 75
     1
175
     1
 42
1.0
 92
        8
 66
     8
 43
1.0
 76
     1
 77
     6
 78
     2
 67
     7
 79
     5
170
     0
171
     0
290
     0
174
     0
 93
        1
 44
0.0
173
     0
291
     1
 45
0.0
1001
ACAD
1000
AcDbSavedByObjectVersion
1070
     0
  0
VISUALSTYLE
  5
21D
102
{ACAD_REACTORS
330
214
102
}
330
214
100
AcDbVisualStyle
  2
Conceptual
 70
     9
 71
     3
 72
     2
 73
     0
 90
        0
 40
-0.6
 41
-30.0
 62
     5
 63
     7
 74
     2
 91
        2
 64
     7
 65
   257
 75
     1
175
     1
 42
40.0
 92
        8
 66
     7
 43
1.0
 76
     1
 77
     6
 78
     2
 67
     7
 79
     3
170
     0
171
     0
290
     0
174
     0
 93
        1
 44
0.0
173
     0
291
     0
 45
0.0
1001
ACAD
1000
AcDbSavedByObjectVersion
1070
     0
  0
VISUALSTYLE
  5
21F
102
{ACAD_REACTORS
330
214
102
}
330
214
100
AcDbVisualStyle
  2
Dim
 70
    11
 71
     2
 72
     2
 73
     0
 90
        0
 40
-0.6
 41
-30.0
 62
     5
 63
     7
 74
     1
 91
        4
 64
     7
 65
   257
 75
     1
175
     1
 42
1.0
 92
        8
 66
     7
 43
1.0
 76
     1
 77
     6
 78
     2
 67
     7
 79
     5
170
     0
171
     0
290
     0
174
     0
 93
        1
 44
-50.0
173
     0
291
     1
 45
0.0
1001
ACAD
1000
AcDbSavedByObjectVersion
1070
     0
  0
VISUALSTYLE
  5
223
102
{ACAD_REACTORS
330
214
102
}
330
214
100
AcDbVisualStyle
  2
Facepattern
 70
    15
 71
     2
 72
     2
 73
     0
 90
        0
 40
-0.6
 41
-30.0
 62
     5
 63
     7
 74
     1
 91
        4
 64
     7
 65
   257
 75
     1
175
     1
 42
1.0
 92
        8
 66
     7
 43
1.0
 76
     1
 77
     6
 78
     2
 67
     7
 79
     5
170
     0
171
     0
290
     0
174
     0
 93
        1
 44
0.0
173
     0
291
     1
 45
0.0
1001
ACAD
1000
AcDbSavedByObjectVersion
1070
     0
  0
VISUALSTYLE
  5
215
102
{ACAD_REACTORS
330
214
102
}
330
214
100
AcDbVisualStyle
  2
Flat
 70
     0
 71
     2
 72
     1
 73
     1
 90
        2
 40
-0.6
 41
30.0
 62
     5
 63
     7
 74
     0
 91
        4
 64
     7
 65
   257
 75
     1
175
     1
 42
1.0
 92
        8
 66
     7
 43
1.0
 76
     1
 77
     6
 78
     2
 67
     7
 79
     5
170
     0
171
     0
290
     0
174
     0
 93
       13
 44
0.0
173
     0
291
     1
 45
0.0
1001
ACAD
1000
AcDbSavedByObjectVersion
1070
     0
  0
VISUALSTYLE
  5
216
102
{ACAD_REACTORS
330
214
102
}
330
214
100
AcDbVisualStyle
  2
FlatWithEdges
 70
     1
 71
     2
 72
     1
 73
     1
 90
        2
 40
-0.6
 41
30.0
 62
     5
 63
     7
 74
     1
 91
        4
 64
     7
 65
   257
 75
     1
175
     1
 42
1.0
 92
        0
 66
   257
 43
1.0
 76
     1
 77
     6
 78
     2
 67
     7
 79
     5
170
     0
171
     0
290
     0
174
     0
 93
       13
 44
0.0
173
     0
291
     1
 45
0.0
1001
ACAD
1000
AcDbSavedByObjectVersion
1070
     0
  0
VISUALSTYLE
  5
217
102
{ACAD_REACTORS
330
214
102
}
330
214
100
AcDbVisualStyle
  2
Gouraud
 70
     2
 71
     2
 72
     2
 73
     1
 90
        2
 40
-0.6
 41
30.0
 62
     5
 63
     7
 74
     0
 91
        4
 64
     7
 65
   257
 75
     1
175
     1
 42
1.0
 92
        0
 66
     7
 43
1.0
 76
     1
 77
     6
 78
     2
 67
     7
 79
     5
170
     0
171
     0
290
     0
174
     0
 93
       13
 44
0.0
173
     0
291
     1
 45
0.0
1001
ACAD
1000
AcDbSavedByObjectVersion
1070
     0
  0
VISUALSTYLE
  5
218
102
{ACAD_REACTORS
330
214
102
}
330
214
100
AcDbVisualStyle
  2
GouraudWithEdges
 70
     3
 71
     2
 72
     2
 73
     1
 90
        2
 40
-0.6
 41
30.0
 62
     5
 63
     7
 74
     1
 91
        4
 64
     7
 65
   257
 75
     1
175
     1
 42
1.0
 92
        0
 66
   257
 43
1.0
 76
     1
 77
     6
 78
     2
 67
     7
 79
     5
170
     0
171
     0
290
     0
174
     0
 93
       13
 44
0.0
173
     0
291
     1
 45
0.0
1001
ACAD
1000
AcDbSavedByObjectVersion
1070
     0
  0
VISUALSTYLE
  5
222
102
{ACAD_REACTORS
330
214
102
}
330
214
100
AcDbVisualStyle
  2
Linepattern
 70
    14
 71
     2
 72
     2
 73
     0
 90
        0
 40
-0.6
 41
-30.0
 62
     5
 63
     7
 74
     1
 91
        4
 64
     7
 65
   257
 75
     7
175
     7
 42
1.0
 92
        8
 66
     7
 43
1.0
 76
     1
 77
     6
 78
     2
 67
     7
 79
     5
170
     0
171
     0
290
     0
174
     0
 93
        1
 44
0.0
173
     0
291
     1
 45
0.0
1001
ACAD
1000
AcDbSavedByObjectVersion
1070
     0
  0
VISUALSTYLE
  5
21E
102
{ACAD_REACTORS
330
214
102
}
330
214
100
AcDbVisualStyle
  2
Realistic
 70
     8
 71
     2
 72
     2
 73
     0
 90
        0
 40
-0.6
 41
-30.0
 62
     5
 63
     7
 74
     1
 91
        0
 64
     7
 65
   257
 75
     1
175
     1
 42
1.0
 92
        8
 66
     8
 43
1.0
 76
     1
 77
     6
 78
     2
 67
     7
 79
     5
170
     0
171
     0
290
     0
174
     0
 93
       13
 44
0.0
173
     0
291
     0
 45
0.0
1001
ACAD
1000
AcDbSavedByObjectVersion
1070
     0
  0
VISUALSTYLE
  5
221
102
{ACAD_REACTORS
330
214
102
}
330
214
100
AcDbVisualStyle
  2
Thicken
 70
    13
 71
     2
 72
     2
 73
     0
 90
        0
 40
-0.6
 41
-30.0
 62
     5
 63
     7
 74
     1
 91
        4
 64
     7
 65
   257
 75
     1
175
     1
 42
1.0
 92
       12
 66
     7
 43
1.0
 76
     1
 77
     6
 78
     2
 67
     7
 79
     5
170
     0
171
     0
290
     0
174
     0
 93
        1
 44
0.0
173
     0
291
     1
 45
0.0
1001
ACAD
1000
AcDbSavedByObjectVersion
1070
     0
  0
DICTIONARYVAR
  5
302
102
{ACAD_REACTORS
330
F3
102
}
330
F3
100
DictionaryVariables
280
     0
  1
STANDARD
  0
DICTIONARYVAR
  5
F4
102
{ACAD_REACTORS
330
F3
102
}
330
F3
100
DictionaryVariables
280
     0
  1
1
  0
DICTIONARYVAR
  5
304
102
{ACAD_REACTORS
330
F3
102
}
330
F3
100
DictionaryVariables
280
     0
  1
0
  0
DICTIONARYVAR
  5
303
102
{ACAD_REACTORS
330
F3
102
}
330
F3
100
DictionaryVariables
280
     0
  1
127
  0
XRECORD
  5
2E7
102
{ACAD_REACTORS
330
2E6
102
}
330
2E6
100
AcDbXrecord
280
     1
  0
DICTIONARY
  5
308
330
79
100
AcDbDictionary
280
     1
281
     1
  3
ACAD_XREC_ROUNDTRIP
360
309
  0
DICTIONARY
  5
306
330
78
100
AcDbDictionary
280
     1
281
     1
  3
ACAD_XREC_ROUNDTRIP
360
307
  0
DICTIONARY
  5
30C
330
212
100
AcDbDictionary
280
     1
281
     1
  3
ACAD_XREC_ROUNDTRIP
360
30D
  0
DICTIONARY
  5
30A
330
211
100
AcDbDictionary
280
     1
281
     1
  3
ACAD_XREC_ROUNDTRIP
360
30B
  0
DICTIONARY
  5
30E
330
213
100
AcDbDictionary
280
     1
281
     1
  3
ACAD_XREC_ROUNDTRIP
360
30F
  0
DICTIONARY
  5
310
330
227
100
AcDbDictionary
280
     1
281
     1
  3
ACAD_XREC_ROUNDTRIP
360
311
  0
XRECORD
  5
309
102
{ACAD_REACTORS
330
308
102
}
330
308
100
AcDbXrecord
280
     1
102
SHADEPLOT
 70
     0
102
SHADEPLOTRESLEVEL
 70
     2
102
SHADEPLOTCUSTOMDPI
 70
   300
  0
XRECORD
  5
307
102
{ACAD_REACTORS
330
306
102
}
330
306
100
AcDbXrecord
280
     1
102
SHADEPLOT
 70
     0
102
SHADEPLOTRESLEVEL
 70
     2
102
SHADEPLOTCUSTOMDPI
 70
   300
  0
XRECORD
  5
30D
102
{ACAD_REACTORS
330
30C
102
}
330
30C
100
AcDbXrecord
280
     1
102
MATERIAL
148
0.0
149
0.0
149
0.0
 93
        0
 94
       63
282
     0
 72
     1
 77
     1
171
     1
175
     1
179
     1
273
     0
  0
XRECORD
  5
30B
102
{ACAD_REACTORS
330
30A
102
}
330
30A
100
AcDbXrecord
280
     1
102
MATERIAL
148
0.0
149
0.0
149
0.0
 93
        0
 94
       63
282
     0
 72
     1
 77
     1
171
     1
175
     1
179
     1
273
     0
  0
XRECORD
  5
30F
102
{ACAD_REACTORS
330
30E
102
}
330
30E
100
AcDbXrecord
280
     1
102
MATERIAL
148
0.0
149
0.0
149
0.0
 93
        0
 94
       63
282
     0
 72
     1
 77
     1
171
     1
175
     1
179
     1
273
     0
  0
XRECORD
  5
311
102
{ACAD_REACTORS
330
310
102
}
330
310
100
AcDbXrecord
280
     1
102
ACAD_ROUNDTRIP_PRE2007_TABLESTYLE
 90
      512
 91
        0
  1

 92
      512
 93
        0
  2

 94
      512
 95
        0
  3

  0
ENDSEC
  0
EOF
