  0
SECTION
  2
HEADER
  9
$ACADVER
  1
AC1015
  9
$ACADMAINTVER
 70
    20
  9
$DWGCODEPAGE
  3
ANSI_1252
  9
$INSBASE
 10
14.48137345186552
 20
12.58758362530503
 30
0.0
  9
$EXTMIN
 10
7.796447846801541
 20
11.57849130823567
 30
-0.0015258207003583
  9
$EXTMAX
 10
21.16680914858218
 20
17.31610113628686
 30
0.0000000349246037
  9
$LIMMIN
 10
0.0
 20
0.0
  9
$LIMMAX
 10
36.0
 20
36.0
  9
$ORTHOMODE
 70
     1
  9
$REGENMODE
 70
     1
  9
$FILLMODE
 70
     1
  9
$QTEXTMODE
 70
     0
  9
$MIRRTEXT
 70
     1
  9
$LTSCALE
 40
1.0
  9
$ATTMODE
 70
     1
  9
$TEXTSIZE
 40
0.2
  9
$TRACEWID
 40
0.05
  9
$TEXTSTYLE
  7
STANDARD
  9
$CLAYER
  8
ADPDIM
  9
$CELTYPE
  6
BYLAYER
  9
$CECOLOR
 62
   256
  9
$CELTSCALE
 40
1.0
  9
$DISPSILH
 70
     0
  9
$DIMSCALE
 40
1.0
  9
$DIMASZ
 40
0.125
  9
$DIMEXO
 40
0.0625
  9
$DIMDLI
 40
0.38
  9
$DIMRND
 40
0.0
  9
$DIMDLE
 40
0.0
  9
$DIMEXE
 40
0.18
  9
$DIMTP
 40
0.0
  9
$DIMTM
 40
0.0
  9
$DIMTXT
 40
0.125
  9
$DIMCEN
 40
0.1875
  9
$DIMTSZ
 40
0.125
  9
$DIMTOL
 70
     0
  9
$DIMLIM
 70
     0
  9
$DIMTIH
 70
     0
  9
$DIMTOH
 70
     0
  9
$DIMSE1
 70
     0
  9
$DIMSE2
 70
     0
  9
$DIMTAD
 70
     0
  9
$DIMZIN
 70
     2
  9
$DIMBLK
  1

  9
$DIMASO
 70
     1
  9
$DIMSHO
 70
     1
  9
$DIMPOST
  1

  9
$DIMAPOST
  1

  9
$DIMALT
 70
     0
  9
$DIMALTD
 70
     1
  9
$DIMALTF
 40
25.4
  9
$DIMLFAC
 40
1.0
  9
$DIMTOFL
 70
     0
  9
$DIMTVP
 40
0.0
  9
$DIMTIX
 70
     0
  9
$DIMSOXD
 70
     0
  9
$DIMSAH
 70
     0
  9
$DIMBLK1
  1

  9
$DIMBLK2
  1

  9
$DIMSTYLE
  2
STANDARD
  9
$DIMCLRD
 70
     0
  9
$DIMCLRE
 70
     0
  9
$DIMCLRT
 70
     0
  9
$DIMTFAC
 40
1.0
  9
$DIMGAP
 40
0.125
  9
$DIMJUST
 70
     0
  9
$DIMSD1
 70
     0
  9
$DIMSD2
 70
     0
  9
$DIMTOLJ
 70
     1
  9
$DIMTZIN
 70
     0
  9
$DIMALTZ
 70
     0
  9
$DIMALTTZ
 70
     0
  9
$DIMUPT
 70
     0
  9
$DIMDEC
 70
     2
  9
$DIMTDEC
 70
     4
  9
$DIMALTU
 70
     2
  9
$DIMALTTD
 70
     2
  9
$DIMTXSTY
  7
STANDARD
  9
$DIMAUNIT
 70
     0
  9
$DIMADEC
 70
     0
  9
$DIMALTRND
 40
0.0
  9
$DIMAZIN
 70
     0
  9
$DIMDSEP
 70
    46
  9
$DIMATFIT
 70
     3
  9
$DIMFRAC
 70
     2
  9
$DIMLDRBLK
  1

  9
$DIMLUNIT
 70
     5
  9
$DIMLWD
 70
    -2
  9
$DIMLWE
 70
    -2
  9
$DIMTMOVE
 70
     0
  9
$LUNITS
 70
     5
  9
$LUPREC
 70
     5
  9
$SKETCHINC
 40
0.1
  9
$FILLETRAD
 40
0.0
  9
$AUNITS
 70
     0
  9
$AUPREC
 70
     0
  9
$MENU
  1
acad
  9
$ELEVATION
 40
0.0
  9
$PELEVATION
 40
0.0
  9
$THICKNESS
 40
0.0
  9
$LIMCHECK
 70
     0
  9
$CHAMFERA
 40
0.0
  9
$CHAMFERB
 40
0.0
  9
$CHAMFERC
 40
0.0
  9
$CHAMFERD
 40
0.0
  9
$SKPOLY
 70
     0
  9
$TDCREATE
 40
2450366.651843171
  9
$TDUCREATE
 40
2450366.818509838
  9
$TDUPDATE
 40
2453972.966215521
  9
$TDUUPDATE
 40
2453973.132882188
  9
$TDINDWG
 40
0.0934070486
  9
$TDUSRTIMER
 40
0.0934070486
  9
$USRTIMER
 70
     1
  9
$ANGBASE
 50
0.0
  9
$ANGDIR
 70
     0
  9
$PDMODE
 70
     0
  9
$PDSIZE
 40
0.0
  9
$PLINEWID
 40
0.0
  9
$SPLFRAME
 70
     0
  9
$SPLINETYPE
 70
     6
  9
$SPLINESEGS
 70
     8
  9
$HANDSEED
  5
48B
  9
$SURFTAB1
 70
     6
  9
$SURFTAB2
 70
     6
  9
$SURFTYPE
 70
     6
  9
$SURFU
 70
     6
  9
$SURFV
 70
     6
  9
$UCSBASE
  2

  9
$UCSNAME
  2

  9
$UCSORG
 10
0.0
 20
0.0
 30
0.0
  9
$UCSXDIR
 10
1.0
 20
0.0
 30
0.0
  9
$UCSYDIR
 10
0.0
 20
1.0
 30
0.0
  9
$UCSORTHOREF
  2

  9
$UCSORTHOVIEW
 70
     0
  9
$UCSORGTOP
 10
0.0
 20
0.0
 30
0.0
  9
$UCSORGBOTTOM
 10
0.0
 20
0.0
 30
0.0
  9
$UCSORGLEFT
 10
0.0
 20
0.0
 30
0.0
  9
$UCSORGRIGHT
 10
0.0
 20
0.0
 30
0.0
  9
$UCSORGFRONT
 10
0.0
 20
0.0
 30
0.0
  9
$UCSORGBACK
 10
0.0
 20
0.0
 30
0.0
  9
$PUCSBASE
  2

  9
$PUCSNAME
  2

  9
$PUCSORG
 10
0.0
 20
0.0
 30
0.0
  9
$PUCSXDIR
 10
1.0
 20
0.0
 30
0.0
  9
$PUCSYDIR
 10
0.0
 20
1.0
 30
0.0
  9
$PUCSORTHOREF
  2

  9
$PUCSORTHOVIEW
 70
     0
  9
$PUCSORGTOP
 10
0.0
 20
0.0
 30
0.0
  9
$PUCSORGBOTTOM
 10
0.0
 20
0.0
 30
0.0
  9
$PUCSORGLEFT
 10
0.0
 20
0.0
 30
0.0
  9
$PUCSORGRIGHT
 10
0.0
 20
0.0
 30
0.0
  9
$PUCSORGFRONT
 10
0.0
 20
0.0
 30
0.0
  9
$PUCSORGBACK
 10
0.0
 20
0.0
 30
0.0
  9
$USERI1
 70
     0
  9
$USERI2
 70
     0
  9
$USERI3
 70
     0
  9
$USERI4
 70
     0
  9
$USERI5
 70
     0
  9
$USERR1
 40
0.0
  9
$USERR2
 40
0.0
  9
$USERR3
 40
0.0
  9
$USERR4
 40
0.0
  9
$USERR5
 40
0.0
  9
$WORLDVIEW
 70
     1
  9
$SHADEDGE
 70
     3
  9
$SHADEDIF
 70
    70
  9
$TILEMODE
 70
     1
  9
$MAXACTVP
 70
    15
  9
$PINSBASE
 10
0.1250013113021854
 20
0.0
 30
0.0
  9
$PLIMCHECK
 70
     0
  9
$PEXTMIN
 10
1.000000000000000E+20
 20
1.000000000000000E+20
 30
1.000000000000000E+20
  9
$PEXTMAX
 10
-1.000000000000000E+20
 20
-1.000000000000000E+20
 30
-1.000000000000000E+20
  9
$PLIMMIN
 10
0.0
 20
0.0
  9
$PLIMMAX
 10
12.0
 20
9.0
  9
$UNITMODE
 70
     0
  9
$VISRETAIN
 70
     0
  9
$PLINEGEN
 70
     0
  9
$PSLTSCALE
 70
     1
  9
$TREEDEPTH
 70
  3020
  9
$CMLSTYLE
  2
STANDARD
  9
$CMLJUST
 70
     0
  9
$CMLSCALE
 40
1.0
  9
$PROXYGRAPHICS
 70
     1
  9
$MEASUREMENT
 70
     0
  9
$CELWEIGHT
370
    -1
  9
$ENDCAPS
280
     0
  9
$JOINSTYLE
280
     0
  9
$LWDISPLAY
290
     0
  9
$INSUNITS
 70
     0
  9
$HYPERLINKBASE
  1

  9
$STYLESHEET
  1

  9
$XEDIT
290
     1
  9
$CEPSNTYPE
380
     0
  9
$PSTYLEMODE
290
     1
  9
$FINGERPRINTGUID
  2
{2A41D370-321C-4C21-B0B8-13EE81DB122C}
  9
$VERSIONGUID
  2
{8390ED4E-A9B1-4FEF-992E-5B8C80A03CEA}
  9
$EXTNAMES
290
     1
  9
$PSVPSCALE
 40
0.0
  9
$OLESTARTUP
290
     0
  0
ENDSEC
  0
SECTION
  2
CLASSES
  0
CLASS
  1
ACDBDICTIONARYWDFLT
  2
AcDbDictionaryWithDefault
  3
ObjectDBX Classes
 90
        0
280
     0
281
     0
  0
CLASS
  1
ACDBPLACEHOLDER
  2
AcDbPlaceHolder
  3
ObjectDBX Classes
 90
        0
280
     0
281
     0
  0
CLASS
  1
LAYOUT
  2
AcDbLayout
  3
ObjectDBX Classes
 90
        0
280
     0
281
     0
  0
CLASS
  1
DICTIONARYVAR
  2
AcDbDictionaryVar
  3
ObjectDBX Classes
 90
        0
280
     0
281
     0
  0
CLASS
  1
MATERIAL
  2
AcDbMaterial
  3
ObjectDBX Classes
 90
     1024
280
     0
281
     0
  0
CLASS
  1
VISUALSTYLE
  2
AcDbVisualStyle
  3
ObjectDBX Classes
 90
     4095
280
     0
281
     0
  0
CLASS
  1
TABLESTYLE
  2
AcDbTableStyle
  3
ObjectDBX Classes
 90
     4095
280
     0
281
     0
  0
ENDSEC
  0
SECTION
  2
TABLES
  0
TABLE
  2
VPORT
  5
13
330
0
100
AcDbSymbolTable
 70
     1
  0
VPORT
  5
2C3
330
13
100
AcDbSymbolTableRecord
100
AcDbViewportTableRecord
  2
*Active
 70
     0
 10
0.0
 20
0.0
 11
1.0
 21
1.0
 12
14.48162849769186
 22
14.44729622226126
 13
0.0
 23
0.0
 14
0.5740882589684922
 24
0.5740882589684922
 15
0.5
 25
0.5
 16
0.0
 26
0.0
 36
1.0
 17
0.0
 27
0.0
 37
0.0
 40
7.792833319647836
 41
1.726930320150659
 42
50.0
 43
0.0
 44
0.0
 50
0.0
 51
0.0
 71
     0
 72
   100
 73
     1
 74
     0
 75
     0
 76
     0
 77
     0
 78
     0
281
     0
 65
     1
110
0.0
120
0.0
130
0.0
111
1.0
121
0.0
131
0.0
112
0.0
122
1.0
132
0.0
 79
     0
146
0.0
  0
ENDTAB
  0
TABLE
  2
LTYPE
  5
F
330
0
100
AcDbSymbolTable
 70
     2
  0
LTYPE
  5
10
330
F
100
AcDbSymbolTableRecord
100
AcDbLinetypeTableRecord
  2
BYBLOCK
 70
     0
  3

 72
    65
 73
     0
 40
0.0
  0
LTYPE
  5
6
330
F
100
AcDbSymbolTableRecord
100
AcDbLinetypeTableRecord
  2
BYLAYER
 70
     0
  3

 72
    65
 73
     0
 40
0.0
  0
LTYPE
  5
5
330
F
100
AcDbSymbolTableRecord
100
AcDbLinetypeTableRecord
  2
CONTINUOUS
 70
     0
  3
Solid line
 72
    65
 73
     0
 40
0.0
  0
LTYPE
  5
5D
330
F
100
AcDbSymbolTableRecord
100
AcDbLinetypeTableRecord
  2
HIDDEN2
 70
     0
  3
_ _ _ _ _ _ _ _ _ _ _ _ _ _ _ _ _ _ _ _ _ _ _ _
 72
    65
 73
     2
 40
0.1875
 49
0.125
 74
     0
 49
-0.0625
 74
     0
  0
ENDTAB
  0
TABLE
  2
LAYER
  5
B
330
0
100
AcDbSymbolTable
 70
     5
  0
LAYER
  5
C
330
B
100
AcDbSymbolTableRecord
100
AcDbLayerTableRecord
  2
0
 70
     0
 62
     7
  6
CONTINUOUS
370
    -3
390
DB
  0
LAYER
  5
4
330
B
100
AcDbSymbolTableRecord
100
AcDbLayerTableRecord
  2
ADPDIM
 70
     0
 62
     3
  6
CONTINUOUS
370
    -3
390
DB
  0
LAYER
  5
1F
330
B
100
AcDbSymbolTableRecord
100
AcDbLayerTableRecord
  2
ADP1DETAIL
 70
     0
 62
     7
  6
CONTINUOUS
370
    -3
390
DB
  0
LAYER
  5
24
330
B
100
AcDbSymbolTableRecord
100
AcDbLayerTableRecord
  2
DEFPOINTS
 70
     0
 62
     7
  6
CONTINUOUS
290
     0
370
    -3
390
DB
  0
LAYER
  5
5C
330
B
100
AcDbSymbolTableRecord
100
AcDbLayerTableRecord
  2
ADP2DETAIL
 70
     0
 62
     5
  6
CONTINUOUS
370
    -3
390
DB
  0
ENDTAB
  0
TABLE
  2
STYLE
  5
D
330
0
100
AcDbSymbolTable
 70
     2
  0
STYLE
  5
E
330
D
100
AcDbSymbolTableRecord
100
AcDbTextStyleTableRecord
  2
STANDARD
 70
     0
 40
0.0
 41
1.0
 50
0.0
 71
     0
 42
0.2
  3
txt
  4

  0
STYLE
  5
E2
330
D
100
AcDbSymbolTableRecord
100
AcDbTextStyleTableRecord
  2
ARIAL_WIDE
 70
     0
 40
0.0
 41
1.25
 50
0.0
 71
     0
 42
0.2
  3
ARIAL.TTF
  4

1001
ACAD
1000
Arial
1071
       34
  0
ENDTAB
  0
TABLE
  2
VIEW
  5
11
330
0
100
AcDbSymbolTable
 70
     0
  0
ENDTAB
  0
TABLE
  2
UCS
  5
12
330
0
100
AcDbSymbolTable
 70
     0
  0
ENDTAB
  0
TABLE
  2
APPID
  5
15
330
0
100
AcDbSymbolTable
 70
     1
  0
APPID
  5
16
330
15
100
AcDbSymbolTableRecord
100
AcDbRegAppTableRecord
  2
ACAD
 70
     0
  0
ENDTAB
  0
TABLE
  2
DIMSTYLE
  5
17
330
0
100
AcDbSymbolTable
 70
     1
100
AcDbDimStyleTable
 71
     0
  0
DIMSTYLE
105
1D
102
{ACAD_REACTORS
330
CB
330
3DF
330
3E0
102
}
330
17
100
AcDbSymbolTableRecord
100
AcDbDimStyleTableRecord
  2
STANDARD
 70
     0
340
E
  0
ENDTAB
  0
TABLE
  2
BLOCK_RECORD
  5
1
330
0
100
AcDbSymbolTable
 70
     8
  0
BLOCK_RECORD
  5
2
102
{ACAD_XDICTIONARY
360
15E
102
}
330
1
100
AcDbSymbolTableRecord
100
AcDbBlockTableRecord
  2
*MODEL_SPACE
340
DE
  0
BLOCK_RECORD
  5
8
102
{ACAD_XDICTIONARY
360
160
102
}
330
1
100
AcDbSymbolTableRecord
100
AcDbBlockTableRecord
  2
*PAPER_SPACE
340
DF
  0
BLOCK_RECORD
  5
164
330
1
100
AcDbSymbolTableRecord
100
AcDbBlockTableRecord
  2
*D0
340
0
  0
BLOCK_RECORD
  5
171
330
1
100
AcDbSymbolTableRecord
100
AcDbBlockTableRecord
  2
*D1
340
0
  0
BLOCK_RECORD
  5
17E
330
1
100
AcDbSymbolTableRecord
100
AcDbBlockTableRecord
  2
*D2
340
0
  0
BLOCK_RECORD
  5
3A6
330
1
100
AcDbSymbolTableRecord
100
AcDbBlockTableRecord
  2
*D3
340
0
  0
BLOCK_RECORD
  5
3B3
330
1
100
AcDbSymbolTableRecord
100
AcDbBlockTableRecord
  2
*D4
340
0
  0
BLOCK_RECORD
  5
3F5
330
1
100
AcDbSymbolTableRecord
100
AcDbBlockTableRecord
  2
*D6
340
0
  0
BLOCK_RECORD
  5
402
330
1
100
AcDbSymbolTableRecord
100
AcDbBlockTableRecord
  2
*D7
340
0
  0
ENDTAB
  0
ENDSEC
  0
SECTION
  2
BLOCKS
  0
BLOCK
  5
3
330
2
100
AcDbEntity
  8
0
100
AcDbBlockBegin
  2
*MODEL_SPACE
 70
     0
 10
0.0
 20
0.0
 30
0.0
  3
*MODEL_SPACE
  1

  0
ENDBLK
  5
7
330
2
100
AcDbEntity
  8
0
100
AcDbBlockEnd
  0
BLOCK
  5
9
330
8
100
AcDbEntity
 67
     1
  8
0
100
AcDbBlockBegin
  2
*PAPER_SPACE
 70
     0
 10
0.0
 20
0.0
 30
0.0
  3
*PAPER_SPACE
  1

  0
ENDBLK
  5
A
330
8
100
AcDbEntity
 67
     1
  8
0
100
AcDbBlockEnd
  0
BLOCK
  5
16F
330
164
100
AcDbEntity
  8
0
100
AcDbBlockBegin
  2
*D0
 70
     1
 10
0.0
 20
0.0
 30
0.0
  3
*D0
  1

  0
LINE
  5
2ED
330
164
100
AcDbEntity
  8
ADPDIM
 62
     0
100
AcDbLine
 10
11.44163846281149
 20
12.91813332231261
 30
0.0
 11
11.44163846281149
 21
13.55213697056858
 31
0.0
  0
LINE
  5
2EE
330
164
100
AcDbEntity
  8
ADPDIM
 62
     0
100
AcDbLine
 10
13.18632128373991
 20
12.91813332231261
 30
0.0
 11
13.18632128373991
 21
13.55213697056858
 31
0.0
  0
LINE
  5
2EF
330
164
100
AcDbEntity
  8
ADPDIM
 62
     0
100
AcDbLine
 10
11.44163846281149
 20
13.37213697056858
 30
0.0
 11
11.91814653994236
 21
13.37213697056858
 31
0.0
  0
LINE
  5
2F0
330
164
100
AcDbEntity
  8
ADPDIM
 62
     0
100
AcDbLine
 10
13.18632128373991
 20
13.37213697056858
 30
0.0
 11
12.70981320660903
 21
13.37213697056858
 31
0.0
  0
LINE
  5
2F1
330
164
100
AcDbEntity
  8
ADPDIM
 62
     0
100
AcDbLine
 10
13.06132128373991
 20
13.24713697056858
 30
0.0
 11
13.31132128373991
 21
13.49713697056858
 31
0.0
  0
LINE
  5
2F2
330
164
100
AcDbEntity
  8
ADPDIM
 62
     0
100
AcDbLine
 10
11.31663846281149
 20
13.24713697056858
 30
0.0
 11
11.56663846281149
 21
13.49713697056858
 31
0.0
  0
MTEXT
  5
2F3
330
164
100
AcDbEntity
  8
ADPDIM
 62
     0
100
AcDbMText
 10
12.3139798732757
 20
13.37213697056858
 30
0.0
 40
0.125
 41
0.0
 71
     5
 72
     1
  1
\A1;1 3/4
 73
     1
 44
1.0
1001
ACAD
1000
MTEXTBEGIN
1070
    73
1070
     1
1070
    44
1040
1.0
1070
    74
1070
     0
1000
MTEXTEND
  0
POINT
  5
2F4
330
164
100
AcDbEntity
  8
DEFPOINTS
 62
     0
100
AcDbPoint
 10
11.44163846281149
 20
12.85563332231261
 30
0.0
  0
POINT
  5
2F5
330
164
100
AcDbEntity
  8
DEFPOINTS
 62
     0
100
AcDbPoint
 10
13.18632128373991
 20
12.85563332231261
 30
0.0
  0
POINT
  5
2F6
330
164
100
AcDbEntity
  8
DEFPOINTS
 62
     0
100
AcDbPoint
 10
13.18632128373991
 20
13.37213697056858
 30
0.0
  0
ENDBLK
  5
170
330
164
100
AcDbEntity
  8
0
100
AcDbBlockEnd
  0
BLOCK
  5
17C
330
171
100
AcDbEntity
  8
0
100
AcDbBlockBegin
  2
*D1
 70
     1
 10
0.0
 20
0.0
 30
0.0
  3
*D1
  1

  0
LINE
  5
2F7
330
171
100
AcDbEntity
  8
ADPDIM
 62
     0
100
AcDbLine
 10
11.76834916314827
 20
12.704990013524
 30
0.0
 11
11.76834916314827
 21
12.11493517130865
 31
0.0
  0
LINE
  5
2F8
330
171
100
AcDbEntity
  8
ADPDIM
 62
     0
100
AcDbLine
 10
12.85961058340313
 20
12.704990013524
 30
0.0
 11
12.85961058340313
 21
12.11493517130865
 31
0.0
  0
LINE
  5
2F9
330
171
100
AcDbEntity
  8
ADPDIM
 62
     0
100
AcDbLine
 10
11.76834916314827
 20
12.29493517130865
 30
0.0
 11
12.16814653994237
 21
12.29493517130865
 31
0.0
  0
LINE
  5
2FA
330
171
100
AcDbEntity
  8
ADPDIM
 62
     0
100
AcDbLine
 10
12.85961058340313
 20
12.29493517130865
 30
0.0
 11
12.45981320660903
 21
12.29493517130865
 31
0.0
  0
LINE
  5
2FB
330
171
100
AcDbEntity
  8
ADPDIM
 62
     0
100
AcDbLine
 10
12.73461058340313
 20
12.16993517130865
 30
0.0
 11
12.98461058340313
 21
12.41993517130865
 31
0.0
  0
LINE
  5
2FC
330
171
100
AcDbEntity
  8
ADPDIM
 62
     0
100
AcDbLine
 10
11.64334916314826
 20
12.16993517130865
 30
0.0
 11
11.89334916314827
 21
12.41993517130865
 31
0.0
  0
MTEXT
  5
2FD
330
171
100
AcDbEntity
  8
ADPDIM
 62
     0
100
AcDbMText
 10
12.3139798732757
 20
12.29493517130865
 30
0.0
 40
0.125
 41
0.0
 71
     5
 72
     1
  1
\A1;1
 73
     1
 44
1.0
1001
ACAD
1000
MTEXTBEGIN
1070
    73
1070
     1
1070
    44
1040
1.0
1070
    74
1070
     0
1000
MTEXTEND
  0
POINT
  5
2FE
330
171
100
AcDbEntity
  8
DEFPOINTS
 62
     0
100
AcDbPoint
 10
11.76834916314827
 20
12.767490013524
 30
0.0
  0
POINT
  5
2FF
330
171
100
AcDbEntity
  8
DEFPOINTS
 62
     0
100
AcDbPoint
 10
12.85961058340313
 20
12.767490013524
 30
0.0
  0
POINT
  5
300
330
171
100
AcDbEntity
  8
DEFPOINTS
 62
     0
100
AcDbPoint
 10
12.85961058340313
 20
12.29493517130865
 30
0.0
  0
ENDBLK
  5
17D
330
171
100
AcDbEntity
  8
0
100
AcDbBlockEnd
  0
BLOCK
  5
189
330
17E
100
AcDbEntity
  8
0
100
AcDbBlockBegin
  2
*D2
 70
     1
 10
0.0
 20
0.0
 30
0.0
  3
*D2
  1

  0
LINE
  5
301
330
17E
100
AcDbEntity
  8
ADPDIM
 62
     0
100
AcDbLine
 10
14.48137345186552
 20
12.52508362530503
 30
0.0
 11
14.48137345186552
 21
12.21801465951795
 31
0.0
  0
LINE
  5
302
330
17E
100
AcDbEntity
  8
ADPDIM
 62
     0
100
AcDbLine
 10
18.22647458586558
 20
12.79313332231261
 30
0.0
 11
18.22647458586558
 21
12.21801465951795
 31
0.0
  0
LINE
  5
303
330
17E
100
AcDbEntity
  8
ADPDIM
 62
     0
100
AcDbLine
 10
14.48137345186552
 20
12.39801465951795
 30
0.0
 11
15.93725735219888
 21
12.39801465951795
 31
0.0
  0
LINE
  5
304
330
17E
100
AcDbEntity
  8
ADPDIM
 62
     0
100
AcDbLine
 10
18.22647458586558
 20
12.39801465951795
 30
0.0
 11
16.77059068553222
 21
12.39801465951795
 31
0.0
  0
LINE
  5
305
330
17E
100
AcDbEntity
  8
ADPDIM
 62
     0
100
AcDbLine
 10
18.10147458586558
 20
12.27301465951795
 30
0.0
 11
18.35147458586558
 21
12.52301465951795
 31
0.0
  0
LINE
  5
306
330
17E
100
AcDbEntity
  8
ADPDIM
 62
     0
100
AcDbLine
 10
14.35637345186552
 20
12.27301465951795
 30
0.0
 11
14.60637345186552
 21
12.52301465951795
 31
0.0
  0
MTEXT
  5
307
330
17E
100
AcDbEntity
  8
ADPDIM
 62
     0
100
AcDbMText
 10
16.35392401886555
 20
12.39801465951795
 30
0.0
 40
0.125
 41
0.0
 71
     5
 72
     1
  1
\A1;3 3/4
 73
     1
 44
1.0
1001
ACAD
1000
MTEXTBEGIN
1070
    73
1070
     1
1070
    44
1040
1.0
1070
    74
1070
     0
1000
MTEXTEND
  0
POINT
  5
308
330
17E
100
AcDbEntity
  8
DEFPOINTS
 62
     0
100
AcDbPoint
 10
14.48137345186552
 20
12.58758362530503
 30
0.0
  0
POINT
  5
309
330
17E
100
AcDbEntity
  8
DEFPOINTS
 62
     0
100
AcDbPoint
 10
18.22647458586558
 20
12.85563332231261
 30
0.0
  0
POINT
  5
30A
330
17E
100
AcDbEntity
  8
DEFPOINTS
 62
     0
100
AcDbPoint
 10
18.22647458586558
 20
12.39801465951795
 30
0.0
  0
ENDBLK
  5
18A
330
17E
100
AcDbEntity
  8
0
100
AcDbBlockEnd
  0
BLOCK
  5
3A7
330
3A6
100
AcDbEntity
  8
0
100
AcDbBlockBegin
  2
*D3
 70
     1
 10
0.0
 20
0.0
 30
0.0
  3
*D3
  1

  0
LINE
  5
3A8
330
3A6
100
AcDbEntity
  8
0
  6
ByBlock
 62
     0
100
AcDbLine
 10
11.76834916314827
 20
12.704990013524
 30
0.0
 11
11.76834916314827
 21
12.21792406883407
 31
0.0
  0
LINE
  5
3A9
330
3A6
100
AcDbEntity
  8
0
  6
ByBlock
 62
     0
100
AcDbLine
 10
12.85961058340313
 20
12.704990013524
 30
0.0
 11
12.85961058340313
 21
12.21792406883407
 31
0.0
  0
LINE
  5
3AA
330
3A6
100
AcDbEntity
  8
0
  6
ByBlock
 62
     0
100
AcDbLine
 10
11.76834916314827
 20
12.39792406883407
 30
0.0
 11
11.51834916314826
 21
12.39792406883407
 31
0.0
  0
LINE
  5
3AB
330
3A6
100
AcDbEntity
  8
0
  6
ByBlock
 62
     0
100
AcDbLine
 10
12.85961058340313
 20
12.39792406883407
 30
0.0
 11
13.10961058340313
 21
12.39792406883407
 31
0.0
  0
LINE
  5
3AC
330
3A6
100
AcDbEntity
  8
0
  6
ByBlock
 62
     0
100
AcDbLine
 10
11.64334916314826
 20
12.27292406883407
 30
0.0
 11
11.89334916314827
 21
12.52292406883407
 31
0.0
  0
LINE
  5
3AD
330
3A6
100
AcDbEntity
  8
0
  6
ByBlock
 62
     0
100
AcDbLine
 10
12.73461058340313
 20
12.27292406883407
 30
0.0
 11
12.98461058340313
 21
12.52292406883407
 31
0.0
  0
TEXT
  5
3AE
330
3A6
100
AcDbEntity
  8
0
  6
ByBlock
 62
     0
100
AcDbText
 10
13.23461058340313
 20
12.33542406883407
 30
0.0
 40
0.125
  1
1 1/16
 72
     1
 11
13.5262772500698
 21
12.39792406883407
 31
0.0
100
AcDbText
 73
     2
  0
POINT
  5
3AF
330
3A6
100
AcDbEntity
  8
DEFPOINTS
  6
ByBlock
 62
     0
100
AcDbPoint
 10
11.76834916314827
 20
12.767490013524
 30
0.0
  0
POINT
  5
3B0
330
3A6
100
AcDbEntity
  8
DEFPOINTS
  6
ByBlock
 62
     0
100
AcDbPoint
 10
12.85961058340313
 20
12.767490013524
 30
0.0
  0
POINT
  5
3B1
330
3A6
100
AcDbEntity
  8
DEFPOINTS
  6
ByBlock
 62
     0
100
AcDbPoint
 10
12.85961058340313
 20
12.39792406883407
 30
0.0
  0
ENDBLK
  5
3B2
330
3A6
100
AcDbEntity
  8
0
100
AcDbBlockEnd
  0
BLOCK
  5
3B4
330
3B3
100
AcDbEntity
  8
0
100
AcDbBlockBegin
  2
*D4
 70
     1
 10
0.0
 20
0.0
 30
0.0
  3
*D4
  1

  0
LINE
  5
3B5
330
3B3
100
AcDbEntity
  8
0
  6
ByBlock
 62
     0
100
AcDbLine
 10
11.44163846281149
 20
12.91813332231261
 30
0.0
 11
11.44163846281149
 21
13.54046761781161
 31
0.0
  0
LINE
  5
3B6
330
3B3
100
AcDbEntity
  8
0
  6
ByBlock
 62
     0
100
AcDbLine
 10
13.18632128373991
 20
12.91813332231261
 30
0.0
 11
13.18632128373991
 21
13.54046761781161
 31
0.0
  0
LINE
  5
3B7
330
3B3
100
AcDbEntity
  8
0
  6
ByBlock
 62
     0
100
AcDbLine
 10
11.44163846281149
 20
13.36046761781161
 30
0.0
 11
11.91814653994236
 21
13.36046761781161
 31
0.0
  0
LINE
  5
3B8
330
3B3
100
AcDbEntity
  8
0
  6
ByBlock
 62
     0
100
AcDbLine
 10
13.18632128373991
 20
13.36046761781161
 30
0.0
 11
12.70981320660903
 21
13.36046761781161
 31
0.0
  0
LINE
  5
3B9
330
3B3
100
AcDbEntity
  8
0
  6
ByBlock
 62
     0
100
AcDbLine
 10
11.31663846281149
 20
13.23546761781161
 30
0.0
 11
11.56663846281149
 21
13.48546761781161
 31
0.0
  0
LINE
  5
3BA
330
3B3
100
AcDbEntity
  8
0
  6
ByBlock
 62
     0
100
AcDbLine
 10
13.06132128373991
 20
13.23546761781161
 30
0.0
 11
13.31132128373991
 21
13.48546761781161
 31
0.0
  0
TEXT
  5
3BB
330
3B3
100
AcDbEntity
  8
0
  6
ByBlock
 62
     0
100
AcDbText
 10
12.04314653994236
 20
13.29796761781161
 30
0.0
 40
0.125
  1
1 3/4
 72
     1
 11
12.3139798732757
 21
13.36046761781161
 31
0.0
100
AcDbText
 73
     2
  0
POINT
  5
3BC
330
3B3
100
AcDbEntity
  8
DEFPOINTS
  6
ByBlock
 62
     0
100
AcDbPoint
 10
11.44163846281149
 20
12.85563332231261
 30
0.0
  0
POINT
  5
3BD
330
3B3
100
AcDbEntity
  8
DEFPOINTS
  6
ByBlock
 62
     0
100
AcDbPoint
 10
13.18632128373991
 20
12.85563332231261
 30
0.0
  0
POINT
  5
3BE
330
3B3
100
AcDbEntity
  8
DEFPOINTS
  6
ByBlock
 62
     0
100
AcDbPoint
 10
13.18632128373991
 20
13.36046761781161
 30
0.0
  0
ENDBLK
  5
3BF
330
3B3
100
AcDbEntity
  8
0
100
AcDbBlockEnd
  0
BLOCK
  5
400
330
3F5
100
AcDbEntity
  8
0
100
AcDbBlockBegin
  2
*D6
 70
     1
 10
0.0
 20
0.0
 30
0.0
  3
*D6
  1

  0
LINE
  5
455
330
3F5
100
AcDbEntity
  8
ADPDIM
 62
     0
370
    -2
100
AcDbLine
 10
11.83644570999098
 20
12.66583694035292
 30
0.0
 11
11.83644570999098
 21
12.17877099566299
 31
0.0
  0
LINE
  5
456
330
3F5
100
AcDbEntity
  8
ADPDIM
 62
     0
370
    -2
100
AcDbLine
 10
12.92770713024585
 20
12.66583694035292
 30
0.0
 11
12.92770713024585
 21
12.17877099566299
 31
0.0
  0
LINE
  5
457
330
3F5
100
AcDbEntity
  8
ADPDIM
 62
     0
370
    -2
100
AcDbLine
 10
11.65644570999098
 20
12.35877099566299
 30
0.0
 11
11.47644570999098
 21
12.35877099566299
 31
0.0
  0
LINE
  5
458
330
3F5
100
AcDbEntity
  8
ADPDIM
 62
     0
370
    -2
100
AcDbLine
 10
13.10770713024585
 20
12.35877099566299
 30
0.0
 11
13.28770713024585
 21
12.35877099566299
 31
0.0
  0
SOLID
  5
459
330
3F5
100
AcDbEntity
  8
ADPDIM
 62
     0
100
AcDbTrace
 10
11.65644570999098
 20
12.38877099566299
 30
0.0
 11
11.65644570999098
 21
12.328770995663
 31
0.0
 12
11.83644570999098
 22
12.35877099566299
 32
0.0
 13
11.83644570999098
 23
12.35877099566299
 33
0.0
  0
SOLID
  5
45A
330
3F5
100
AcDbEntity
  8
ADPDIM
 62
     0
100
AcDbTrace
 10
13.10770713024585
 20
12.38877099566299
 30
0.0
 11
13.10770713024585
 21
12.328770995663
 31
0.0
 12
12.92770713024585
 22
12.35877099566299
 32
0.0
 13
12.92770713024585
 23
12.35877099566299
 33
0.0
  0
MTEXT
  5
45B
330
3F5
100
AcDbEntity
  8
ADPDIM
 62
     0
100
AcDbMText
 10
12.38207642011842
 20
12.35877099566299
 30
0.0
 40
0.125
 41
0.0
 71
     5
 72
     1
  1
\A1;1 1/16
 73
     1
 44
1.0
1001
ACAD
1000
MTEXTBEGIN
1070
    73
1070
     1
1070
    44
1040
1.0
1070
    74
1070
     0
1000
MTEXTEND
  0
POINT
  5
45C
330
3F5
100
AcDbEntity
  8
DEFPOINTS
 62
     0
100
AcDbPoint
 10
11.83644570999098
 20
12.72833694035292
 30
0.0
  0
POINT
  5
45D
330
3F5
100
AcDbEntity
  8
DEFPOINTS
 62
     0
100
AcDbPoint
 10
12.92770713024585
 20
12.72833694035292
 30
0.0
  0
POINT
  5
45E
330
3F5
100
AcDbEntity
  8
DEFPOINTS
 62
     0
100
AcDbPoint
 10
12.92770713024585
 20
12.35877099566299
 30
0.0
  0
ENDBLK
  5
401
330
3F5
100
AcDbEntity
  8
0
100
AcDbBlockEnd
  0
BLOCK
  5
40D
330
402
100
AcDbEntity
  8
0
100
AcDbBlockBegin
  2
*D7
 70
     1
 10
0.0
 20
0.0
 30
0.0
  3
*D7
  1

  0
LINE
  5
44B
330
402
100
AcDbEntity
  8
ADPDIM
 62
     0
370
    -2
100
AcDbLine
 10
11.50973500965421
 20
12.87898024914153
 30
0.0
 11
11.50973500965421
 21
13.50131454464054
 31
0.0
  0
LINE
  5
44C
330
402
100
AcDbEntity
  8
ADPDIM
 62
     0
370
    -2
100
AcDbLine
 10
13.25441783058262
 20
12.87898024914153
 30
0.0
 11
13.25441783058262
 21
13.50131454464054
 31
0.0
  0
LINE
  5
44D
330
402
100
AcDbEntity
  8
ADPDIM
 62
     0
370
    -2
100
AcDbLine
 10
11.68973500965421
 20
13.32131454464054
 30
0.0
 11
12.02124308678508
 21
13.32131454464054
 31
0.0
  0
LINE
  5
44E
330
402
100
AcDbEntity
  8
ADPDIM
 62
     0
370
    -2
100
AcDbLine
 10
13.07441783058262
 20
13.32131454464054
 30
0.0
 11
12.74290975345175
 21
13.32131454464054
 31
0.0
  0
SOLID
  5
44F
330
402
100
AcDbEntity
  8
ADPDIM
 62
     0
100
AcDbTrace
 10
11.68973500965421
 20
13.35131454464054
 30
0.0
 11
11.68973500965421
 21
13.29131454464054
 31
0.0
 12
11.50973500965421
 22
13.32131454464054
 32
0.0
 13
11.50973500965421
 23
13.32131454464054
 33
0.0
  0
SOLID
  5
450
330
402
100
AcDbEntity
  8
ADPDIM
 62
     0
100
AcDbTrace
 10
13.07441783058262
 20
13.35131454464054
 30
0.0
 11
13.07441783058262
 21
13.29131454464054
 31
0.0
 12
13.25441783058262
 22
13.32131454464054
 32
0.0
 13
13.25441783058262
 23
13.32131454464054
 33
0.0
  0
MTEXT
  5
451
330
402
100
AcDbEntity
  8
ADPDIM
 62
     0
100
AcDbMText
 10
12.38207642011842
 20
13.32131454464054
 30
0.0
 40
0.125
 41
0.0
 71
     5
 72
     1
  1
\A1;1 3/4
 73
     1
 44
1.0
1001
ACAD
1000
MTEXTBEGIN
1070
    73
1070
     1
1070
    44
1040
1.0
1070
    74
1070
     0
1000
MTEXTEND
  0
POINT
  5
452
330
402
100
AcDbEntity
  8
DEFPOINTS
 62
     0
100
AcDbPoint
 10
11.50973500965421
 20
12.81648024914153
 30
0.0
  0
POINT
  5
453
330
402
100
AcDbEntity
  8
DEFPOINTS
 62
     0
100
AcDbPoint
 10
13.25441783058262
 20
12.81648024914153
 30
0.0
  0
POINT
  5
454
330
402
100
AcDbEntity
  8
DEFPOINTS
 62
     0
100
AcDbPoint
 10
13.25441783058262
 20
13.32131454464054
 30
0.0
  0
ENDBLK
  5
40E
330
402
100
AcDbEntity
  8
0
100
AcDbBlockEnd
  0
ENDSEC
  0
SECTION
  2
ENTITIES
  0
ARC
  5
1E
330
2
100
AcDbEntity
  8
ADP1DETAIL
100
AcDbCircle
 10
18.1092002044242
 20
12.84743946780434
 30
0.0
 40
0.125
100
AcDbArc
 50
293.6761468266874
 51
90.0
  0
ARC
  5
20
330
2
100
AcDbEntity
  8
ADP1DETAIL
100
AcDbCircle
 10
18.2883109991338
 20
12.51876239712485
 30
0.0
 40
0.2500000000000005
100
AcDbArc
 50
121.0415745356509
 51
165.8427577143244
  0
LINE
  5
21
330
2
100
AcDbEntity
  8
ADP1DETAIL
100
AcDbLine
 10
17.96955382343514
 20
12.97253704098087
 30
0.0
 11
17.95283314356205
 21
13.03493946780434
 31
0.0
  0
LINE
  5
22
330
2
100
AcDbEntity
  8
ADP1DETAIL
100
AcDbLine
 10
18.1092002044242
 20
12.97253704098087
 30
0.0
 11
17.96955382343514
 21
12.97253704098087
 31
0.0
  0
POINT
  5
23
330
2
100
AcDbEntity
  8
DEFPOINTS
  6
ByBlock
 62
     0
100
AcDbPoint
 10
18.02027511370447
 20
12.8556333223126
 30
0.0
  0
LINE
  5
25
330
2
100
AcDbEntity
  8
ADP1DETAIL
100
AcDbLine
 10
17.6935644133677
 20
12.767490013524
 30
0.0
 11
17.71327145748001
 21
12.579990013524
 31
0.0
  0
LINE
  5
26
330
2
100
AcDbEntity
  8
ADP1DETAIL
100
AcDbLine
 10
17.75828732225121
 20
12.95508758670053
 30
0.0
 11
17.74156664237812
 21
13.017490013524
 31
0.0
  0
LINE
  5
27
330
2
100
AcDbEntity
  8
ADP1DETAIL
100
AcDbLine
 10
17.74168370324026
 20
13.017490013524
 30
0.0
 11
17.68219394617509
 21
13.01727871949634
 31
0.0
  0
LINE
  5
28
330
2
100
AcDbEntity
  8
ADP1DETAIL
100
AcDbLine
 10
17.8397287258127
 20
12.57993370533723
 30
0.0
 11
17.71327145748001
 21
12.579990013524
 31
0.0
  0
LINE
  5
29
330
2
100
AcDbEntity
  8
ADP1DETAIL
100
AcDbLine
 10
17.89793370324026
 20
12.95508758670053
 30
0.0
 11
17.75828732225121
 21
12.95508758670053
 31
0.0
  0
POINT
  5
2A
330
2
100
AcDbEntity
  8
DEFPOINTS
  6
ByBlock
 62
     0
100
AcDbPoint
 10
17.6935644133677
 20
12.767490013524
 30
0.0
  0
LINE
  5
2B
330
2
100
AcDbEntity
  8
ADP1DETAIL
100
AcDbLine
 10
17.49028609096723
 20
12.767449650069
 30
0.0
 11
17.6935644133677
 21
12.767490013524
 31
0.0
  0
ARC
  5
2C
330
2
100
AcDbEntity
  8
ADP1DETAIL
100
AcDbCircle
 10
17.69315218226523
 20
13.64681280690694
 30
0.0
 40
0.6296294546398661
100
AcDbArc
 50
240.4540352126153
 51
269.0027588831186
  0
ARC
  5
2D
330
2
100
AcDbEntity
  8
ADP1DETAIL
100
AcDbCircle
 10
17.98454093922371
 20
13.21118202039239
 30
0.0
 40
0.1790721129837708
100
AcDbArc
 50
192.0689699612933
 51
259.80102176739
  0
ARC
  5
2E
330
2
100
AcDbEntity
  8
ADP1DETAIL
100
AcDbCircle
 10
17.89793370324026
 20
12.829990013524
 30
0.0
 40
0.125
100
AcDbArc
 50
293.6761468266874
 51
90.0
  0
ARC
  5
2F
330
2
100
AcDbEntity
  8
ADP1DETAIL
100
AcDbCircle
 10
18.07704449794987
 20
12.5013129428445
 30
0.0
 40
0.2500000000000005
100
AcDbArc
 50
121.0415745356509
 51
161.6703911787003
  0
ARC
  5
30
330
2
100
AcDbEntity
  8
ADP1DETAIL
100
AcDbCircle
 10
17.14793370324026
 20
12.767490013524
 30
0.0
 40
0.40625
100
AcDbArc
 50
90.0
 51
125.2965290810944
  0
LINE
  5
31
330
2
100
AcDbEntity
  8
ADP1DETAIL
100
AcDbLine
 10
16.8055813155133
 20
12.767449650069
 30
0.0
 11
16.60230299311283
 21
12.767490013524
 31
0.0
  0
LINE
  5
32
330
2
100
AcDbEntity
  8
ADP1DETAIL
100
AcDbLine
 10
16.60230299311283
 20
12.767490013524
 30
0.0
 11
16.58259594900052
 21
12.579990013524
 31
0.0
  0
LINE
  5
33
330
2
100
AcDbEntity
  8
ADP1DETAIL
100
AcDbLine
 10
16.53758008422932
 20
12.95508758670053
 30
0.0
 11
16.55430076410241
 21
13.017490013524
 31
0.0
  0
LINE
  5
34
330
2
100
AcDbEntity
  8
ADP1DETAIL
100
AcDbLine
 10
16.55418370324026
 20
13.017490013524
 30
0.0
 11
16.61367346030543
 21
13.01727871949634
 31
0.0
  0
POINT
  5
35
330
2
100
AcDbEntity
  8
DEFPOINTS
  6
ByBlock
 62
     0
100
AcDbPoint
 10
16.60230299311283
 20
12.767490013524
 30
0.0
  0
ARC
  5
36
330
2
100
AcDbEntity
  8
ADP1DETAIL
100
AcDbCircle
 10
17.14793370324026
 20
12.548740013524
 30
0.0
 40
0.40625
100
AcDbArc
 50
89.96700790642552
 51
147.427785052191
  0
ARC
  5
37
330
2
100
AcDbEntity
  8
ADP1DETAIL
100
AcDbCircle
 10
16.6027152242153
 20
13.64681280690694
 30
0.0
 40
0.6296294546398661
100
AcDbArc
 50
270.9972411168814
 51
299.5459647873847
  0
LINE
  5
38
330
2
100
AcDbEntity
  8
ADP1DETAIL
100
AcDbLine
 10
16.32631358304539
 20
12.97253704098087
 30
0.0
 11
16.34303426291848
 21
13.03493946780434
 31
0.0
  0
LINE
  5
39
330
2
100
AcDbEntity
  8
ADP1DETAIL
100
AcDbLine
 10
16.18666720205633
 20
12.97253704098087
 30
0.0
 11
16.32631358304539
 21
12.97253704098087
 31
0.0
  0
ARC
  5
3A
330
2
100
AcDbEntity
  8
ADP1DETAIL
100
AcDbCircle
 10
16.21882290853066
 20
12.5013129428445
 30
0.0
 40
0.2500000000000005
100
AcDbArc
 50
18.32960882129964
 51
58.95842546434906
  0
ARC
  5
3B
330
2
100
AcDbEntity
  8
ADP1DETAIL
100
AcDbCircle
 10
16.39793370324026
 20
12.829990013524
 30
0.0
 40
0.125
100
AcDbArc
 50
90.0
 51
246.3238531733126
  0
POINT
  5
3C
330
2
100
AcDbEntity
  8
DEFPOINTS
  6
ByBlock
 62
     0
100
AcDbPoint
 10
16.27559229277605
 20
12.8556333223126
 30
0.0
  0
ARC
  5
3D
330
2
100
AcDbEntity
  8
ADP1DETAIL
100
AcDbCircle
 10
16.18666720205633
 20
12.84743946780434
 30
0.0
 40
0.125
100
AcDbArc
 50
90.0
 51
246.3238531733126
  0
ARC
  5
3E
330
2
100
AcDbEntity
  8
ADP1DETAIL
100
AcDbCircle
 10
16.00755640734672
 20
12.51876239712485
 30
0.0
 40
0.2500000000000005
100
AcDbArc
 50
14.15724228567562
 51
58.95842546434906
  0
ARC
  5
3F
330
2
100
AcDbEntity
  8
ADP1DETAIL
100
AcDbCircle
 10
16.31132646725682
 20
13.21118202039239
 30
0.0
 40
0.1790721129837708
100
AcDbArc
 50
280.19897823261
 51
347.9310300387068
  0
LINE
  5
40
330
2
100
AcDbEntity
  8
ADP1DETAIL
100
AcDbLine
 10
16.39793370324026
 20
12.95508758670053
 30
0.0
 11
16.53758008422932
 21
12.95508758670053
 31
0.0
  0
LINE
  5
41
330
2
100
AcDbEntity
  8
ADP1DETAIL
100
AcDbLine
 10
16.45613868066783
 20
12.57993370533723
 30
0.0
 11
16.58259594900052
 21
12.579990013524
 31
0.0
  0
LINE
  5
42
330
2
100
AcDbEntity
  8
ADP1DETAIL
100
AcDbLine
 10
16.8055813155133
 20
12.767449650069
 30
0.0
 11
17.49028609096723
 21
12.767449650069
 31
0.0
  0
LINE
  5
43
330
2
100
AcDbEntity
  8
ADP1DETAIL
100
AcDbLine
 10
16.48644048088834
 20
13.173740013524
 30
0.0
 11
17.80942692559219
 21
13.173740013524
 31
0.0
  0
LINE
  5
44
330
2
100
AcDbEntity
  8
ADP1DETAIL
100
AcDbLine
 10
16.8055813155133
 20
12.767449650069
 30
0.0
 11
17.49028609096723
 21
12.767449650069
 31
0.0
  0
ARC
  5
45
330
2
100
AcDbEntity
  8
ADP1DETAIL
100
AcDbCircle
 10
17.14793370324026
 20
12.767490013524
 30
0.0
 40
0.40625
100
AcDbArc
 50
54.7034709189056
 51
90.0
  0
ARC
  5
46
330
2
100
AcDbEntity
  8
ADP1DETAIL
100
AcDbCircle
 10
17.14793370324026
 20
12.548740013524
 30
0.0
 40
0.40625
100
AcDbArc
 50
32.57221494780893
 51
90.03299209357448
  0
LINE
  5
47
330
2
100
AcDbEntity
  8
ADP1DETAIL
100
AcDbLine
 10
16.30137345186552
 20
15.39539638268912
 30
0.0
 11
16.55410297700903
 21
15.39539638268912
 31
0.0
  0
LINE
  5
48
330
2
100
AcDbEntity
  8
ADP1DETAIL
100
AcDbLine
 10
16.05137345186552
 20
15.13539638268912
 30
0.0
 11
16.26482269769643
 21
15.13539638268912
 31
0.0
  0
LWPOLYLINE
  5
49
330
2
100
AcDbEntity
  8
ADP1DETAIL
100
AcDbPolyline
 90
        3
 70
     0
 43
0.0
 10
16.55410297700903
 20
15.39539638268912
 10
16.78223114036548
 20
15.39539638268912
 42
-0.2711863860665363
 10
17.1413734518655
 20
15.56539638268912
  0
LINE
  5
4E
330
2
100
AcDbEntity
  8
ADP1DETAIL
100
AcDbLine
 10
17.73276423234135
 20
15.39539638268911
 30
0.0
 11
17.98137345186552
 21
15.39539638268911
 31
0.0
  0
LINE
  5
4F
330
2
100
AcDbEntity
  8
ADP1DETAIL
100
AcDbLine
 10
18.01792420603461
 20
15.13539638268912
 30
0.0
 11
18.23137345186552
 21
15.13539638268912
 31
0.0
  0
LINE
  5
50
330
2
100
AcDbEntity
  8
ADP1DETAIL
100
AcDbLine
 10
17.98137345186552
 20
17.06539638268912
 30
0.0
 11
17.98137345186552
 21
15.39539638268911
 31
0.0
  0
LINE
  5
51
330
2
100
AcDbEntity
  8
ADP1DETAIL
100
AcDbLine
 10
17.81137345186552
 20
16.89539638268912
 30
0.0
 11
17.81137345186552
 21
15.56539638268911
 31
0.0
  0
LINE
  5
52
330
2
100
AcDbEntity
  8
ADP1DETAIL
100
AcDbLine
 10
16.48137345186551
 20
15.56539638268911
 30
0.0
 11
17.81137345186552
 21
15.56539638268911
 31
0.0
  0
LWPOLYLINE
  5
53
330
2
100
AcDbEntity
  8
ADP1DETAIL
100
AcDbPolyline
 90
        3
 70
     0
 43
0.0
 10
17.728643926722
 20
15.39539638268912
 10
17.50051576336556
 20
15.39539638268912
 42
0.2711863860665363
 10
17.14137345186554
 20
15.56539638268912
  0
LINE
  5
58
330
2
100
AcDbEntity
  8
ADP1DETAIL
100
AcDbLine
 10
18.01792420603461
 20
13.56539638268912
 30
0.0
 11
16.26894323381815
 21
13.56539638268912
 31
0.0
  0
LINE
  5
59
330
2
100
AcDbEntity
  8
ADP1DETAIL
100
AcDbLine
 10
17.73276423234135
 20
15.39539638268911
 30
0.0
 11
17.73276423234135
 21
13.56539638268912
 31
0.0
  0
LINE
  5
5A
330
2
100
AcDbEntity
  8
ADP1DETAIL
100
AcDbLine
 10
18.01792420603461
 20
15.13539638268912
 30
0.0
 11
18.01792420603461
 21
13.56539638268912
 31
0.0
  0
LINE
  5
5B
330
2
100
AcDbEntity
  8
ADP2DETAIL
  6
HIDDEN2
100
AcDbLine
 10
17.69577323631473
 20
13.56539638268912
 30
0.0
 11
17.69401046315477
 21
16.77391059276982
 31
0.0
  0
LINE
  5
5E
330
2
100
AcDbEntity
  8
ADP2DETAIL
  6
HIDDEN2
100
AcDbLine
 10
17.4676453034606
 20
13.56539638268912
 30
0.0
 11
17.46600553222098
 21
16.55002846304458
 31
0.0
  0
LINE
  5
5F
330
2
100
AcDbEntity
  8
ADP1DETAIL
100
AcDbLine
 10
16.26894323381815
 20
15.13539638268912
 30
0.0
 11
16.26894323381815
 21
13.56539638268912
 31
0.0
  0
LINE
  5
60
330
2
100
AcDbEntity
  8
ADP1DETAIL
100
AcDbLine
 10
16.55410297700903
 20
15.39539638268912
 30
0.0
 11
16.55410297700903
 21
13.56539638268912
 31
0.0
  0
LINE
  5
61
330
2
100
AcDbEntity
  8
ADP2DETAIL
  6
HIDDEN2
100
AcDbLine
 10
16.59109420353802
 20
13.56539638268912
 30
0.0
 11
16.59225393143997
 21
15.67627686226357
 31
0.0
  0
LINE
  5
62
330
2
100
AcDbEntity
  8
ADP2DETAIL
  6
HIDDEN2
100
AcDbLine
 10
16.81922213639215
 20
13.56539638268912
 30
0.0
 11
16.82050726777642
 21
15.90453019860001
 31
0.0
  0
LINE
  5
63
330
2
100
AcDbEntity
  8
ADP1DETAIL
100
AcDbLine
 10
18.23137345186552
 20
17.31539638268912
 30
0.0
 11
18.23137345186552
 21
15.13539638268912
 31
0.0
  0
LINE
  5
80
330
2
100
AcDbEntity
  8
ADP1DETAIL
100
AcDbLine
 10
14.48137345186552
 20
12.58758362530503
 30
0.0
 11
18.04592819797381
 21
12.57993370533723
 31
0.0
  0
LINE
  5
A8
330
2
100
AcDbEntity
  8
ADP1DETAIL
100
AcDbLine
 10
16.31137345186552
 20
17.06539638268912
 30
0.0
 11
16.31137345186552
 21
16.8126668575456
 31
0.0
  0
LINE
  5
A9
330
2
100
AcDbEntity
  8
ADP1DETAIL
100
AcDbLine
 10
16.05137345186552
 20
17.31539638268912
 30
0.0
 11
16.05137345186552
 21
17.10194713685821
 31
0.0
  0
LWPOLYLINE
  5
AA
330
2
100
AcDbEntity
  8
ADP1DETAIL
100
AcDbPolyline
 90
        3
 70
     0
 43
0.0
 10
16.31137345186552
 20
16.8126668575456
 10
16.31137345186552
 20
16.58453869418915
 42
-0.2711863860665363
 10
16.48137345186552
 20
16.22539638268914
  0
LINE
  5
AF
330
2
100
AcDbEntity
  8
ADP1DETAIL
100
AcDbLine
 10
16.48137345186552
 20
16.89539638268912
 30
0.0
 11
17.81137345186552
 21
16.89539638268912
 31
0.0
  0
LINE
  5
B0
330
2
100
AcDbEntity
  8
ADP1DETAIL
100
AcDbLine
 10
16.31137345186551
 20
17.06539638268912
 30
0.0
 11
17.98137345186552
 21
17.06539638268912
 31
0.0
  0
LINE
  5
B1
330
2
100
AcDbEntity
  8
ADP2DETAIL
  6
HIDDEN2
100
AcDbLine
 10
17.84218767793822
 20
12.58758362530502
 30
0.0
 11
17.84202415561665
 21
12.75911884541976
 31
0.0
  0
LINE
  5
B2
330
2
100
AcDbEntity
  8
ADP2DETAIL
  6
HIDDEN2
100
AcDbLine
 10
17.88218769611335
 20
12.58758362530503
 30
0.0
 11
17.88202415284215
 21
12.75914082161088
 31
0.0
  0
LINE
  5
B3
330
2
100
AcDbEntity
  8
ADP1DETAIL
100
AcDbLine
 10
16.31137345186552
 20
15.63400560221329
 30
0.0
 11
16.31137345186552
 21
15.38539638268912
 31
0.0
  0
LINE
  5
B4
330
2
100
AcDbEntity
  8
ADP1DETAIL
100
AcDbLine
 10
16.05137345186552
 20
15.34884562852003
 30
0.0
 11
16.05137345186552
 21
15.13539638268912
 31
0.0
  0
LWPOLYLINE
  5
B5
330
2
100
AcDbEntity
  8
ADP1DETAIL
100
AcDbPolyline
 90
        3
 70
     0
 43
0.0
 10
16.31137345186552
 20
15.63812590783263
 10
16.31137345186552
 20
15.86625407118908
 42
0.2711863860665363
 10
16.48137345186552
 20
16.2253963826891
  0
LINE
  5
BA
330
2
100
AcDbEntity
  8
ADP1DETAIL
100
AcDbLine
 10
16.48137345186552
 20
16.89539638268912
 30
0.0
 11
16.48137345186551
 21
15.56539638268911
 31
0.0
  0
LINE
  5
BB
330
2
100
AcDbEntity
  8
ADP1DETAIL
100
AcDbLine
 10
14.48137345186552
 20
12.58758362530503
 30
0.0
 11
14.48137345186552
 21
13.15629055924366
 31
0.0
  0
LINE
  5
BC
330
2
100
AcDbEntity
  8
ADP1DETAIL
100
AcDbLine
 10
14.48137345186552
 20
15.34884562852003
 30
0.0
 11
14.48137345186552
 21
17.09782660073649
 31
0.0
  0
LINE
  5
BD
330
2
100
AcDbEntity
  8
ADP2DETAIL
  6
HIDDEN2
100
AcDbLine
 10
14.48137345186552
 20
16.54754769816248
 30
0.0
 11
17.46188725869857
 21
16.54591018952217
 31
0.0
  0
LINE
  5
BE
330
2
100
AcDbEntity
  8
ADP2DETAIL
  6
HIDDEN2
100
AcDbLine
 10
14.48137345186552
 20
16.77567563101662
 30
0.0
 11
17.69401046315477
 21
16.77391059276982
 31
0.0
  0
LINE
  5
BF
330
2
100
AcDbEntity
  8
ADP1DETAIL
100
AcDbLine
 10
16.31137345186552
 20
16.8126668575456
 30
0.0
 11
14.48137345186552
 21
16.8126668575456
 31
0.0
  0
LINE
  5
C0
330
2
100
AcDbEntity
  8
ADP1DETAIL
100
AcDbLine
 10
16.05137345186552
 20
17.09782660073649
 30
0.0
 11
14.48137345186552
 21
17.09782660073649
 31
0.0
  0
LINE
  5
C1
330
2
100
AcDbEntity
  8
ADP2DETAIL
  6
HIDDEN2
100
AcDbLine
 10
14.48137345186552
 20
15.89912453109404
 30
0.0
 11
16.81638446656787
 21
15.90040739739146
 31
0.0
  0
LINE
  5
C2
330
2
100
AcDbEntity
  8
ADP2DETAIL
  6
HIDDEN2
100
AcDbLine
 10
14.48137345186552
 20
15.6709965982399
 30
0.0
 11
16.58813113023143
 21
15.67215406105503
 31
0.0
  0
LINE
  5
C3
330
2
100
AcDbEntity
  8
ADP1DETAIL
100
AcDbLine
 10
16.05137345186552
 20
15.34884562852003
 30
0.0
 11
14.48137345186552
 21
15.34884562852003
 31
0.0
  0
LINE
  5
C4
330
2
100
AcDbEntity
  8
ADP1DETAIL
100
AcDbLine
 10
16.31137345186552
 20
15.63400560221329
 30
0.0
 11
14.48137345186552
 21
15.63400560221329
 31
0.0
  0
LINE
  5
C5
330
2
100
AcDbEntity
  8
ADP1DETAIL
100
AcDbLine
 10
14.48137345186552
 20
13.15629055924366
 30
0.0
 11
17.80435989656936
 21
13.15629055924366
 31
0.0
  0
LINE
  5
C6
330
2
100
AcDbEntity
  8
ADP1DETAIL
100
AcDbLine
 10
14.48137345186552
 20
13.02359227564189
 30
0.0
 11
17.923624978186
 21
13.02359227564189
 31
0.0
  0
LINE
  5
C7
330
2
100
AcDbEntity
  8
ADP2DETAIL
  6
HIDDEN2
100
AcDbLine
 10
14.48137345186552
 20
12.75727248773745
 30
0.0
 11
17.88202415284215
 21
12.75914082161088
 31
0.0
  0
LINE
  5
C9
330
2
100
AcDbEntity
  8
ADP1DETAIL
100
AcDbLine
 10
16.05137345186552
 20
17.31539638268912
 30
0.0
 11
18.23137345186552
 21
17.31539638268912
 31
0.0
  0
LINE
  5
CA
330
2
100
AcDbEntity
  8
ADP1DETAIL
100
AcDbLine
 10
14.48137345186552
 20
12.94776469722517
 30
0.0
 11
18.14601543750707
 21
12.94776469722516
 31
0.0
  0
DIMENSION
  5
CB
330
2
100
AcDbEntity
  8
ADPDIM
100
AcDbDimension
  2
*D2
 10
18.22647458586558
 20
12.39801465951795
 30
0.0
 11
16.35392401886555
 21
12.39801465951795
 31
0.0
 70
    32
 71
     5
 42
-1.0
  3
STANDARD
100
AcDbAlignedDimension
 13
14.48137345186552
 23
12.58758362530503
 33
0.0
 14
18.22647458586558
 24
12.85563332231261
 34
0.0
100
AcDbRotatedDimension
1001
ACAD
1000
DSTYLE
1002
{
1070
   270
1070
     7
1070
   270
1070
     7
1070
   270
1070
     7
1070
   270
1070
     7
1070
    41
1040
0.125
1070
    73
1070
     0
1070
    74
1070
     0
1070
    78
1070
     2
1070
   140
1040
0.125
1070
   141
1040
0.1875
1070
   142
1040
0.125
1070
   147
1040
0.125
1070
   171
1070
     1
1070
   271
1070
     2
1070
   276
1070
     2
1070
   277
1070
     5
1002
}
  0
TEXT
  5
E3
330
2
100
AcDbEntity
  8
ADPDIM
100
AcDbText
 10
7.797955563052425
 20
11.61736693442444
 30
0.0
 40
0.125
  1
J U L I U S  B L U M  &  C O . ,  I N C .      ( 8 0 0 )  5 2 6 - 6 2 9 3        W W W . J U L I U S B L U M . C O M        P A R T  N o .  4 4 2 9 - L
 41
1.25
  7
ARIAL_WIDE
 72
     1
 11
14.48137345186552
 21
11.74236693442444
 31
0.0
100
AcDbText
 73
     3
  0
ARC
  5
3DD
330
2
100
AcDbEntity
  8
ADP1DETAIL
100
AcDbCircle
 10
12.38207642011842
 20
12.72833694035292
 30
0.0
 40
0.40625
100
AcDbArc
 50
54.7034709189056
 51
90.0
  0
ARC
  5
3DE
330
2
100
AcDbEntity
  8
ADP1DETAIL
100
AcDbCircle
 10
12.38207642011842
 20
12.50958694035292
 30
0.0
 40
0.40625
100
AcDbArc
 50
32.57221494780888
 51
90.03299209357448
  0
DIMENSION
  5
3DF
330
2
100
AcDbEntity
  8
ADPDIM
100
AcDbDimension
  2
*D6
 10
12.92770713024585
 20
12.35877099566299
 30
0.0
 11
12.38207642011842
 21
12.35877099566299
 31
0.0
 70
    32
 71
     5
 42
1.091261420254866
  3
STANDARD
100
AcDbAlignedDimension
 13
11.83644570999098
 23
12.72833694035292
 33
0.0
 14
12.92770713024585
 24
12.72833694035292
 34
0.0
100
AcDbRotatedDimension
1001
ACAD
1000
DSTYLE
1002
{
1070
   140
1040
0.125
1070
   276
1070
     2
1070
   277
1070
     5
1002
}
  0
DIMENSION
  5
3E0
330
2
100
AcDbEntity
  8
ADPDIM
100
AcDbDimension
  2
*D7
 10
13.25441783058262
 20
13.32131454464054
 30
0.0
 11
12.38207642011842
 21
13.32131454464054
 31
0.0
 70
    32
 71
     5
 42
1.744682820928417
  3
STANDARD
100
AcDbAlignedDimension
 13
11.50973500965421
 23
12.81648024914153
 33
0.0
 14
13.25441783058262
 24
12.81648024914153
 34
0.0
100
AcDbRotatedDimension
1001
ACAD
1000
DSTYLE
1002
{
1070
   140
1040
0.125
1070
   276
1070
     2
1070
   277
1070
     5
1002
}
  0
LINE
  5
3E1
330
2
100
AcDbEntity
  8
ADP1DETAIL
100
AcDbLine
 10
11.63207642011842
 20
12.91593451352945
 30
0.0
 11
11.77172280110747
 21
12.91593451352945
 31
0.0
  0
LINE
  5
3E2
330
2
100
AcDbEntity
  8
ADP1DETAIL
100
AcDbLine
 10
11.69028139754598
 20
12.54078063216615
 30
0.0
 11
11.81673866587867
 21
12.54083694035292
 31
0.0
  0
ARC
  5
3E3
330
2
100
AcDbEntity
  8
ADP1DETAIL
100
AcDbCircle
 10
11.45296562540881
 20
12.46215986967343
 30
0.0
 40
0.2500000000000005
100
AcDbArc
 50
18.32960882129966
 51
58.95842546434901
  0
ARC
  5
3E4
330
2
100
AcDbEntity
  8
ADP1DETAIL
100
AcDbCircle
 10
11.63207642011842
 20
12.79083694035292
 30
0.0
 40
0.125
100
AcDbArc
 50
90.0
 51
246.3238531733126
  0
ARC
  5
3E5
330
2
100
AcDbEntity
  8
ADP1DETAIL
100
AcDbCircle
 10
11.83685794109345
 20
13.60765973373586
 30
0.0
 40
0.6296294546398661
100
AcDbArc
 50
270.9972411168814
 51
299.5459647873847
  0
ARC
  5
3E6
330
2
100
AcDbEntity
  8
ADP1DETAIL
100
AcDbCircle
 10
12.38207642011842
 20
12.50958694035292
 30
0.0
 40
0.40625
100
AcDbArc
 50
89.96700790642551
 51
147.427785052191
  0
LINE
  5
3E7
330
2
100
AcDbEntity
  8
ADP1DETAIL
100
AcDbLine
 10
12.03972403239145
 20
12.72829657689793
 30
0.0
 11
11.83644570999098
 21
12.72833694035292
 31
0.0
  0
LINE
  5
3E8
330
2
100
AcDbEntity
  8
ADP1DETAIL
100
AcDbLine
 10
11.83644570999098
 20
12.72833694035292
 30
0.0
 11
11.81673866587867
 21
12.54083694035292
 31
0.0
  0
LINE
  5
3E9
330
2
100
AcDbEntity
  8
ADP1DETAIL
100
AcDbLine
 10
11.77172280110747
 20
12.91593451352945
 30
0.0
 11
11.78844348098056
 21
12.97833694035292
 31
0.0
  0
LINE
  5
3EA
330
2
100
AcDbEntity
  8
ADP1DETAIL
100
AcDbLine
 10
11.78832642011842
 20
12.97833694035292
 30
0.0
 11
11.84781617718358
 21
12.97812564632526
 31
0.0
  0
ARC
  5
3EB
330
2
100
AcDbEntity
  8
ADP1DETAIL
100
AcDbCircle
 10
12.38207642011842
 20
12.72833694035292
 30
0.0
 40
0.40625
100
AcDbArc
 50
90.0
 51
125.2965290810943
  0
ARC
  5
3EC
330
2
100
AcDbEntity
  8
ADP1DETAIL
100
AcDbCircle
 10
13.13207642011842
 20
12.79083694035292
 30
0.0
 40
0.125
100
AcDbArc
 50
293.6761468266873
 51
90.0
  0
ARC
  5
3ED
330
2
100
AcDbEntity
  8
ADP1DETAIL
100
AcDbCircle
 10
13.31118721482802
 20
12.46215986967343
 30
0.0
 40
0.2500000000000005
100
AcDbArc
 50
121.0415745356509
 51
161.6703911787003
  0
ARC
  5
3EE
330
2
100
AcDbEntity
  8
ADP1DETAIL
100
AcDbCircle
 10
12.92729489914338
 20
13.60765973373586
 30
0.0
 40
0.6296294546398661
100
AcDbArc
 50
240.4540352126153
 51
269.0027588831186
  0
LINE
  5
3EF
330
2
100
AcDbEntity
  8
ADP1DETAIL
100
AcDbLine
 10
12.72442880784538
 20
12.72829657689793
 30
0.0
 11
12.92770713024585
 21
12.72833694035292
 31
0.0
  0
LINE
  5
3F0
330
2
100
AcDbEntity
  8
ADP1DETAIL
100
AcDbLine
 10
12.92770713024585
 20
12.72833694035292
 30
0.0
 11
12.94741417435816
 21
12.54083694035292
 31
0.0
  0
LINE
  5
3F1
330
2
100
AcDbEntity
  8
ADP1DETAIL
100
AcDbLine
 10
12.99243003912936
 20
12.91593451352945
 30
0.0
 11
12.97570935925627
 21
12.97833694035292
 31
0.0
  0
LINE
  5
3F2
330
2
100
AcDbEntity
  8
ADP1DETAIL
100
AcDbLine
 10
12.97582642011842
 20
12.97833694035292
 30
0.0
 11
12.91633666305325
 21
12.97812564632526
 31
0.0
  0
LINE
  5
3F3
330
2
100
AcDbEntity
  8
ADP1DETAIL
100
AcDbLine
 10
13.07387144269085
 20
12.54078063216615
 30
0.0
 11
12.94741417435816
 21
12.54083694035292
 31
0.0
  0
LINE
  5
3F4
330
2
100
AcDbEntity
  8
ADP1DETAIL
100
AcDbLine
 10
13.13207642011842
 20
12.91593451352945
 30
0.0
 11
12.99243003912936
 21
12.91593451352945
 31
0.0
  0
ENDSEC
  0
SECTION
  2
OBJECTS
  0
DICTIONARY
  5
1B
330
0
100
AcDbDictionary
281
     1
  3
ACAD_COLOR
350
323
  3
ACAD_GROUP
350
19
  3
ACAD_LAYOUT
350
DC
  3
ACAD_MATERIAL
350
30E
  3
ACAD_MLINESTYLE
350
1A
  3
ACAD_PLOTSETTINGS
350
DD
  3
ACAD_PLOTSTYLENAME
350
DA
  3
ACAD_TABLESTYLE
350
324
  3
ACAD_VISUALSTYLE
350
312
  3
AcDbVariableDictionary
350
18D
  3
DWGPROPS
350
47E
  0
DICTIONARY
  5
15E
330
2
100
AcDbDictionary
280
     1
281
     1
  3
ACAD_LAYOUTSELFREF
360
2E7
  0
DICTIONARY
  5
160
330
8
100
AcDbDictionary
280
     1
281
     1
  3
ACAD_LAYOUTSELFREF
360
2E8
  0
DICTIONARY
  5
323
102
{ACAD_REACTORS
330
1B
102
}
330
1B
100
AcDbDictionary
281
     1
  0
DICTIONARY
  5
19
102
{ACAD_REACTORS
330
1B
102
}
330
1B
100
AcDbDictionary
281
     1
  0
DICTIONARY
  5
DC
102
{ACAD_REACTORS
330
1B
102
}
330
1B
100
AcDbDictionary
281
     1
  3
Layout1
350
DF
  3
Model
350
DE
  0
DICTIONARY
  5
30E
102
{ACAD_REACTORS
330
1B
102
}
330
1B
100
AcDbDictionary
281
     1
  3
ByBlock
350
310
  3
ByLayer
350
30F
  3
Global
350
311
  0
DICTIONARY
  5
1A
102
{ACAD_REACTORS
330
1B
102
}
330
1B
100
AcDbDictionary
281
     1
  3
STANDARD
350
1C
  0
DICTIONARY
  5
DD
102
{ACAD_REACTORS
330
1B
102
}
330
1B
100
AcDbDictionary
281
     1
  0
ACDBDICTIONARYWDFLT
  5
DA
102
{ACAD_REACTORS
330
1B
102
}
330
1B
100
AcDbDictionary
281
     1
  3
Normal
350
DB
100
AcDbDictionaryWithDefault
340
DB
  0
DICTIONARY
  5
324
102
{ACAD_REACTORS
330
1B
102
}
330
1B
100
AcDbDictionary
281
     1
  3
Standard
350
325
  0
DICTIONARY
  5
312
102
{ACAD_REACTORS
330
1B
102
}
330
1B
100
AcDbDictionary
281
     1
  3
2dWireframe
350
318
  3
3D Hidden
350
31A
  3
3dWireframe
350
319
  3
Basic
350
317
  3
Brighten
350
31E
  3
ColorChange
350
322
  3
Conceptual
350
31B
  3
Dim
350
31D
  3
Facepattern
350
321
  3
Flat
350
313
  3
FlatWithEdges
350
314
  3
Gouraud
350
315
  3
GouraudWithEdges
350
316
  3
Linepattern
350
320
  3
Realistic
350
31C
  3
Thicken
350
31F
  0
DICTIONARY
  5
18D
102
{ACAD_REACTORS
330
1B
102
}
330
1B
100
AcDbDictionary
281
     1
  3
CTABLESTYLE
350
47B
  3
DIMASSOC
350
18E
  3
INDEXCTL
350
47D
  3
SORTENTS
350
47C
  0
XRECORD
  5
47E
102
{ACAD_REACTORS
330
1B
102
}
330
1B
100
AcDbXrecord
280
     1
  1
DWGPROPS COOKIE
  2

  3

  4

  6

  7

  8
Yu Hu
  9

300
=
301
=
302
=
303
=
304
=
305
=
306
=
307
=
308
=
309
=
 40
0.0934070486111111
 41
2450366.651843171
 42
2453972.966215521
  1

 90
        0
  0
XRECORD
  5
2E7
102
{ACAD_REACTORS
330
15E
102
}
330
15E
100
AcDbXrecord
280
     1
340
2
  0
XRECORD
  5
2E8
102
{ACAD_REACTORS
330
160
102
}
330
160
100
AcDbXrecord
280
     1
340
8
  0
LAYOUT
  5
DF
102
{ACAD_XDICTIONARY
360
481
102
}
102
{ACAD_REACTORS
330
DC
102
}
330
DC
100
AcDbPlotSettings
  1

  2
Fax
  4

  6

 40
0.0
 41
0.0
 42
0.0
 43
0.0
 44
0.0
 45
0.0
 46
0.0
 47
0.0
 48
0.0
 49
0.0
140
0.0
141
0.0
142
1.0
143
1.0
 70
   688
 72
     0
 73
     0
 74
     5
  7
Default R14 pen assignments.ctb
 75
    16
147
1.0
148
0.0
149
0.0
100
AcDbLayout
  1
Layout1
 70
     1
 71
     1
 10
0.0
 20
0.0
 11
12.0
 21
9.0
 12
0.1250013113021854
 22
0.0
 32
0.0
 14
1.000000000000000E+20
 24
1.000000000000000E+20
 34
1.000000000000000E+20
 15
-1.000000000000000E+20
 25
-1.000000000000000E+20
 35
-1.000000000000000E+20
146
0.0
 13
0.0
 23
0.0
 33
0.0
 16
1.0
 26
0.0
 36
0.0
 17
0.0
 27
1.0
 37
0.0
 76
     0
330
8
  0
LAYOUT
  5
DE
102
{ACAD_XDICTIONARY
360
47F
102
}
102
{ACAD_REACTORS
330
DC
102
}
330
DC
100
AcDbPlotSettings
  1

  2
Fax
  4

  6

 40
0.0
 41
0.0
 42
0.0
 43
0.0
 44
0.0
 45
0.0
 46
0.0
 47
0.0
 48
0.0
 49
0.0
140
0.0
141
0.0
142
1.0
143
1.0
 70
  1712
 72
     0
 73
     0
 74
     0
  7
Default R14 pen assignments.ctb
 75
     0
147
1.0
148
0.0
149
0.0
100
AcDbLayout
  1
Model
 70
     1
 71
     0
 10
0.0
 20
0.0
 11
12.0
 21
9.0
 12
0.0
 22
0.0
 32
0.0
 14
0.0
 24
0.0
 34
0.0
 15
0.0
 25
0.0
 35
0.0
146
0.0
 13
0.0
 23
0.0
 33
0.0
 16
1.0
 26
0.0
 36
0.0
 17
0.0
 27
1.0
 37
0.0
 76
     0
330
2
331
2C3
  0
MATERIAL
  5
310
102
{ACAD_XDICTIONARY
360
485
102
}
102
{ACAD_REACTORS
330
30E
102
}
330
30E
100
AcDbMaterial
  1
ByBlock
  0
MATERIAL
  5
30F
102
{ACAD_XDICTIONARY
360
483
102
}
102
{ACAD_REACTORS
330
30E
102
}
330
30E
100
AcDbMaterial
  1
ByLayer
  0
MATERIAL
  5
311
102
{ACAD_XDICTIONARY
360
487
102
}
102
{ACAD_REACTORS
330
30E
102
}
330
30E
100
AcDbMaterial
  1
Global
  0
MLINESTYLE
  5
1C
102
{ACAD_REACTORS
330
1A
102
}
330
1A
100
AcDbMlineStyle
  2
STANDARD
 70
     0
  3

 62
     0
 51
90.0
 52
90.0
 71
     2
 49
0.5
 62
   256
  6
BYLAYER
 49
-0.5
 62
   256
  6
BYLAYER
  0
ACDBPLACEHOLDER
  5
DB
102
{ACAD_REACTORS
330
DA
102
}
330
DA
  0
TABLESTYLE
  5
325
102
{ACAD_XDICTIONARY
360
489
102
}
102
{ACAD_REACTORS
330
324
102
}
330
324
100
AcDbTableStyle
  3
Standard
 70
     0
 71
     0
 40
0.06
 41
0.06
280
     0
281
     0
  7
STANDARD
140
0.18
170
     2
 62
     0
 63
     7
283
     0
274
    -2
284
     1
 64
     0
275
    -2
285
     1
 65
     0
276
    -2
286
     1
 66
     0
277
    -2
287
     1
 67
     0
278
    -2
288
     1
 68
     0
279
    -2
289
     1
 69
     0
  7
STANDARD
140
0.25
170
     5
 62
     0
 63
     7
283
     0
274
    -2
284
     1
 64
     0
275
    -2
285
     1
 65
     0
276
    -2
286
     1
 66
     0
277
    -2
287
     1
 67
     0
278
    -2
288
     1
 68
     0
279
    -2
289
     1
 69
     0
  7
STANDARD
140
0.18
170
     5
 62
     0
 63
     7
283
     0
274
    -2
284
     1
 64
     0
275
    -2
285
     1
 65
     0
276
    -2
286
     1
 66
     0
277
    -2
287
     1
 67
     0
278
    -2
288
     1
 68
     0
279
    -2
289
     1
 69
     0
  0
VISUALSTYLE
  5
318
102
{ACAD_REACTORS
330
312
102
}
330
312
100
AcDbVisualStyle
  2
2dWireframe
 70
     4
 71
     0
 72
     2
 73
     0
 90
        0
 40
-0.6
 41
-30.0
 62
     5
 63
     7
 74
     1
 91
        4
 64
     7
 65
   257
 75
     1
175
     1
 42
1.0
 92
        0
 66
   257
 43
1.0
 76
     1
 77
     6
 78
     2
 67
     7
 79
     5
170
     0
171
     0
290
     0
174
     0
 93
        1
 44
0.0
173
     0
291
     0
 45
0.0
1001
ACAD
1000
AcDbSavedByObjectVersion
1070
     0
  0
VISUALSTYLE
  5
31A
102
{ACAD_REACTORS
330
312
102
}
330
312
100
AcDbVisualStyle
  2
3D Hidden
 70
     6
 71
     1
 72
     2
 73
     2
 90
        0
 40
-0.6
 41
-30.0
 62
     5
 63
     7
 74
     2
 91
        2
 64
     7
 65
   257
 75
     2
175
     1
 42
40.0
 92
        0
 66
   257
 43
1.0
 76
     1
 77
     6
 78
     2
 67
     7
 79
     3
170
     0
171
     0
290
     0
174
     0
 93
        1
 44
0.0
173
     0
291
     0
 45
0.0
1001
ACAD
1000
AcDbSavedByObjectVersion
1070
     0
  0
VISUALSTYLE
  5
319
102
{ACAD_REACTORS
330
312
102
}
330
312
100
AcDbVisualStyle
  2
3dWireframe
 70
     5
 71
     0
 72
     2
 73
     0
 90
        0
 40
-0.6
 41
-30.0
 62
     5
 63
     7
 74
     1
 91
        4
 64
     7
 65
   257
 75
     1
175
     1
 42
1.0
 92
        0
 66
   257
 43
1.0
 76
     1
 77
     6
 78
     2
 67
     7
 79
     5
170
     0
171
     0
290
     0
174
     0
 93
        1
 44
0.0
173
     0
291
     0
 45
0.0
1001
ACAD
1000
AcDbSavedByObjectVersion
1070
     0
  0
VISUALSTYLE
  5
317
102
{ACAD_REACTORS
330
312
102
}
330
312
100
AcDbVisualStyle
  2
Basic
 70
     7
 71
     1
 72
     0
 73
     1
 90
        0
 40
-0.6
 41
-30.0
 62
     5
 63
     7
 74
     0
 91
        4
 64
     7
 65
   257
 75
     1
175
     1
 42
1.0
 92
        8
 66
     7
 43
1.0
 76
     1
 77
     6
 78
     2
 67
     7
 79
     5
170
     0
171
     0
290
     0
174
     0
 93
        1
 44
0.0
173
     0
291
     1
 45
0.0
1001
ACAD
1000
AcDbSavedByObjectVersion
1070
     0
  0
VISUALSTYLE
  5
31E
102
{ACAD_REACTORS
330
312
102
}
330
312
100
AcDbVisualStyle
  2
Brighten
 70
    12
 71
     2
 72
     2
 73
     0
 90
        0
 40
-0.6
 41
-30.0
 62
     5
 63
     7
 74
     1
 91
        4
 64
     7
 65
   257
 75
     1
175
     1
 42
1.0
 92
        8
 66
     7
 43
1.0
 76
     1
 77
     6
 78
     2
 67
     7
 79
     5
170
     0
171
     0
290
     0
174
     0
 93
        1
 44
50.0
173
     0
291
     1
 45
0.0
1001
ACAD
1000
AcDbSavedByObjectVersion
1070
     0
  0
VISUALSTYLE
  5
322
102
{ACAD_REACTORS
330
312
102
}
330
312
100
AcDbVisualStyle
  2
ColorChange
 70
    16
 71
     2
 72
     2
 73
     3
 90
        0
 40
-0.6
 41
-30.0
 62
     5
 63
     8
 74
     1
 91
        4
 64
     7
 65
   257
 75
     1
175
     1
 42
1.0
 92
        8
 66
     8
 43
1.0
 76
     1
 77
     6
 78
     2
 67
     7
 79
     5
170
     0
171
     0
290
     0
174
     0
 93
        1
 44
0.0
173
     0
291
     1
 45
0.0
1001
ACAD
1000
AcDbSavedByObjectVersion
1070
     0
  0
VISUALSTYLE
  5
31B
102
{ACAD_REACTORS
330
312
102
}
330
312
100
AcDbVisualStyle
  2
Conceptual
 70
     9
 71
     3
 72
     2
 73
     0
 90
        0
 40
-0.6
 41
-30.0
 62
     5
 63
     7
 74
     2
 91
        2
 64
     7
 65
   257
 75
     1
175
     1
 42
40.0
 92
        8
 66
     7
 43
1.0
 76
     1
 77
     6
 78
     2
 67
     7
 79
     3
170
     0
171
     0
290
     0
174
     0
 93
        1
 44
0.0
173
     0
291
     0
 45
0.0
1001
ACAD
1000
AcDbSavedByObjectVersion
1070
     0
  0
VISUALSTYLE
  5
31D
102
{ACAD_REACTORS
330
312
102
}
330
312
100
AcDbVisualStyle
  2
Dim
 70
    11
 71
     2
 72
     2
 73
     0
 90
        0
 40
-0.6
 41
-30.0
 62
     5
 63
     7
 74
     1
 91
        4
 64
     7
 65
   257
 75
     1
175
     1
 42
1.0
 92
        8
 66
     7
 43
1.0
 76
     1
 77
     6
 78
     2
 67
     7
 79
     5
170
     0
171
     0
290
     0
174
     0
 93
        1
 44
-50.0
173
     0
291
     1
 45
0.0
1001
ACAD
1000
AcDbSavedByObjectVersion
1070
     0
  0
VISUALSTYLE
  5
321
102
{ACAD_REACTORS
330
312
102
}
330
312
100
AcDbVisualStyle
  2
Facepattern
 70
    15
 71
     2
 72
     2
 73
     0
 90
        0
 40
-0.6
 41
-30.0
 62
     5
 63
     7
 74
     1
 91
        4
 64
     7
 65
   257
 75
     1
175
     1
 42
1.0
 92
        8
 66
     7
 43
1.0
 76
     1
 77
     6
 78
     2
 67
     7
 79
     5
170
     0
171
     0
290
     0
174
     0
 93
        1
 44
0.0
173
     0
291
     1
 45
0.0
1001
ACAD
1000
AcDbSavedByObjectVersion
1070
     0
  0
VISUALSTYLE
  5
313
102
{ACAD_REACTORS
330
312
102
}
330
312
100
AcDbVisualStyle
  2
Flat
 70
     0
 71
     2
 72
     1
 73
     1
 90
        2
 40
-0.6
 41
30.0
 62
     5
 63
     7
 74
     0
 91
        4
 64
     7
 65
   257
 75
     1
175
     1
 42
1.0
 92
        8
 66
     7
 43
1.0
 76
     1
 77
     6
 78
     2
 67
     7
 79
     5
170
     0
171
     0
290
     0
174
     0
 93
       13
 44
0.0
173
     0
291
     1
 45
0.0
1001
ACAD
1000
AcDbSavedByObjectVersion
1070
     0
  0
VISUALSTYLE
  5
314
102
{ACAD_REACTORS
330
312
102
}
330
312
100
AcDbVisualStyle
  2
FlatWithEdges
 70
     1
 71
     2
 72
     1
 73
     1
 90
        2
 40
-0.6
 41
30.0
 62
     5
 63
     7
 74
     1
 91
        4
 64
     7
 65
   257
 75
     1
175
     1
 42
1.0
 92
        0
 66
   257
 43
1.0
 76
     1
 77
     6
 78
     2
 67
     7
 79
     5
170
     0
171
     0
290
     0
174
     0
 93
       13
 44
0.0
173
     0
291
     1
 45
0.0
1001
ACAD
1000
AcDbSavedByObjectVersion
1070
     0
  0
VISUALSTYLE
  5
315
102
{ACAD_REACTORS
330
312
102
}
330
312
100
AcDbVisualStyle
  2
Gouraud
 70
     2
 71
     2
 72
     2
 73
     1
 90
        2
 40
-0.6
 41
30.0
 62
     5
 63
     7
 74
     0
 91
        4
 64
     7
 65
   257
 75
     1
175
     1
 42
1.0
 92
        0
 66
     7
 43
1.0
 76
     1
 77
     6
 78
     2
 67
     7
 79
     5
170
     0
171
     0
290
     0
174
     0
 93
       13
 44
0.0
173
     0
291
     1
 45
0.0
1001
ACAD
1000
AcDbSavedByObjectVersion
1070
     0
  0
VISUALSTYLE
  5
316
102
{ACAD_REACTORS
330
312
102
}
330
312
100
AcDbVisualStyle
  2
GouraudWithEdges
 70
     3
 71
     2
 72
     2
 73
     1
 90
        2
 40
-0.6
 41
30.0
 62
     5
 63
     7
 74
     1
 91
        4
 64
     7
 65
   257
 75
     1
175
     1
 42
1.0
 92
        0
 66
   257
 43
1.0
 76
     1
 77
     6
 78
     2
 67
     7
 79
     5
170
     0
171
     0
290
     0
174
     0
 93
       13
 44
0.0
173
     0
291
     1
 45
0.0
1001
ACAD
1000
AcDbSavedByObjectVersion
1070
     0
  0
VISUALSTYLE
  5
320
102
{ACAD_REACTORS
330
312
102
}
330
312
100
AcDbVisualStyle
  2
Linepattern
 70
    14
 71
     2
 72
     2
 73
     0
 90
        0
 40
-0.6
 41
-30.0
 62
     5
 63
     7
 74
     1
 91
        4
 64
     7
 65
   257
 75
     7
175
     7
 42
1.0
 92
        8
 66
     7
 43
1.0
 76
     1
 77
     6
 78
     2
 67
     7
 79
     5
170
     0
171
     0
290
     0
174
     0
 93
        1
 44
0.0
173
     0
291
     1
 45
0.0
1001
ACAD
1000
AcDbSavedByObjectVersion
1070
     0
  0
VISUALSTYLE
  5
31C
102
{ACAD_REACTORS
330
312
102
}
330
312
100
AcDbVisualStyle
  2
Realistic
 70
     8
 71
     2
 72
     2
 73
     0
 90
        0
 40
-0.6
 41
-30.0
 62
     5
 63
     7
 74
     1
 91
        0
 64
     7
 65
   257
 75
     1
175
     1
 42
1.0
 92
        8
 66
     8
 43
1.0
 76
     1
 77
     6
 78
     2
 67
     7
 79
     5
170
     0
171
     0
290
     0
174
     0
 93
       13
 44
0.0
173
     0
291
     0
 45
0.0
1001
ACAD
1000
AcDbSavedByObjectVersion
1070
     0
  0
VISUALSTYLE
  5
31F
102
{ACAD_REACTORS
330
312
102
}
330
312
100
AcDbVisualStyle
  2
Thicken
 70
    13
 71
     2
 72
     2
 73
     0
 90
        0
 40
-0.6
 41
-30.0
 62
     5
 63
     7
 74
     1
 91
        4
 64
     7
 65
   257
 75
     1
175
     1
 42
1.0
 92
       12
 66
     7
 43
1.0
 76
     1
 77
     6
 78
     2
 67
     7
 79
     5
170
     0
171
     0
290
     0
174
     0
 93
        1
 44
0.0
173
     0
291
     1
 45
0.0
1001
ACAD
1000
AcDbSavedByObjectVersion
1070
     0
  0
DICTIONARYVAR
  5
47B
102
{ACAD_REACTORS
330
18D
102
}
330
18D
100
DictionaryVariables
280
     0
  1
STANDARD
  0
DICTIONARYVAR
  5
18E
102
{ACAD_REACTORS
330
18D
102
}
330
18D
100
DictionaryVariables
280
     0
  1
1
  0
DICTIONARYVAR
  5
47D
102
{ACAD_REACTORS
330
18D
102
}
330
18D
100
DictionaryVariables
280
     0
  1
0
  0
DICTIONARYVAR
  5
47C
102
{ACAD_REACTORS
330
18D
102
}
330
18D
100
DictionaryVariables
280
     0
  1
127
  0
DICTIONARY
  5
481
330
DF
100
AcDbDictionary
280
     1
281
     1
  3
ACAD_XREC_ROUNDTRIP
360
482
  0
DICTIONARY
  5
47F
330
DE
100
AcDbDictionary
280
     1
281
     1
  3
ACAD_XREC_ROUNDTRIP
360
480
  0
DICTIONARY
  5
485
330
310
100
AcDbDictionary
280
     1
281
     1
  3
ACAD_XREC_ROUNDTRIP
360
486
  0
DICTIONARY
  5
483
330
30F
100
AcDbDictionary
280
     1
281
     1
  3
ACAD_XREC_ROUNDTRIP
360
484
  0
DICTIONARY
  5
487
330
311
100
AcDbDictionary
280
     1
281
     1
  3
ACAD_XREC_ROUNDTRIP
360
488
  0
DICTIONARY
  5
489
330
325
100
AcDbDictionary
280
     1
281
     1
  3
ACAD_XREC_ROUNDTRIP
360
48A
  0
XRECORD
  5
482
102
{ACAD_REACTORS
330
481
102
}
330
481
100
AcDbXrecord
280
     1
102
SHADEPLOT
 70
     0
102
SHADEPLOTRESLEVEL
 70
     2
102
SHADEPLOTCUSTOMDPI
 70
   300
  0
XRECORD
  5
480
102
{ACAD_REACTORS
330
47F
102
}
330
47F
100
AcDbXrecord
280
     1
102
SHADEPLOT
 70
     0
102
SHADEPLOTRESLEVEL
 70
     2
102
SHADEPLOTCUSTOMDPI
 70
   300
  0
XRECORD
  5
486
102
{ACAD_REACTORS
330
485
102
}
330
485
100
AcDbXrecord
280
     1
102
MATERIAL
148
0.0
149
0.0
149
0.0
 93
        0
 94
       63
282
     0
 72
     1
 77
     1
171
     1
175
     1
179
     1
273
     0
  0
XRECORD
  5
484
102
{ACAD_REACTORS
330
483
102
}
330
483
100
AcDbXrecord
280
     1
102
MATERIAL
148
0.0
149
0.0
149
0.0
 93
        0
 94
       63
282
     0
 72
     1
 77
     1
171
     1
175
     1
179
     1
273
     0
  0
XRECORD
  5
488
102
{ACAD_REACTORS
330
487
102
}
330
487
100
AcDbXrecord
280
     1
102
MATERIAL
148
0.0
149
0.0
149
0.0
 93
        0
 94
       63
282
     0
 72
     1
 77
     1
171
     1
175
     1
179
     1
273
     0
  0
XRECORD
  5
48A
102
{ACAD_REACTORS
330
489
102
}
330
489
100
AcDbXrecord
280
     1
102
ACAD_ROUNDTRIP_PRE2007_TABLESTYLE
 90
      512
 91
        0
  1

 92
      512
 93
        0
  2

 94
      512
 95
        0
  3

  0
ENDSEC
  0
EOF
