  0
SECTION
  2
HEADER
  9
$ACADVER
  1
AC1014
  9
$ACADMAINTVER
 70
     9
  9
$DWGCODEPAGE
  3
ANSI_1252
  9
$INSBASE
 10
-0.7269597372073689
 20
0.6181535971720683
 30
0.0
  9
$EXTMIN
 10
-7.943009180543015
 20
-5.769466622317604
 30
0.0
  9
$EXTMAX
 10
36.72791410009256
 20
1.54316156822628
 30
0.0
  9
$LIMMIN
 10
0.0
 20
0.0
  9
$LIMMAX
 10
36.0
 20
36.0
  9
$ORTHOMODE
 70
     1
  9
$REGENMODE
 70
     1
  9
$FILLMODE
 70
     1
  9
$QTEXTMODE
 70
     0
  9
$MIRRTEXT
 70
     1
  9
$DRAGMODE
 70
     0
  9
$LTSCALE
 40
1.0
  9
$OSMODE
 70
    37
  9
$ATTMODE
 70
     1
  9
$TEXTSIZE
 40
0.2
  9
$TRACEWID
 40
0.05
  9
$TEXTSTYLE
  7
STANDARD
  9
$CLAYER
  8
ADP1DETAIL
  9
$CELTYPE
  6
BYLAYER
  9
$CECOLOR
 62
   256
  9
$CELTSCALE
 40
1.0
  9
$DELOBJ
 70
     1
  9
$DISPSILH
 70
     0
  9
$DIMSCALE
 40
1.0
  9
$DIMASZ
 40
0.125
  9
$DIMEXO
 40
0.0625
  9
$DIMDLI
 40
0.38
  9
$DIMRND
 40
0.0
  9
$DIMDLE
 40
0.0
  9
$DIMEXE
 40
0.18
  9
$DIMTP
 40
0.0
  9
$DIMTM
 40
0.0
  9
$DIMTXT
 40
0.125
  9
$DIMCEN
 40
0.1875
  9
$DIMTSZ
 40
0.125
  9
$DIMTOL
 70
     0
  9
$DIMLIM
 70
     0
  9
$DIMTIH
 70
     0
  9
$DIMTOH
 70
     0
  9
$DIMSE1
 70
     0
  9
$DIMSE2
 70
     0
  9
$DIMTAD
 70
     0
  9
$DIMZIN
 70
     3
  9
$DIMBLK
  1

  9
$DIMASO
 70
     1
  9
$DIMSHO
 70
     1
  9
$DIMPOST
  1

  9
$DIMAPOST
  1

  9
$DIMALT
 70
     0
  9
$DIMALTD
 70
     1
  9
$DIMALTF
 40
25.4
  9
$DIMLFAC
 40
1.0
  9
$DIMTOFL
 70
     0
  9
$DIMTVP
 40
0.0
  9
$DIMTIX
 70
     0
  9
$DIMSOXD
 70
     0
  9
$DIMSAH
 70
     0
  9
$DIMBLK1
  1

  9
$DIMBLK2
  1

  9
$DIMSTYLE
  2
STANDARD
  9
$DIMCLRD
 70
     0
  9
$DIMCLRE
 70
     0
  9
$DIMCLRT
 70
     0
  9
$DIMTFAC
 40
1.0
  9
$DIMGAP
 40
0.125
  9
$DIMJUST
 70
     0
  9
$DIMSD1
 70
     0
  9
$DIMSD2
 70
     0
  9
$DIMTOLJ
 70
     1
  9
$DIMTZIN
 70
     0
  9
$DIMALTZ
 70
     0
  9
$DIMALTTZ
 70
     0
  9
$DIMFIT
 70
     3
  9
$DIMUPT
 70
     0
  9
$DIMUNIT
 70
     2
  9
$DIMDEC
 70
     4
  9
$DIMTDEC
 70
     4
  9
$DIMALTU
 70
     2
  9
$DIMALTTD
 70
     2
  9
$DIMTXSTY
  7
STANDARD
  9
$DIMAUNIT
 70
     0
  9
$LUNITS
 70
     5
  9
$LUPREC
 70
     4
  9
$SKETCHINC
 40
0.1
  9
$FILLETRAD
 40
0.062
  9
$AUNITS
 70
     0
  9
$AUPREC
 70
     0
  9
$MENU
  1
acad
  9
$ELEVATION
 40
0.0
  9
$PELEVATION
 40
0.0
  9
$THICKNESS
 40
0.0
  9
$LIMCHECK
 70
     0
  9
$BLIPMODE
 70
     0
  9
$CHAMFERA
 40
0.0
  9
$CHAMFERB
 40
0.0
  9
$CHAMFERC
 40
0.0
  9
$CHAMFERD
 40
0.0
  9
$SKPOLY
 70
     0
  9
$TDCREATE
 40
2450406.459294745
  9
$TDUPDATE
 40
2452297.085540173
  9
$TDINDWG
 40
0.0954560995
  9
$TDUSRTIMER
 40
0.0954560995
  9
$USRTIMER
 70
     1
  9
$ANGBASE
 50
0.0
  9
$ANGDIR
 70
     0
  9
$PDMODE
 70
     0
  9
$PDSIZE
 40
0.0
  9
$PLINEWID
 40
0.0
  9
$COORDS
 70
     2
  9
$SPLFRAME
 70
     0
  9
$SPLINETYPE
 70
     6
  9
$SPLINESEGS
 70
     8
  9
$ATTDIA
 70
     0
  9
$ATTREQ
 70
     1
  9
$HANDLING
 70
 22529
  9
$HANDSEED
  5
1FD
  9
$SURFTAB1
 70
     6
  9
$SURFTAB2
 70
     6
  9
$SURFTYPE
 70
     6
  9
$SURFU
 70
     6
  9
$SURFV
 70
     6
  9
$UCSNAME
  2

  9
$UCSORG
 10
0.0
 20
0.0
 30
0.0
  9
$UCSXDIR
 10
1.0
 20
0.0
 30
0.0
  9
$UCSYDIR
 10
0.0
 20
1.0
 30
0.0
  9
$PUCSNAME
  2

  9
$PUCSORG
 10
0.0
 20
0.0
 30
0.0
  9
$PUCSXDIR
 10
1.0
 20
0.0
 30
0.0
  9
$PUCSYDIR
 10
0.0
 20
1.0
 30
0.0
  9
$USERI1
 70
     0
  9
$USERI2
 70
     0
  9
$USERI3
 70
     0
  9
$USERI4
 70
     0
  9
$USERI5
 70
     0
  9
$USERR1
 40
0.0
  9
$USERR2
 40
0.0
  9
$USERR3
 40
0.0
  9
$USERR4
 40
0.0
  9
$USERR5
 40
0.0
  9
$WORLDVIEW
 70
     1
  9
$SHADEDGE
 70
     3
  9
$SHADEDIF
 70
    70
  9
$TILEMODE
 70
     1
  9
$MAXACTVP
 70
    15
  9
$PINSBASE
 10
0.0
 20
0.0
 30
0.0
  9
$PLIMCHECK
 70
     0
  9
$PEXTMIN
 10
1.000000000000000E+20
 20
1.000000000000000E+20
 30
1.000000000000000E+20
  9
$PEXTMAX
 10
-1.000000000000000E+20
 20
-1.000000000000000E+20
 30
-1.000000000000000E+20
  9
$PLIMMIN
 10
0.0
 20
0.0
  9
$PLIMMAX
 10
12.0
 20
9.0
  9
$UNITMODE
 70
     0
  9
$VISRETAIN
 70
     0
  9
$PLINEGEN
 70
     0
  9
$PSLTSCALE
 70
     1
  9
$TREEDEPTH
 70
  3020
  9
$PICKSTYLE
 70
     1
  9
$CMLSTYLE
  2
STANDARD
  9
$CMLJUST
 70
     0
  9
$CMLSCALE
 40
1.0
  9
$PROXYGRAPHICS
 70
     1
  9
$MEASUREMENT
 70
     0
  0
ENDSEC
  0
SECTION
  2
CLASSES
  0
CLASS
  1
ACDBDICTIONARYWDFLT
  2
AcDbDictionaryWithDefault
  3
AutoCAD 2000
 90
        0
280
     0
281
     0
  0
CLASS
  1
ACDBPLACEHOLDER
  2
AcDbPlaceHolder
  3
AutoCAD 2000
 90
        0
280
     0
281
     0
  0
CLASS
  1
LAYOUT
  2
AcDbLayout
  3
AutoCAD 2000
 90
        0
280
     0
281
     0
  0
CLASS
  1
DICTIONARYVAR
  2
AcDbDictionaryVar
  3
AutoCAD 2000
 90
        0
280
     0
281
     0
  0
CLASS
  1
LONG_TRANSACTION
  2
AcDbLongTransaction
  3
AutoCAD 2000
 90
        0
280
     0
281
     0
  0
CLASS
  1
LWPOLYLINE
  2
AcDbPolyline
  3
AutoCAD 2000
 90
        0
280
     0
281
     1
  0
CLASS
  1
HATCH
  2
AcDbHatch
  3
AutoCAD 2000
 90
        0
280
     0
281
     1
  0
CLASS
  1
XRECORD
  2
AcDbXrecord
  3
AutoCAD 2000
 90
        0
280
     0
281
     0
  0
CLASS
  1
LONG_TRANSACTION
  2
AcDbLongTransaction
  3
AutoCAD 2000
 90
        0
280
     0
281
     0
  0
CLASS
  1
LWPOLYLINE
  2
AcDbPolyline
  3
AutoCAD 2000
 90
        0
280
     0
281
     1
  0
CLASS
  1
HATCH
  2
AcDbHatch
  3
AutoCAD 2000
 90
        0
280
     0
281
     1
  0
CLASS
  1
XRECORD
  2
AcDbXrecord
  3
AutoCAD 2000
 90
        0
280
     0
281
     0
  0
CLASS
  1
LONG_TRANSACTION
  2
AcDbLongTransaction
  3
AutoCAD 2000
 90
        0
280
     0
281
     0
  0
CLASS
  1
LWPOLYLINE
  2
AcDbPolyline
  3
AutoCAD 2000
 90
        0
280
     0
281
     1
  0
CLASS
  1
HATCH
  2
AcDbHatch
  3
AutoCAD 2000
 90
        0
280
     0
281
     1
  0
CLASS
  1
XRECORD
  2
AcDbXrecord
  3
AutoCAD 2000
 90
        0
280
     0
281
     0
  0
CLASS
  1
LONG_TRANSACTION
  2
AcDbLongTransaction
  3
AutoCAD 2000
 90
        0
280
     0
281
     0
  0
CLASS
  1
LWPOLYLINE
  2
AcDbPolyline
  3
AutoCAD 2000
 90
        0
280
     0
281
     1
  0
CLASS
  1
HATCH
  2
AcDbHatch
  3
AutoCAD 2000
 90
        0
280
     0
281
     1
  0
CLASS
  1
XRECORD
  2
AcDbXrecord
  3
AutoCAD 2000
 90
        0
280
     0
281
     0
  0
CLASS
  1
LONG_TRANSACTION
  2
AcDbLongTransaction
  3
AutoCAD 2000
 90
        0
280
     0
281
     0
  0
CLASS
  1
LWPOLYLINE
  2
AcDbPolyline
  3
AutoCAD 2000
 90
        0
280
     0
281
     1
  0
CLASS
  1
HATCH
  2
AcDbHatch
  3
AutoCAD 2000
 90
        0
280
     0
281
     1
  0
CLASS
  1
XRECORD
  2
AcDbXrecord
  3
AutoCAD 2000
 90
        0
280
     0
281
     0
  0
ENDSEC
  0
SECTION
  2
TABLES
  0
TABLE
  2
VPORT
  5
8
330
0
100
AcDbSymbolTable
 70
     2
  0
VPORT
  5
1DA
330
8
100
AcDbSymbolTableRecord
100
AcDbViewportTableRecord
  2
*ACTIVE
 70
     0
 10
0.0
 20
0.0
 11
1.0
 21
1.0
 12
14.42945509041005
 22
-2.112404396004727
 13
0.0
 23
0.0
 14
0.5740882589684922
 24
0.5740882589684922
 15
0.5
 25
0.5
 16
0.0
 26
0.0
 36
1.0
 17
0.0
 27
0.0
 37
0.0
 40
28.62821574635844
 41
1.570528967254408
 42
50.0
 43
0.0
 44
0.0
 50
0.0
 51
0.0
 71
     0
 72
   100
 73
     1
 74
     0
 75
     0
 76
     0
 77
     0
 78
     0
  0
ENDTAB
  0
TABLE
  2
LTYPE
  5
5
330
0
100
AcDbSymbolTable
 70
     1
  0
LTYPE
  5
12
330
5
100
AcDbSymbolTableRecord
100
AcDbLinetypeTableRecord
  2
BYBLOCK
 70
     0
  3

 72
    65
 73
     0
 40
0.0
  0
LTYPE
  5
13
330
5
100
AcDbSymbolTableRecord
100
AcDbLinetypeTableRecord
  2
BYLAYER
 70
     0
  3

 72
    65
 73
     0
 40
0.0
  0
LTYPE
  5
14
330
5
100
AcDbSymbolTableRecord
100
AcDbLinetypeTableRecord
  2
CONTINUOUS
 70
     0
  3
Solid line
 72
    65
 73
     0
 40
0.0
  0
ENDTAB
  0
TABLE
  2
LAYER
  5
2
330
0
100
AcDbSymbolTable
 70
     4
  0
LAYER
  5
F
330
2
100
AcDbSymbolTableRecord
100
AcDbLayerTableRecord
  2
0
 70
     0
 62
     7
  6
CONTINUOUS
  0
LAYER
  5
20
330
2
100
AcDbSymbolTableRecord
100
AcDbLayerTableRecord
  2
ADPDIM
 70
     0
 62
     3
  6
CONTINUOUS
  0
LAYER
  5
21
330
2
100
AcDbSymbolTableRecord
100
AcDbLayerTableRecord
  2
ADP1DETAIL
 70
     0
 62
     7
  6
CONTINUOUS
  0
LAYER
  5
22
330
2
100
AcDbSymbolTableRecord
100
AcDbLayerTableRecord
  2
DEFPOINTS
 70
     0
 62
     7
  6
CONTINUOUS
  0
ENDTAB
  0
TABLE
  2
STYLE
  5
3
330
0
100
AcDbSymbolTable
 70
     2
  0
STYLE
  5
10
330
3
100
AcDbSymbolTableRecord
100
AcDbTextStyleTableRecord
  2
STANDARD
 70
     0
 40
0.0
 41
1.0
 50
0.0
 71
     0
 42
0.2
  3
txt
  4

  0
STYLE
  5
96
330
3
100
AcDbSymbolTableRecord
100
AcDbTextStyleTableRecord
  2
ARIAL_WIDE
 70
     0
 40
0.0
 41
1.25
 50
0.0
 71
     0
 42
0.2
  3
ARIAL.TTF
  4

1001
ACAD
1000
Arial
1071
       34
  0
ENDTAB
  0
TABLE
  2
VIEW
  5
6
330
0
100
AcDbSymbolTable
 70
     0
  0
ENDTAB
  0
TABLE
  2
UCS
  5
7
330
0
100
AcDbSymbolTable
 70
     0
  0
ENDTAB
  0
TABLE
  2
APPID
  5
9
330
0
100
AcDbSymbolTable
 70
     1
  0
APPID
  5
11
330
9
100
AcDbSymbolTableRecord
100
AcDbRegAppTableRecord
  2
ACAD
 70
     0
  0
ENDTAB
  0
TABLE
  2
DIMSTYLE
  5
A
330
0
100
AcDbSymbolTable
 70
     1
  0
DIMSTYLE
105
8A
330
A
100
AcDbSymbolTableRecord
100
AcDbDimStyleTableRecord
  2
STANDARD
 70
     0
  3

  4

  5

  6

  7

 40
1.0
 41
0.18
 42
0.0625
 43
0.38
 44
0.18
 45
0.0
 46
0.0
 47
0.0
 48
0.0
140
0.18
141
0.09
142
0.0
143
25.4
144
1.0
145
0.0
146
1.0
147
0.09
 71
     0
 72
     0
 73
     1
 74
     1
 75
     0
 76
     0
 77
     0
 78
     0
170
     0
171
     2
172
     0
173
     0
174
     0
175
     0
176
     0
177
     0
178
     0
270
     2
271
     4
272
     4
273
     2
274
     2
340
10
275
     0
280
     0
281
     0
282
     0
283
     1
284
     0
285
     0
286
     0
287
     3
288
     0
  0
ENDTAB
  0
TABLE
  2
BLOCK_RECORD
  5
1
330
0
100
AcDbSymbolTable
 70
     2
  0
BLOCK_RECORD
  5
18
102
{ACAD_XDICTIONARY
360
EB
102
}
330
1
100
AcDbSymbolTableRecord
100
AcDbBlockTableRecord
  2
*MODEL_SPACE
  0
BLOCK_RECORD
  5
15
102
{ACAD_XDICTIONARY
360
E9
102
}
330
1
100
AcDbSymbolTableRecord
100
AcDbBlockTableRecord
  2
*PAPER_SPACE
  0
BLOCK_RECORD
  5
1C
330
1
100
AcDbSymbolTableRecord
100
AcDbBlockTableRecord
  2
*D0
  0
BLOCK_RECORD
  5
1E
330
1
100
AcDbSymbolTableRecord
100
AcDbBlockTableRecord
  2
*D1
  0
ENDTAB
  0
ENDSEC
  0
SECTION
  2
BLOCKS
  0
BLOCK
  5
25
330
18
100
AcDbEntity
  8
0
100
AcDbBlockBegin
  2
*MODEL_SPACE
 70
     0
 10
0.0
 20
0.0
 30
0.0
  3
*MODEL_SPACE
  1

  0
ENDBLK
  5
26
330
18
100
AcDbEntity
  8
0
100
AcDbBlockEnd
  0
BLOCK
  5
23
330
15
100
AcDbEntity
 67
     1
  8
0
100
AcDbBlockBegin
  2
*PAPER_SPACE
 70
     0
 10
0.0
 20
0.0
 30
0.0
  3
*PAPER_SPACE
  1

  0
ENDBLK
  5
24
330
15
100
AcDbEntity
 67
     1
  8
0
100
AcDbBlockEnd
  0
BLOCK
  5
27
330
1C
100
AcDbEntity
  8
0
100
AcDbBlockBegin
  2
*D0
 70
     1
 10
0.0
 20
0.0
 30
0.0
  3
*D0
  1

  0
LINE
  5
28
330
1C
100
AcDbEntity
  8
0
  6
BYBLOCK
 62
     0
100
AcDbLine
 10
1.508799999999999
 20
0.9208272727272724
 30
0.0
 11
1.508799999999999
 21
1.54316156822628
 31
0.0
  0
LINE
  5
29
330
1C
100
AcDbEntity
  8
0
  6
BYBLOCK
 62
     0
100
AcDbLine
 10
3.253482820928418
 20
0.9208272727272722
 30
0.0
 11
3.253482820928418
 21
1.54316156822628
 31
0.0
  0
LINE
  5
2A
330
1C
100
AcDbEntity
  8
0
  6
BYBLOCK
 62
     0
100
AcDbLine
 10
1.508799999999999
 20
1.36316156822628
 30
0.0
 11
1.985308077130875
 21
1.36316156822628
 31
0.0
  0
LINE
  5
2B
330
1C
100
AcDbEntity
  8
0
  6
BYBLOCK
 62
     0
100
AcDbLine
 10
3.253482820928418
 20
1.36316156822628
 30
0.0
 11
2.776974743797542
 21
1.36316156822628
 31
0.0
  0
LINE
  5
2C
330
1C
100
AcDbEntity
  8
0
  6
BYBLOCK
 62
     0
100
AcDbLine
 10
1.383799999999999
 20
1.23816156822628
 30
0.0
 11
1.633799999999999
 21
1.48816156822628
 31
0.0
  0
LINE
  5
2D
330
1C
100
AcDbEntity
  8
0
  6
BYBLOCK
 62
     0
100
AcDbLine
 10
3.128482820928418
 20
1.23816156822628
 30
0.0
 11
3.378482820928418
 21
1.48816156822628
 31
0.0
  0
TEXT
  5
2E
330
1C
100
AcDbEntity
  8
0
  6
BYBLOCK
 62
     0
100
AcDbText
 10
2.110308077130875
 20
1.30066156822628
 30
0.0
 40
0.125
  1
1 3/4
 72
     1
 11
2.381141410464209
 21
1.36316156822628
 31
0.0
100
AcDbText
 73
     2
  0
POINT
  5
2F
330
1C
100
AcDbEntity
  8
DEFPOINTS
  6
BYBLOCK
 62
     0
100
AcDbPoint
 10
1.508799999999999
 20
0.8583272727272724
 30
0.0
  0
POINT
  5
30
330
1C
100
AcDbEntity
  8
DEFPOINTS
  6
BYBLOCK
 62
     0
100
AcDbPoint
 10
3.253482820928418
 20
0.8583272727272722
 30
0.0
  0
POINT
  5
31
330
1C
100
AcDbEntity
  8
DEFPOINTS
  6
BYBLOCK
 62
     0
100
AcDbPoint
 10
3.253482820928418
 20
1.36316156822628
 30
0.0
  0
ENDBLK
  5
32
330
1C
100
AcDbEntity
  8
0
100
AcDbBlockEnd
  0
BLOCK
  5
3F
330
1E
100
AcDbEntity
  8
0
100
AcDbBlockBegin
  2
*D1
 70
     1
 10
0.0
 20
0.0
 30
0.0
  3
*D1
  1

  0
LINE
  5
40
330
1E
100
AcDbEntity
  8
0
  6
BYBLOCK
 62
     0
100
AcDbLine
 10
-1.162676681565621
 20
0.1759338163094268
 30
0.0
 11
-1.162676681565621
 21
-0.1966036972582637
 31
0.0
  0
LINE
  5
41
330
1E
100
AcDbEntity
  8
0
  6
BYBLOCK
 62
     0
100
AcDbLine
 10
34.83642172122701
 20
0.5556535971720682
 30
0.0
 11
34.83642172122701
 21
-0.1966036972582637
 31
0.0
  0
LINE
  5
42
330
1E
100
AcDbEntity
  8
0
  6
BYBLOCK
 62
     0
100
AcDbLine
 10
-1.162676681565621
 20
-0.0166036972582637
 30
0.0
 11
16.60770585316402
 21
-0.0166036972582637
 31
0.0
  0
LINE
  5
43
330
1E
100
AcDbEntity
  8
0
  6
BYBLOCK
 62
     0
100
AcDbLine
 10
34.83642172122701
 20
-0.0166036972582637
 30
0.0
 11
17.06603918649736
 21
-0.0166036972582637
 31
0.0
  0
LINE
  5
44
330
1E
100
AcDbEntity
  8
0
  6
BYBLOCK
 62
     0
100
AcDbLine
 10
-1.287676681565621
 20
-0.1416036972582637
 30
0.0
 11
-1.037676681565621
 21
0.1083963027417363
 31
0.0
  0
LINE
  5
45
330
1E
100
AcDbEntity
  8
0
  6
BYBLOCK
 62
     0
100
AcDbLine
 10
34.71142172122701
 20
-0.1416036972582637
 30
0.0
 11
34.96142172122701
 21
0.1083963027417363
 31
0.0
  0
TEXT
  5
46
330
1E
100
AcDbEntity
  8
0
  6
BYBLOCK
 62
     0
100
AcDbText
 10
16.73270585316402
 20
-0.0791036972582637
 30
0.0
 40
0.125
  1
36
 72
     1
 11
16.83687251983069
 21
-0.0166036972582637
 31
0.0
100
AcDbText
 73
     2
  0
POINT
  5
47
330
1E
100
AcDbEntity
  8
DEFPOINTS
  6
BYBLOCK
 62
     0
100
AcDbPoint
 10
-1.162676681565621
 20
0.2384338163094268
 30
0.0
  0
POINT
  5
48
330
1E
100
AcDbEntity
  8
DEFPOINTS
  6
BYBLOCK
 62
     0
100
AcDbPoint
 10
34.83642172122701
 20
0.6181535971720682
 30
0.0
  0
POINT
  5
49
330
1E
100
AcDbEntity
  8
DEFPOINTS
  6
BYBLOCK
 62
     0
100
AcDbPoint
 10
34.83642172122701
 20
-0.0166036972582637
 30
0.0
  0
ENDBLK
  5
4A
330
1E
100
AcDbEntity
  8
0
100
AcDbBlockEnd
  0
ENDSEC
  0
SECTION
  2
ENTITIES
  0
DIMENSION
  5
4B
330
18
100
AcDbEntity
  8
ADPDIM
100
AcDbDimension
  2
*D1
 10
34.83642172122701
 20
-0.0166036972582637
 30
0.0
 11
16.83687251983069
 21
-0.0166036972582637
 31
0.0
100
AcDbAlignedDimension
 13
-1.162676681565621
 23
0.2384338163094268
 33
0.0
 14
34.83642172122701
 24
0.6181535971720682
 34
0.0
100
AcDbRotatedDimension
  0
LWPOLYLINE
  5
4C
330
18
100
AcDbEntity
  8
ADP1DETAIL
100
AcDbPolyline
 90
        7
 70
     0
 43
0.0
 10
34.83642172122701
 20
0.9945752134620846
 10
-0.9935500520684241
 20
0.9930192664508009
 42
0.2225784352061005
 10
-2.116524264799519
 20
0.5240314810761091
 42
0.0638017233500007
 10
-2.642309878852807
 20
-0.2094719064303283
 42
-0.1009482678467797
 10
-2.007796992757636
 20
0.6960477622169999
 42
-0.1278430107993235
 10
-1.35413623473923
 20
1.03826271873631
 10
34.83642172122701
 20
1.03826271873631
  0
LWPOLYLINE
  5
55
330
18
100
AcDbEntity
  8
ADP1DETAIL
100
AcDbPolyline
 90
       13
 70
     0
 43
0.0
 10
34.83642172122701
 20
1.208851015429465
 10
-0.9610941499663692
 20
1.20560542521926
 42
0.2663290526526466
 10
-2.473539187922122
 20
0.5629785635985753
 42
0.113501079121277
 10
-3.031780704077465
 20
-0.8163972757387538
 42
-0.0553467579810608
 10
-3.297919101314314
 20
-1.665119115707486
 42
-0.7467617181420615
 10
-3.927563602094177
 20
-1.614812467449301
 42
0.6126487671656182
 10
-4.037913669241163
 20
-1.669987501022795
 42
0.6186694761784853
 10
-3.641951663596095
 20
-2.309368772433274
 42
0.2920130978882336
 10
-2.908448276089656
 20
-1.793319929010602
 42
0.0433698334932941
 10
-2.652046649483423
 20
-0.9981503275102607
 42
-0.0191151643139534
 10
-2.483275958552739
 20
-0.405830114147761
 42
-0.2815151647675069
 10
-1.301881122037944
 20
0.6181535971720682
 10
34.83642172122701
 20
0.6181535971720682
  0
LWPOLYLINE
  5
64
330
18
100
AcDbEntity
  8
ADP1DETAIL
100
AcDbPolyline
 90
        3
 70
     0
 43
0.0
 10
-0.7269597372073689
 20
0.6181535971720683
 10
-0.7890778688254785
 20
0.3844711020372738
 42
0.239848605433077
 10
-2.366434710985342
 20
-0.1510512826466306
 42
-2.458254238704918
  0
LINE
  5
69
330
18
100
AcDbEntity
  8
ADP1DETAIL
100
AcDbLine
 10
-6.65749203221279
 20
0.8583272727272724
 30
0.0
 11
-6.092364422115679
 21
-2.239588582913856
 31
0.0
  0
LINE
  5
6A
330
18
100
AcDbEntity
  8
ADP1DETAIL
100
AcDbLine
 10
-4.912809211284372
 20
0.8583272727272724
 30
0.0
 11
-5.477936821381483
 21
-2.239588582913856
 31
0.0
  0
ARC
  5
6B
330
18
100
AcDbEntity
  8
ADP1DETAIL
100
AcDbCircle
 10
-5.576979004165522
 20
-2.231071492680706
 30
0.0
 40
0.0994077200053741
100
AcDbArc
 50
270.9651662129011
 51
355.0849657653349
  0
LWPOLYLINE
  5
6C
330
18
100
AcDbEntity
  8
ADP1DETAIL
100
AcDbPolyline
 90
        4
 70
     0
 43
0.0
 10
-5.484428001801891
 20
-2.270421689910808
 42
-0.1048174055739242
 10
-5.541225830480488
 20
-2.199018705286288
 10
-5.602892044474391
 20
-1.853363347899404
 42
0.3674383375176073
 10
-5.784645096245899
 20
-1.614812467449301
 42
-0.8048037535283143
  0
LWPOLYLINE
  5
72
330
18
100
AcDbEntity
  8
ADP1DETAIL
100
AcDbPolyline
 90
        4
 70
     0
 43
0.0
 10
-6.085873241695267
 20
-2.270421689910808
 42
0.1048174055739242
 10
-6.029075413016673
 20
-2.199018705286288
 10
-5.967409199022768
 20
-1.853363347899404
 42
-0.3674383375176073
 10
-5.785656147251263
 20
-1.614812467449301
 42
0.8048037535283143
  0
LINE
  5
78
330
18
100
AcDbEntity
  8
ADP1DETAIL
100
AcDbLine
 10
-5.998265206815958
 20
-2.325364369164748
 30
0.0
 11
-5.575304527687645
 21
-2.330465108799609
 31
0.0
  0
ARC
  5
79
330
18
100
AcDbEntity
  8
ADP1DETAIL
100
AcDbCircle
 10
-5.993322239331639
 20
-2.231071492680706
 30
0.0
 40
0.0994077200053741
100
AcDbArc
 50
184.915034234665
 51
269.0348337870988
  0
LINE
  5
7A
330
18
100
AcDbEntity
  8
ADP1DETAIL
100
AcDbLine
 10
-6.378900621748581
 20
1.020183963938664
 30
0.0
 11
-6.319410864683412
 21
1.019972669911007
 31
0.0
  0
LINE
  5
7B
330
18
100
AcDbEntity
  8
ADP1DETAIL
100
AcDbLine
 10
-6.378900621748581
 20
1.020183963938664
 30
0.0
 11
-6.29776086649344
 21
-0.2650697593027043
 31
0.0
  0
DIMENSION
  5
7C
330
18
100
AcDbEntity
  8
ADPDIM
100
AcDbDimension
  2
*D0
 10
-4.912809211284368
 20
1.36316156822628
 30
0.0
 11
-21.42434900315532
 21
1.36316156822628
 31
0.0
 12
-8.166292032212789
 22
0.0
 32
0.0
100
AcDbAlignedDimension
 13
-6.65749203221279
 23
0.8583272727272724
 33
0.0
 14
-4.912809211284368
 24
0.8583272727272722
 34
0.0
100
AcDbRotatedDimension
  0
LINE
  5
7D
330
18
100
AcDbEntity
  8
ADP1DETAIL
100
AcDbLine
 10
34.83642172122701
 20
1.208851015429465
 30
0.0
 11
34.83642172122701
 21
0.6181535971720682
 31
0.0
  0
LINE
  5
7E
330
18
100
AcDbEntity
  8
ADP1DETAIL
100
AcDbLine
 10
-6.395504240759525
 20
0.9577815371151947
 30
0.0
 11
-6.378783560886436
 21
1.020183963938664
 31
0.0
  0
LINE
  5
7F
330
18
100
AcDbEntity
  8
ADP1DETAIL
100
AcDbLine
 10
-6.535150621748581
 20
0.9577815371151947
 30
0.0
 11
-6.395504240759525
 21
0.9577815371151947
 31
0.0
  0
ARC
  5
80
330
18
100
AcDbEntity
  8
ADP1DETAIL
100
AcDbCircle
 10
-6.535150621748581
 20
0.8326839639386649
 30
0.0
 40
0.125
100
AcDbArc
 50
90.0
 51
208.9377617043263
  0
LINE
  5
81
330
18
100
AcDbEntity
  8
ADP1DETAIL
100
AcDbLine
 10
-5.190932767488185
 20
1.020183963938664
 30
0.0
 11
-5.272072522743322
 21
-0.2650697593027043
 31
0.0
  0
ARC
  5
82
330
18
100
AcDbEntity
  8
ADP1DETAIL
100
AcDbCircle
 10
-5.785150621748581
 20
0.770183963938665
 30
0.0
 40
0.40625
100
AcDbArc
 50
54.7034709189056
 51
90.0
  0
ARC
  5
83
330
18
100
AcDbEntity
  8
ADP1DETAIL
100
AcDbCircle
 10
-6.330369100773541
 20
1.6495067573216
 30
0.0
 40
0.6296294546398661
100
AcDbArc
 50
270.9972411168814
 51
299.5459647873847
  0
ARC
  5
84
330
18
100
AcDbEntity
  8
ADP1DETAIL
100
AcDbCircle
 10
-5.785150621748581
 20
0.770183963938665
 30
0.0
 40
0.40625
100
AcDbArc
 50
90.0
 51
125.2965290810944
  0
ARC
  5
85
330
18
100
AcDbEntity
  8
ADP1DETAIL
100
AcDbCircle
 10
-5.239932142723617
 20
1.6495067573216
 30
0.0
 40
0.6296294546398661
100
AcDbArc
 50
240.4540352126153
 51
269.0027588831185
  0
LINE
  5
86
330
18
100
AcDbEntity
  8
ADP1DETAIL
100
AcDbLine
 10
-5.035150621748581
 20
0.9577815371151947
 30
0.0
 11
-5.174797002737633
 21
0.9577815371151947
 31
0.0
  0
LINE
  5
87
330
18
100
AcDbEntity
  8
ADP1DETAIL
100
AcDbLine
 10
-5.174797002737633
 20
0.9577815371151947
 30
0.0
 11
-5.191517682610722
 21
1.020183963938664
 31
0.0
  0
LINE
  5
88
330
18
100
AcDbEntity
  8
ADP1DETAIL
100
AcDbLine
 10
-5.191400621748581
 20
1.020183963938664
 30
0.0
 11
-5.250890378813746
 21
1.019972669911007
 31
0.0
  0
ARC
  5
89
330
18
100
AcDbEntity
  8
ADP1DETAIL
100
AcDbCircle
 10
-5.035150621748581
 20
0.8326839639386649
 30
0.0
 40
0.125
100
AcDbArc
 50
331.6799376514067
 51
90.0
  0
TEXT
  5
97
330
18
100
AcDbEntity
  8
ADPDIM
100
AcDbText
 10
-7.943009180543015
 20
-5.647566293291041
 30
0.0
 40
0.4117647058823529
  1
J U L I U S  B L U M  &  C O . ,  I N C .      ( 8 0 0 )  5 2 6 - 6 2 9 3        W W W . J U L I U S B L U M . C O M        P A R T  N o .  4 4 2 9 - F 3
 41
1.25
  7
ARIAL_WIDE
 72
     1
 11
14.39245245977477
 21
-5.235801587408688
 31
0.0
100
AcDbText
 73
     3
  0
ENDSEC
  0
SECTION
  2
OBJECTS
  0
DICTIONARY
  5
C
330
0
100
AcDbDictionary
  3
ACAD_GROUP
350
D
  3
ACAD_LAYOUT
350
90
  3
ACAD_MLINESTYLE
350
E
  3
ACAD_PLOTSETTINGS
350
91
  3
ACAD_PLOTSTYLENAME
350
8E
  3
ACDBHEADERROUNDTRIPXREC
350
1DB
  3
ACDBVARIABLEDICTIONARY
350
F1
  0
DICTIONARY
  5
EB
330
18
100
AcDbDictionary
280
     1
  3
ACAD_LAYOUTSELFREF
360
1FC
  0
DICTIONARY
  5
E9
330
15
100
AcDbDictionary
280
     1
  3
ACAD_LAYOUTSELFREF
360
1FB
  0
DICTIONARY
  5
D
102
{ACAD_REACTORS
330
C
102
}
330
C
100
AcDbDictionary
  0
DICTIONARY
  5
90
102
{ACAD_REACTORS
330
C
102
}
330
C
100
AcDbDictionary
  0
DICTIONARY
  5
E
102
{ACAD_REACTORS
330
C
102
}
330
C
100
AcDbDictionary
  3
STANDARD
350
1B
  0
DICTIONARY
  5
91
102
{ACAD_REACTORS
330
C
102
}
330
C
100
AcDbDictionary
  0
ACDBDICTIONARYWDFLT
  5
8E
102
{ACAD_REACTORS
330
C
102
}
330
C
100
AcDbDictionary
281
     1
  3
Normal
350
8F
100
AcDbDictionaryWithDefault
340
8F
  0
DICTIONARY
  5
1DB
102
{ACAD_REACTORS
330
C
102
}
330
C
100
AcDbDictionary
  3
CEPSNTYPE
350
1E5
  3
FINGERPRINTGUID
350
1E6
  3
HYPERLINKBASE
350
1DE
  3
INSUNITS
350
1E4
  3
LAYOUTDICT
350
1E0
  3
LWETCUNION
350
1E3
  3
PLOTSETDICT
350
1E1
  3
PLOTSTYLNAMDICT
350
1E2
  3
PSVPSCALE
350
1E8
  3
PUCSBASE
350
1EB
  3
PUCSORGBACK
350
1F1
  3
PUCSORGBOTTOM
350
1ED
  3
PUCSORGFRONT
350
1F0
  3
PUCSORGLEFT
350
1EE
  3
PUCSORGRIGHT
350
1EF
  3
PUCSORGTOP
350
1EC
  3
PUCSORTHOREF
350
1E9
  3
PUCSORTHOVIEW
350
1EA
  3
STYLESHEET
350
1DF
  3
TSTACKALIGN
350
1DC
  3
TSTACKSIZE
350
1DD
  3
UCSBASE
350
1F4
  3
UCSORGBACK
350
1FA
  3
UCSORGBOTTOM
350
1F6
  3
UCSORGFRONT
350
1F9
  3
UCSORGLEFT
350
1F7
  3
UCSORGRIGHT
350
1F8
  3
UCSORGTOP
350
1F5
  3
UCSORTHOREF
350
1F2
  3
UCSORTHOVIEW
350
1F3
  3
VERSIONGUID
350
1E7
  0
DICTIONARY
  5
F1
102
{ACAD_REACTORS
330
C
102
}
330
C
100
AcDbDictionary
  3
DIMASSOC
350
F2
  0
XRECORD
  5
1FC
102
{ACAD_REACTORS
330
EB
102
}
330
EB
100
AcDbXrecord
340
18
  0
XRECORD
  5
1FB
102
{ACAD_REACTORS
330
E9
102
}
330
E9
100
AcDbXrecord
340
15
  0
MLINESTYLE
  5
1B
102
{ACAD_REACTORS
330
E
102
}
330
E
100
AcDbMlineStyle
  2
STANDARD
 70
     0
  3

 62
     0
 51
90.0
 52
90.0
 71
     2
 49
0.5
 62
   256
  6
BYLAYER
 49
-0.5
 62
   256
  6
BYLAYER
  0
ACDBPLACEHOLDER
  5
8F
102
{ACAD_REACTORS
330
8E
102
}
330
8E
100
AcDbPlaceHolder
280
     0
  0
XRECORD
  5
1E5
102
{ACAD_REACTORS
330
1DB
102
}
330
1DB
100
AcDbXrecord
 90
        0
  0
XRECORD
  5
1E6
102
{ACAD_REACTORS
330
1DB
102
}
330
1DB
100
AcDbXrecord
  1
{C340C1D7-567A-4991-A570-B78587209BB3}
  0
XRECORD
  5
1DE
102
{ACAD_REACTORS
330
1DB
102
}
330
1DB
100
AcDbXrecord
  1

  0
XRECORD
  5
1E4
102
{ACAD_REACTORS
330
1DB
102
}
330
1DB
100
AcDbXrecord
 90
        0
  0
XRECORD
  5
1E0
102
{ACAD_REACTORS
330
1DB
102
}
330
1DB
100
AcDbXrecord
340
90
  0
XRECORD
  5
1E3
102
{ACAD_REACTORS
330
1DB
102
}
330
1DB
100
AcDbXrecord
 90
    14877
  0
XRECORD
  5
1E1
102
{ACAD_REACTORS
330
1DB
102
}
330
1DB
100
AcDbXrecord
340
91
  0
XRECORD
  5
1E2
102
{ACAD_REACTORS
330
1DB
102
}
330
1DB
100
AcDbXrecord
340
8E
  0
XRECORD
  5
1E8
102
{ACAD_REACTORS
330
1DB
102
}
330
1DB
100
AcDbXrecord
 40
0.0
  0
XRECORD
  5
1EB
102
{ACAD_REACTORS
330
1DB
102
}
330
1DB
100
AcDbXrecord
340
0
  0
XRECORD
  5
1F1
102
{ACAD_REACTORS
330
1DB
102
}
330
1DB
100
AcDbXrecord
 10
0.0
 20
0.0
 30
0.0
  0
XRECORD
  5
1ED
102
{ACAD_REACTORS
330
1DB
102
}
330
1DB
100
AcDbXrecord
 10
0.0
 20
0.0
 30
0.0
  0
XRECORD
  5
1F0
102
{ACAD_REACTORS
330
1DB
102
}
330
1DB
100
AcDbXrecord
 10
0.0
 20
0.0
 30
0.0
  0
XRECORD
  5
1EE
102
{ACAD_REACTORS
330
1DB
102
}
330
1DB
100
AcDbXrecord
 10
0.0
 20
0.0
 30
0.0
  0
XRECORD
  5
1EF
102
{ACAD_REACTORS
330
1DB
102
}
330
1DB
100
AcDbXrecord
 10
0.0
 20
0.0
 30
0.0
  0
XRECORD
  5
1EC
102
{ACAD_REACTORS
330
1DB
102
}
330
1DB
100
AcDbXrecord
 10
0.0
 20
0.0
 30
0.0
  0
XRECORD
  5
1E9
102
{ACAD_REACTORS
330
1DB
102
}
330
1DB
100
AcDbXrecord
340
0
  0
XRECORD
  5
1EA
102
{ACAD_REACTORS
330
1DB
102
}
330
1DB
100
AcDbXrecord
 70
     0
  0
XRECORD
  5
1DF
102
{ACAD_REACTORS
330
1DB
102
}
330
1DB
100
AcDbXrecord
  1

  0
XRECORD
  5
1DC
102
{ACAD_REACTORS
330
1DB
102
}
330
1DB
100
AcDbXrecord
 90
        1
  0
XRECORD
  5
1DD
102
{ACAD_REACTORS
330
1DB
102
}
330
1DB
100
AcDbXrecord
 90
       70
  0
XRECORD
  5
1F4
102
{ACAD_REACTORS
330
1DB
102
}
330
1DB
100
AcDbXrecord
340
0
  0
XRECORD
  5
1FA
102
{ACAD_REACTORS
330
1DB
102
}
330
1DB
100
AcDbXrecord
 10
0.0
 20
0.0
 30
0.0
  0
XRECORD
  5
1F6
102
{ACAD_REACTORS
330
1DB
102
}
330
1DB
100
AcDbXrecord
 10
0.0
 20
0.0
 30
0.0
  0
XRECORD
  5
1F9
102
{ACAD_REACTORS
330
1DB
102
}
330
1DB
100
AcDbXrecord
 10
0.0
 20
0.0
 30
0.0
  0
XRECORD
  5
1F7
102
{ACAD_REACTORS
330
1DB
102
}
330
1DB
100
AcDbXrecord
 10
0.0
 20
0.0
 30
0.0
  0
XRECORD
  5
1F8
102
{ACAD_REACTORS
330
1DB
102
}
330
1DB
100
AcDbXrecord
 10
0.0
 20
0.0
 30
0.0
  0
XRECORD
  5
1F5
102
{ACAD_REACTORS
330
1DB
102
}
330
1DB
100
AcDbXrecord
 10
0.0
 20
0.0
 30
0.0
  0
XRECORD
  5
1F2
102
{ACAD_REACTORS
330
1DB
102
}
330
1DB
100
AcDbXrecord
340
0
  0
XRECORD
  5
1F3
102
{ACAD_REACTORS
330
1DB
102
}
330
1DB
100
AcDbXrecord
 70
     0
  0
XRECORD
  5
1E7
102
{ACAD_REACTORS
330
1DB
102
}
330
1DB
100
AcDbXrecord
  1
{FAC0F76E-A545-4362-B0D8-EDA32B6C9ACE}
  0
DICTIONARYVAR
  5
F2
102
{ACAD_REACTORS
330
F1
102
}
330
F1
100
DictionaryVariables
280
     0
  1
1
  0
ENDSEC
  0
EOF
