  0
SECTION
  2
HEADER
  9
$ACADVER
  1
AC1014
  9
$ACADMAINTVER
 70
     9
  9
$DWGCODEPAGE
  3
ANSI_1252
  9
$INSBASE
 10
14.48137345186552
 20
12.58758362530502
 30
0.0
  9
$EXTMIN
 10
7.78585844504424
 20
11.50470017277042
 30
0.0
  9
$EXTMAX
 10
21.1768884586868
 20
16.50733392668036
 30
0.0
  9
$LIMMIN
 10
0.0
 20
0.0
  9
$LIMMAX
 10
36.0
 20
36.0
  9
$ORTHOMODE
 70
     1
  9
$REGENMODE
 70
     1
  9
$FILLMODE
 70
     1
  9
$QTEXTMODE
 70
     0
  9
$MIRRTEXT
 70
     1
  9
$DRAGMODE
 70
     0
  9
$LTSCALE
 40
1.0
  9
$OSMODE
 70
    37
  9
$ATTMODE
 70
     1
  9
$TEXTSIZE
 40
0.2
  9
$TRACEWID
 40
0.05
  9
$TEXTSTYLE
  7
STANDARD
  9
$CLAYER
  8
ADPDIM
  9
$CELTYPE
  6
BYLAYER
  9
$CECOLOR
 62
   256
  9
$CELTSCALE
 40
1.0
  9
$DELOBJ
 70
     1
  9
$DISPSILH
 70
     0
  9
$DIMSCALE
 40
1.0
  9
$DIMASZ
 40
0.125
  9
$DIMEXO
 40
0.0625
  9
$DIMDLI
 40
0.38
  9
$DIMRND
 40
0.0
  9
$DIMDLE
 40
0.0
  9
$DIMEXE
 40
0.18
  9
$DIMTP
 40
0.0
  9
$DIMTM
 40
0.0
  9
$DIMTXT
 40
0.125
  9
$DIMCEN
 40
0.1875
  9
$DIMTSZ
 40
0.125
  9
$DIMTOL
 70
     0
  9
$DIMLIM
 70
     0
  9
$DIMTIH
 70
     0
  9
$DIMTOH
 70
     0
  9
$DIMSE1
 70
     0
  9
$DIMSE2
 70
     0
  9
$DIMTAD
 70
     0
  9
$DIMZIN
 70
     2
  9
$DIMBLK
  1

  9
$DIMASO
 70
     1
  9
$DIMSHO
 70
     1
  9
$DIMPOST
  1

  9
$DIMAPOST
  1

  9
$DIMALT
 70
     0
  9
$DIMALTD
 70
     1
  9
$DIMALTF
 40
25.4
  9
$DIMLFAC
 40
1.0
  9
$DIMTOFL
 70
     0
  9
$DIMTVP
 40
0.0
  9
$DIMTIX
 70
     0
  9
$DIMSOXD
 70
     0
  9
$DIMSAH
 70
     0
  9
$DIMBLK1
  1

  9
$DIMBLK2
  1

  9
$DIMSTYLE
  2
STANDARD
  9
$DIMCLRD
 70
     0
  9
$DIMCLRE
 70
     0
  9
$DIMCLRT
 70
     0
  9
$DIMTFAC
 40
1.0
  9
$DIMGAP
 40
0.125
  9
$DIMJUST
 70
     0
  9
$DIMSD1
 70
     0
  9
$DIMSD2
 70
     0
  9
$DIMTOLJ
 70
     1
  9
$DIMTZIN
 70
     0
  9
$DIMALTZ
 70
     0
  9
$DIMALTTZ
 70
     0
  9
$DIMFIT
 70
     3
  9
$DIMUPT
 70
     0
  9
$DIMUNIT
 70
     7
  9
$DIMDEC
 70
     2
  9
$DIMTDEC
 70
     4
  9
$DIMALTU
 70
     2
  9
$DIMALTTD
 70
     2
  9
$DIMTXSTY
  7
STANDARD
  9
$DIMAUNIT
 70
     0
  9
$LUNITS
 70
     5
  9
$LUPREC
 70
     5
  9
$SKETCHINC
 40
0.1
  9
$FILLETRAD
 40
0.0
  9
$AUNITS
 70
     0
  9
$AUPREC
 70
     0
  9
$MENU
  1
acad
  9
$ELEVATION
 40
0.0
  9
$PELEVATION
 40
0.0
  9
$THICKNESS
 40
0.0
  9
$LIMCHECK
 70
     0
  9
$BLIPMODE
 70
     0
  9
$CHAMFERA
 40
0.0
  9
$CHAMFERB
 40
0.0
  9
$CHAMFERC
 40
0.0
  9
$CHAMFERD
 40
0.0
  9
$SKPOLY
 70
     0
  9
$TDCREATE
 40
2450366.651843171
  9
$TDUPDATE
 40
2452297.085482673
  9
$TDINDWG
 40
0.0974137153
  9
$TDUSRTIMER
 40
0.0974137153
  9
$USRTIMER
 70
     1
  9
$ANGBASE
 50
0.0
  9
$ANGDIR
 70
     0
  9
$PDMODE
 70
     0
  9
$PDSIZE
 40
0.0
  9
$PLINEWID
 40
0.0
  9
$COORDS
 70
     2
  9
$SPLFRAME
 70
     0
  9
$SPLINETYPE
 70
     6
  9
$SPLINESEGS
 70
     8
  9
$ATTDIA
 70
     0
  9
$ATTREQ
 70
     1
  9
$HANDLING
 70
 22529
  9
$HANDSEED
  5
4C6
  9
$SURFTAB1
 70
     6
  9
$SURFTAB2
 70
     6
  9
$SURFTYPE
 70
     6
  9
$SURFU
 70
     6
  9
$SURFV
 70
     6
  9
$UCSNAME
  2

  9
$UCSORG
 10
0.0
 20
0.0
 30
0.0
  9
$UCSXDIR
 10
1.0
 20
0.0
 30
0.0
  9
$UCSYDIR
 10
0.0
 20
1.0
 30
0.0
  9
$PUCSNAME
  2

  9
$PUCSORG
 10
0.0
 20
0.0
 30
0.0
  9
$PUCSXDIR
 10
1.0
 20
0.0
 30
0.0
  9
$PUCSYDIR
 10
0.0
 20
1.0
 30
0.0
  9
$USERI1
 70
     0
  9
$USERI2
 70
     0
  9
$USERI3
 70
     0
  9
$USERI4
 70
     0
  9
$USERI5
 70
     0
  9
$USERR1
 40
0.0
  9
$USERR2
 40
0.0
  9
$USERR3
 40
0.0
  9
$USERR4
 40
0.0
  9
$USERR5
 40
0.0
  9
$WORLDVIEW
 70
     1
  9
$SHADEDGE
 70
     3
  9
$SHADEDIF
 70
    70
  9
$TILEMODE
 70
     1
  9
$MAXACTVP
 70
    15
  9
$PINSBASE
 10
0.1250013113021854
 20
0.0
 30
0.0
  9
$PLIMCHECK
 70
     0
  9
$PEXTMIN
 10
1.000000000000000E+20
 20
1.000000000000000E+20
 30
1.000000000000000E+20
  9
$PEXTMAX
 10
-1.000000000000000E+20
 20
-1.000000000000000E+20
 30
-1.000000000000000E+20
  9
$PLIMMIN
 10
0.0
 20
0.0
  9
$PLIMMAX
 10
12.0
 20
9.0
  9
$UNITMODE
 70
     0
  9
$VISRETAIN
 70
     0
  9
$PLINEGEN
 70
     0
  9
$PSLTSCALE
 70
     1
  9
$TREEDEPTH
 70
  3020
  9
$PICKSTYLE
 70
     1
  9
$CMLSTYLE
  2
STANDARD
  9
$CMLJUST
 70
     0
  9
$CMLSCALE
 40
1.0
  9
$PROXYGRAPHICS
 70
     1
  9
$MEASUREMENT
 70
     0
  0
ENDSEC
  0
SECTION
  2
CLASSES
  0
CLASS
  1
ACDBDICTIONARYWDFLT
  2
AcDbDictionaryWithDefault
  3
AutoCAD 2000
 90
        0
280
     0
281
     0
  0
CLASS
  1
ACDBPLACEHOLDER
  2
AcDbPlaceHolder
  3
AutoCAD 2000
 90
        0
280
     0
281
     0
  0
CLASS
  1
LAYOUT
  2
AcDbLayout
  3
AutoCAD 2000
 90
        0
280
     0
281
     0
  0
CLASS
  1
DICTIONARYVAR
  2
AcDbDictionaryVar
  3
AutoCAD 2000
 90
        0
280
     0
281
     0
  0
CLASS
  1
LONG_TRANSACTION
  2
AcDbLongTransaction
  3
AutoCAD 2000
 90
        0
280
     0
281
     0
  0
CLASS
  1
LWPOLYLINE
  2
AcDbPolyline
  3
AutoCAD 2000
 90
        0
280
     0
281
     1
  0
CLASS
  1
HATCH
  2
AcDbHatch
  3
AutoCAD 2000
 90
        0
280
     0
281
     1
  0
CLASS
  1
XRECORD
  2
AcDbXrecord
  3
AutoCAD 2000
 90
        0
280
     0
281
     0
  0
CLASS
  1
LONG_TRANSACTION
  2
AcDbLongTransaction
  3
AutoCAD 2000
 90
        0
280
     0
281
     0
  0
CLASS
  1
LWPOLYLINE
  2
AcDbPolyline
  3
AutoCAD 2000
 90
        0
280
     0
281
     1
  0
CLASS
  1
HATCH
  2
AcDbHatch
  3
AutoCAD 2000
 90
        0
280
     0
281
     1
  0
CLASS
  1
XRECORD
  2
AcDbXrecord
  3
AutoCAD 2000
 90
        0
280
     0
281
     0
  0
CLASS
  1
LONG_TRANSACTION
  2
AcDbLongTransaction
  3
AutoCAD 2000
 90
        0
280
     0
281
     0
  0
CLASS
  1
LWPOLYLINE
  2
AcDbPolyline
  3
AutoCAD 2000
 90
        0
280
     0
281
     1
  0
CLASS
  1
HATCH
  2
AcDbHatch
  3
AutoCAD 2000
 90
        0
280
     0
281
     1
  0
CLASS
  1
XRECORD
  2
AcDbXrecord
  3
AutoCAD 2000
 90
        0
280
     0
281
     0
  0
CLASS
  1
LONG_TRANSACTION
  2
AcDbLongTransaction
  3
AutoCAD 2000
 90
        0
280
     0
281
     0
  0
CLASS
  1
LWPOLYLINE
  2
AcDbPolyline
  3
AutoCAD 2000
 90
        0
280
     0
281
     1
  0
CLASS
  1
HATCH
  2
AcDbHatch
  3
AutoCAD 2000
 90
        0
280
     0
281
     1
  0
CLASS
  1
XRECORD
  2
AcDbXrecord
  3
AutoCAD 2000
 90
        0
280
     0
281
     0
  0
CLASS
  1
LONG_TRANSACTION
  2
AcDbLongTransaction
  3
AutoCAD 2000
 90
        0
280
     0
281
     0
  0
CLASS
  1
LWPOLYLINE
  2
AcDbPolyline
  3
AutoCAD 2000
 90
        0
280
     0
281
     1
  0
CLASS
  1
HATCH
  2
AcDbHatch
  3
AutoCAD 2000
 90
        0
280
     0
281
     1
  0
CLASS
  1
XRECORD
  2
AcDbXrecord
  3
AutoCAD 2000
 90
        0
280
     0
281
     0
  0
ENDSEC
  0
SECTION
  2
TABLES
  0
TABLE
  2
VPORT
  5
13
330
0
100
AcDbSymbolTable
 70
     2
  0
VPORT
  5
484
330
13
100
AcDbSymbolTableRecord
100
AcDbViewportTableRecord
  2
*ACTIVE
 70
     0
 10
0.0
 20
0.0
 11
1.0
 21
1.0
 12
14.49243716768577
 22
14.00646980573245
 13
0.0
 23
0.0
 14
0.5740882589684922
 24
0.5740882589684922
 15
0.5
 25
0.5
 16
0.0
 26
0.0
 36
1.0
 17
0.0
 27
0.0
 37
0.0
 40
8.582083975164245
 41
1.570528967254408
 42
50.0
 43
0.0
 44
0.0
 50
0.0
 51
0.0
 71
     0
 72
   100
 73
     1
 74
     0
 75
     0
 76
     0
 77
     0
 78
     0
  0
ENDTAB
  0
TABLE
  2
LTYPE
  5
F
330
0
100
AcDbSymbolTable
 70
     2
  0
LTYPE
  5
10
330
F
100
AcDbSymbolTableRecord
100
AcDbLinetypeTableRecord
  2
BYBLOCK
 70
     0
  3

 72
    65
 73
     0
 40
0.0
  0
LTYPE
  5
6
330
F
100
AcDbSymbolTableRecord
100
AcDbLinetypeTableRecord
  2
BYLAYER
 70
     0
  3

 72
    65
 73
     0
 40
0.0
  0
LTYPE
  5
5
330
F
100
AcDbSymbolTableRecord
100
AcDbLinetypeTableRecord
  2
CONTINUOUS
 70
     0
  3
Solid line
 72
    65
 73
     0
 40
0.0
  0
LTYPE
  5
5D
330
F
100
AcDbSymbolTableRecord
100
AcDbLinetypeTableRecord
  2
HIDDEN2
 70
     0
  3
_ _ _ _ _ _ _ _ _ _ _ _ _ _ _ _ _ _ _ _ _ _ _ _
 72
    65
 73
     2
 40
0.1875
 49
0.125
 74
     0
 49
-0.0625
 74
     0
  0
ENDTAB
  0
TABLE
  2
LAYER
  5
B
330
0
100
AcDbSymbolTable
 70
     5
  0
LAYER
  5
C
330
B
100
AcDbSymbolTableRecord
100
AcDbLayerTableRecord
  2
0
 70
     0
 62
     7
  6
CONTINUOUS
  0
LAYER
  5
4
330
B
100
AcDbSymbolTableRecord
100
AcDbLayerTableRecord
  2
ADPDIM
 70
     0
 62
     3
  6
CONTINUOUS
  0
LAYER
  5
2E
330
B
100
AcDbSymbolTableRecord
100
AcDbLayerTableRecord
  2
ADP1DETAIL
 70
     0
 62
     7
  6
CONTINUOUS
  0
LAYER
  5
28
330
B
100
AcDbSymbolTableRecord
100
AcDbLayerTableRecord
  2
DEFPOINTS
 70
     0
 62
     7
  6
CONTINUOUS
  0
LAYER
  5
5C
330
B
100
AcDbSymbolTableRecord
100
AcDbLayerTableRecord
  2
ADP2DETAIL
 70
     0
 62
     5
  6
CONTINUOUS
  0
ENDTAB
  0
TABLE
  2
STYLE
  5
D
330
0
100
AcDbSymbolTable
 70
     2
  0
STYLE
  5
E
330
D
100
AcDbSymbolTableRecord
100
AcDbTextStyleTableRecord
  2
STANDARD
 70
     0
 40
0.0
 41
1.0
 50
0.0
 71
     0
 42
0.2
  3
txt
  4

  0
STYLE
  5
261
330
D
100
AcDbSymbolTableRecord
100
AcDbTextStyleTableRecord
  2
ARIAL_WIDE
 70
     0
 40
0.0
 41
1.25
 50
0.0
 71
     0
 42
0.2
  3
ARIAL.TTF
  4

1001
ACAD
1000
Arial
1071
       34
  0
ENDTAB
  0
TABLE
  2
VIEW
  5
11
330
0
100
AcDbSymbolTable
 70
     0
  0
ENDTAB
  0
TABLE
  2
UCS
  5
12
330
0
100
AcDbSymbolTable
 70
     0
  0
ENDTAB
  0
TABLE
  2
APPID
  5
15
330
0
100
AcDbSymbolTable
 70
     1
  0
APPID
  5
16
330
15
100
AcDbSymbolTableRecord
100
AcDbRegAppTableRecord
  2
ACAD
 70
     0
  0
ENDTAB
  0
TABLE
  2
DIMSTYLE
  5
17
330
0
100
AcDbSymbolTable
 70
     1
  0
DIMSTYLE
105
1D
102
{ACAD_REACTORS
330
1E
330
223
330
231
102
}
330
17
100
AcDbSymbolTableRecord
100
AcDbDimStyleTableRecord
  2
STANDARD
 70
     0
  3

  4

  5

  6

  7

 40
1.0
 41
0.18
 42
0.0625
 43
0.38
 44
0.18
 45
0.0
 46
0.0
 47
0.0
 48
0.0
140
0.18
141
0.09
142
0.0
143
25.4
144
1.0
145
0.0
146
1.0
147
0.09
 71
     0
 72
     0
 73
     1
 74
     1
 75
     0
 76
     0
 77
     0
 78
     0
170
     0
171
     2
172
     0
173
     0
174
     0
175
     0
176
     0
177
     0
178
     0
270
     2
271
     4
272
     4
273
     2
274
     2
340
E
275
     0
280
     0
281
     0
282
     0
283
     1
284
     0
285
     0
286
     0
287
     3
288
     0
  0
ENDTAB
  0
TABLE
  2
BLOCK_RECORD
  5
1
330
0
100
AcDbSymbolTable
 70
     3
  0
BLOCK_RECORD
  5
2
102
{ACAD_XDICTIONARY
360
2D7
102
}
330
1
100
AcDbSymbolTableRecord
100
AcDbBlockTableRecord
  2
*MODEL_SPACE
  0
BLOCK_RECORD
  5
8
102
{ACAD_XDICTIONARY
360
2D9
102
}
330
1
100
AcDbSymbolTableRecord
100
AcDbBlockTableRecord
  2
*PAPER_SPACE
  0
BLOCK_RECORD
  5
216
330
1
100
AcDbSymbolTableRecord
100
AcDbBlockTableRecord
  2
*D0
  0
BLOCK_RECORD
  5
224
330
1
100
AcDbSymbolTableRecord
100
AcDbBlockTableRecord
  2
*D1
  0
BLOCK_RECORD
  5
2DB
330
1
100
AcDbSymbolTableRecord
100
AcDbBlockTableRecord
  2
*D2
  0
ENDTAB
  0
ENDSEC
  0
SECTION
  2
BLOCKS
  0
BLOCK
  5
3
330
2
100
AcDbEntity
  8
0
100
AcDbBlockBegin
  2
*MODEL_SPACE
 70
     0
 10
0.0
 20
0.0
 30
0.0
  3
*MODEL_SPACE
  1

  0
ENDBLK
  5
7
330
2
100
AcDbEntity
  8
0
100
AcDbBlockEnd
  0
BLOCK
  5
9
330
8
100
AcDbEntity
 67
     1
  8
0
100
AcDbBlockBegin
  2
*PAPER_SPACE
 70
     0
 10
0.0
 20
0.0
 30
0.0
  3
*PAPER_SPACE
  1

  0
ENDBLK
  5
A
330
8
100
AcDbEntity
 67
     1
  8
0
100
AcDbBlockEnd
  0
BLOCK
  5
217
330
216
100
AcDbEntity
  8
0
100
AcDbBlockBegin
  2
*D0
 70
     1
 10
0.0
 20
0.0
 30
0.0
  3
*D0
  1

  0
LINE
  5
4B2
330
216
100
AcDbEntity
  8
ADPDIM
 62
     0
100
AcDbLine
 10
11.76834916314826
 20
12.704990013524
 30
0.0
 11
11.76834916314826
 21
12.11493517130865
 31
0.0
  0
LINE
  5
4B3
330
216
100
AcDbEntity
  8
ADPDIM
 62
     0
100
AcDbLine
 10
12.85961058340313
 20
12.704990013524
 30
0.0
 11
12.85961058340313
 21
12.11493517130865
 31
0.0
  0
LINE
  5
4B4
330
216
100
AcDbEntity
  8
ADPDIM
 62
     0
100
AcDbLine
 10
11.76834916314826
 20
12.29493517130865
 30
0.0
 11
12.16814653994236
 21
12.29493517130865
 31
0.0
  0
LINE
  5
4B5
330
216
100
AcDbEntity
  8
ADPDIM
 62
     0
100
AcDbLine
 10
12.85961058340313
 20
12.29493517130865
 30
0.0
 11
12.45981320660903
 21
12.29493517130865
 31
0.0
  0
LINE
  5
4B6
330
216
100
AcDbEntity
  8
ADPDIM
 62
     0
100
AcDbLine
 10
12.73461058340313
 20
12.16993517130865
 30
0.0
 11
12.98461058340313
 21
12.41993517130865
 31
0.0
  0
LINE
  5
4B7
330
216
100
AcDbEntity
  8
ADPDIM
 62
     0
100
AcDbLine
 10
11.64334916314826
 20
12.16993517130865
 30
0.0
 11
11.89334916314826
 21
12.41993517130865
 31
0.0
  0
MTEXT
  5
4B8
330
216
100
AcDbEntity
  8
ADPDIM
 62
     0
100
AcDbMText
 10
12.3139798732757
 20
12.29493517130865
 30
0.0
 40
0.125
 41
0.0
 71
     5
 72
     1
  1
\A1;1
  0
POINT
  5
4B9
330
216
100
AcDbEntity
  8
DEFPOINTS
 62
     0
100
AcDbPoint
 10
11.76834916314826
 20
12.767490013524
 30
0.0
  0
POINT
  5
4BA
330
216
100
AcDbEntity
  8
DEFPOINTS
 62
     0
100
AcDbPoint
 10
12.85961058340313
 20
12.767490013524
 30
0.0
  0
POINT
  5
4BB
330
216
100
AcDbEntity
  8
DEFPOINTS
 62
     0
100
AcDbPoint
 10
12.85961058340313
 20
12.29493517130865
 30
0.0
  0
ENDBLK
  5
222
330
216
100
AcDbEntity
  8
0
100
AcDbBlockEnd
  0
BLOCK
  5
225
330
224
100
AcDbEntity
  8
0
100
AcDbBlockBegin
  2
*D1
 70
     1
 10
0.0
 20
0.0
 30
0.0
  3
*D1
  1

  0
LINE
  5
4BC
330
224
100
AcDbEntity
  8
ADPDIM
 62
     0
100
AcDbLine
 10
11.44163846281149
 20
12.9181333223126
 30
0.0
 11
11.44163846281149
 21
13.55213697056858
 31
0.0
  0
LINE
  5
4BD
330
224
100
AcDbEntity
  8
ADPDIM
 62
     0
100
AcDbLine
 10
13.18632128373991
 20
12.9181333223126
 30
0.0
 11
13.18632128373991
 21
13.55213697056858
 31
0.0
  0
LINE
  5
4BE
330
224
100
AcDbEntity
  8
ADPDIM
 62
     0
100
AcDbLine
 10
11.44163846281149
 20
13.37213697056857
 30
0.0
 11
11.91814653994236
 21
13.37213697056857
 31
0.0
  0
LINE
  5
4BF
330
224
100
AcDbEntity
  8
ADPDIM
 62
     0
100
AcDbLine
 10
13.18632128373991
 20
13.37213697056857
 30
0.0
 11
12.70981320660903
 21
13.37213697056857
 31
0.0
  0
LINE
  5
4C0
330
224
100
AcDbEntity
  8
ADPDIM
 62
     0
100
AcDbLine
 10
13.06132128373991
 20
13.24713697056858
 30
0.0
 11
13.3113212837399
 21
13.49713697056857
 31
0.0
  0
LINE
  5
4C1
330
224
100
AcDbEntity
  8
ADPDIM
 62
     0
100
AcDbLine
 10
11.31663846281149
 20
13.24713697056858
 30
0.0
 11
11.56663846281149
 21
13.49713697056857
 31
0.0
  0
MTEXT
  5
4C2
330
224
100
AcDbEntity
  8
ADPDIM
 62
     0
100
AcDbMText
 10
12.3139798732757
 20
13.37213697056857
 30
0.0
 40
0.125
 41
0.0
 71
     5
 72
     1
  1
\A1;1 3/4
  0
POINT
  5
4C3
330
224
100
AcDbEntity
  8
DEFPOINTS
 62
     0
100
AcDbPoint
 10
11.44163846281149
 20
12.8556333223126
 30
0.0
  0
POINT
  5
4C4
330
224
100
AcDbEntity
  8
DEFPOINTS
 62
     0
100
AcDbPoint
 10
13.18632128373991
 20
12.8556333223126
 30
0.0
  0
POINT
  5
4C5
330
224
100
AcDbEntity
  8
DEFPOINTS
 62
     0
100
AcDbPoint
 10
13.18632128373991
 20
13.37213697056857
 30
0.0
  0
ENDBLK
  5
230
330
224
100
AcDbEntity
  8
0
100
AcDbBlockEnd
  0
BLOCK
  5
2E6
330
2DB
100
AcDbEntity
  8
0
100
AcDbBlockBegin
  2
*D2
 70
     1
 10
0.0
 20
0.0
 30
0.0
  3
*D2
  1

  0
LINE
  5
4A8
330
2DB
100
AcDbEntity
  8
ADPDIM
 62
     0
100
AcDbLine
 10
14.48137345186552
 20
12.52508362530503
 30
0.0
 11
14.48137345186552
 21
12.21801465951795
 31
0.0
  0
LINE
  5
4A9
330
2DB
100
AcDbEntity
  8
ADPDIM
 62
     0
100
AcDbLine
 10
18.22647458586558
 20
12.7931333223126
 30
0.0
 11
18.22647458586558
 21
12.21801465951795
 31
0.0
  0
LINE
  5
4AA
330
2DB
100
AcDbEntity
  8
ADPDIM
 62
     0
100
AcDbLine
 10
14.48137345186552
 20
12.39801465951795
 30
0.0
 11
15.93725735219888
 21
12.39801465951795
 31
0.0
  0
LINE
  5
4AB
330
2DB
100
AcDbEntity
  8
ADPDIM
 62
     0
100
AcDbLine
 10
18.22647458586558
 20
12.39801465951795
 30
0.0
 11
16.77059068553222
 21
12.39801465951795
 31
0.0
  0
LINE
  5
4AC
330
2DB
100
AcDbEntity
  8
ADPDIM
 62
     0
100
AcDbLine
 10
18.10147458586558
 20
12.27301465951795
 30
0.0
 11
18.35147458586558
 21
12.52301465951795
 31
0.0
  0
LINE
  5
4AD
330
2DB
100
AcDbEntity
  8
ADPDIM
 62
     0
100
AcDbLine
 10
14.35637345186552
 20
12.27301465951795
 30
0.0
 11
14.60637345186552
 21
12.52301465951795
 31
0.0
  0
MTEXT
  5
4AE
330
2DB
100
AcDbEntity
  8
ADPDIM
 62
     0
100
AcDbMText
 10
16.35392401886555
 20
12.39801465951795
 30
0.0
 40
0.125
 41
0.0
 71
     5
 72
     1
  1
\A1;3 3/4
  0
POINT
  5
4AF
330
2DB
100
AcDbEntity
  8
DEFPOINTS
 62
     0
100
AcDbPoint
 10
14.48137345186552
 20
12.58758362530502
 30
0.0
  0
POINT
  5
4B0
330
2DB
100
AcDbEntity
  8
DEFPOINTS
 62
     0
100
AcDbPoint
 10
18.22647458586558
 20
12.8556333223126
 30
0.0
  0
POINT
  5
4B1
330
2DB
100
AcDbEntity
  8
DEFPOINTS
 62
     0
100
AcDbPoint
 10
18.22647458586558
 20
12.39801465951795
 30
0.0
  0
ENDBLK
  5
2E7
330
2DB
100
AcDbEntity
  8
0
100
AcDbBlockEnd
  0
ENDSEC
  0
SECTION
  2
ENTITIES
  0
DIMENSION
  5
1E
330
2
100
AcDbEntity
  8
ADPDIM
100
AcDbDimension
  2
*D2
 10
18.22647458586558
 20
12.39801465951795
 30
0.0
 11
16.35392401886555
 21
12.39801465951795
 31
0.0
 70
    32
  3
STANDARD
100
AcDbAlignedDimension
 13
14.48137345186552
 23
12.58758362530502
 33
0.0
 14
18.22647458586558
 24
12.8556333223126
 34
0.0
100
AcDbRotatedDimension
1001
ACAD
1000
DSTYLE
1002
{
1070
   270
1070
     7
1070
   270
1070
     7
1070
   270
1070
     7
1070
   270
1070
     7
1070
   270
1070
     7
1070
    41
1040
0.125
1070
    73
1070
     0
1070
    74
1070
     0
1070
    78
1070
     2
1070
   140
1040
0.125
1070
   141
1040
0.1875
1070
   142
1040
0.125
1070
   147
1040
0.125
1070
   171
1070
     1
1070
   271
1070
     2
1070
   276
1070
     2
1070
   277
1070
     5
1002
}
  0
LINE
  5
2D
330
2
100
AcDbEntity
  8
ADP1DETAIL
100
AcDbLine
 10
14.48137345186552
 20
12.94776469722516
 30
0.0
 11
18.14601543750706
 21
12.94776469722516
 31
0.0
  0
LINE
  5
2F
330
2
100
AcDbEntity
  8
ADP1DETAIL
100
AcDbLine
 10
18.10413317540137
 20
12.95508758670053
 30
0.0
 11
17.96448679441231
 21
12.95508758670053
 31
0.0
  0
LINE
  5
30
330
2
100
AcDbEntity
  8
ADP1DETAIL
100
AcDbLine
 10
18.23137345186552
 20
14.32733392668036
 30
0.0
 11
16.05137345186552
 21
14.32733392668036
 31
0.0
  0
LINE
  5
31
330
2
100
AcDbEntity
  8
ADP1DETAIL
100
AcDbLine
 10
16.05137345186552
 20
16.50733392668036
 30
0.0
 11
18.23137345186552
 21
16.50733392668036
 31
0.0
  0
LINE
  5
32
330
2
100
AcDbEntity
  8
ADP1DETAIL
100
AcDbLine
 10
11.97162748554873
 20
12.767449650069
 30
0.0
 11
12.65633226100266
 21
12.767449650069
 31
0.0
  0
LINE
  5
5B
330
2
100
AcDbEntity
  8
ADP2DETAIL
  6
HIDDEN2
100
AcDbLine
 10
14.48137345186552
 20
12.75727248773745
 30
0.0
 11
17.88202415284215
 21
12.75914082161088
 31
0.0
  0
LINE
  5
5E
330
2
100
AcDbEntity
  8
ADP1DETAIL
100
AcDbLine
 10
14.48137345186552
 20
13.02359227564188
 30
0.0
 11
17.923624978186
 21
13.02359227564189
 31
0.0
  0
LINE
  5
5F
330
2
100
AcDbEntity
  8
ADP1DETAIL
100
AcDbLine
 10
14.48137345186552
 20
13.15629055924365
 30
0.0
 11
17.80435989656936
 21
13.15629055924365
 31
0.0
  0
LINE
  5
60
330
2
100
AcDbEntity
  8
ADP1DETAIL
100
AcDbLine
 10
16.31137345186551
 20
14.82594314620453
 30
0.0
 11
14.48137345186552
 21
14.82594314620453
 31
0.0
  0
LINE
  5
61
330
2
100
AcDbEntity
  8
ADP1DETAIL
100
AcDbLine
 10
16.05137345186552
 20
14.54078317251128
 30
0.0
 11
14.48137345186552
 21
14.54078317251128
 31
0.0
  0
LINE
  5
62
330
2
100
AcDbEntity
  8
ADP2DETAIL
  6
HIDDEN2
100
AcDbLine
 10
14.48137345186552
 20
14.86293414223115
 30
0.0
 11
17.88242262386854
 21
14.86480269502648
 31
0.0
  0
LINE
  5
63
330
2
100
AcDbEntity
  8
ADP2DETAIL
  6
HIDDEN2
100
AcDbLine
 10
14.48137345186552
 20
15.09106207508528
 30
0.0
 11
17.84220515532938
 21
15.0929085322097
 31
0.0
  0
LINE
  5
64
330
2
100
AcDbEntity
  8
ADP1DETAIL
100
AcDbLine
 10
16.05137345186552
 20
16.28976414472774
 30
0.0
 11
14.48137345186552
 21
16.28976414472774
 31
0.0
  0
LINE
  5
65
330
2
100
AcDbEntity
  8
ADP1DETAIL
100
AcDbLine
 10
16.31137345186552
 20
16.00460440153685
 30
0.0
 11
14.48137345186552
 21
16.00460440153685
 31
0.0
  0
LINE
  5
66
330
2
100
AcDbEntity
  8
ADP2DETAIL
  6
HIDDEN2
100
AcDbLine
 10
14.48137345186552
 20
15.96761317500786
 30
0.0
 11
17.88137310952382
 21
15.96574519882077
 31
0.0
  0
LINE
  5
67
330
2
100
AcDbEntity
  8
ADP2DETAIL
  6
HIDDEN2
100
AcDbLine
 10
14.48137345186552
 20
15.73948524215373
 30
0.0
 11
17.84159054194051
 21
15.73763912270087
 31
0.0
  0
LINE
  5
68
330
2
100
AcDbEntity
  8
ADP1DETAIL
100
AcDbLine
 10
14.48137345186552
 20
14.54078317251128
 30
0.0
 11
14.48137345186552
 21
16.28976414472774
 31
0.0
  0
LINE
  5
71
330
2
100
AcDbEntity
  8
ADP1DETAIL
100
AcDbLine
 10
14.48137345186552
 20
12.58758362530502
 30
0.0
 11
14.48137345186552
 21
13.15629055924365
 31
0.0
  0
LINE
  5
72
330
2
100
AcDbEntity
  8
ADP2DETAIL
  6
HIDDEN2
100
AcDbLine
 10
17.84242262664305
 20
14.86478071883535
 30
0.0
 11
17.84137362907289
 21
15.96518112512638
 31
0.0
  0
LINE
  5
73
330
2
100
AcDbEntity
  8
ADP2DETAIL
  6
HIDDEN2
100
AcDbLine
 10
17.88242262386854
 20
14.86480269502648
 30
0.0
 11
17.88137310952382
 21
15.96574519882077
 31
0.0
  0
LINE
  5
74
330
2
100
AcDbEntity
  8
ADP1DETAIL
100
AcDbLine
 10
17.98137345186552
 20
16.25733392668036
 30
0.0
 11
17.98137345186552
 21
14.57733392668036
 31
0.0
  0
LINE
  5
75
330
2
100
AcDbEntity
  8
ADP1DETAIL
100
AcDbLine
 10
17.81137345186552
 20
16.08733392668036
 30
0.0
 11
17.81137345186552
 21
14.74733392668036
 31
0.0
  0
LINE
  5
76
330
2
100
AcDbEntity
  8
ADP1DETAIL
100
AcDbLine
 10
16.48137345186551
 20
16.08733392668036
 30
0.0
 11
16.48137345186551
 21
14.74733392668036
 31
0.0
  0
LWPOLYLINE
  5
77
330
2
100
AcDbEntity
  8
ADP1DETAIL
100
AcDbPolyline
 90
        3
 70
     0
 43
0.0
 10
16.31137345186552
 20
14.83006345182388
 10
16.31137345186552
 20
15.05819161518032
 42
0.2711863860665363
 10
16.48137345186552
 20
15.41733392668034
  0
LINE
  5
7C
330
2
100
AcDbEntity
  8
ADP1DETAIL
100
AcDbLine
 10
17.98137345186552
 20
14.57733392668036
 30
0.0
 11
16.31137345186551
 21
14.57733392668036
 31
0.0
  0
LINE
  5
7D
330
2
100
AcDbEntity
  8
ADP1DETAIL
100
AcDbLine
 10
17.81137345186552
 20
14.74733392668036
 30
0.0
 11
16.48137345186551
 21
14.74733392668036
 31
0.0
  0
ARC
  5
7E
330
2
100
AcDbEntity
  8
ADP1DETAIL
100
AcDbCircle
 10
16.30625943823399
 20
13.19373256611204
 30
0.0
 40
0.1790721129837708
100
AcDbArc
 50
280.1989782326099
 51
347.9310300387067
  0
ARC
  5
7F
330
2
100
AcDbEntity
  8
ADP1DETAIL
100
AcDbCircle
 10
16.0024893783239
 20
12.5013129428445
 30
0.0
 40
0.2500000000000005
100
AcDbArc
 50
18.32960882129964
 51
58.95842546434906
  0
LINE
  5
80
330
2
100
AcDbEntity
  8
ADP1DETAIL
100
AcDbLine
 10
16.18160017303351
 20
12.95508758670053
 30
0.0
 11
16.32124655402256
 21
12.95508758670053
 31
0.0
  0
ARC
  5
81
330
2
100
AcDbEntity
  8
ADP1DETAIL
100
AcDbCircle
 10
16.18160017303351
 20
12.829990013524
 30
0.0
 40
0.125
100
AcDbArc
 50
90.0
 51
246.3238531733126
  0
LINE
  5
82
330
2
100
AcDbEntity
  8
ADP1DETAIL
100
AcDbLine
 10
16.33785017303351
 20
13.017490013524
 30
0.0
 11
16.39733993009867
 21
13.01727871949634
 31
0.0
  0
LINE
  5
83
330
2
100
AcDbEntity
  8
ADP1DETAIL
100
AcDbLine
 10
16.32124655402256
 20
12.95508758670053
 30
0.0
 11
16.33796723389565
 21
13.017490013524
 31
0.0
  0
LINE
  5
84
330
2
100
AcDbEntity
  8
ADP1DETAIL
100
AcDbLine
 10
16.05137345186552
 20
14.54078317251128
 30
0.0
 11
16.05137345186552
 21
14.32733392668036
 31
0.0
  0
LINE
  5
85
330
2
100
AcDbEntity
  8
ADP1DETAIL
100
AcDbLine
 10
16.31137345186551
 20
14.82594314620453
 30
0.0
 11
16.31137345186551
 21
14.57733392668036
 31
0.0
  0
ARC
  5
86
330
2
100
AcDbEntity
  8
ADP1DETAIL
100
AcDbCircle
 10
17.97947391020088
 20
13.19373256611204
 30
0.0
 40
0.1790721129837708
100
AcDbArc
 50
192.0689699612933
 51
259.80102176739
  0
LINE
  5
87
330
2
100
AcDbEntity
  8
ADP2DETAIL
  6
HIDDEN2
100
AcDbLine
 10
17.88218769611335
 20
12.58758362530502
 30
0.0
 11
17.88202415284215
 21
12.75914082161088
 31
0.0
  0
LINE
  5
88
330
2
100
AcDbEntity
  8
ADP2DETAIL
  6
HIDDEN2
100
AcDbLine
 10
17.84218767793822
 20
12.58758362530502
 30
0.0
 11
17.84202415561664
 21
12.75911884541976
 31
0.0
  0
LINE
  5
89
330
2
100
AcDbEntity
  8
ADP1DETAIL
100
AcDbLine
 10
17.96448679441231
 20
12.95508758670053
 30
0.0
 11
17.94776611453922
 21
13.017490013524
 31
0.0
  0
LINE
  5
8A
330
2
100
AcDbEntity
  8
ADP1DETAIL
100
AcDbLine
 10
17.94788317540137
 20
13.017490013524
 30
0.0
 11
17.8883934183362
 21
13.01727871949634
 31
0.0
  0
LINE
  5
8B
330
2
100
AcDbEntity
  8
ADP1DETAIL
100
AcDbLine
 10
16.31137345186551
 20
16.25733392668036
 30
0.0
 11
17.98137345186552
 21
16.25733392668036
 31
0.0
  0
LINE
  5
8C
330
2
100
AcDbEntity
  8
ADP1DETAIL
100
AcDbLine
 10
16.48137345186551
 20
16.08733392668036
 30
0.0
 11
17.81137345186552
 21
16.08733392668036
 31
0.0
  0
LWPOLYLINE
  5
8D
330
2
100
AcDbEntity
  8
ADP1DETAIL
100
AcDbPolyline
 90
        3
 70
     0
 43
0.0
 10
16.31137345186552
 20
16.00460440153685
 10
16.31137345186552
 20
15.7764762381804
 42
-0.2711863860665363
 10
16.48137345186552
 20
15.41733392668038
  0
LINE
  5
92
330
2
100
AcDbEntity
  8
ADP1DETAIL
100
AcDbLine
 10
16.05137345186552
 20
16.50733392668036
 30
0.0
 11
16.05137345186552
 21
16.29388468084945
 31
0.0
  0
LINE
  5
93
330
2
100
AcDbEntity
  8
ADP1DETAIL
100
AcDbLine
 10
16.31137345186552
 20
16.25733392668036
 30
0.0
 11
16.31137345186552
 21
16.00460440153685
 31
0.0
  0
LINE
  5
94
330
2
100
AcDbEntity
  8
ADP1DETAIL
100
AcDbLine
 10
18.23137345186552
 20
16.50733392668036
 30
0.0
 11
18.23137345186552
 21
14.32733392668036
 31
0.0
  0
ARC
  5
95
330
2
100
AcDbEntity
  8
ADP1DETAIL
100
AcDbCircle
 10
18.10413317540137
 20
12.829990013524
 30
0.0
 40
0.125
100
AcDbArc
 50
293.6761468266873
 51
90.0
  0
ARC
  5
96
330
2
100
AcDbEntity
  8
ADP1DETAIL
100
AcDbCircle
 10
18.28324397011098
 20
12.5013129428445
 30
0.0
 40
0.2500000000000005
100
AcDbArc
 50
121.0415745356509
 51
161.6703911787003
  0
LINE
  5
13D
330
2
100
AcDbEntity
  8
ADP1DETAIL
100
AcDbLine
 10
11.65248665092377
 20
13.173740013524
 30
0.0
 11
12.97547309562762
 21
13.173740013524
 31
0.0
  0
ARC
  5
13E
330
2
100
AcDbEntity
  8
ADP1DETAIL
100
AcDbCircle
 10
13.27524637445963
 20
12.84743946780434
 30
0.0
 40
0.125
100
AcDbArc
 50
293.6761468266873
 51
90.0
  0
ARC
  5
13F
330
2
100
AcDbEntity
  8
ADP1DETAIL
100
AcDbCircle
 10
13.45435716916924
 20
12.51876239712485
 30
0.0
 40
0.2500000000000005
100
AcDbArc
 50
121.0415745356509
 51
165.8427577143243
  0
LINE
  5
140
330
2
100
AcDbEntity
  8
ADP1DETAIL
100
AcDbLine
 10
13.13559999347058
 20
12.97253704098087
 30
0.0
 11
13.11887931359748
 21
13.03493946780434
 31
0.0
  0
ARC
  5
141
330
2
100
AcDbEntity
  8
ADP1DETAIL
100
AcDbCircle
 10
13.15058710925914
 20
13.21118202039239
 30
0.0
 40
0.1790721129837708
100
AcDbArc
 50
192.0689699612933
 51
259.80102176739
  0
LINE
  5
142
330
2
100
AcDbEntity
  8
ADP1DETAIL
100
AcDbLine
 10
11.49235975308082
 20
12.97253704098087
 30
0.0
 11
11.50908043295391
 21
13.03493946780434
 31
0.0
  0
ARC
  5
143
330
2
100
AcDbEntity
  8
ADP1DETAIL
100
AcDbCircle
 10
11.35271337209176
 20
12.84743946780434
 30
0.0
 40
0.125
100
AcDbArc
 50
90.0
 51
246.3238531733126
  0
ARC
  5
144
330
2
100
AcDbEntity
  8
ADP1DETAIL
100
AcDbCircle
 10
11.17360257738216
 20
12.51876239712485
 30
0.0
 40
0.2500000000000005
100
AcDbArc
 50
14.15724228567561
 51
58.95842546434906
  0
LINE
  5
145
330
2
100
AcDbEntity
  8
ADP1DETAIL
100
AcDbLine
 10
11.35271337209176
 20
12.97253704098087
 30
0.0
 11
11.49235975308082
 21
12.97253704098087
 31
0.0
  0
ARC
  5
146
330
2
100
AcDbEntity
  8
ADP1DETAIL
100
AcDbCircle
 10
11.47737263729225
 20
13.21118202039239
 30
0.0
 40
0.1790721129837708
100
AcDbArc
 50
280.1989782326099
 51
347.9310300387067
  0
LINE
  5
147
330
2
100
AcDbEntity
  8
ADP1DETAIL
100
AcDbLine
 10
13.27524637445963
 20
12.97253704098087
 30
0.0
 11
13.13559999347058
 21
12.97253704098087
 31
0.0
  0
LINE
  5
181
330
2
100
AcDbEntity
  8
ADP1DETAIL
100
AcDbLine
 10
11.4160096133152
 20
12.57990836126114
 30
0.0
 11
13.21195013323619
 21
12.57990836126114
 31
0.0
  0
LINE
  5
182
330
2
100
AcDbEntity
  8
ADP1DETAIL
100
AcDbLine
 10
11.97162748554873
 20
12.767449650069
 30
0.0
 11
12.65633226100266
 21
12.767449650069
 31
0.0
  0
LINE
  5
19E
330
2
100
AcDbEntity
  8
ADP1DETAIL
100
AcDbLine
 10
12.85961058340313
 20
12.767490013524
 30
0.0
 11
12.87931762751544
 21
12.579990013524
 31
0.0
  0
LINE
  5
19F
330
2
100
AcDbEntity
  8
ADP1DETAIL
100
AcDbLine
 10
12.92433349228664
 20
12.95508758670052
 30
0.0
 11
12.90761281241355
 21
13.017490013524
 31
0.0
  0
LINE
  5
1A0
330
2
100
AcDbEntity
  8
ADP1DETAIL
100
AcDbLine
 10
12.9077298732757
 20
13.017490013524
 30
0.0
 11
12.84824011621053
 21
13.01727871949634
 31
0.0
  0
LINE
  5
1A1
330
2
100
AcDbEntity
  8
ADP1DETAIL
100
AcDbLine
 10
13.00577489584813
 20
12.57993370533723
 30
0.0
 11
12.87931762751544
 21
12.579990013524
 31
0.0
  0
LINE
  5
1A2
330
2
100
AcDbEntity
  8
ADP1DETAIL
100
AcDbLine
 10
13.0639798732757
 20
12.95508758670052
 30
0.0
 11
12.92433349228664
 21
12.95508758670052
 31
0.0
  0
LINE
  5
1A3
330
2
100
AcDbEntity
  8
ADP1DETAIL
100
AcDbLine
 10
12.65633226100266
 20
12.767449650069
 30
0.0
 11
12.85961058340313
 21
12.767490013524
 31
0.0
  0
ARC
  5
1A4
330
2
100
AcDbEntity
  8
ADP1DETAIL
100
AcDbCircle
 10
12.85919835230066
 20
13.64681280690693
 30
0.0
 40
0.6296294546398661
100
AcDbArc
 50
240.4540352126153
 51
269.0027588831185
  0
ARC
  5
1A5
330
2
100
AcDbEntity
  8
ADP1DETAIL
100
AcDbCircle
 10
13.0639798732757
 20
12.829990013524
 30
0.0
 40
0.125
100
AcDbArc
 50
293.6761468266873
 51
90.0
  0
ARC
  5
1A6
330
2
100
AcDbEntity
  8
ADP1DETAIL
100
AcDbCircle
 10
13.2430906679853
 20
12.5013129428445
 30
0.0
 40
0.2500000000000005
100
AcDbArc
 50
121.0415745356509
 51
161.6703911787003
  0
ARC
  5
1A7
330
2
100
AcDbEntity
  8
ADP1DETAIL
100
AcDbCircle
 10
12.3139798732757
 20
12.767490013524
 30
0.0
 40
0.40625
100
AcDbArc
 50
90.0
 51
125.2965290810944
  0
LINE
  5
1A8
330
2
100
AcDbEntity
  8
ADP1DETAIL
100
AcDbLine
 10
11.97162748554873
 20
12.767449650069
 30
0.0
 11
11.76834916314826
 21
12.767490013524
 31
0.0
  0
LINE
  5
1A9
330
2
100
AcDbEntity
  8
ADP1DETAIL
100
AcDbLine
 10
11.76834916314826
 20
12.767490013524
 30
0.0
 11
11.74864211903595
 21
12.579990013524
 31
0.0
  0
LINE
  5
1AA
330
2
100
AcDbEntity
  8
ADP1DETAIL
100
AcDbLine
 10
11.70362625426475
 20
12.95508758670052
 30
0.0
 11
11.72034693413784
 21
13.017490013524
 31
0.0
  0
LINE
  5
1AB
330
2
100
AcDbEntity
  8
ADP1DETAIL
100
AcDbLine
 10
11.7202298732757
 20
13.017490013524
 30
0.0
 11
11.77971963034086
 21
13.01727871949634
 31
0.0
  0
ARC
  5
1AC
330
2
100
AcDbEntity
  8
ADP1DETAIL
100
AcDbCircle
 10
12.3139798732757
 20
12.548740013524
 30
0.0
 40
0.40625
100
AcDbArc
 50
89.96700790642552
 51
147.427785052191
  0
ARC
  5
1AD
330
2
100
AcDbEntity
  8
ADP1DETAIL
100
AcDbCircle
 10
11.76876139425073
 20
13.64681280690693
 30
0.0
 40
0.6296294546398661
100
AcDbArc
 50
270.9972411168814
 51
299.5459647873847
  0
ARC
  5
1AE
330
2
100
AcDbEntity
  8
ADP1DETAIL
100
AcDbCircle
 10
11.38486907856609
 20
12.5013129428445
 30
0.0
 40
0.2500000000000005
100
AcDbArc
 50
18.32960882129964
 51
58.95842546434906
  0
ARC
  5
1AF
330
2
100
AcDbEntity
  8
ADP1DETAIL
100
AcDbCircle
 10
11.5639798732757
 20
12.829990013524
 30
0.0
 40
0.125
100
AcDbArc
 50
90.0
 51
246.3238531733126
  0
LINE
  5
1B0
330
2
100
AcDbEntity
  8
ADP1DETAIL
100
AcDbLine
 10
11.5639798732757
 20
12.95508758670052
 30
0.0
 11
11.70362625426475
 21
12.95508758670052
 31
0.0
  0
LINE
  5
1B1
330
2
100
AcDbEntity
  8
ADP1DETAIL
100
AcDbLine
 10
11.62218485070326
 20
12.57993370533723
 30
0.0
 11
11.74864211903595
 21
12.579990013524
 31
0.0
  0
ARC
  5
1B2
330
2
100
AcDbEntity
  8
ADP1DETAIL
100
AcDbCircle
 10
12.3139798732757
 20
12.767490013524
 30
0.0
 40
0.40625
100
AcDbArc
 50
54.7034709189056
 51
90.0
  0
ARC
  5
1B3
330
2
100
AcDbEntity
  8
ADP1DETAIL
100
AcDbCircle
 10
12.3139798732757
 20
12.548740013524
 30
0.0
 40
0.40625
100
AcDbArc
 50
32.57221494780893
 51
90.03299209357448
  0
POINT
  5
208
330
2
100
AcDbEntity
  8
DEFPOINTS
  6
BYBLOCK
 62
     0
100
AcDbPoint
 10
11.44163846281149
 20
12.8556333223126
 30
0.0
  0
POINT
  5
209
330
2
100
AcDbEntity
  8
DEFPOINTS
  6
BYBLOCK
 62
     0
100
AcDbPoint
 10
13.18632128373991
 20
12.8556333223126
 30
0.0
  0
POINT
  5
212
330
2
100
AcDbEntity
  8
DEFPOINTS
  6
BYBLOCK
 62
     0
100
AcDbPoint
 10
11.76834916314826
 20
12.767490013524
 30
0.0
  0
POINT
  5
213
330
2
100
AcDbEntity
  8
DEFPOINTS
  6
BYBLOCK
 62
     0
100
AcDbPoint
 10
12.85961058340313
 20
12.767490013524
 30
0.0
  0
LINE
  5
215
330
2
100
AcDbEntity
  8
ADP1DETAIL
100
AcDbLine
 10
14.48137345186552
 20
12.58758362530502
 30
0.0
 11
18.0459281979738
 21
12.57993370533723
 31
0.0
  0
DIMENSION
  5
223
330
2
100
AcDbEntity
  8
ADPDIM
100
AcDbDimension
  2
*D0
 10
12.85961058340313
 20
12.29493517130865
 30
0.0
 11
12.3139798732757
 21
12.29493517130865
 31
0.0
 70
    32
  3
STANDARD
100
AcDbAlignedDimension
 13
11.76834916314826
 23
12.767490013524
 33
0.0
 14
12.85961058340313
 24
12.767490013524
 34
0.0
100
AcDbRotatedDimension
1001
ACAD
1000
DSTYLE
1002
{
1070
   270
1070
     7
1070
   270
1070
     7
1070
   270
1070
     7
1070
   270
1070
     7
1070
   270
1070
     7
1070
    41
1040
0.125
1070
    73
1070
     0
1070
    74
1070
     0
1070
    78
1070
     2
1070
   140
1040
0.125
1070
   141
1040
0.1875
1070
   142
1040
0.125
1070
   147
1040
0.125
1070
   171
1070
     1
1070
   271
1070
     2
1070
   276
1070
     2
1070
   277
1070
     5
1002
}
  0
DIMENSION
  5
231
330
2
100
AcDbEntity
  8
ADPDIM
100
AcDbDimension
  2
*D1
 10
13.18632128373991
 20
13.37213697056857
 30
0.0
 11
12.3139798732757
 21
13.37213697056857
 31
0.0
 70
    32
  3
STANDARD
100
AcDbAlignedDimension
 13
11.44163846281149
 23
12.8556333223126
 33
0.0
 14
13.18632128373991
 24
12.8556333223126
 34
0.0
100
AcDbRotatedDimension
1001
ACAD
1000
DSTYLE
1002
{
1070
   270
1070
     7
1070
   270
1070
     7
1070
   270
1070
     7
1070
   270
1070
     7
1070
   270
1070
     7
1070
    41
1040
0.125
1070
    73
1070
     0
1070
    74
1070
     0
1070
    78
1070
     2
1070
   140
1040
0.125
1070
   141
1040
0.1875
1070
   142
1040
0.125
1070
   147
1040
0.125
1070
   171
1070
     1
1070
   271
1070
     2
1070
   276
1070
     2
1070
   277
1070
     5
1002
}
  0
TEXT
  5
262
330
2
100
AcDbEntity
  8
ADPDIM
100
AcDbText
 10
7.78585844504424
 20
11.54170562979634
 30
0.0
 40
0.125
  1
J U L I U S  B L U M  &  C O . ,  I N C .      ( 8 0 0 )  5 2 6 - 6 2 9 3        W W W . J U L I U S B L U M . C O M        P A R T  N o .  4 4 2 9 - E
 41
1.25
  7
ARIAL_WIDE
 72
     1
 11
14.48137345186552
 21
11.66670562979634
 31
0.0
100
AcDbText
 73
     3
  0
ENDSEC
  0
SECTION
  2
OBJECTS
  0
DICTIONARY
  5
1B
330
0
100
AcDbDictionary
  3
ACAD_GROUP
350
19
  3
ACAD_LAYOUT
350
25B
  3
ACAD_MLINESTYLE
350
1A
  3
ACAD_PLOTSETTINGS
350
25C
  3
ACAD_PLOTSTYLENAME
350
259
  3
ACDBHEADERROUNDTRIPXREC
350
485
  3
ACDBVARIABLEDICTIONARY
350
300
  0
DICTIONARY
  5
2D7
330
2
100
AcDbDictionary
280
     1
  3
ACAD_LAYOUTSELFREF
360
4A6
  0
DICTIONARY
  5
2D9
330
8
100
AcDbDictionary
280
     1
  3
ACAD_LAYOUTSELFREF
360
4A7
  0
DICTIONARY
  5
19
102
{ACAD_REACTORS
330
1B
102
}
330
1B
100
AcDbDictionary
  0
DICTIONARY
  5
25B
102
{ACAD_REACTORS
330
1B
102
}
330
1B
100
AcDbDictionary
  0
DICTIONARY
  5
1A
102
{ACAD_REACTORS
330
1B
102
}
330
1B
100
AcDbDictionary
  3
STANDARD
350
1C
  0
DICTIONARY
  5
25C
102
{ACAD_REACTORS
330
1B
102
}
330
1B
100
AcDbDictionary
  0
ACDBDICTIONARYWDFLT
  5
259
102
{ACAD_REACTORS
330
1B
102
}
330
1B
100
AcDbDictionary
281
     1
  3
Normal
350
25A
100
AcDbDictionaryWithDefault
340
25A
  0
DICTIONARY
  5
485
102
{ACAD_REACTORS
330
1B
102
}
330
1B
100
AcDbDictionary
  3
CEPSNTYPE
350
48F
  3
DIMSTYLEDATA
350
493
  3
FINGERPRINTGUID
350
490
  3
HYPERLINKBASE
350
488
  3
INSUNITS
350
48E
  3
LAYOUTDICT
350
48A
  3
LWETCUNION
350
48D
  3
PLOTSETDICT
350
48B
  3
PLOTSTYLNAMDICT
350
48C
  3
PSVPSCALE
350
492
  3
PUCSBASE
350
496
  3
PUCSORGBACK
350
49C
  3
PUCSORGBOTTOM
350
498
  3
PUCSORGFRONT
350
49B
  3
PUCSORGLEFT
350
499
  3
PUCSORGRIGHT
350
49A
  3
PUCSORGTOP
350
497
  3
PUCSORTHOREF
350
494
  3
PUCSORTHOVIEW
350
495
  3
STYLESHEET
350
489
  3
TSTACKALIGN
350
486
  3
TSTACKSIZE
350
487
  3
UCSBASE
350
49F
  3
UCSORGBACK
350
4A5
  3
UCSORGBOTTOM
350
4A1
  3
UCSORGFRONT
350
4A4
  3
UCSORGLEFT
350
4A2
  3
UCSORGRIGHT
350
4A3
  3
UCSORGTOP
350
4A0
  3
UCSORTHOREF
350
49D
  3
UCSORTHOVIEW
350
49E
  3
VERSIONGUID
350
491
  0
DICTIONARY
  5
300
102
{ACAD_REACTORS
330
1B
102
}
330
1B
100
AcDbDictionary
  3
DIMASSOC
350
301
  0
XRECORD
  5
4A6
102
{ACAD_REACTORS
330
2D7
102
}
330
2D7
100
AcDbXrecord
340
2
  0
XRECORD
  5
4A7
102
{ACAD_REACTORS
330
2D9
102
}
330
2D9
100
AcDbXrecord
340
8
  0
MLINESTYLE
  5
1C
102
{ACAD_REACTORS
330
1A
102
}
330
1A
100
AcDbMlineStyle
  2
STANDARD
 70
     0
  3

 62
     0
 51
90.0
 52
90.0
 71
     2
 49
0.5
 62
   256
  6
BYLAYER
 49
-0.5
 62
   256
  6
BYLAYER
  0
ACDBPLACEHOLDER
  5
25A
102
{ACAD_REACTORS
330
259
102
}
330
259
100
AcDbPlaceHolder
280
     0
  0
XRECORD
  5
48F
102
{ACAD_REACTORS
330
485
102
}
330
485
100
AcDbXrecord
 90
        0
  0
XRECORD
  5
493
102
{ACAD_REACTORS
330
485
102
}
330
485
100
AcDbXrecord
1000
DSTYLE
1002
{
1070
   276
 70
     2
1070
   277
 70
     5
1002
}
  0
XRECORD
  5
490
102
{ACAD_REACTORS
330
485
102
}
330
485
100
AcDbXrecord
  1
{3C97483E-2752-424D-919D-CBF3E3843436}
  0
XRECORD
  5
488
102
{ACAD_REACTORS
330
485
102
}
330
485
100
AcDbXrecord
  1

  0
XRECORD
  5
48E
102
{ACAD_REACTORS
330
485
102
}
330
485
100
AcDbXrecord
 90
        0
  0
XRECORD
  5
48A
102
{ACAD_REACTORS
330
485
102
}
330
485
100
AcDbXrecord
340
25B
  0
XRECORD
  5
48D
102
{ACAD_REACTORS
330
485
102
}
330
485
100
AcDbXrecord
 90
    14877
  0
XRECORD
  5
48B
102
{ACAD_REACTORS
330
485
102
}
330
485
100
AcDbXrecord
340
25C
  0
XRECORD
  5
48C
102
{ACAD_REACTORS
330
485
102
}
330
485
100
AcDbXrecord
340
259
  0
XRECORD
  5
492
102
{ACAD_REACTORS
330
485
102
}
330
485
100
AcDbXrecord
 40
0.0
  0
XRECORD
  5
496
102
{ACAD_REACTORS
330
485
102
}
330
485
100
AcDbXrecord
340
0
  0
XRECORD
  5
49C
102
{ACAD_REACTORS
330
485
102
}
330
485
100
AcDbXrecord
 10
0.0
 20
0.0
 30
0.0
  0
XRECORD
  5
498
102
{ACAD_REACTORS
330
485
102
}
330
485
100
AcDbXrecord
 10
0.0
 20
0.0
 30
0.0
  0
XRECORD
  5
49B
102
{ACAD_REACTORS
330
485
102
}
330
485
100
AcDbXrecord
 10
0.0
 20
0.0
 30
0.0
  0
XRECORD
  5
499
102
{ACAD_REACTORS
330
485
102
}
330
485
100
AcDbXrecord
 10
0.0
 20
0.0
 30
0.0
  0
XRECORD
  5
49A
102
{ACAD_REACTORS
330
485
102
}
330
485
100
AcDbXrecord
 10
0.0
 20
0.0
 30
0.0
  0
XRECORD
  5
497
102
{ACAD_REACTORS
330
485
102
}
330
485
100
AcDbXrecord
 10
0.0
 20
0.0
 30
0.0
  0
XRECORD
  5
494
102
{ACAD_REACTORS
330
485
102
}
330
485
100
AcDbXrecord
340
0
  0
XRECORD
  5
495
102
{ACAD_REACTORS
330
485
102
}
330
485
100
AcDbXrecord
 70
     0
  0
XRECORD
  5
489
102
{ACAD_REACTORS
330
485
102
}
330
485
100
AcDbXrecord
  1

  0
XRECORD
  5
486
102
{ACAD_REACTORS
330
485
102
}
330
485
100
AcDbXrecord
 90
        1
  0
XRECORD
  5
487
102
{ACAD_REACTORS
330
485
102
}
330
485
100
AcDbXrecord
 90
       70
  0
XRECORD
  5
49F
102
{ACAD_REACTORS
330
485
102
}
330
485
100
AcDbXrecord
340
0
  0
XRECORD
  5
4A5
102
{ACAD_REACTORS
330
485
102
}
330
485
100
AcDbXrecord
 10
0.0
 20
0.0
 30
0.0
  0
XRECORD
  5
4A1
102
{ACAD_REACTORS
330
485
102
}
330
485
100
AcDbXrecord
 10
0.0
 20
0.0
 30
0.0
  0
XRECORD
  5
4A4
102
{ACAD_REACTORS
330
485
102
}
330
485
100
AcDbXrecord
 10
0.0
 20
0.0
 30
0.0
  0
XRECORD
  5
4A2
102
{ACAD_REACTORS
330
485
102
}
330
485
100
AcDbXrecord
 10
0.0
 20
0.0
 30
0.0
  0
XRECORD
  5
4A3
102
{ACAD_REACTORS
330
485
102
}
330
485
100
AcDbXrecord
 10
0.0
 20
0.0
 30
0.0
  0
XRECORD
  5
4A0
102
{ACAD_REACTORS
330
485
102
}
330
485
100
AcDbXrecord
 10
0.0
 20
0.0
 30
0.0
  0
XRECORD
  5
49D
102
{ACAD_REACTORS
330
485
102
}
330
485
100
AcDbXrecord
340
0
  0
XRECORD
  5
49E
102
{ACAD_REACTORS
330
485
102
}
330
485
100
AcDbXrecord
 70
     0
  0
XRECORD
  5
491
102
{ACAD_REACTORS
330
485
102
}
330
485
100
AcDbXrecord
  1
{9C3EB605-3A2C-4745-9365-69380393BDC3}
  0
DICTIONARYVAR
  5
301
102
{ACAD_REACTORS
330
300
102
}
330
300
100
DictionaryVariables
280
     0
  1
1
  0
ENDSEC
  0
EOF
