  0
SECTION
  2
HEADER
  9
$ACADVER
  1
AC1015
  9
$ACADMAINTVER
 70
    20
  9
$DWGCODEPAGE
  3
ANSI_1252
  9
$INSBASE
 10
9.447026424046185
 20
20.62964325475503
 30
0.0
  9
$EXTMIN
 10
1.634682318523275
 20
17.37540113839745
 30
-0.0015258207003583
  9
$EXTMAX
 10
15.02852536167523
 20
22.08707232062263
 30
0.0000000349246037
  9
$LIMMIN
 10
-23.61579290080726
 20
-21.96805058542325
  9
$LIMMAX
 10
-4.61579290080726
 20
2.031949414576754
  9
$ORTHOMODE
 70
     1
  9
$REGENMODE
 70
     1
  9
$FILLMODE
 70
     1
  9
$QTEXTMODE
 70
     0
  9
$MIRRTEXT
 70
     1
  9
$LTSCALE
 40
1.0
  9
$ATTMODE
 70
     1
  9
$TEXTSIZE
 40
0.2
  9
$TRACEWID
 40
0.125
  9
$TEXTSTYLE
  7
STANDARD
  9
$CLAYER
  8
ADP1DETAIL
  9
$CELTYPE
  6
ByLayer
  9
$CECOLOR
 62
   256
  9
$CELTSCALE
 40
1.0
  9
$DISPSILH
 70
     0
  9
$DIMSCALE
 40
1.0
  9
$DIMASZ
 40
0.18
  9
$DIMEXO
 40
0.0625
  9
$DIMDLI
 40
0.38
  9
$DIMRND
 40
0.0
  9
$DIMDLE
 40
0.0
  9
$DIMEXE
 40
0.18
  9
$DIMTP
 40
0.0
  9
$DIMTM
 40
0.0
  9
$DIMTXT
 40
0.18
  9
$DIMCEN
 40
0.09
  9
$DIMTSZ
 40
0.0
  9
$DIMTOL
 70
     0
  9
$DIMLIM
 70
     0
  9
$DIMTIH
 70
     1
  9
$DIMTOH
 70
     1
  9
$DIMSE1
 70
     0
  9
$DIMSE2
 70
     0
  9
$DIMTAD
 70
     0
  9
$DIMZIN
 70
     0
  9
$DIMBLK
  1

  9
$DIMASO
 70
     1
  9
$DIMSHO
 70
     1
  9
$DIMPOST
  1

  9
$DIMAPOST
  1

  9
$DIMALT
 70
     0
  9
$DIMALTD
 70
     2
  9
$DIMALTF
 40
25.4
  9
$DIMLFAC
 40
1.0
  9
$DIMTOFL
 70
     0
  9
$DIMTVP
 40
0.0
  9
$DIMTIX
 70
     0
  9
$DIMSOXD
 70
     0
  9
$DIMSAH
 70
     0
  9
$DIMBLK1
  1

  9
$DIMBLK2
  1

  9
$DIMSTYLE
  2
Standard
  9
$DIMCLRD
 70
     0
  9
$DIMCLRE
 70
     0
  9
$DIMCLRT
 70
     0
  9
$DIMTFAC
 40
1.0
  9
$DIMGAP
 40
0.09
  9
$DIMJUST
 70
     0
  9
$DIMSD1
 70
     0
  9
$DIMSD2
 70
     0
  9
$DIMTOLJ
 70
     1
  9
$DIMTZIN
 70
     0
  9
$DIMALTZ
 70
     0
  9
$DIMALTTZ
 70
     0
  9
$DIMUPT
 70
     0
  9
$DIMDEC
 70
     5
  9
$DIMTDEC
 70
     5
  9
$DIMALTU
 70
     5
  9
$DIMALTTD
 70
     2
  9
$DIMTXSTY
  7
STANDARD
  9
$DIMAUNIT
 70
     0
  9
$DIMADEC
 70
     0
  9
$DIMALTRND
 40
0.0
  9
$DIMAZIN
 70
     0
  9
$DIMDSEP
 70
    46
  9
$DIMATFIT
 70
     3
  9
$DIMFRAC
 70
     0
  9
$DIMLDRBLK
  1

  9
$DIMLUNIT
 70
     5
  9
$DIMLWD
 70
    -2
  9
$DIMLWE
 70
    -2
  9
$DIMTMOVE
 70
     2
  9
$LUNITS
 70
     5
  9
$LUPREC
 70
     5
  9
$SKETCHINC
 40
0.1
  9
$FILLETRAD
 40
0.038
  9
$AUNITS
 70
     0
  9
$AUPREC
 70
     0
  9
$MENU
  1
acad
  9
$ELEVATION
 40
0.0
  9
$PELEVATION
 40
0.0
  9
$THICKNESS
 40
0.0
  9
$LIMCHECK
 70
     0
  9
$CHAMFERA
 40
0.0
  9
$CHAMFERB
 40
0.0
  9
$CHAMFERC
 40
0.0
  9
$CHAMFERD
 40
0.0
  9
$SKPOLY
 70
     0
  9
$TDCREATE
 40
2450358.968342014
  9
$TDUCREATE
 40
2450359.135008681
  9
$TDUPDATE
 40
2453963.974429282
  9
$TDUUPDATE
 40
2453964.141095949
  9
$TDINDWG
 40
0.1015220718
  9
$TDUSRTIMER
 40
0.1015220718
  9
$USRTIMER
 70
     1
  9
$ANGBASE
 50
0.0
  9
$ANGDIR
 70
     0
  9
$PDMODE
 70
    34
  9
$PDSIZE
 40
0.0
  9
$PLINEWID
 40
0.0
  9
$SPLFRAME
 70
     0
  9
$SPLINETYPE
 70
     6
  9
$SPLINESEGS
 70
     8
  9
$HANDSEED
  5
39B
  9
$SURFTAB1
 70
     6
  9
$SURFTAB2
 70
     6
  9
$SURFTYPE
 70
     6
  9
$SURFU
 70
     6
  9
$SURFV
 70
     6
  9
$UCSBASE
  2

  9
$UCSNAME
  2

  9
$UCSORG
 10
0.0
 20
0.0
 30
0.0
  9
$UCSXDIR
 10
1.0
 20
0.0
 30
0.0
  9
$UCSYDIR
 10
0.0
 20
1.0
 30
0.0
  9
$UCSORTHOREF
  2

  9
$UCSORTHOVIEW
 70
     0
  9
$UCSORGTOP
 10
0.0
 20
0.0
 30
0.0
  9
$UCSORGBOTTOM
 10
0.0
 20
0.0
 30
0.0
  9
$UCSORGLEFT
 10
0.0
 20
0.0
 30
0.0
  9
$UCSORGRIGHT
 10
0.0
 20
0.0
 30
0.0
  9
$UCSORGFRONT
 10
0.0
 20
0.0
 30
0.0
  9
$UCSORGBACK
 10
0.0
 20
0.0
 30
0.0
  9
$PUCSBASE
  2

  9
$PUCSNAME
  2

  9
$PUCSORG
 10
0.0
 20
0.0
 30
0.0
  9
$PUCSXDIR
 10
1.0
 20
0.0
 30
0.0
  9
$PUCSYDIR
 10
0.0
 20
1.0
 30
0.0
  9
$PUCSORTHOREF
  2

  9
$PUCSORTHOVIEW
 70
     0
  9
$PUCSORGTOP
 10
0.0
 20
0.0
 30
0.0
  9
$PUCSORGBOTTOM
 10
0.0
 20
0.0
 30
0.0
  9
$PUCSORGLEFT
 10
0.0
 20
0.0
 30
0.0
  9
$PUCSORGRIGHT
 10
0.0
 20
0.0
 30
0.0
  9
$PUCSORGFRONT
 10
0.0
 20
0.0
 30
0.0
  9
$PUCSORGBACK
 10
0.0
 20
0.0
 30
0.0
  9
$USERI1
 70
     0
  9
$USERI2
 70
     0
  9
$USERI3
 70
     0
  9
$USERI4
 70
     0
  9
$USERI5
 70
     0
  9
$USERR1
 40
0.0
  9
$USERR2
 40
0.0
  9
$USERR3
 40
0.0
  9
$USERR4
 40
0.0
  9
$USERR5
 40
0.0
  9
$WORLDVIEW
 70
     1
  9
$SHADEDGE
 70
     3
  9
$SHADEDIF
 70
    70
  9
$TILEMODE
 70
     1
  9
$MAXACTVP
 70
    15
  9
$PINSBASE
 10
0.0
 20
0.0
 30
0.0
  9
$PLIMCHECK
 70
     0
  9
$PEXTMIN
 10
1.000000000000000E+20
 20
1.000000000000000E+20
 30
1.000000000000000E+20
  9
$PEXTMAX
 10
-1.000000000000000E+20
 20
-1.000000000000000E+20
 30
-1.000000000000000E+20
  9
$PLIMMIN
 10
-21.61579290080726
 20
-19.96805058542324
  9
$PLIMMAX
 10
-9.61579290080726
 20
-10.96805058542324
  9
$UNITMODE
 70
     0
  9
$VISRETAIN
 70
     0
  9
$PLINEGEN
 70
     0
  9
$PSLTSCALE
 70
     1
  9
$TREEDEPTH
 70
  3020
  9
$CMLSTYLE
  2
Standard
  9
$CMLJUST
 70
     0
  9
$CMLSCALE
 40
1.0
  9
$PROXYGRAPHICS
 70
     1
  9
$MEASUREMENT
 70
     0
  9
$CELWEIGHT
370
    -1
  9
$ENDCAPS
280
     0
  9
$JOINSTYLE
280
     0
  9
$LWDISPLAY
290
     0
  9
$INSUNITS
 70
     0
  9
$HYPERLINKBASE
  1

  9
$STYLESHEET
  1

  9
$XEDIT
290
     1
  9
$CEPSNTYPE
380
     0
  9
$PSTYLEMODE
290
     1
  9
$FINGERPRINTGUID
  2
{6AA82C8C-9D9C-4A18-90C4-E04CD7633446}
  9
$VERSIONGUID
  2
{89534458-4386-4AFF-B070-16433519D609}
  9
$EXTNAMES
290
     1
  9
$PSVPSCALE
 40
0.0
  9
$OLESTARTUP
290
     0
  0
ENDSEC
  0
SECTION
  2
CLASSES
  0
CLASS
  1
ACDBDICTIONARYWDFLT
  2
AcDbDictionaryWithDefault
  3
ObjectDBX Classes
 90
        0
280
     0
281
     0
  0
CLASS
  1
ACDBPLACEHOLDER
  2
AcDbPlaceHolder
  3
ObjectDBX Classes
 90
        0
280
     0
281
     0
  0
CLASS
  1
LAYOUT
  2
AcDbLayout
  3
ObjectDBX Classes
 90
        0
280
     0
281
     0
  0
CLASS
  1
DICTIONARYVAR
  2
AcDbDictionaryVar
  3
ObjectDBX Classes
 90
        0
280
     0
281
     0
  0
CLASS
  1
MATERIAL
  2
AcDbMaterial
  3
ObjectDBX Classes
 90
     1024
280
     0
281
     0
  0
CLASS
  1
VISUALSTYLE
  2
AcDbVisualStyle
  3
ObjectDBX Classes
 90
     4095
280
     0
281
     0
  0
CLASS
  1
TABLESTYLE
  2
AcDbTableStyle
  3
ObjectDBX Classes
 90
     4095
280
     0
281
     0
  0
CLASS
  1
ACAD_EVALUATION_GRAPH
  2
AcDbEvalGraph
  3
ObjectDBX Classes
 90
     1153
280
     0
281
     0
  0
CLASS
  1
ACDB_DYNAMICBLOCKPURGEPREVENTER_VERSION
  2
AcDbDynamicBlockPurgePreventer
  3
ObjectDBX Classes
 90
     1153
280
     0
281
     0
  0
ENDSEC
  0
SECTION
  2
TABLES
  0
TABLE
  2
VPORT
  5
8
330
0
100
AcDbSymbolTable
 70
     1
  0
VPORT
  5
1EF
330
8
100
AcDbSymbolTableRecord
100
AcDbViewportTableRecord
  2
*Active
 70
     0
 10
0.0
 20
0.0
 11
1.0
 21
1.0
 12
30.68247389863826
 22
39.72869039007554
 13
0.0
 23
0.0
 14
1.0
 24
1.0
 15
1.0
 25
1.0
 16
0.0
 26
0.0
 36
1.0
 17
-21.61579290080726
 27
-19.96805058542324
 37
0.0
 40
7.806519521890848
 41
1.726930320150659
 42
50.0
 43
0.0
 44
0.0
 50
0.0
 51
0.0
 71
     0
 72
   100
 73
     1
 74
     3
 75
     0
 76
     0
 77
     0
 78
     0
281
     0
 65
     1
110
0.0
120
0.0
130
0.0
111
1.0
121
0.0
131
0.0
112
0.0
122
1.0
132
0.0
 79
     0
146
0.0
  0
ENDTAB
  0
TABLE
  2
LTYPE
  5
5
330
0
100
AcDbSymbolTable
 70
     2
  0
LTYPE
  5
13
330
5
100
AcDbSymbolTableRecord
100
AcDbLinetypeTableRecord
  2
ByBlock
 70
     0
  3

 72
    65
 73
     0
 40
0.0
  0
LTYPE
  5
14
330
5
100
AcDbSymbolTableRecord
100
AcDbLinetypeTableRecord
  2
ByLayer
 70
     0
  3

 72
    65
 73
     0
 40
0.0
  0
LTYPE
  5
15
330
5
100
AcDbSymbolTableRecord
100
AcDbLinetypeTableRecord
  2
CONTINUOUS
 70
     0
  3
Solid line
 72
    65
 73
     0
 40
0.0
  0
ENDTAB
  0
TABLE
  2
LAYER
  5
2
330
0
100
AcDbSymbolTable
 70
     4
  0
LAYER
  5
10
330
2
100
AcDbSymbolTableRecord
100
AcDbLayerTableRecord
  2
0
 70
     0
 62
     7
  6
CONTINUOUS
370
    -3
390
F
  0
LAYER
  5
2C
330
2
100
AcDbSymbolTableRecord
100
AcDbLayerTableRecord
  2
DEFPOINTS
 70
     0
 62
    -7
  6
CONTINUOUS
290
     0
370
    -3
390
F
  0
LAYER
  5
2E
330
2
100
AcDbSymbolTableRecord
100
AcDbLayerTableRecord
  2
ADPDIM
 70
     0
 62
     3
  6
CONTINUOUS
370
    -3
390
F
  0
LAYER
  5
2F
330
2
100
AcDbSymbolTableRecord
100
AcDbLayerTableRecord
  2
ADP1DETAIL
 70
     0
 62
     7
  6
CONTINUOUS
370
    -3
390
F
  0
ENDTAB
  0
TABLE
  2
STYLE
  5
3
330
0
100
AcDbSymbolTable
 70
     2
  0
STYLE
  5
11
330
3
100
AcDbSymbolTableRecord
100
AcDbTextStyleTableRecord
  2
STANDARD
 70
     0
 40
0.0
 41
1.0
 50
0.0
 71
     0
 42
0.2
  3
txt
  4

  0
STYLE
  5
96
330
3
100
AcDbSymbolTableRecord
100
AcDbTextStyleTableRecord
  2
ARIAL_WIDE
 70
     0
 40
0.0
 41
1.25
 50
0.0
 71
     0
 42
0.2
  3
ARIAL.TTF
  4

1001
ACAD
1000
Arial
1071
       34
  0
ENDTAB
  0
TABLE
  2
VIEW
  5
6
330
0
100
AcDbSymbolTable
 70
     0
  0
ENDTAB
  0
TABLE
  2
UCS
  5
7
330
0
100
AcDbSymbolTable
 70
     0
  0
ENDTAB
  0
TABLE
  2
APPID
  5
9
330
0
100
AcDbSymbolTable
 70
     6
  0
APPID
  5
12
330
9
100
AcDbSymbolTableRecord
100
AcDbRegAppTableRecord
  2
ACAD
 70
     0
  0
APPID
  5
241
330
9
100
AcDbSymbolTableRecord
100
AcDbRegAppTableRecord
  2
ACAUTHENVIRON
 70
     0
  0
APPID
  5
242
330
9
100
AcDbSymbolTableRecord
100
AcDbRegAppTableRecord
  2
DCO15
 70
     0
  0
APPID
  5
270
330
9
100
AcDbSymbolTableRecord
100
AcDbRegAppTableRecord
  2
AcDbDynamicBlockTrueName
 70
     0
  0
APPID
  5
271
330
9
100
AcDbSymbolTableRecord
100
AcDbRegAppTableRecord
  2
AcDbDynamicBlockGUID
 70
     0
  0
APPID
  5
2C4
330
9
100
AcDbSymbolTableRecord
100
AcDbRegAppTableRecord
  2
ACAD_EXEMPT_FROM_CAD_STANDARDS
 70
     0
  0
ENDTAB
  0
TABLE
  2
DIMSTYLE
  5
A
330
0
100
AcDbSymbolTable
 70
     2
100
AcDbDimStyleTable
 71
     1
340
94
  0
DIMSTYLE
105
94
102
{ACAD_REACTORS
330
80
330
2B5
330
2CA
102
}
330
A
100
AcDbSymbolTableRecord
100
AcDbDimStyleTableRecord
  2
Standard
 70
     0
340
11
  0
ENDTAB
  0
TABLE
  2
BLOCK_RECORD
  5
1
330
0
100
AcDbSymbolTable
 70
     7
  0
BLOCK_RECORD
  5
1E
102
{ACAD_XDICTIONARY
360
D3
102
}
330
1
100
AcDbSymbolTableRecord
100
AcDbBlockTableRecord
  2
*Model_Space
340
21
  0
BLOCK_RECORD
  5
1A
102
{ACAD_XDICTIONARY
360
D5
102
}
330
1
100
AcDbSymbolTableRecord
100
AcDbBlockTableRecord
  2
*Paper_Space
340
1D
  0
BLOCK_RECORD
  5
29
330
1
100
AcDbSymbolTableRecord
100
AcDbBlockTableRecord
  2
*D0
340
0
  0
BLOCK_RECORD
  5
2B
330
1
100
AcDbSymbolTableRecord
100
AcDbBlockTableRecord
  2
*D1
340
0
  0
BLOCK_RECORD
  5
2A8
330
1
100
AcDbSymbolTableRecord
100
AcDbBlockTableRecord
  2
*D3
340
0
  0
BLOCK_RECORD
  5
2B6
330
1
100
AcDbSymbolTableRecord
100
AcDbBlockTableRecord
  2
*D4
340
0
  0
BLOCK_RECORD
  5
2CB
330
1
100
AcDbSymbolTableRecord
100
AcDbBlockTableRecord
  2
*D6
340
0
  0
ENDTAB
  0
ENDSEC
  0
SECTION
  2
BLOCKS
  0
BLOCK
  5
32
330
1E
100
AcDbEntity
  8
0
100
AcDbBlockBegin
  2
*Model_Space
 70
     0
 10
0.0
 20
0.0
 30
0.0
  3
*Model_Space
  1

  0
ENDBLK
  5
33
330
1E
100
AcDbEntity
  8
0
100
AcDbBlockEnd
  0
BLOCK
  5
30
330
1A
100
AcDbEntity
 67
     1
  8
0
100
AcDbBlockBegin
  2
*Paper_Space
 70
     0
 10
0.0
 20
0.0
 30
0.0
  3
*Paper_Space
  1

  0
ENDBLK
  5
31
330
1A
100
AcDbEntity
 67
     1
  8
0
100
AcDbBlockEnd
  0
BLOCK
  5
35
330
29
100
AcDbEntity
  8
0
100
AcDbBlockBegin
  2
*D0
 70
     1
 10
0.0
 20
0.0
 30
0.0
  3
*D0
  1

  0
LINE
  5
36
330
29
100
AcDbEntity
  8
0
  6
ByBlock
 62
     0
100
AcDbLine
 10
9.819639271290983
 20
20.92657591983663
 30
0.0
 11
9.819639271290983
 21
21.58400661649438
 31
0.0
  0
LINE
  5
37
330
29
100
AcDbEntity
  8
0
  6
ByBlock
 62
     0
100
AcDbLine
 10
11.75168229410927
 20
20.92657591983663
 30
0.0
 11
11.75168229410927
 21
21.58400661649438
 31
0.0
  0
LINE
  5
38
330
29
100
AcDbEntity
  8
0
  6
ByBlock
 62
     0
100
AcDbLine
 10
9.999639271290982
 20
21.40400661649438
 30
0.0
 11
10.18566078270013
 21
21.40400661649438
 31
0.0
  0
LINE
  5
39
330
29
100
AcDbEntity
  8
0
  6
ByBlock
 62
     0
100
AcDbLine
 10
11.57168229410927
 20
21.40400661649438
 30
0.0
 11
11.38566078270013
 21
21.40400661649438
 31
0.0
  0
SOLID
  5
3A
330
29
100
AcDbEntity
  8
0
  6
ByBlock
 62
     0
100
AcDbTrace
 10
9.999639271290982
 20
21.43400661649438
 30
0.0
 11
9.999639271290982
 21
21.37400661649438
 31
0.0
 12
9.819639271290983
 22
21.40400661649438
 32
0.0
 13
9.819639271290983
 23
21.40400661649438
 33
0.0
  0
SOLID
  5
3B
330
29
100
AcDbEntity
  8
0
  6
ByBlock
 62
     0
100
AcDbTrace
 10
11.57168229410927
 20
21.43400661649438
 30
0.0
 11
11.57168229410927
 21
21.37400661649438
 31
0.0
 12
11.75168229410927
 22
21.40400661649438
 32
0.0
 13
11.75168229410927
 23
21.40400661649438
 33
0.0
  0
TEXT
  5
3C
330
29
100
AcDbEntity
  8
0
  6
ByBlock
 62
     0
100
AcDbText
 10
10.27566078270013
 20
21.31400661649438
 30
0.0
 40
0.18
  1
1 15/16
 72
     1
 11
10.78566078270013
 21
21.40400661649438
 31
0.0
100
AcDbText
 73
     2
  0
POINT
  5
3E
330
29
100
AcDbEntity
  8
DEFPOINTS
  6
ByBlock
 62
     0
100
AcDbPoint
 10
9.819639271290983
 20
20.86407591983663
 30
0.0
  0
POINT
  5
3F
330
29
100
AcDbEntity
  8
DEFPOINTS
  6
ByBlock
 62
     0
100
AcDbPoint
 10
11.75168229410927
 20
20.86407591983663
 30
0.0
  0
POINT
  5
40
330
29
100
AcDbEntity
  8
DEFPOINTS
  6
ByBlock
 62
     0
100
AcDbPoint
 10
11.75168229410927
 20
21.40400661649438
 30
0.0
  0
ENDBLK
  5
41
330
29
100
AcDbEntity
  8
0
100
AcDbBlockEnd
  0
BLOCK
  5
42
330
2B
100
AcDbEntity
  8
0
100
AcDbBlockBegin
  2
*D1
 70
     1
 10
0.0
 20
0.0
 30
0.0
  3
*D1
  1

  0
LINE
  5
43
330
2B
100
AcDbEntity
  8
0
  6
ByBlock
 62
     0
100
AcDbLine
 10
10.84816078270012
 20
21.2568073169296
 30
0.0
 11
12.35307374652449
 21
21.2568073169296
 31
0.0
  0
LINE
  5
44
330
2B
100
AcDbEntity
  8
0
  6
ByBlock
 62
     0
100
AcDbLine
 10
10.8503523992774
 20
17.90066226646909
 30
0.0
 11
12.35307374652449
 21
17.90066226646909
 31
0.0
  0
LINE
  5
45
330
2B
100
AcDbEntity
  8
0
  6
ByBlock
 62
     0
100
AcDbLine
 10
12.17307374652449
 20
21.0768073169296
 30
0.0
 11
12.17307374652449
 21
19.75873479169935
 31
0.0
  0
LINE
  5
46
330
2B
100
AcDbEntity
  8
0
  6
ByBlock
 62
     0
100
AcDbLine
 10
12.17307374652449
 20
18.08066226646909
 30
0.0
 11
12.17307374652449
 21
19.39873479169935
 31
0.0
  0
SOLID
  5
47
330
2B
100
AcDbEntity
  8
0
  6
ByBlock
 62
     0
100
AcDbTrace
 10
12.14307374652449
 20
21.0768073169296
 30
0.0
 11
12.20307374652449
 21
21.0768073169296
 31
0.0
 12
12.17307374652449
 22
21.2568073169296
 32
0.0
 13
12.17307374652449
 23
21.2568073169296
 33
0.0
  0
SOLID
  5
48
330
2B
100
AcDbEntity
  8
0
  6
ByBlock
 62
     0
100
AcDbTrace
 10
12.14307374652449
 20
18.08066226646909
 30
0.0
 11
12.20307374652449
 21
18.08066226646909
 31
0.0
 12
12.17307374652449
 22
17.90066226646909
 32
0.0
 13
12.17307374652449
 23
17.90066226646909
 33
0.0
  0
TEXT
  5
49
330
2B
100
AcDbEntity
  8
0
  6
ByBlock
 62
     0
100
AcDbText
 10
11.63307374652449
 20
19.48873479169934
 30
0.0
 40
0.18
  1
3 11/32
 72
     1
 11
12.17307374652449
 21
19.57873479169935
 31
0.0
100
AcDbText
 73
     2
  0
POINT
  5
4A
330
2B
100
AcDbEntity
  8
DEFPOINTS
  6
ByBlock
 62
     0
100
AcDbPoint
 10
10.78566078270013
 20
21.2568073169296
 30
0.0
  0
POINT
  5
4B
330
2B
100
AcDbEntity
  8
DEFPOINTS
  6
ByBlock
 62
     0
100
AcDbPoint
 10
10.7878523992774
 20
17.90066226646909
 30
0.0
  0
POINT
  5
4C
330
2B
100
AcDbEntity
  8
DEFPOINTS
  6
ByBlock
 62
     0
100
AcDbPoint
 10
12.17307374652449
 20
17.90066226646909
 30
0.0
  0
ENDBLK
  5
4D
330
2B
100
AcDbEntity
  8
0
100
AcDbBlockEnd
  0
BLOCK
  5
2B3
330
2A8
100
AcDbEntity
  8
0
100
AcDbBlockBegin
  2
*D3
 70
     1
 10
0.0
 20
0.0
 30
0.0
  3
*D3
  1

  0
LINE
  5
364
330
2A8
100
AcDbEntity
  8
ADPDIM
 62
     0
370
    -2
100
AcDbLine
 10
9.819639271290983
 20
20.92657591983663
 30
0.0
 11
9.819639271290983
 21
22.08451453238198
 31
0.0
  0
LINE
  5
365
330
2A8
100
AcDbEntity
  8
ADPDIM
 62
     0
370
    -2
100
AcDbLine
 10
11.75168229410927
 20
20.92657591983663
 30
0.0
 11
11.75168229410927
 21
22.08451453238198
 31
0.0
  0
LINE
  5
366
330
2A8
100
AcDbEntity
  8
ADPDIM
 62
     0
370
    -2
100
AcDbLine
 10
9.999639271290982
 20
21.90451453238198
 30
0.0
 11
10.34149411603346
 21
21.90451453238198
 31
0.0
  0
LINE
  5
367
330
2A8
100
AcDbEntity
  8
ADPDIM
 62
     0
370
    -2
100
AcDbLine
 10
11.57168229410927
 20
21.90451453238198
 30
0.0
 11
11.22982744936679
 21
21.90451453238198
 31
0.0
  0
SOLID
  5
368
330
2A8
100
AcDbEntity
  8
ADPDIM
 62
     0
100
AcDbTrace
 10
9.999639271290982
 20
21.93451453238198
 30
0.0
 11
9.999639271290982
 21
21.87451453238198
 31
0.0
 12
9.819639271290983
 22
21.90451453238198
 32
0.0
 13
9.819639271290983
 23
21.90451453238198
 33
0.0
  0
SOLID
  5
369
330
2A8
100
AcDbEntity
  8
ADPDIM
 62
     0
100
AcDbTrace
 10
11.57168229410927
 20
21.93451453238198
 30
0.0
 11
11.57168229410927
 21
21.87451453238198
 31
0.0
 12
11.75168229410927
 22
21.90451453238198
 32
0.0
 13
11.75168229410927
 23
21.90451453238198
 33
0.0
  0
MTEXT
  5
36A
330
2A8
100
AcDbEntity
  8
ADPDIM
 62
     0
100
AcDbMText
 10
10.78566078270013
 20
21.90451453238198
 30
0.0
 40
0.125
 41
0.0
 71
     5
 72
     1
  1
\A1;1 15/16
 73
     1
 44
1.0
1001
ACAD
1000
MTEXTBEGIN
1070
    73
1070
     1
1070
    44
1040
1.0
1070
    74
1070
     0
1000
MTEXTEND
  0
POINT
  5
36B
330
2A8
100
AcDbEntity
  8
DEFPOINTS
 62
     0
100
AcDbPoint
 10
9.819639271290983
 20
20.86407591983663
 30
0.0
  0
POINT
  5
36C
330
2A8
100
AcDbEntity
  8
DEFPOINTS
 62
     0
100
AcDbPoint
 10
11.75168229410927
 20
20.86407591983663
 30
0.0
  0
POINT
  5
36D
330
2A8
100
AcDbEntity
  8
DEFPOINTS
 62
     0
100
AcDbPoint
 10
11.75168229410927
 20
21.90451453238198
 30
0.0
  0
ENDBLK
  5
2B4
330
2A8
100
AcDbEntity
  8
0
100
AcDbBlockEnd
  0
BLOCK
  5
2C1
330
2B6
100
AcDbEntity
  8
0
 62
     3
100
AcDbBlockBegin
  2
*D4
 70
     1
 10
0.0
 20
0.0
 30
0.0
  3
*D4
  1

  0
LINE
  5
35A
330
2B6
100
AcDbEntity
  8
ADPDIM
 62
     0
370
    -2
100
AcDbLine
 10
10.92215415675755
 20
21.29459160876367
 30
0.0
 11
12.4000336732416
 21
21.29459160876367
 31
0.0
  0
LINE
  5
35B
330
2B6
100
AcDbEntity
  8
ADPDIM
 62
     0
370
    -2
100
AcDbLine
 10
10.92215415675755
 20
17.79459160876367
 30
0.0
 11
12.4000336732416
 21
17.79459160876367
 31
0.0
  0
LINE
  5
35C
330
2B6
100
AcDbEntity
  8
ADPDIM
 62
     0
370
    -2
100
AcDbLine
 10
12.2200336732416
 20
21.11459160876367
 30
0.0
 11
12.2200336732416
 21
19.69709160876367
 31
0.0
  0
LINE
  5
35D
330
2B6
100
AcDbEntity
  8
ADPDIM
 62
     0
370
    -2
100
AcDbLine
 10
12.2200336732416
 20
17.97459160876367
 30
0.0
 11
12.2200336732416
 21
19.39209160876367
 31
0.0
  0
SOLID
  5
35E
330
2B6
100
AcDbEntity
  8
ADPDIM
 62
     0
100
AcDbTrace
 10
12.1900336732416
 20
21.11459160876367
 30
0.0
 11
12.2500336732416
 21
21.11459160876367
 31
0.0
 12
12.2200336732416
 22
21.29459160876367
 32
0.0
 13
12.2200336732416
 23
21.29459160876367
 33
0.0
  0
SOLID
  5
35F
330
2B6
100
AcDbEntity
  8
ADPDIM
 62
     0
100
AcDbTrace
 10
12.1900336732416
 20
17.97459160876367
 30
0.0
 11
12.2500336732416
 21
17.97459160876367
 31
0.0
 12
12.2200336732416
 22
17.79459160876367
 32
0.0
 13
12.2200336732416
 23
17.79459160876367
 33
0.0
  0
MTEXT
  5
360
330
2B6
100
AcDbEntity
  8
ADPDIM
 62
     0
100
AcDbMText
 10
12.22003367324159
 20
19.54459160876367
 30
0.0
 40
0.125
 41
0.0
 71
     5
 72
     1
  1
\A1;3 1/2
 73
     1
 44
1.0
1001
ACAD
1000
MTEXTBEGIN
1070
    73
1070
     1
1070
    44
1040
1.0
1070
    74
1070
     0
1000
MTEXTEND
  0
POINT
  5
361
330
2B6
100
AcDbEntity
  8
DEFPOINTS
 62
     0
100
AcDbPoint
 10
10.85965415675755
 20
21.29459160876367
 30
0.0
  0
POINT
  5
362
330
2B6
100
AcDbEntity
  8
DEFPOINTS
 62
     0
100
AcDbPoint
 10
10.85965415675755
 20
17.79459160876367
 30
0.0
  0
POINT
  5
363
330
2B6
100
AcDbEntity
  8
DEFPOINTS
 62
     0
100
AcDbPoint
 10
12.2200336732416
 20
17.79459160876367
 30
0.0
  0
ENDBLK
  5
2C2
330
2B6
100
AcDbEntity
  8
0
 62
     3
100
AcDbBlockEnd
  0
BLOCK
  5
2D6
330
2CB
100
AcDbEntity
  8
0
 62
     3
100
AcDbBlockBegin
  2
*D6
 70
     1
 10
0.0
 20
0.0
 30
0.0
  3
*D6
  1

  0
LINE
  5
350
330
2CB
100
AcDbEntity
  8
ADPDIM
 62
     0
370
    -2
100
AcDbLine
 10
10.12356397163278
 20
20.47819266944301
 30
0.0
 11
10.12356397163278
 21
20.06123802811125
 31
0.0
  0
LINE
  5
351
330
2CB
100
AcDbEntity
  8
ADPDIM
 62
     0
370
    -2
100
AcDbLine
 10
11.43606397163278
 20
20.47819266944301
 30
0.0
 11
11.43606397163278
 21
20.06123802811125
 31
0.0
  0
LINE
  5
352
330
2CB
100
AcDbEntity
  8
ADPDIM
 62
     0
370
    -2
100
AcDbLine
 10
9.943563971632784
 20
20.24123802811125
 30
0.0
 11
9.763563971632784
 21
20.24123802811125
 31
0.0
  0
LINE
  5
353
330
2CB
100
AcDbEntity
  8
ADPDIM
 62
     0
370
    -2
100
AcDbLine
 10
11.61606397163278
 20
20.24123802811125
 30
0.0
 11
11.79606397163278
 21
20.24123802811125
 31
0.0
  0
SOLID
  5
354
330
2CB
100
AcDbEntity
  8
ADPDIM
 62
     0
100
AcDbTrace
 10
9.943563971632784
 20
20.27123802811125
 30
0.0
 11
9.943563971632784
 21
20.21123802811125
 31
0.0
 12
10.12356397163278
 22
20.24123802811125
 32
0.0
 13
10.12356397163278
 23
20.24123802811125
 33
0.0
  0
SOLID
  5
355
330
2CB
100
AcDbEntity
  8
ADPDIM
 62
     0
100
AcDbTrace
 10
11.61606397163278
 20
20.27123802811125
 30
0.0
 11
11.61606397163278
 21
20.21123802811125
 31
0.0
 12
11.43606397163278
 22
20.24123802811125
 32
0.0
 13
11.43606397163278
 23
20.24123802811125
 33
0.0
  0
MTEXT
  5
356
330
2CB
100
AcDbEntity
  8
ADPDIM
 62
     0
100
AcDbMText
 10
10.77981397163278
 20
20.24123802811125
 30
0.0
 40
0.125
 41
0.0
 71
     5
 72
     1
  1
\A1;1 5/16
 73
     1
 44
1.0
1001
ACAD
1000
MTEXTBEGIN
1070
    73
1070
     1
1070
    44
1040
1.0
1070
    74
1070
     0
1000
MTEXTEND
  0
POINT
  5
357
330
2CB
100
AcDbEntity
  8
DEFPOINTS
 62
     0
100
AcDbPoint
 10
10.12356397163278
 20
20.54069266944301
 30
0.0
  0
POINT
  5
358
330
2CB
100
AcDbEntity
  8
DEFPOINTS
 62
     0
100
AcDbPoint
 10
11.43606397163278
 20
20.54069266944301
 30
0.0
  0
POINT
  5
359
330
2CB
100
AcDbEntity
  8
DEFPOINTS
 62
     0
100
AcDbPoint
 10
11.43606397163278
 20
20.24123802811125
 30
0.0
  0
ENDBLK
  5
2D7
330
2CB
100
AcDbEntity
  8
0
 62
     3
100
AcDbBlockEnd
  0
ENDSEC
  0
SECTION
  2
ENTITIES
  0
LINE
  5
4E
330
1E
100
AcDbEntity
  8
ADP1DETAIL
100
AcDbLine
 10
6.574608686410002
 20
21.05072823099215
 30
0.0
 11
9.447026424046184
 21
21.05072823099215
 31
0.0
  0
LWPOLYLINE
  5
4F
330
1E
100
AcDbEntity
  8
ADP1DETAIL
100
AcDbPolyline
 90
        4
 70
     0
 43
0.0
 10
5.663150080530567
 20
20.05347923317462
 42
-0.2195758711586374
 10
6.246358958859179
 20
20.35563046505878
 10
7.149280621292027
 20
20.36883590070679
 10
7.149280621292027
 20
20.62964325475503
  0
LWPOLYLINE
  5
55
330
1E
100
AcDbEntity
  8
ADP1DETAIL
100
AcDbPolyline
 90
       13
 70
     0
 43
0.0
 10
6.44939253194737
 20
20.62964325475503
 10
9.447026424046185
 20
20.62964325475503
 10
9.447026424046185
 20
21.25029873021162
 10
6.766322987499667
 20
21.25029873021162
 42
0.2801366692639556
 10
5.49199844746647
 20
20.61973917801902
 42
0.0533944834843159
 10
4.693069590761719
 20
18.84030672444935
 42
-0.2234452869248547
 10
4.355192867154599
 20
18.38809954086305
 42
-0.3173695210438576
 10
3.965119950665036
 20
18.67028674048119
 42
0.2670086466834154
 10
3.904044810792978
 20
18.08759689251265
 42
0.5310153242314867
 10
4.765699486825788
 20
17.97202300498456
 42
0.0767224477210834
 10
5.203129542666199
 20
18.8914777875854
 42
-0.0444136962397476
 10
5.756107160426719
 20
20.23843222368267
 42
-0.2186798079438553
 10
6.44939253194737
 20
20.62964325475503
 42
24.03514737551474
  0
LWPOLYLINE
  5
64
330
1E
100
AcDbEntity
  8
ADP1DETAIL
100
AcDbPolyline
 90
        7
 70
     0
 43
0.0
 10
9.447026424046185
 20
21.00269681181138
 10
6.601255041899513
 20
21.00269681181138
 42
0.252062016099242
 10
5.399560397930383
 20
20.12783670013056
 42
0.079814686167882
 10
4.985239854473994
 20
18.92779273561743
 42
-0.1343353367121726
 10
5.620751445034591
 20
20.33087027321875
 42
-0.1738497815031758
 10
6.508816992363425
 20
20.85743701968325
 10
9.447026424046185
 20
20.85743701968325
  0
ARC
  5
6D
330
1E
100
AcDbEntity
  8
ADP1DETAIL
100
AcDbCircle
 10
6.688213313976476
 20
19.67759913094146
 30
0.0
 40
1.37782057496995
100
AcDbArc
 50
94.72954437682012
 51
149.6584010576807
  0
LINE
  5
6F
330
1E
100
AcDbEntity
  8
ADP1DETAIL
100
AcDbLine
 10
11.75606552726382
 20
20.86407591983663
 30
0.0
 11
11.21255127642775
 21
17.99759733363255
 31
0.0
  0
LINE
  5
70
330
1E
100
AcDbEntity
  8
ADP1DETAIL
100
AcDbLine
 10
9.819639271290983
 20
20.86407591983663
 30
0.0
 11
10.36315352212705
 21
17.99759733363255
 31
0.0
  0
ARC
  5
77
330
1E
100
AcDbEntity
  8
ADP1DETAIL
100
AcDbCircle
 10
10.92669846951848
 20
18.08765975727267
 30
0.0
 40
0.2997049672091646
100
AcDbArc
 50
270.3701039429973
 51
342.5121465788076
  0
ARC
  5
7A
330
1E
100
AcDbEntity
  8
ADP1DETAIL
100
AcDbCircle
 10
10.64900632903632
 20
18.08765975727267
 30
0.0
 40
0.2997049672091646
100
AcDbArc
 50
197.4878534211923
 51
269.6298960570027
  0
LINE
  5
7B
330
1E
100
AcDbEntity
  8
ADP1DETAIL
100
AcDbLine
 10
10.64707038855931
 20
17.78796104272035
 30
0.0
 11
10.92863440999549
 21
17.78796104272035
 31
0.0
  0
DIMENSION
  5
80
330
1E
100
AcDbEntity
  8
ADPDIM
100
AcDbDimension
  2
*D3
 10
11.75168229410927
 20
21.90451453238198
 30
0.0
 11
10.78566078270013
 21
21.90451453238198
 31
0.0
 70
    32
 71
     5
 42
1.932043022818291
  3
Standard
100
AcDbAlignedDimension
 13
9.819639271290983
 23
20.86407591983663
 33
0.0
 14
11.75168229410927
 24
20.86407591983663
 34
0.0
100
AcDbRotatedDimension
1001
ACAD
1000
DSTYLE
1002
{
1070
   140
1040
0.125
1070
   276
1070
     2
1070
   271
1070
     5
1070
   272
1070
     5
1070
   273
1070
     5
1070
   277
1070
     5
1070
   279
1070
     2
1002
}
  0
TEXT
  5
97
330
1E
100
AcDbEntity
  8
ADPDIM
100
AcDbText
 10
1.636315963048534
 20
17.41453175795061
 30
0.0
 40
0.125
  1
J U L I U S  B L U M  &  C O . ,  I N C .      ( 8 0 0 )  5 2 6 - 6 2 9 3        W W W . J U L I U S B L U M . C O M        P A R T  N o .  4 4 2 8 - B
 41
1.25
  7
ARIAL_WIDE
 72
     1
 11
8.331830969869816
 21
17.53953175795061
 31
0.0
100
AcDbText
 73
     3
  0
SPLINE
  5
274
330
1E
100
AcDbEntity
  8
ADPDIM
 62
     7
370
     0
100
AcDbSpline
210
0.0
220
0.0
230
1.0
 70
     8
 71
     3
 72
    11
 73
     7
 74
     0
 42
0.0000000001
 43
0.0000000001
 40
0.0
 40
0.0
 40
0.0
 40
0.0
 40
1.0
 40
1.0
 40
1.0
 40
2.0
 40
2.0
 40
2.0
 40
2.0
 10
9.975356223370615
 20
21.04292250884629
 30
0.0
 10
9.888728432005821
 20
21.04292250884629
 30
0.0
 10
9.818494834417071
 20
20.97268891125754
 30
0.0
 10
9.818494834417071
 20
20.88606111989275
 30
0.0
 10
9.818494834417071
 20
20.82264935875068
 30
0.0
 10
9.856675332214445
 20
20.76547392713471
 30
0.0
 10
9.915253257151784
 20
20.74116858171091
 30
0.0
  0
SPLINE
  5
275
330
1E
100
AcDbEntity
  8
ADPDIM
 62
     7
370
     0
100
AcDbSpline
210
0.0
220
0.0
230
1.0
 70
     8
 71
     3
 72
    11
 73
     7
 74
     0
 42
0.0000000001
 43
0.0000000001
 40
0.0
 40
0.0
 40
0.0
 40
0.0
 40
1.0
 40
1.0
 40
1.0
 40
2.0
 40
2.0
 40
2.0
 40
2.0
 10
11.66683125114631
 20
20.74116858171091
 30
0.0
 10
11.74684145266462
 20
20.77436546246341
 30
0.0
 10
11.78480408742178
 20
20.86614707637325
 30
0.0
 10
11.75160720666929
 20
20.94617089433159
 30
0.0
 10
11.7273018612455
 20
21.00474201104891
 30
0.0
 10
11.67012642962953
 20
21.04292250884629
 30
0.0
 10
11.60671466848746
 20
21.04292250884629
 30
0.0
  0
LINE
  5
276
330
1E
100
AcDbEntity
  8
ADPDIM
 62
     7
370
     0
100
AcDbLine
 10
10.25623614796555
 20
20.87201576201899
 30
0.0
 11
10.24105381735069
 21
20.72755894991759
 31
0.0
  0
LINE
  5
277
330
1E
100
AcDbEntity
  8
ADPDIM
 62
     7
370
     0
100
AcDbLine
 10
11.32584836033253
 20
20.87201576201899
 30
0.0
 11
11.3410306909474
 21
20.72755894991759
 31
0.0
  0
LINE
  5
278
330
1E
100
AcDbEntity
  8
ADPDIM
 62
     7
370
     0
100
AcDbLine
 10
10.09996026593258
 20
20.54096606419495
 30
0.0
 11
10.02260527021686
 21
20.54096606419495
 31
0.0
  0
SPLINE
  5
279
330
1E
100
AcDbEntity
  8
ADPDIM
 62
     7
370
     0
100
AcDbSpline
210
0.0
220
0.0
230
1.0
 70
     8
 71
     3
 72
     8
 73
     4
 74
     0
 42
0.0000000001
 43
0.0000000001
 40
0.0
 40
0.0
 40
0.0
 40
0.0
 40
1.0
 40
1.0
 40
1.0
 40
1.0
 10
9.985364306780413
 20
20.66740832615872
 30
0.0
 10
9.973463538208763
 20
20.7007958370714
 30
0.0
 10
9.947987178943826
 20
20.72759299101763
 30
0.0
 10
9.915253257151784
 20
20.74116858171091
 30
0.0
  0
SPLINE
  5
27A
330
1E
100
AcDbEntity
  8
ADPDIM
 62
     7
370
     0
100
AcDbSpline
210
0.0
220
0.0
230
1.0
 70
     8
 71
     3
 72
     8
 73
     4
 74
     0
 42
0.0000000001
 43
0.0000000001
 40
0.0
 40
0.0
 40
0.0
 40
0.0
 40
1.0
 40
1.0
 40
1.0
 40
1.0
 10
10.00693274776152
 20
20.55602584684969
 30
0.0
 10
10.00727315876186
 20
20.54761088692145
 30
0.0
 10
10.01419031028863
 20
20.54096606419495
 30
0.0
 10
10.02260527021686
 20
20.54096606419495
 30
0.0
  0
SPLINE
  5
27B
330
1E
100
AcDbEntity
  8
ADPDIM
 62
     7
370
     0
100
AcDbSpline
210
0.0
220
0.0
230
1.0
 70
     8
 71
     3
 72
     8
 73
     4
 74
     0
 42
0.0000000001
 43
0.0000000001
 40
0.0
 40
0.0
 40
0.0
 40
0.0
 40
1.0
 40
1.0
 40
1.0
 40
1.0
 10
10.00693274776152
 20
20.55602584684969
 30
0.0
 10
10.00540770648003
 20
20.59402933092689
 30
0.0
 10
9.998136527512915
 20
20.63158347248365
 30
0.0
 10
9.985364306780413
 20
20.66740832615872
 30
0.0
  0
SPLINE
  5
27C
330
1E
100
AcDbEntity
  8
ADPDIM
 62
     7
370
     0
100
AcDbSpline
210
0.0
220
0.0
230
1.0
 70
     8
 71
     3
 72
     8
 73
     4
 74
     0
 42
0.0000000001
 43
0.0000000001
 40
0.0
 40
0.0
 40
0.0
 40
0.0
 40
1.0
 40
1.0
 40
1.0
 40
1.0
 10
10.14633786061798
 20
20.71351359204384
 30
0.0
 10
10.13831777745013
 20
20.71351359204384
 30
0.0
 10
10.13157763964353
 20
20.70744746801791
 30
0.0
 10
10.13074703680272
 20
20.6994682341701
 30
0.0
  0
LINE
  5
27D
330
1E
100
AcDbEntity
  8
ADPDIM
 62
     7
370
     0
100
AcDbLine
 10
10.22544937709542
 20
20.71351359204384
 30
0.0
 11
10.14633786061798
 21
20.71351359204384
 31
0.0
  0
SPLINE
  5
27E
330
1E
100
AcDbEntity
  8
ADPDIM
 62
     7
370
     0
100
AcDbSpline
210
0.0
220
0.0
230
1.0
 70
     8
 71
     3
 72
     8
 73
     4
 74
     0
 42
0.0000000001
 43
0.0000000001
 40
0.0
 40
0.0
 40
0.0
 40
0.0
 40
1.0
 40
1.0
 40
1.0
 40
1.0
 10
10.22544937709542
 20
20.71351359204384
 30
0.0
 10
10.23348307670328
 20
20.71351359204384
 30
0.0
 10
10.24020959806986
 20
20.71957290784978
 30
0.0
 10
10.24105381735069
 20
20.72755894991759
 30
0.0
  0
SPLINE
  5
27F
330
1E
100
AcDbEntity
  8
ADPDIM
 62
     7
370
     0
100
AcDbSpline
210
0.0
220
0.0
230
1.0
 70
     8
 71
     3
 72
     8
 73
     4
 74
     0
 42
0.0000000001
 43
0.0000000001
 40
0.0
 40
0.0
 40
0.0
 40
0.0
 40
1.0
 40
1.0
 40
1.0
 40
1.0
 10
10.09996026593258
 20
20.54096606419495
 30
0.0
 10
10.10799396554045
 20
20.54096606419495
 30
0.0
 10
10.11472048690703
 20
20.54702538000088
 30
0.0
 10
10.11556470618786
 20
20.55501142206869
 30
0.0
  0
LINE
  5
280
330
1E
100
AcDbEntity
  8
ADPDIM
 62
     7
370
     0
100
AcDbLine
 10
10.13074703680272
 20
20.6994682341701
 30
0.0
 11
10.11556470618786
 21
20.55501142206869
 31
0.0
  0
SPLINE
  5
281
330
1E
100
AcDbEntity
  8
ADPDIM
 62
     7
370
     0
100
AcDbSpline
210
0.0
220
0.0
230
1.0
 70
     8
 71
     3
 72
     8
 73
     4
 74
     0
 42
0.0000000001
 43
0.0000000001
 40
0.0
 40
0.0
 40
0.0
 40
0.0
 40
1.0
 40
1.0
 40
1.0
 40
1.0
 10
11.46651980211023
 20
20.55501142206869
 30
0.0
 10
11.46735040495104
 20
20.54702538000088
 30
0.0
 10
11.47409054275764
 20
20.54096606419495
 30
0.0
 10
11.48211062592549
 20
20.54096606419495
 30
0.0
  0
LINE
  5
282
330
1E
100
AcDbEntity
  8
ADPDIM
 62
     7
370
     0
100
AcDbLine
 10
11.35662151476266
 20
20.71351359204384
 30
0.0
 11
11.4357330312401
 21
20.71351359204384
 31
0.0
  0
SPLINE
  5
283
330
1E
100
AcDbEntity
  8
ADPDIM
 62
     7
370
     0
100
AcDbSpline
210
0.0
220
0.0
230
1.0
 70
     8
 71
     3
 72
     8
 73
     4
 74
     0
 42
0.0000000001
 43
0.0000000001
 40
0.0
 40
0.0
 40
0.0
 40
0.0
 40
1.0
 40
1.0
 40
1.0
 40
1.0
 10
11.45133747149537
 20
20.6994682341701
 30
0.0
 10
11.45049325221454
 20
20.70744746801791
 30
0.0
 10
11.44375311440795
 20
20.71351359204384
 30
0.0
 10
11.4357330312401
 20
20.71351359204384
 30
0.0
  0
SPLINE
  5
284
330
1E
100
AcDbEntity
  8
ADPDIM
 62
     7
370
     0
100
AcDbSpline
210
0.0
220
0.0
230
1.0
 70
     8
 71
     3
 72
     8
 73
     4
 74
     0
 42
0.0000000001
 43
0.0000000001
 40
0.0
 40
0.0
 40
0.0
 40
0.0
 40
1.0
 40
1.0
 40
1.0
 40
1.0
 10
11.3410306909474
 20
20.72755894991759
 30
0.0
 10
11.34186129378821
 20
20.71957290784978
 30
0.0
 10
11.34860143159481
 20
20.71351359204384
 30
0.0
 10
11.35662151476266
 20
20.71351359204384
 30
0.0
  0
LINE
  5
285
330
1E
100
AcDbEntity
  8
ADPDIM
 62
     7
370
     0
100
AcDbLine
 10
11.45133747149537
 20
20.6994682341701
 30
0.0
 11
11.46651980211023
 21
20.55501142206869
 31
0.0
  0
LINE
  5
286
330
1E
100
AcDbEntity
  8
ADPDIM
 62
     7
370
     0
100
AcDbLine
 10
11.48211062592549
 20
20.54096606419495
 30
0.0
 11
11.55946562164121
 21
20.54096606419495
 31
0.0
  0
SPLINE
  5
287
330
1E
100
AcDbEntity
  8
ADPDIM
 62
     7
370
     0
100
AcDbSpline
210
0.0
220
0.0
230
1.0
 70
     8
 71
     3
 72
     8
 73
     4
 74
     0
 42
0.0000000001
 43
0.0000000001
 40
0.0
 40
0.0
 40
0.0
 40
0.0
 40
1.0
 40
1.0
 40
1.0
 40
1.0
 10
11.66683125114631
 20
20.74116858171091
 30
0.0
 10
11.63408371291425
 20
20.72759299101763
 30
0.0
 10
11.60862097008933
 20
20.7007958370714
 30
0.0
 10
11.59670658507766
 20
20.66740832615872
 30
0.0
  0
SPLINE
  5
288
330
1E
100
AcDbEntity
  8
ADPDIM
 62
     7
370
     0
100
AcDbSpline
210
0.0
220
0.0
230
1.0
 70
     8
 71
     3
 72
     8
 73
     4
 74
     0
 42
0.0000000001
 43
0.0000000001
 40
0.0
 40
0.0
 40
0.0
 40
0.0
 40
1.0
 40
1.0
 40
1.0
 40
1.0
 10
11.55946562164121
 20
20.54096606419495
 30
0.0
 10
11.56789419800946
 20
20.54096606419495
 30
0.0
 10
11.57481134953623
 20
20.54761088692145
 30
0.0
 10
11.57513814409655
 20
20.55602584684969
 30
0.0
  0
SPLINE
  5
289
330
1E
100
AcDbEntity
  8
ADPDIM
 62
     7
370
     0
100
AcDbSpline
210
0.0
220
0.0
230
1.0
 70
     8
 71
     3
 72
     8
 73
     4
 74
     0
 42
0.0000000001
 43
0.0000000001
 40
0.0
 40
0.0
 40
0.0
 40
0.0
 40
1.0
 40
1.0
 40
1.0
 40
1.0
 10
11.59670658507766
 20
20.66740832615872
 30
0.0
 10
11.58393436434516
 20
20.63158347248365
 30
0.0
 10
11.57666318537804
 20
20.59402933092689
 30
0.0
 10
11.57513814409655
 20
20.55602584684969
 30
0.0
  0
SPLINE
  5
28A
330
1E
100
AcDbEntity
  8
ADPDIM
 62
     7
370
     0
100
AcDbSpline
210
0.0
220
0.0
230
1.0
 70
     8
 71
     3
 72
     8
 73
     4
 74
     0
 42
0.0000000001
 43
0.0000000001
 40
0.0
 40
0.0
 40
0.0
 40
0.0
 40
1.0
 40
1.0
 40
1.0
 40
1.0
 10
10.79103544592904
 20
21.1056670644277
 30
0.0
 10
10.62773348084919
 20
21.1056670644277
 30
0.0
 10
10.47464384577934
 20
21.02622875338994
 30
0.0
 10
10.38062232748731
 20
20.89271275083925
 30
0.0
  0
SPLINE
  5
28B
330
1E
100
AcDbEntity
  8
ADPDIM
 62
     7
370
     0
100
AcDbSpline
210
0.0
220
0.0
230
1.0
 70
     8
 71
     3
 72
     8
 73
     4
 74
     0
 42
0.0000000001
 43
0.0000000001
 40
0.0
 40
0.0
 40
0.0
 40
0.0
 40
1.0
 40
1.0
 40
1.0
 40
1.0
 10
10.79103544592904
 20
21.29390073117195
 30
0.0
 10
10.70304601056291
 20
21.29390073117195
 30
0.0
 10
10.61603695887774
 20
21.27538918097383
 30
0.0
 10
10.53565911347907
 20
21.23957794373878
 30
0.0
  0
SPLINE
  5
28C
330
1E
100
AcDbEntity
  8
ADPDIM
 62
     7
370
     0
100
AcDbSpline
210
0.0
220
0.0
230
1.0
 70
     8
 71
     3
 72
     8
 73
     4
 74
     0
 42
0.0000000001
 43
0.0000000001
 40
0.0
 40
0.0
 40
0.0
 40
0.0
 40
1.0
 40
1.0
 40
1.0
 40
1.0
 10
10.02878713398291
 20
21.04292250884629
 30
0.0
 10
10.0428665329567
 20
21.04292250884629
 30
0.0
 10
10.05520302760877
 20
21.05237912643554
 30
0.0
 10
10.05883861709233
 20
21.06598875822887
 30
0.0
  0
LINE
  5
28D
330
1E
100
AcDbEntity
  8
ADPDIM
 62
     7
370
     0
100
AcDbLine
 10
9.975356223370615
 20
21.04292250884629
 30
0.0
 11
10.02878713398291
 21
21.04292250884629
 31
0.0
  0
SPLINE
  5
28E
330
1E
100
AcDbEntity
  8
ADPDIM
 62
     7
370
     0
100
AcDbSpline
210
0.0
220
0.0
230
1.0
 70
     8
 71
     3
 72
     8
 73
     4
 74
     0
 42
0.0000000001
 43
0.0000000001
 40
0.0
 40
0.0
 40
0.0
 40
0.0
 40
1.0
 40
1.0
 40
1.0
 40
1.0
 10
10.06947305674274
 20
21.1056670644277
 30
0.0
 10
10.23435452886413
 20
21.1056670644277
 30
0.0
 10
10.39591358962227
 20
21.15207189199313
 30
0.0
 10
10.53565911347907
 20
21.23957794373878
 30
0.0
  0
SPLINE
  5
28F
330
1E
100
AcDbEntity
  8
ADPDIM
 62
     7
370
     0
100
AcDbSpline
210
0.0
220
0.0
230
1.0
 70
     8
 71
     3
 72
     8
 73
     4
 74
     0
 42
0.0000000001
 43
0.0000000001
 40
0.0
 40
0.0
 40
0.0
 40
0.0
 40
1.0
 40
1.0
 40
1.0
 40
1.0
 10
10.27182697178081
 20
20.88606111989275
 30
0.0
 10
10.26380688861296
 20
20.88606111989275
 30
0.0
 10
10.25706675080637
 20
20.87999499586681
 30
0.0
 10
10.25623614796555
 20
20.87201576201899
 30
0.0
  0
LINE
  5
290
330
1E
100
AcDbEntity
  8
ADPDIM
 62
     7
370
     0
100
AcDbLine
 10
10.36780925743477
 20
20.88606111989275
 30
0.0
 11
10.27182697178081
 21
20.88606111989275
 31
0.0
  0
SPLINE
  5
291
330
1E
100
AcDbEntity
  8
ADPDIM
 62
     7
370
     0
100
AcDbSpline
210
0.0
220
0.0
230
1.0
 70
     8
 71
     3
 72
     8
 73
     4
 74
     0
 42
0.0000000001
 43
0.0000000001
 40
0.0
 40
0.0
 40
0.0
 40
0.0
 40
1.0
 40
1.0
 40
1.0
 40
1.0
 10
10.36780925743477
 20
20.88606111989275
 30
0.0
 10
10.37290180599975
 20
20.88606111989275
 30
0.0
 10
10.37769479288444
 20
20.88853931197517
 30
0.0
 10
10.38062232748731
 20
20.89271275083925
 30
0.0
  0
LINE
  5
292
330
1E
100
AcDbEntity
  8
ADPDIM
 62
     7
370
     0
100
AcDbLine
 10
10.06947305674274
 20
21.1056670644277
 30
0.0
 11
10.05883861709233
 21
21.06598875822887
 31
0.0
  0
SPLINE
  5
293
330
1E
100
AcDbEntity
  8
ADPDIM
 62
     7
370
     0
100
AcDbSpline
210
0.0
220
0.0
230
1.0
 70
     8
 71
     3
 72
     8
 73
     4
 74
     0
 42
0.0000000001
 43
0.0000000001
 40
0.0
 40
0.0
 40
0.0
 40
0.0
 40
1.0
 40
1.0
 40
1.0
 40
1.0
 10
11.04641177837901
 20
21.23957794373878
 30
0.0
 10
11.1861573022358
 20
21.15207189199313
 30
0.0
 10
11.34771636299394
 20
21.1056670644277
 30
0.0
 10
11.51259783511533
 20
21.1056670644277
 30
0.0
  0
SPLINE
  5
294
330
1E
100
AcDbEntity
  8
ADPDIM
 62
     7
370
     0
100
AcDbSpline
210
0.0
220
0.0
230
1.0
 70
     8
 71
     3
 72
     8
 73
     4
 74
     0
 42
0.0000000001
 43
0.0000000001
 40
0.0
 40
0.0
 40
0.0
 40
0.0
 40
1.0
 40
1.0
 40
1.0
 40
1.0
 10
11.20144856437077
 20
20.89271275083925
 30
0.0
 10
11.10742704607874
 20
21.02622875338994
 30
0.0
 10
10.95433741100888
 20
21.1056670644277
 30
0.0
 10
10.79103544592904
 20
21.1056670644277
 30
0.0
  0
SPLINE
  5
295
330
1E
100
AcDbEntity
  8
ADPDIM
 62
     7
370
     0
100
AcDbSpline
210
0.0
220
0.0
230
1.0
 70
     8
 71
     3
 72
     8
 73
     4
 74
     0
 42
0.0000000001
 43
0.0000000001
 40
0.0
 40
0.0
 40
0.0
 40
0.0
 40
1.0
 40
1.0
 40
1.0
 40
1.0
 10
11.04641177837901
 20
21.23957794373878
 30
0.0
 10
10.96603393298033
 20
21.27538918097383
 30
0.0
 10
10.87902488129517
 20
21.29390073117195
 30
0.0
 10
10.79103544592904
 20
21.29390073117195
 30
0.0
  0
SPLINE
  5
296
330
1E
100
AcDbEntity
  8
ADPDIM
 62
     7
370
     0
100
AcDbSpline
210
0.0
220
0.0
230
1.0
 70
     8
 71
     3
 72
     8
 73
     4
 74
     0
 42
0.0000000001
 43
0.0000000001
 40
0.0
 40
0.0
 40
0.0
 40
0.0
 40
1.0
 40
1.0
 40
1.0
 40
1.0
 10
11.20144856437077
 20
20.89271275083925
 30
0.0
 10
11.20438971541365
 20
20.88853931197517
 30
0.0
 10
11.20916908585833
 20
20.88606111989275
 30
0.0
 10
11.21427525086332
 20
20.88606111989275
 30
0.0
  0
LINE
  5
297
330
1E
100
AcDbEntity
  8
ADPDIM
 62
     7
370
     0
100
AcDbLine
 10
11.21427525086332
 20
20.88606111989275
 30
0.0
 11
11.31024392007726
 21
20.88606111989275
 31
0.0
  0
SPLINE
  5
298
330
1E
100
AcDbEntity
  8
ADPDIM
 62
     7
370
     0
100
AcDbSpline
210
0.0
220
0.0
230
1.0
 70
     8
 71
     3
 72
     8
 73
     4
 74
     0
 42
0.0000000001
 43
0.0000000001
 40
0.0
 40
0.0
 40
0.0
 40
0.0
 40
1.0
 40
1.0
 40
1.0
 40
1.0
 10
11.32584836033253
 20
20.87201576201899
 30
0.0
 10
11.32500414105171
 20
20.87999499586681
 30
0.0
 10
11.31826400324511
 20
20.88606111989275
 30
0.0
 10
11.31024392007726
 20
20.88606111989275
 30
0.0
  0
SPLINE
  5
299
330
1E
100
AcDbEntity
  8
ADPDIM
 62
     7
370
     0
100
AcDbSpline
210
0.0
220
0.0
230
1.0
 70
     8
 71
     3
 72
     8
 73
     4
 74
     0
 42
0.0000000001
 43
0.0000000001
 40
0.0
 40
0.0
 40
0.0
 40
0.0
 40
1.0
 40
1.0
 40
1.0
 40
1.0
 10
11.52323227476574
 20
21.06598875822887
 30
0.0
 10
11.52688148068931
 20
21.05237912643554
 30
0.0
 10
11.53920435890138
 20
21.04292250884629
 30
0.0
 10
11.55329737431517
 20
21.04292250884629
 30
0.0
  0
LINE
  5
29A
330
1E
100
AcDbEntity
  8
ADPDIM
 62
     7
370
     0
100
AcDbLine
 10
11.60671466848746
 20
21.04292250884629
 30
0.0
 11
11.55329737431517
 21
21.04292250884629
 31
0.0
  0
LINE
  5
29B
330
1E
100
AcDbEntity
  8
ADPDIM
 62
     7
370
     0
100
AcDbLine
 10
11.51259783511533
 20
21.1056670644277
 30
0.0
 11
11.52323227476574
 21
21.06598875822887
 31
0.0
  0
DIMENSION
  5
2B5
330
1E
100
AcDbEntity
  8
ADPDIM
 62
     3
100
AcDbDimension
  2
*D4
 10
12.2200336732416
 20
17.79459160876367
 30
0.0
 11
12.22003367324159
 21
19.54459160876367
 31
0.0
 70
    32
 71
     5
 42
3.5
  3
Standard
100
AcDbAlignedDimension
 13
10.85965415675755
 23
21.29459160876367
 33
0.0
 14
10.85965415675755
 24
17.79459160876367
 34
0.0
 50
90.0
100
AcDbRotatedDimension
1001
ACAD
1000
DSTYLE
1002
{
1070
   140
1040
0.125
1070
   276
1070
     2
1070
   271
1070
     5
1070
   272
1070
     5
1070
   273
1070
     5
1070
   277
1070
     5
1070
   279
1070
     2
1002
}
  0
DIMENSION
  5
2CA
330
1E
100
AcDbEntity
  8
ADPDIM
 62
     3
100
AcDbDimension
  2
*D6
 10
11.43606397163278
 20
20.24123802811125
 30
0.0
 11
10.77981397163278
 21
20.24123802811125
 31
0.0
 70
    32
 71
     5
 42
1.3125
  3
Standard
100
AcDbAlignedDimension
 13
10.12356397163278
 23
20.54069266944301
 33
0.0
 14
11.43606397163278
 24
20.54069266944301
 34
0.0
100
AcDbRotatedDimension
1001
ACAD
1000
DSTYLE
1002
{
1070
   140
1040
0.125
1070
   276
1070
     2
1070
   271
1070
     5
1070
   272
1070
     5
1070
   273
1070
     5
1070
   277
1070
     5
1070
   279
1070
     2
1002
}
  0
ENDSEC
  0
SECTION
  2
OBJECTS
  0
DICTIONARY
  5
C
330
0
100
AcDbDictionary
281
     1
  3
ACAD_COLOR
350
23B
  3
ACAD_GROUP
350
D
  3
ACAD_LAYOUT
350
19
  3
ACAD_MATERIAL
350
226
  3
ACAD_MLINESTYLE
350
16
  3
ACAD_PLOTSETTINGS
350
18
  3
ACAD_PLOTSTYLENAME
350
E
  3
ACAD_TABLESTYLE
350
23C
  3
ACAD_VISUALSTYLE
350
22A
  3
AcDbVariableDictionary
350
108
  3
ASE_INDEX_DICTIONARY
350
36F
  3
DWGPROPS
350
38E
  0
DICTIONARY
  5
D3
330
1E
100
AcDbDictionary
280
     1
281
     1
  3
ACAD_LAYOUTSELFREF
360
222
  0
DICTIONARY
  5
D5
330
1A
100
AcDbDictionary
280
     1
281
     1
  3
ACAD_LAYOUTSELFREF
360
221
  0
DICTIONARY
  5
23B
102
{ACAD_REACTORS
330
C
102
}
330
C
100
AcDbDictionary
281
     1
  0
DICTIONARY
  5
D
102
{ACAD_REACTORS
330
C
102
}
330
C
100
AcDbDictionary
281
     1
  0
DICTIONARY
  5
19
102
{ACAD_REACTORS
330
C
102
}
330
C
100
AcDbDictionary
281
     1
  3
Layout1
350
1D
  3
Model
350
21
  0
DICTIONARY
  5
226
102
{ACAD_REACTORS
330
C
102
}
330
C
100
AcDbDictionary
281
     1
  3
ByBlock
350
228
  3
ByLayer
350
227
  3
Global
350
229
  0
DICTIONARY
  5
16
102
{ACAD_REACTORS
330
C
102
}
330
C
100
AcDbDictionary
281
     1
  3
Standard
350
17
  0
DICTIONARY
  5
18
102
{ACAD_REACTORS
330
C
102
}
330
C
100
AcDbDictionary
281
     1
  0
ACDBDICTIONARYWDFLT
  5
E
102
{ACAD_REACTORS
330
C
102
}
330
C
100
AcDbDictionary
281
     1
  3
Normal
350
F
100
AcDbDictionaryWithDefault
340
F
  0
DICTIONARY
  5
23C
102
{ACAD_REACTORS
330
C
102
}
330
C
100
AcDbDictionary
281
     1
  3
Standard
350
23D
  0
DICTIONARY
  5
22A
102
{ACAD_REACTORS
330
C
102
}
330
C
100
AcDbDictionary
281
     1
  3
2dWireframe
350
230
  3
3D Hidden
350
232
  3
3dWireframe
350
231
  3
Basic
350
22F
  3
Brighten
350
236
  3
ColorChange
350
23A
  3
Conceptual
350
233
  3
Dim
350
235
  3
Facepattern
350
239
  3
Flat
350
22B
  3
FlatWithEdges
350
22C
  3
Gouraud
350
22D
  3
GouraudWithEdges
350
22E
  3
Linepattern
350
238
  3
Realistic
350
234
  3
Thicken
350
237
  0
DICTIONARY
  5
108
102
{ACAD_REACTORS
330
C
102
}
330
C
100
AcDbDictionary
281
     1
  3
CTABLESTYLE
350
38B
  3
DIMASSOC
350
10A
  3
HIDETEXT
350
109
  3
INDEXCTL
350
38D
  3
SORTENTS
350
38C
  0
DICTIONARY
  5
36F
102
{ACAD_REACTORS
330
C
102
}
330
C
100
AcDbDictionary
281
     1
  3
ASEBlockHierarchyIndexRecord
350
370
1001
DCO15
1040
1569089886.69
  0
XRECORD
  5
38E
102
{ACAD_REACTORS
330
C
102
}
330
C
100
AcDbXrecord
280
     1
  1
DWGPROPS COOKIE
  2

  3

  4

  6

  7

  8
Yu Hu
  9

300
=
301
=
302
=
303
=
304
=
305
=
306
=
307
=
308
=
309
=
 40
0.1015219560185185
 41
2450358.968342014
 42
2453963.974429282
  1

 90
        0
  0
XRECORD
  5
222
102
{ACAD_REACTORS
330
D3
102
}
330
D3
100
AcDbXrecord
280
     1
340
1E
  0
XRECORD
  5
221
102
{ACAD_REACTORS
330
D5
102
}
330
D5
100
AcDbXrecord
280
     1
340
1A
  0
LAYOUT
  5
1D
102
{ACAD_XDICTIONARY
360
38F
102
}
102
{ACAD_REACTORS
330
19
102
}
330
19
100
AcDbPlotSettings
  1

  2
Fax
  4

  6

 40
0.0
 41
0.0
 42
0.0
 43
0.0
 44
0.0
 45
0.0
 46
0.0
 47
0.0
 48
0.0
 49
0.0
140
0.0
141
0.0
142
1.0
143
1.0
 70
   688
 72
     0
 73
     0
 74
     5
  7
Default R14 pen assignments.ctb
 75
    16
147
1.0
148
0.0
149
0.0
100
AcDbLayout
  1
Layout1
 70
     1
 71
     1
 10
-21.61579290080726
 20
-19.96805058542324
 11
-9.61579290080726
 21
-10.96805058542324
 12
0.0
 22
0.0
 32
0.0
 14
1.000000000000000E+20
 24
1.000000000000000E+20
 34
1.000000000000000E+20
 15
-1.000000000000000E+20
 25
-1.000000000000000E+20
 35
-1.000000000000000E+20
146
0.0
 13
0.0
 23
0.0
 33
0.0
 16
1.0
 26
0.0
 36
0.0
 17
0.0
 27
1.0
 37
0.0
 76
     0
330
1A
  0
LAYOUT
  5
21
102
{ACAD_XDICTIONARY
360
391
102
}
102
{ACAD_REACTORS
330
19
102
}
330
19
100
AcDbPlotSettings
  1

  2
Fax
  4

  6

 40
0.0
 41
0.0
 42
0.0
 43
0.0
 44
0.0
 45
0.0
 46
0.0
 47
0.0
 48
0.0
 49
0.0
140
0.0
141
0.0
142
1.0
143
1.0
 70
  1712
 72
     0
 73
     0
 74
     0
  7
Default R14 pen assignments.ctb
 75
     0
147
1.0
148
0.0
149
0.0
100
AcDbLayout
  1
Model
 70
     1
 71
     0
 10
0.0
 20
0.0
 11
12.0
 21
9.0
 12
0.0
 22
0.0
 32
0.0
 14
0.0
 24
0.0
 34
0.0
 15
0.0
 25
0.0
 35
0.0
146
0.0
 13
0.0
 23
0.0
 33
0.0
 16
1.0
 26
0.0
 36
0.0
 17
0.0
 27
1.0
 37
0.0
 76
     0
330
1E
331
1EF
  0
MATERIAL
  5
228
102
{ACAD_XDICTIONARY
360
395
102
}
102
{ACAD_REACTORS
330
226
102
}
330
226
100
AcDbMaterial
  1
ByBlock
  0
MATERIAL
  5
227
102
{ACAD_XDICTIONARY
360
393
102
}
102
{ACAD_REACTORS
330
226
102
}
330
226
100
AcDbMaterial
  1
ByLayer
  0
MATERIAL
  5
229
102
{ACAD_XDICTIONARY
360
397
102
}
102
{ACAD_REACTORS
330
226
102
}
330
226
100
AcDbMaterial
  1
Global
  0
MLINESTYLE
  5
17
102
{ACAD_REACTORS
330
16
102
}
330
16
100
AcDbMlineStyle
  2
STANDARD
 70
     0
  3

 62
   256
 51
90.0
 52
90.0
 71
     2
 49
0.5
 62
   256
  6
BYLAYER
 49
-0.5
 62
   256
  6
BYLAYER
  0
ACDBPLACEHOLDER
  5
F
102
{ACAD_REACTORS
330
E
102
}
330
E
  0
TABLESTYLE
  5
23D
102
{ACAD_XDICTIONARY
360
399
102
}
102
{ACAD_REACTORS
330
23C
102
}
330
23C
100
AcDbTableStyle
  3
Standard
 70
     0
 71
     0
 40
0.06
 41
0.06
280
     0
281
     0
  7
STANDARD
140
0.18
170
     2
 62
     0
 63
     7
283
     0
274
    -2
284
     1
 64
     0
275
    -2
285
     1
 65
     0
276
    -2
286
     1
 66
     0
277
    -2
287
     1
 67
     0
278
    -2
288
     1
 68
     0
279
    -2
289
     1
 69
     0
  7
STANDARD
140
0.25
170
     5
 62
     0
 63
     7
283
     0
274
    -2
284
     1
 64
     0
275
    -2
285
     1
 65
     0
276
    -2
286
     1
 66
     0
277
    -2
287
     1
 67
     0
278
    -2
288
     1
 68
     0
279
    -2
289
     1
 69
     0
  7
STANDARD
140
0.18
170
     5
 62
     0
 63
     7
283
     0
274
    -2
284
     1
 64
     0
275
    -2
285
     1
 65
     0
276
    -2
286
     1
 66
     0
277
    -2
287
     1
 67
     0
278
    -2
288
     1
 68
     0
279
    -2
289
     1
 69
     0
  0
VISUALSTYLE
  5
230
102
{ACAD_REACTORS
330
22A
102
}
330
22A
100
AcDbVisualStyle
  2
2dWireframe
 70
     4
 71
     0
 72
     2
 73
     0
 90
        0
 40
-0.6
 41
-30.0
 62
     5
 63
     7
 74
     1
 91
        4
 64
     7
 65
   257
 75
     1
175
     1
 42
1.0
 92
        0
 66
   257
 43
1.0
 76
     1
 77
     6
 78
     2
 67
     7
 79
     5
170
     0
171
     0
290
     0
174
     0
 93
        1
 44
0.0
173
     0
291
     0
 45
0.0
1001
ACAD
1000
AcDbSavedByObjectVersion
1070
     0
  0
VISUALSTYLE
  5
232
102
{ACAD_REACTORS
330
22A
102
}
330
22A
100
AcDbVisualStyle
  2
3D Hidden
 70
     6
 71
     1
 72
     2
 73
     2
 90
        0
 40
-0.6
 41
-30.0
 62
     5
 63
     7
 74
     2
 91
        2
 64
     7
 65
   257
 75
     2
175
     1
 42
40.0
 92
        0
 66
   257
 43
1.0
 76
     1
 77
     6
 78
     2
 67
     7
 79
     3
170
     0
171
     0
290
     0
174
     0
 93
        1
 44
0.0
173
     0
291
     0
 45
0.0
1001
ACAD
1000
AcDbSavedByObjectVersion
1070
     0
  0
VISUALSTYLE
  5
231
102
{ACAD_REACTORS
330
22A
102
}
330
22A
100
AcDbVisualStyle
  2
3dWireframe
 70
     5
 71
     0
 72
     2
 73
     0
 90
        0
 40
-0.6
 41
-30.0
 62
     5
 63
     7
 74
     1
 91
        4
 64
     7
 65
   257
 75
     1
175
     1
 42
1.0
 92
        0
 66
   257
 43
1.0
 76
     1
 77
     6
 78
     2
 67
     7
 79
     5
170
     0
171
     0
290
     0
174
     0
 93
        1
 44
0.0
173
     0
291
     0
 45
0.0
1001
ACAD
1000
AcDbSavedByObjectVersion
1070
     0
  0
VISUALSTYLE
  5
22F
102
{ACAD_REACTORS
330
22A
102
}
330
22A
100
AcDbVisualStyle
  2
Basic
 70
     7
 71
     1
 72
     0
 73
     1
 90
        0
 40
-0.6
 41
-30.0
 62
     5
 63
     7
 74
     0
 91
        4
 64
     7
 65
   257
 75
     1
175
     1
 42
1.0
 92
        8
 66
     7
 43
1.0
 76
     1
 77
     6
 78
     2
 67
     7
 79
     5
170
     0
171
     0
290
     0
174
     0
 93
        1
 44
0.0
173
     0
291
     1
 45
0.0
1001
ACAD
1000
AcDbSavedByObjectVersion
1070
     0
  0
VISUALSTYLE
  5
236
102
{ACAD_REACTORS
330
22A
102
}
330
22A
100
AcDbVisualStyle
  2
Brighten
 70
    12
 71
     2
 72
     2
 73
     0
 90
        0
 40
-0.6
 41
-30.0
 62
     5
 63
     7
 74
     1
 91
        4
 64
     7
 65
   257
 75
     1
175
     1
 42
1.0
 92
        8
 66
     7
 43
1.0
 76
     1
 77
     6
 78
     2
 67
     7
 79
     5
170
     0
171
     0
290
     0
174
     0
 93
        1
 44
50.0
173
     0
291
     1
 45
0.0
1001
ACAD
1000
AcDbSavedByObjectVersion
1070
     0
  0
VISUALSTYLE
  5
23A
102
{ACAD_REACTORS
330
22A
102
}
330
22A
100
AcDbVisualStyle
  2
ColorChange
 70
    16
 71
     2
 72
     2
 73
     3
 90
        0
 40
-0.6
 41
-30.0
 62
     5
 63
     8
 74
     1
 91
        4
 64
     7
 65
   257
 75
     1
175
     1
 42
1.0
 92
        8
 66
     8
 43
1.0
 76
     1
 77
     6
 78
     2
 67
     7
 79
     5
170
     0
171
     0
290
     0
174
     0
 93
        1
 44
0.0
173
     0
291
     1
 45
0.0
1001
ACAD
1000
AcDbSavedByObjectVersion
1070
     0
  0
VISUALSTYLE
  5
233
102
{ACAD_REACTORS
330
22A
102
}
330
22A
100
AcDbVisualStyle
  2
Conceptual
 70
     9
 71
     3
 72
     2
 73
     0
 90
        0
 40
-0.6
 41
-30.0
 62
     5
 63
     7
 74
     2
 91
        2
 64
     7
 65
   257
 75
     1
175
     1
 42
40.0
 92
        8
 66
     7
 43
1.0
 76
     1
 77
     6
 78
     2
 67
     7
 79
     3
170
     0
171
     0
290
     0
174
     0
 93
        1
 44
0.0
173
     0
291
     0
 45
0.0
1001
ACAD
1000
AcDbSavedByObjectVersion
1070
     0
  0
VISUALSTYLE
  5
235
102
{ACAD_REACTORS
330
22A
102
}
330
22A
100
AcDbVisualStyle
  2
Dim
 70
    11
 71
     2
 72
     2
 73
     0
 90
        0
 40
-0.6
 41
-30.0
 62
     5
 63
     7
 74
     1
 91
        4
 64
     7
 65
   257
 75
     1
175
     1
 42
1.0
 92
        8
 66
     7
 43
1.0
 76
     1
 77
     6
 78
     2
 67
     7
 79
     5
170
     0
171
     0
290
     0
174
     0
 93
        1
 44
-50.0
173
     0
291
     1
 45
0.0
1001
ACAD
1000
AcDbSavedByObjectVersion
1070
     0
  0
VISUALSTYLE
  5
239
102
{ACAD_REACTORS
330
22A
102
}
330
22A
100
AcDbVisualStyle
  2
Facepattern
 70
    15
 71
     2
 72
     2
 73
     0
 90
        0
 40
-0.6
 41
-30.0
 62
     5
 63
     7
 74
     1
 91
        4
 64
     7
 65
   257
 75
     1
175
     1
 42
1.0
 92
        8
 66
     7
 43
1.0
 76
     1
 77
     6
 78
     2
 67
     7
 79
     5
170
     0
171
     0
290
     0
174
     0
 93
        1
 44
0.0
173
     0
291
     1
 45
0.0
1001
ACAD
1000
AcDbSavedByObjectVersion
1070
     0
  0
VISUALSTYLE
  5
22B
102
{ACAD_REACTORS
330
22A
102
}
330
22A
100
AcDbVisualStyle
  2
Flat
 70
     0
 71
     2
 72
     1
 73
     1
 90
        2
 40
-0.6
 41
30.0
 62
     5
 63
     7
 74
     0
 91
        4
 64
     7
 65
   257
 75
     1
175
     1
 42
1.0
 92
        8
 66
     7
 43
1.0
 76
     1
 77
     6
 78
     2
 67
     7
 79
     5
170
     0
171
     0
290
     0
174
     0
 93
       13
 44
0.0
173
     0
291
     1
 45
0.0
1001
ACAD
1000
AcDbSavedByObjectVersion
1070
     0
  0
VISUALSTYLE
  5
22C
102
{ACAD_REACTORS
330
22A
102
}
330
22A
100
AcDbVisualStyle
  2
FlatWithEdges
 70
     1
 71
     2
 72
     1
 73
     1
 90
        2
 40
-0.6
 41
30.0
 62
     5
 63
     7
 74
     1
 91
        4
 64
     7
 65
   257
 75
     1
175
     1
 42
1.0
 92
        0
 66
   257
 43
1.0
 76
     1
 77
     6
 78
     2
 67
     7
 79
     5
170
     0
171
     0
290
     0
174
     0
 93
       13
 44
0.0
173
     0
291
     1
 45
0.0
1001
ACAD
1000
AcDbSavedByObjectVersion
1070
     0
  0
VISUALSTYLE
  5
22D
102
{ACAD_REACTORS
330
22A
102
}
330
22A
100
AcDbVisualStyle
  2
Gouraud
 70
     2
 71
     2
 72
     2
 73
     1
 90
        2
 40
-0.6
 41
30.0
 62
     5
 63
     7
 74
     0
 91
        4
 64
     7
 65
   257
 75
     1
175
     1
 42
1.0
 92
        0
 66
     7
 43
1.0
 76
     1
 77
     6
 78
     2
 67
     7
 79
     5
170
     0
171
     0
290
     0
174
     0
 93
       13
 44
0.0
173
     0
291
     1
 45
0.0
1001
ACAD
1000
AcDbSavedByObjectVersion
1070
     0
  0
VISUALSTYLE
  5
22E
102
{ACAD_REACTORS
330
22A
102
}
330
22A
100
AcDbVisualStyle
  2
GouraudWithEdges
 70
     3
 71
     2
 72
     2
 73
     1
 90
        2
 40
-0.6
 41
30.0
 62
     5
 63
     7
 74
     1
 91
        4
 64
     7
 65
   257
 75
     1
175
     1
 42
1.0
 92
        0
 66
   257
 43
1.0
 76
     1
 77
     6
 78
     2
 67
     7
 79
     5
170
     0
171
     0
290
     0
174
     0
 93
       13
 44
0.0
173
     0
291
     1
 45
0.0
1001
ACAD
1000
AcDbSavedByObjectVersion
1070
     0
  0
VISUALSTYLE
  5
238
102
{ACAD_REACTORS
330
22A
102
}
330
22A
100
AcDbVisualStyle
  2
Linepattern
 70
    14
 71
     2
 72
     2
 73
     0
 90
        0
 40
-0.6
 41
-30.0
 62
     5
 63
     7
 74
     1
 91
        4
 64
     7
 65
   257
 75
     7
175
     7
 42
1.0
 92
        8
 66
     7
 43
1.0
 76
     1
 77
     6
 78
     2
 67
     7
 79
     5
170
     0
171
     0
290
     0
174
     0
 93
        1
 44
0.0
173
     0
291
     1
 45
0.0
1001
ACAD
1000
AcDbSavedByObjectVersion
1070
     0
  0
VISUALSTYLE
  5
234
102
{ACAD_REACTORS
330
22A
102
}
330
22A
100
AcDbVisualStyle
  2
Realistic
 70
     8
 71
     2
 72
     2
 73
     0
 90
        0
 40
-0.6
 41
-30.0
 62
     5
 63
     7
 74
     1
 91
        0
 64
     7
 65
   257
 75
     1
175
     1
 42
1.0
 92
        8
 66
     8
 43
1.0
 76
     1
 77
     6
 78
     2
 67
     7
 79
     5
170
     0
171
     0
290
     0
174
     0
 93
       13
 44
0.0
173
     0
291
     0
 45
0.0
1001
ACAD
1000
AcDbSavedByObjectVersion
1070
     0
  0
VISUALSTYLE
  5
237
102
{ACAD_REACTORS
330
22A
102
}
330
22A
100
AcDbVisualStyle
  2
Thicken
 70
    13
 71
     2
 72
     2
 73
     0
 90
        0
 40
-0.6
 41
-30.0
 62
     5
 63
     7
 74
     1
 91
        4
 64
     7
 65
   257
 75
     1
175
     1
 42
1.0
 92
       12
 66
     7
 43
1.0
 76
     1
 77
     6
 78
     2
 67
     7
 79
     5
170
     0
171
     0
290
     0
174
     0
 93
        1
 44
0.0
173
     0
291
     1
 45
0.0
1001
ACAD
1000
AcDbSavedByObjectVersion
1070
     0
  0
DICTIONARYVAR
  5
38B
102
{ACAD_REACTORS
330
108
102
}
330
108
100
DictionaryVariables
280
     0
  1
STANDARD
  0
DICTIONARYVAR
  5
10A
102
{ACAD_REACTORS
330
108
102
}
330
108
100
DictionaryVariables
280
     0
  1
2
  0
DICTIONARYVAR
  5
109
102
{ACAD_REACTORS
330
108
102
}
330
108
100
DictionaryVariables
280
     0
  1
1
  0
DICTIONARYVAR
  5
38D
102
{ACAD_REACTORS
330
108
102
}
330
108
100
DictionaryVariables
280
     0
  1
0
  0
DICTIONARYVAR
  5
38C
102
{ACAD_REACTORS
330
108
102
}
330
108
100
DictionaryVariables
280
     0
  1
127
  0
XRECORD
  5
370
102
{ACAD_REACTORS
330
36F
102
}
330
36F
100
AcDbXrecord
280
     1
  0
DICTIONARY
  5
38F
330
1D
100
AcDbDictionary
280
     1
281
     1
  3
ACAD_XREC_ROUNDTRIP
360
390
  0
DICTIONARY
  5
391
330
21
100
AcDbDictionary
280
     1
281
     1
  3
ACAD_XREC_ROUNDTRIP
360
392
  0
DICTIONARY
  5
395
330
228
100
AcDbDictionary
280
     1
281
     1
  3
ACAD_XREC_ROUNDTRIP
360
396
  0
DICTIONARY
  5
393
330
227
100
AcDbDictionary
280
     1
281
     1
  3
ACAD_XREC_ROUNDTRIP
360
394
  0
DICTIONARY
  5
397
330
229
100
AcDbDictionary
280
     1
281
     1
  3
ACAD_XREC_ROUNDTRIP
360
398
  0
DICTIONARY
  5
399
330
23D
100
AcDbDictionary
280
     1
281
     1
  3
ACAD_XREC_ROUNDTRIP
360
39A
  0
XRECORD
  5
390
102
{ACAD_REACTORS
330
38F
102
}
330
38F
100
AcDbXrecord
280
     1
102
SHADEPLOT
 70
     0
102
SHADEPLOTRESLEVEL
 70
     2
102
SHADEPLOTCUSTOMDPI
 70
   300
  0
XRECORD
  5
392
102
{ACAD_REACTORS
330
391
102
}
330
391
100
AcDbXrecord
280
     1
102
SHADEPLOT
 70
     0
102
SHADEPLOTRESLEVEL
 70
     2
102
SHADEPLOTCUSTOMDPI
 70
   300
  0
XRECORD
  5
396
102
{ACAD_REACTORS
330
395
102
}
330
395
100
AcDbXrecord
280
     1
102
MATERIAL
148
0.0
149
0.0
149
0.0
 93
        0
 94
       63
282
     0
 72
     1
 77
     1
171
     1
175
     1
179
     1
273
     0
  0
XRECORD
  5
394
102
{ACAD_REACTORS
330
393
102
}
330
393
100
AcDbXrecord
280
     1
102
MATERIAL
148
0.0
149
0.0
149
0.0
 93
        0
 94
       63
282
     0
 72
     1
 77
     1
171
     1
175
     1
179
     1
273
     0
  0
XRECORD
  5
398
102
{ACAD_REACTORS
330
397
102
}
330
397
100
AcDbXrecord
280
     1
102
MATERIAL
148
0.0
149
0.0
149
0.0
 93
        0
 94
       63
282
     0
 72
     1
 77
     1
171
     1
175
     1
179
     1
273
     0
  0
XRECORD
  5
39A
102
{ACAD_REACTORS
330
399
102
}
330
399
100
AcDbXrecord
280
     1
102
ACAD_ROUNDTRIP_PRE2007_TABLESTYLE
 90
      512
 91
        0
  1

 92
      512
 93
        0
  2

 94
      512
 95
        0
  3

  0
ENDSEC
  0
EOF
