  0
SECTION
  2
HEADER
  9
$ACADVER
  1
AC1014
  9
$ACADMAINTVER
 70
     9
  9
$DWGCODEPAGE
  3
ANSI_1252
  9
$INSBASE
 10
20.77849259393551
 20
14.48000002045182
 30
0.0
  9
$EXTMIN
 10
17.39616385975508
 20
13.00669571784198
 30
0.0
  9
$EXTMAX
 10
30.26557893478919
 20
16.52396751739415
 30
0.0
  9
$LIMMIN
 10
0.0
 20
0.0
  9
$LIMMAX
 10
36.0
 20
36.0
  9
$ORTHOMODE
 70
     1
  9
$REGENMODE
 70
     1
  9
$FILLMODE
 70
     1
  9
$QTEXTMODE
 70
     0
  9
$MIRRTEXT
 70
     1
  9
$DRAGMODE
 70
     0
  9
$LTSCALE
 40
1.0
  9
$OSMODE
 70
    37
  9
$ATTMODE
 70
     1
  9
$TEXTSIZE
 40
0.2
  9
$TRACEWID
 40
0.05
  9
$TEXTSTYLE
  7
STANDARD
  9
$CLAYER
  8
0
  9
$CELTYPE
  6
BYLAYER
  9
$CECOLOR
 62
   256
  9
$CELTSCALE
 40
1.0
  9
$DELOBJ
 70
     1
  9
$DISPSILH
 70
     0
  9
$DIMSCALE
 40
1.0
  9
$DIMASZ
 40
0.125
  9
$DIMEXO
 40
0.0625
  9
$DIMDLI
 40
0.38
  9
$DIMRND
 40
0.0
  9
$DIMDLE
 40
0.0
  9
$DIMEXE
 40
0.18
  9
$DIMTP
 40
0.0
  9
$DIMTM
 40
0.0
  9
$DIMTXT
 40
0.125
  9
$DIMCEN
 40
0.1875
  9
$DIMTSZ
 40
0.125
  9
$DIMTOL
 70
     0
  9
$DIMLIM
 70
     0
  9
$DIMTIH
 70
     0
  9
$DIMTOH
 70
     0
  9
$DIMSE1
 70
     0
  9
$DIMSE2
 70
     0
  9
$DIMTAD
 70
     0
  9
$DIMZIN
 70
     2
  9
$DIMBLK
  1

  9
$DIMASO
 70
     1
  9
$DIMSHO
 70
     1
  9
$DIMPOST
  1

  9
$DIMAPOST
  1

  9
$DIMALT
 70
     0
  9
$DIMALTD
 70
     1
  9
$DIMALTF
 40
25.4
  9
$DIMLFAC
 40
1.0
  9
$DIMTOFL
 70
     0
  9
$DIMTVP
 40
0.0
  9
$DIMTIX
 70
     0
  9
$DIMSOXD
 70
     0
  9
$DIMSAH
 70
     0
  9
$DIMBLK1
  1

  9
$DIMBLK2
  1

  9
$DIMSTYLE
  2
STANDARD
  9
$DIMCLRD
 70
     0
  9
$DIMCLRE
 70
     0
  9
$DIMCLRT
 70
     0
  9
$DIMTFAC
 40
1.0
  9
$DIMGAP
 40
0.125
  9
$DIMJUST
 70
     0
  9
$DIMSD1
 70
     0
  9
$DIMSD2
 70
     0
  9
$DIMTOLJ
 70
     1
  9
$DIMTZIN
 70
     0
  9
$DIMALTZ
 70
     0
  9
$DIMALTTZ
 70
     0
  9
$DIMFIT
 70
     3
  9
$DIMUPT
 70
     0
  9
$DIMUNIT
 70
     7
  9
$DIMDEC
 70
     4
  9
$DIMTDEC
 70
     4
  9
$DIMALTU
 70
     2
  9
$DIMALTTD
 70
     2
  9
$DIMTXSTY
  7
STANDARD
  9
$DIMAUNIT
 70
     0
  9
$LUNITS
 70
     5
  9
$LUPREC
 70
     4
  9
$SKETCHINC
 40
0.1
  9
$FILLETRAD
 40
0.062
  9
$AUNITS
 70
     0
  9
$AUPREC
 70
     0
  9
$MENU
  1
acad
  9
$ELEVATION
 40
0.0
  9
$PELEVATION
 40
0.0
  9
$THICKNESS
 40
0.0
  9
$LIMCHECK
 70
     0
  9
$BLIPMODE
 70
     0
  9
$CHAMFERA
 40
0.0
  9
$CHAMFERB
 40
0.0
  9
$CHAMFERC
 40
0.0
  9
$CHAMFERD
 40
0.0
  9
$SKPOLY
 70
     0
  9
$TDCREATE
 40
2450386.504063460
  9
$TDUPDATE
 40
2452297.070698414
  9
$TDINDWG
 40
0.0346689931
  9
$TDUSRTIMER
 40
0.0346689931
  9
$USRTIMER
 70
     1
  9
$ANGBASE
 50
0.0
  9
$ANGDIR
 70
     0
  9
$PDMODE
 70
     0
  9
$PDSIZE
 40
0.0
  9
$PLINEWID
 40
0.0
  9
$COORDS
 70
     2
  9
$SPLFRAME
 70
     0
  9
$SPLINETYPE
 70
     6
  9
$SPLINESEGS
 70
     8
  9
$ATTDIA
 70
     0
  9
$ATTREQ
 70
     1
  9
$HANDLING
 70
 22529
  9
$HANDSEED
  5
392
  9
$SURFTAB1
 70
     6
  9
$SURFTAB2
 70
     6
  9
$SURFTYPE
 70
     6
  9
$SURFU
 70
     6
  9
$SURFV
 70
     6
  9
$UCSNAME
  2

  9
$UCSORG
 10
0.0
 20
0.0
 30
0.0
  9
$UCSXDIR
 10
1.0
 20
0.0
 30
0.0
  9
$UCSYDIR
 10
0.0
 20
1.0
 30
0.0
  9
$PUCSNAME
  2

  9
$PUCSORG
 10
0.0
 20
0.0
 30
0.0
  9
$PUCSXDIR
 10
1.0
 20
0.0
 30
0.0
  9
$PUCSYDIR
 10
0.0
 20
1.0
 30
0.0
  9
$USERI1
 70
     0
  9
$USERI2
 70
     0
  9
$USERI3
 70
     0
  9
$USERI4
 70
     0
  9
$USERI5
 70
     0
  9
$USERR1
 40
0.0
  9
$USERR2
 40
0.0
  9
$USERR3
 40
0.0
  9
$USERR4
 40
0.0
  9
$USERR5
 40
0.0
  9
$WORLDVIEW
 70
     1
  9
$SHADEDGE
 70
     3
  9
$SHADEDIF
 70
    70
  9
$TILEMODE
 70
     1
  9
$MAXACTVP
 70
    15
  9
$PINSBASE
 10
4.403525741743744E+99
 20
7.061986388769092E+99
 30
0.0
  9
$PLIMCHECK
 70
     0
  9
$PEXTMIN
 10
1.000000000000000E+20
 20
1.000000000000000E+20
 30
1.000000000000000E+20
  9
$PEXTMAX
 10
-1.000000000000000E+20
 20
-1.000000000000000E+20
 30
-1.000000000000000E+20
  9
$PLIMMIN
 10
0.0
 20
0.0
  9
$PLIMMAX
 10
12.0
 20
9.0
  9
$UNITMODE
 70
     0
  9
$VISRETAIN
 70
     0
  9
$PLINEGEN
 70
     0
  9
$PSLTSCALE
 70
     1
  9
$TREEDEPTH
 70
  3020
  9
$PICKSTYLE
 70
     1
  9
$CMLSTYLE
  2
STANDARD
  9
$CMLJUST
 70
     0
  9
$CMLSCALE
 40
1.0
  9
$PROXYGRAPHICS
 70
     1
  9
$MEASUREMENT
 70
     0
  0
ENDSEC
  0
SECTION
  2
CLASSES
  0
CLASS
  1
ACDBDICTIONARYWDFLT
  2
AcDbDictionaryWithDefault
  3
AutoCAD 2000
 90
        0
280
     0
281
     0
  0
CLASS
  1
ACDBPLACEHOLDER
  2
AcDbPlaceHolder
  3
AutoCAD 2000
 90
        0
280
     0
281
     0
  0
CLASS
  1
LAYOUT
  2
AcDbLayout
  3
AutoCAD 2000
 90
        0
280
     0
281
     0
  0
CLASS
  1
DICTIONARYVAR
  2
AcDbDictionaryVar
  3
AutoCAD 2000
 90
        0
280
     0
281
     0
  0
CLASS
  1
LONG_TRANSACTION
  2
AcDbLongTransaction
  3
AutoCAD 2000
 90
        0
280
     0
281
     0
  0
CLASS
  1
LWPOLYLINE
  2
AcDbPolyline
  3
AutoCAD 2000
 90
        0
280
     0
281
     1
  0
CLASS
  1
HATCH
  2
AcDbHatch
  3
AutoCAD 2000
 90
        0
280
     0
281
     1
  0
CLASS
  1
XRECORD
  2
AcDbXrecord
  3
AutoCAD 2000
 90
        0
280
     0
281
     0
  0
CLASS
  1
LONG_TRANSACTION
  2
AcDbLongTransaction
  3
AutoCAD 2000
 90
        0
280
     0
281
     0
  0
CLASS
  1
LWPOLYLINE
  2
AcDbPolyline
  3
AutoCAD 2000
 90
        0
280
     0
281
     1
  0
CLASS
  1
HATCH
  2
AcDbHatch
  3
AutoCAD 2000
 90
        0
280
     0
281
     1
  0
CLASS
  1
XRECORD
  2
AcDbXrecord
  3
AutoCAD 2000
 90
        0
280
     0
281
     0
  0
CLASS
  1
LONG_TRANSACTION
  2
AcDbLongTransaction
  3
AutoCAD 2000
 90
        0
280
     0
281
     0
  0
CLASS
  1
LWPOLYLINE
  2
AcDbPolyline
  3
AutoCAD 2000
 90
        0
280
     0
281
     1
  0
CLASS
  1
HATCH
  2
AcDbHatch
  3
AutoCAD 2000
 90
        0
280
     0
281
     1
  0
CLASS
  1
XRECORD
  2
AcDbXrecord
  3
AutoCAD 2000
 90
        0
280
     0
281
     0
  0
CLASS
  1
LONG_TRANSACTION
  2
AcDbLongTransaction
  3
AutoCAD 2000
 90
        0
280
     0
281
     0
  0
CLASS
  1
LWPOLYLINE
  2
AcDbPolyline
  3
AutoCAD 2000
 90
        0
280
     0
281
     1
  0
CLASS
  1
HATCH
  2
AcDbHatch
  3
AutoCAD 2000
 90
        0
280
     0
281
     1
  0
CLASS
  1
XRECORD
  2
AcDbXrecord
  3
AutoCAD 2000
 90
        0
280
     0
281
     0
  0
CLASS
  1
LONG_TRANSACTION
  2
AcDbLongTransaction
  3
AutoCAD 2000
 90
        0
280
     0
281
     0
  0
CLASS
  1
LWPOLYLINE
  2
AcDbPolyline
  3
AutoCAD 2000
 90
        0
280
     0
281
     1
  0
CLASS
  1
HATCH
  2
AcDbHatch
  3
AutoCAD 2000
 90
        0
280
     0
281
     1
  0
CLASS
  1
XRECORD
  2
AcDbXrecord
  3
AutoCAD 2000
 90
        0
280
     0
281
     0
  0
ENDSEC
  0
SECTION
  2
TABLES
  0
TABLE
  2
VPORT
  5
12
330
0
100
AcDbSymbolTable
 70
     2
  0
VPORT
  5
346
330
12
100
AcDbSymbolTableRecord
100
AcDbViewportTableRecord
  2
*ACTIVE
 70
     0
 10
0.0
 20
0.0
 11
1.0
 21
1.0
 12
23.83099374295095
 22
14.76452644723994
 13
0.0
 23
0.0
 14
0.5740882589684922
 24
0.5740882589684922
 15
0.5
 25
0.5
 16
0.0
 26
0.0
 36
1.0
 17
0.0
 27
0.0
 37
0.0
 40
8.234380065871835
 41
1.570528967254408
 42
50.0
 43
0.0
 44
0.0
 50
0.0
 51
0.0
 71
     0
 72
   100
 73
     1
 74
     0
 75
     0
 76
     0
 77
     0
 78
     1
  0
ENDTAB
  0
TABLE
  2
LTYPE
  5
E
330
0
100
AcDbSymbolTable
 70
     2
  0
LTYPE
  5
F
330
E
100
AcDbSymbolTableRecord
100
AcDbLinetypeTableRecord
  2
BYBLOCK
 70
     0
  3

 72
    65
 73
     0
 40
0.0
  0
LTYPE
  5
6
330
E
100
AcDbSymbolTableRecord
100
AcDbLinetypeTableRecord
  2
BYLAYER
 70
     0
  3

 72
    65
 73
     0
 40
0.0
  0
LTYPE
  5
5
330
E
100
AcDbSymbolTableRecord
100
AcDbLinetypeTableRecord
  2
CONTINUOUS
 70
     0
  3
Solid line
 72
    65
 73
     0
 40
0.0
  0
LTYPE
  5
93
330
E
100
AcDbSymbolTableRecord
100
AcDbLinetypeTableRecord
  2
HIDDEN2
 70
     0
  3
_ _ _ _ _ _ _ _ _ _ _ _ _ _ _ _ _ _ _ _ _ _ _ _
 72
    65
 73
     2
 40
0.1875
 49
0.125
 74
     0
 49
-0.0625
 74
     0
  0
ENDTAB
  0
TABLE
  2
LAYER
  5
B
330
0
100
AcDbSymbolTable
 70
     5
  0
LAYER
  5
4
330
B
100
AcDbSymbolTableRecord
100
AcDbLayerTableRecord
  2
0
 70
     0
 62
     7
  6
CONTINUOUS
  0
LAYER
  5
1E
330
B
100
AcDbSymbolTableRecord
100
AcDbLayerTableRecord
  2
ADP1DETAIL
 70
     0
 62
     7
  6
CONTINUOUS
  0
LAYER
  5
2A
330
B
100
AcDbSymbolTableRecord
100
AcDbLayerTableRecord
  2
DEFPOINTS
 70
     0
 62
     7
  6
CONTINUOUS
  0
LAYER
  5
20
330
B
100
AcDbSymbolTableRecord
100
AcDbLayerTableRecord
  2
ADPDIM
 70
     0
 62
     3
  6
CONTINUOUS
  0
LAYER
  5
92
330
B
100
AcDbSymbolTableRecord
100
AcDbLayerTableRecord
  2
ADP2DETAIL
 70
     0
 62
     5
  6
CONTINUOUS
  0
ENDTAB
  0
TABLE
  2
STYLE
  5
C
330
0
100
AcDbSymbolTable
 70
     2
  0
STYLE
  5
D
330
C
100
AcDbSymbolTableRecord
100
AcDbTextStyleTableRecord
  2
STANDARD
 70
     0
 40
0.0
 41
1.0
 50
0.0
 71
     0
 42
0.2
  3
txt
  4

  0
STYLE
  5
CB
330
C
100
AcDbSymbolTableRecord
100
AcDbTextStyleTableRecord
  2
ARIAL_WIDE
 70
     0
 40
0.0
 41
1.25
 50
0.0
 71
     0
 42
0.2
  3
ARIAL.TTF
  4

1001
ACAD
1000
Arial
1071
       34
  0
ENDTAB
  0
TABLE
  2
VIEW
  5
10
330
0
100
AcDbSymbolTable
 70
     0
  0
ENDTAB
  0
TABLE
  2
UCS
  5
11
330
0
100
AcDbSymbolTable
 70
     0
  0
ENDTAB
  0
TABLE
  2
APPID
  5
14
330
0
100
AcDbSymbolTable
 70
     1
  0
APPID
  5
15
330
14
100
AcDbSymbolTableRecord
100
AcDbRegAppTableRecord
  2
ACAD
 70
     0
  0
ENDTAB
  0
TABLE
  2
DIMSTYLE
  5
16
330
0
100
AcDbSymbolTable
 70
     1
  0
DIMSTYLE
105
1C
102
{ACAD_REACTORS
330
1F
330
32
330
94
330
B0
102
}
330
16
100
AcDbSymbolTableRecord
100
AcDbDimStyleTableRecord
  2
STANDARD
 70
     0
  3

  4

  5

  6

  7

 40
1.0
 41
0.18
 42
0.0625
 43
0.38
 44
0.18
 45
0.0
 46
0.0
 47
0.0
 48
0.0
140
0.18
141
0.09
142
0.0
143
25.4
144
1.0
145
0.0
146
1.0
147
0.09
 71
     0
 72
     0
 73
     1
 74
     1
 75
     0
 76
     0
 77
     0
 78
     0
170
     0
171
     2
172
     0
173
     0
174
     0
175
     0
176
     0
177
     0
178
     0
270
     2
271
     4
272
     4
273
     2
274
     2
340
D
275
     0
280
     0
281
     0
282
     0
283
     1
284
     0
285
     0
286
     0
287
     3
288
     0
  0
ENDTAB
  0
TABLE
  2
BLOCK_RECORD
  5
1
330
0
100
AcDbSymbolTable
 70
     5
  0
BLOCK_RECORD
  5
2
102
{ACAD_XDICTIONARY
360
154
102
}
330
1
100
AcDbSymbolTableRecord
100
AcDbBlockTableRecord
  2
*MODEL_SPACE
  0
BLOCK_RECORD
  5
8
102
{ACAD_XDICTIONARY
360
156
102
}
330
1
100
AcDbSymbolTableRecord
100
AcDbBlockTableRecord
  2
*PAPER_SPACE
  0
BLOCK_RECORD
  5
45
330
1
100
AcDbSymbolTableRecord
100
AcDbBlockTableRecord
  2
STUD
  0
BLOCK_RECORD
  5
158
330
1
100
AcDbSymbolTableRecord
100
AcDbBlockTableRecord
  2
*D1
  0
BLOCK_RECORD
  5
167
330
1
100
AcDbSymbolTableRecord
100
AcDbBlockTableRecord
  2
*D2
  0
BLOCK_RECORD
  5
174
330
1
100
AcDbSymbolTableRecord
100
AcDbBlockTableRecord
  2
*D3
  0
BLOCK_RECORD
  5
181
330
1
100
AcDbSymbolTableRecord
100
AcDbBlockTableRecord
  2
*D4
  0
ENDTAB
  0
ENDSEC
  0
SECTION
  2
BLOCKS
  0
BLOCK
  5
3
330
2
100
AcDbEntity
  8
0
100
AcDbBlockBegin
  2
*MODEL_SPACE
 70
     0
 10
0.0
 20
0.0
 30
0.0
  3
*MODEL_SPACE
  1

  0
ENDBLK
  5
7
330
2
100
AcDbEntity
  8
0
100
AcDbBlockEnd
  0
BLOCK
  5
9
330
8
100
AcDbEntity
 67
     1
  8
0
100
AcDbBlockBegin
  2
*PAPER_SPACE
 70
     0
 10
0.0
 20
0.0
 30
0.0
  3
*PAPER_SPACE
  1

  0
ENDBLK
  5
A
330
8
100
AcDbEntity
 67
     1
  8
0
100
AcDbBlockEnd
  0
BLOCK
  5
79
330
45
100
AcDbEntity
  8
0
100
AcDbBlockBegin
  2
STUD
 70
     0
 10
0.0
 20
0.0
 30
0.0
  3
STUD
  1

  0
LINE
  5
46
330
45
100
AcDbEntity
  8
0
100
AcDbLine
 10
-0.2106546533272015
 20
0.4345838899572075
 30
0.0
 11
-0.2416546533272015
 21
0.4965838899572073
 31
0.0
  0
LINE
  5
47
330
45
100
AcDbEntity
  8
0
100
AcDbLine
 10
-0.2128857855944517
 20
-0.0034161100427927
 30
0.0
 11
-0.2438857855944517
 21
0.0585838899572071
 31
0.0
  0
LINE
  5
48
330
45
100
AcDbEntity
  8
0
100
AcDbLine
 10
-0.6191843435445581
 20
0.4965838899572073
 30
0.0
 11
-0.6191843435445581
 21
0.0575739754449174
 31
0.0
  0
LINE
  5
49
330
45
100
AcDbEntity
  8
0
100
AcDbLine
 10
-0.274160893627193
 20
0.4345838899572075
 30
0.0
 11
-0.2438857855944517
 21
0.0585838899572071
 31
0.0
  0
LINE
  5
4A
330
45
100
AcDbEntity
  8
0
100
AcDbLine
 10
-0.3376671339271846
 20
0.4345838899572075
 30
0.0
 11
-0.3073920258944432
 21
0.0585838899572071
 31
0.0
  0
LINE
  5
4B
330
45
100
AcDbEntity
  8
0
100
AcDbLine
 10
-0.401173374227176
 20
0.4345838899572075
 30
0.0
 11
-0.3708982661944346
 21
0.0585838899572071
 31
0.0
  0
LINE
  5
4C
330
45
100
AcDbEntity
  8
0
100
AcDbLine
 10
-0.4646796613424146
 20
0.4345838899572075
 30
0.0
 11
-0.4344045533096732
 21
0.0585838899572071
 31
0.0
  0
LINE
  5
4D
330
45
100
AcDbEntity
  8
0
100
AcDbLine
 10
-0.5224125985578164
 20
0.4345838899572075
 30
0.0
 11
-0.492137490525075
 21
0.0585838899572071
 31
0.0
  0
LINE
  5
4E
330
45
100
AcDbEntity
  8
0
100
AcDbLine
 10
-0.585918838857808
 20
0.4345838899572075
 30
0.0
 11
-0.5556437308250666
 21
0.0585838899572071
 31
0.0
  0
LINE
  5
4F
330
45
100
AcDbEntity
  8
0
100
AcDbLine
 10
-0.4654045533096733
 20
-0.0034161100427927
 30
0.0
 11
-0.492137490525075
 21
0.0585838899572071
 31
0.0
  0
LINE
  5
50
330
45
100
AcDbEntity
  8
0
100
AcDbLine
 10
-0.6191843435445581
 20
0.0575739754449174
 30
0.0
 11
-0.5866437308250667
 21
-0.0034161100427927
 31
0.0
  0
LINE
  5
51
330
45
100
AcDbEntity
  8
0
100
AcDbLine
 10
-0.5246437308250666
 20
-0.0034161100427927
 30
0.0
 11
-0.5556437308250666
 21
0.0585838899572071
 31
0.0
  0
LINE
  5
52
330
45
100
AcDbEntity
  8
0
100
AcDbLine
 10
-0.5556437308250666
 20
0.0585838899572071
 30
0.0
 11
-0.5866437308250667
 21
-0.0034161100427927
 31
0.0
  0
LINE
  5
53
330
45
100
AcDbEntity
  8
0
100
AcDbLine
 10
-0.492137490525075
 20
0.0585838899572071
 30
0.0
 11
-0.5231374905250751
 21
-0.0034161100427927
 31
0.0
  0
LINE
  5
54
330
45
100
AcDbEntity
  8
0
100
AcDbLine
 10
-0.3398982661944347
 20
-0.0034161100427927
 30
0.0
 11
-0.3708982661944346
 21
0.0585838899572071
 31
0.0
  0
LINE
  5
55
330
45
100
AcDbEntity
  8
0
100
AcDbLine
 10
-0.4034045533096732
 20
-0.0034161100427927
 30
0.0
 11
-0.4344045533096732
 21
0.0585838899572071
 31
0.0
  0
LINE
  5
56
330
45
100
AcDbEntity
  8
0
100
AcDbLine
 10
-0.4344045533096732
 20
0.0585838899572071
 30
0.0
 11
-0.4654045533096733
 21
-0.0034161100427927
 31
0.0
  0
LINE
  5
57
330
45
100
AcDbEntity
  8
0
100
AcDbLine
 10
-0.3708982661944346
 20
0.0585838899572071
 30
0.0
 11
-0.4018982661944348
 21
-0.0034161100427927
 31
0.0
  0
LINE
  5
58
330
45
100
AcDbEntity
  8
0
100
AcDbLine
 10
-0.2763920258944432
 20
-0.0034161100427927
 30
0.0
 11
-0.3073920258944432
 21
0.0585838899572071
 31
0.0
  0
LINE
  5
59
330
45
100
AcDbEntity
  8
0
100
AcDbLine
 10
-0.3073920258944432
 20
0.0585838899572071
 30
0.0
 11
-0.3383920258944432
 21
-0.0034161100427927
 31
0.0
  0
LINE
  5
5A
330
45
100
AcDbEntity
  8
0
100
AcDbLine
 10
-0.2438857855944517
 20
0.0585838899572071
 30
0.0
 11
-0.2748857855944518
 21
-0.0034161100427927
 31
0.0
  0
LINE
  5
5B
330
45
100
AcDbEntity
  8
0
100
AcDbLine
 10
-0.4646796613424146
 20
0.4345838899572075
 30
0.0
 11
-0.4956796613424145
 21
0.4965838899572073
 31
0.0
  0
LINE
  5
5C
330
45
100
AcDbEntity
  8
0
100
AcDbLine
 10
-0.585918838857808
 20
0.4345838899572075
 30
0.0
 11
-0.616918838857808
 21
0.4965838899572073
 31
0.0
  0
LINE
  5
5D
330
45
100
AcDbEntity
  8
0
100
AcDbLine
 10
-0.5224125985578164
 20
0.4345838899572075
 30
0.0
 11
-0.5534125985578165
 21
0.4965838899572073
 31
0.0
  0
LINE
  5
5E
330
45
100
AcDbEntity
  8
0
100
AcDbLine
 10
-0.4956796613424145
 20
0.4965838899572073
 30
0.0
 11
-0.5224125985578164
 21
0.4345838899572075
 31
0.0
  0
LINE
  5
5F
330
45
100
AcDbEntity
  8
0
100
AcDbLine
 10
-0.5549188388578079
 20
0.4965838899572073
 30
0.0
 11
-0.585918838857808
 21
0.4345838899572075
 31
0.0
  0
LINE
  5
60
330
45
100
AcDbEntity
  8
0
100
AcDbLine
 10
-0.3376671339271846
 20
0.4345838899572075
 30
0.0
 11
-0.3686671339271845
 21
0.4965838899572073
 31
0.0
  0
LINE
  5
61
330
45
100
AcDbEntity
  8
0
100
AcDbLine
 10
-0.401173374227176
 20
0.4345838899572075
 30
0.0
 11
-0.432173374227176
 21
0.4965838899572073
 31
0.0
  0
LINE
  5
62
330
45
100
AcDbEntity
  8
0
100
AcDbLine
 10
-0.3701733742271759
 20
0.4965838899572073
 30
0.0
 11
-0.401173374227176
 21
0.4345838899572075
 31
0.0
  0
LINE
  5
63
330
45
100
AcDbEntity
  8
0
100
AcDbLine
 10
-0.4336796613424145
 20
0.4965838899572073
 30
0.0
 11
-0.4646796613424146
 21
0.4345838899572075
 31
0.0
  0
LINE
  5
64
330
45
100
AcDbEntity
  8
0
100
AcDbLine
 10
-0.274160893627193
 20
0.4345838899572075
 30
0.0
 11
-0.305160893627193
 21
0.4965838899572073
 31
0.0
  0
LINE
  5
65
330
45
100
AcDbEntity
  8
0
100
AcDbLine
 10
-0.243160893627193
 20
0.4965838899572073
 30
0.0
 11
-0.274160893627193
 21
0.4345838899572075
 31
0.0
  0
LINE
  5
66
330
45
100
AcDbEntity
  8
0
100
AcDbLine
 10
-0.3066671339271845
 20
0.4965838899572073
 30
0.0
 11
-0.3376671339271846
 21
0.4345838899572075
 31
0.0
  0
LINE
  5
67
330
45
100
AcDbEntity
  8
0
100
AcDbLine
 10
-0.0251843435445581
 20
0.4345838899572075
 30
0.0
 11
0.0050907644881833
 21
0.0585838899572071
 31
0.0
  0
LINE
  5
68
330
45
100
AcDbEntity
  8
0
100
AcDbLine
 10
-0.0871843435445581
 20
0.4345838899572075
 30
0.0
 11
-0.0569092355118167
 21
0.0585838899572071
 31
0.0
  0
LINE
  5
69
330
45
100
AcDbEntity
  8
0
100
AcDbLine
 10
-0.1491843435445581
 20
0.4345838899572075
 30
0.0
 11
-0.1189092355118167
 21
0.0585838899572071
 31
0.0
  0
LINE
  5
6A
330
45
100
AcDbEntity
  8
0
100
AcDbLine
 10
-0.2106546533272015
 20
0.4345838899572075
 30
0.0
 11
-0.1803795452944603
 21
0.0585838899572071
 31
0.0
  0
LINE
  5
6B
330
45
100
AcDbEntity
  8
0
100
AcDbLine
 10
-0.0879092355118168
 20
-0.0034161100427927
 30
0.0
 11
-0.1189092355118167
 21
0.0585838899572071
 31
0.0
  0
LINE
  5
6C
330
45
100
AcDbEntity
  8
0
100
AcDbLine
 10
-0.1493795452944602
 20
-0.0034161100427927
 30
0.0
 11
-0.1803795452944603
 21
0.0585838899572071
 31
0.0
  0
LINE
  5
6D
330
45
100
AcDbEntity
  8
0
100
AcDbLine
 10
-0.1803795452944603
 20
0.0585838899572071
 30
0.0
 11
-0.2113795452944602
 21
-0.0034161100427927
 31
0.0
  0
LINE
  5
6E
330
45
100
AcDbEntity
  8
0
100
AcDbLine
 10
-0.1189092355118167
 20
0.0585838899572071
 30
0.0
 11
-0.1499092355118167
 21
-0.0034161100427927
 31
0.0
  0
LINE
  5
6F
330
45
100
AcDbEntity
  8
0
100
AcDbLine
 10
-0.0569092355118167
 20
0.0585838899572071
 30
0.0
 11
-0.0879092355118168
 21
-0.0034161100427927
 31
0.0
  0
LINE
  5
70
330
45
100
AcDbEntity
  8
0
100
AcDbLine
 10
-0.0259092355118167
 20
-0.0034161100427927
 30
0.0
 11
-0.0569092355118167
 21
0.0585838899572071
 31
0.0
  0
LINE
  5
71
330
45
100
AcDbEntity
  8
0
100
AcDbLine
 10
0.0050907644881833
 20
0.0585838899572071
 30
0.0
 11
-0.0259092355118167
 21
-0.0034161100427927
 31
0.0
  0
LINE
  5
72
330
45
100
AcDbEntity
  8
0
100
AcDbLine
 10
-0.0871843435445581
 20
0.4345838899572075
 30
0.0
 11
-0.118184343544558
 21
0.4965838899572073
 31
0.0
  0
LINE
  5
73
330
45
100
AcDbEntity
  8
0
100
AcDbLine
 10
-0.1491843435445581
 20
0.4345838899572075
 30
0.0
 11
-0.180184343544558
 21
0.4965838899572073
 31
0.0
  0
LINE
  5
74
330
45
100
AcDbEntity
  8
0
100
AcDbLine
 10
-0.118184343544558
 20
0.4965838899572073
 30
0.0
 11
-0.1491843435445581
 21
0.4345838899572075
 31
0.0
  0
LINE
  5
75
330
45
100
AcDbEntity
  8
0
100
AcDbLine
 10
-0.1796546533272015
 20
0.4965838899572073
 30
0.0
 11
-0.2106546533272015
 21
0.4345838899572075
 31
0.0
  0
LINE
  5
76
330
45
100
AcDbEntity
  8
0
100
AcDbLine
 10
0.005815656455442
 20
0.4965838899572073
 30
0.0
 11
-0.0251843435445581
 21
0.4345838899572075
 31
0.0
  0
LINE
  5
77
330
45
100
AcDbEntity
  8
0
100
AcDbLine
 10
-0.0251843435445581
 20
0.4345838899572075
 30
0.0
 11
-0.0561843435445581
 21
0.4965838899572073
 31
0.0
  0
LINE
  5
78
330
45
100
AcDbEntity
  8
0
100
AcDbLine
 10
-0.0561843435445581
 20
0.4965838899572073
 30
0.0
 11
-0.0871843435445581
 21
0.4345838899572075
 31
0.0
  0
ENDBLK
  5
7A
330
45
100
AcDbEntity
  8
0
100
AcDbBlockEnd
  0
BLOCK
  5
163
330
158
100
AcDbEntity
  8
0
100
AcDbBlockBegin
  2
*D1
 70
     1
 10
0.0
 20
0.0
 30
0.0
  3
*D1
  1

  0
LINE
  5
36A
330
158
100
AcDbEntity
  8
ADPDIM
 62
     0
100
AcDbLine
 10
23.1534925939355
 20
14.43338906577432
 30
0.0
 11
23.1534925939355
 21
13.98750002045182
 31
0.0
  0
LINE
  5
36B
330
158
100
AcDbEntity
  8
ADPDIM
 62
     0
100
AcDbLine
 10
23.90349259393551
 20
14.43338906577432
 30
0.0
 11
23.90349259393551
 21
13.98750002045182
 31
0.0
  0
LINE
  5
36C
330
158
100
AcDbEntity
  8
ADPDIM
 62
     0
100
AcDbLine
 10
23.1534925939355
 20
14.16750002045182
 30
0.0
 11
22.90349259393551
 21
14.16750002045182
 31
0.0
  0
LINE
  5
36D
330
158
100
AcDbEntity
  8
ADPDIM
 62
     0
100
AcDbLine
 10
23.90349259393551
 20
14.16750002045182
 30
0.0
 11
24.15349259393551
 21
14.16750002045182
 31
0.0
  0
LINE
  5
36E
330
158
100
AcDbEntity
  8
ADPDIM
 62
     0
100
AcDbLine
 10
23.7784925939355
 20
14.04250002045182
 30
0.0
 11
24.02849259393551
 21
14.29250002045182
 31
0.0
  0
LINE
  5
36F
330
158
100
AcDbEntity
  8
ADPDIM
 62
     0
100
AcDbLine
 10
23.02849259393551
 20
14.04250002045182
 30
0.0
 11
23.27849259393551
 21
14.29250002045182
 31
0.0
  0
MTEXT
  5
370
330
158
100
AcDbEntity
  8
ADPDIM
 62
     0
100
AcDbMText
 10
23.52849259393551
 20
14.16750002045182
 30
0.0
 40
0.125
 41
0.0
 71
     5
 72
     1
  1
\A1;3/4
  0
POINT
  5
371
330
158
100
AcDbEntity
  8
DEFPOINTS
 62
     0
100
AcDbPoint
 10
23.1534925939355
 20
14.49588906577432
 30
0.0
  0
POINT
  5
372
330
158
100
AcDbEntity
  8
DEFPOINTS
 62
     0
100
AcDbPoint
 10
23.90349259393551
 20
14.49588906577432
 30
0.0
  0
POINT
  5
373
330
158
100
AcDbEntity
  8
DEFPOINTS
 62
     0
100
AcDbPoint
 10
23.90349259393551
 20
14.16750002045182
 30
0.0
  0
ENDBLK
  5
164
330
158
100
AcDbEntity
  8
0
100
AcDbBlockEnd
  0
BLOCK
  5
172
330
167
100
AcDbEntity
  8
0
100
AcDbBlockBegin
  2
*D2
 70
     1
 10
0.0
 20
0.0
 30
0.0
  3
*D2
  1

  0
LINE
  5
374
330
167
100
AcDbEntity
  8
ADPDIM
 62
     0
100
AcDbLine
 10
20.77849259393551
 20
15.41750002045182
 30
0.0
 11
20.77849259393551
 21
16.50846751739415
 31
0.0
  0
LINE
  5
375
330
167
100
AcDbEntity
  8
ADPDIM
 62
     0
100
AcDbLine
 10
23.52849259393551
 20
15.6259851303854
 30
0.0
 11
23.52849259393551
 21
16.50846751739415
 31
0.0
  0
LINE
  5
376
330
167
100
AcDbEntity
  8
ADPDIM
 62
     0
100
AcDbLine
 10
20.77849259393551
 20
16.32846751739415
 30
0.0
 11
21.73682592726884
 21
16.32846751739415
 31
0.0
  0
LINE
  5
377
330
167
100
AcDbEntity
  8
ADPDIM
 62
     0
100
AcDbLine
 10
23.52849259393551
 20
16.32846751739415
 30
0.0
 11
22.57015926060217
 21
16.32846751739415
 31
0.0
  0
LINE
  5
378
330
167
100
AcDbEntity
  8
ADPDIM
 62
     0
100
AcDbLine
 10
23.40349259393551
 20
16.20346751739415
 30
0.0
 11
23.65349259393551
 21
16.45346751739415
 31
0.0
  0
LINE
  5
379
330
167
100
AcDbEntity
  8
ADPDIM
 62
     0
100
AcDbLine
 10
20.6534925939355
 20
16.20346751739415
 30
0.0
 11
20.90349259393551
 21
16.45346751739415
 31
0.0
  0
MTEXT
  5
37A
330
167
100
AcDbEntity
  8
ADPDIM
 62
     0
100
AcDbMText
 10
22.15349259393551
 20
16.32846751739415
 30
0.0
 40
0.125
 41
0.0
 71
     5
 72
     1
  1
\A1;2 3/4
  0
POINT
  5
37B
330
167
100
AcDbEntity
  8
DEFPOINTS
 62
     0
100
AcDbPoint
 10
20.77849259393551
 20
15.35500002045182
 30
0.0
  0
POINT
  5
37C
330
167
100
AcDbEntity
  8
DEFPOINTS
 62
     0
100
AcDbPoint
 10
23.52849259393551
 20
15.56348513038539
 30
0.0
  0
POINT
  5
37D
330
167
100
AcDbEntity
  8
DEFPOINTS
 62
     0
100
AcDbPoint
 10
23.52849259393551
 20
16.32846751739415
 30
0.0
  0
ENDBLK
  5
173
330
167
100
AcDbEntity
  8
0
100
AcDbBlockEnd
  0
BLOCK
  5
17F
330
174
100
AcDbEntity
  8
0
100
AcDbBlockBegin
  2
*D3
 70
     1
 10
0.0
 20
0.0
 30
0.0
  3
*D3
  1

  0
LINE
  5
37E
330
174
100
AcDbEntity
  8
ADPDIM
 62
     0
100
AcDbLine
 10
23.96599259393551
 20
16.07388906577432
 30
0.0
 11
24.59217256373135
 21
16.07388906577431
 31
0.0
  0
LINE
  5
37F
330
174
100
AcDbEntity
  8
ADPDIM
 62
     0
100
AcDbLine
 10
24.0296428083675
 20
14.94867382012471
 30
0.0
 11
24.59217256373135
 21
14.94867382012471
 31
0.0
  0
LINE
  5
380
330
174
100
AcDbEntity
  8
ADPDIM
 62
     0
100
AcDbLine
 10
24.41217256373136
 20
16.07388906577431
 30
0.0
 11
24.41217256373136
 21
15.88628144294951
 31
0.0
  0
LINE
  5
381
330
174
100
AcDbEntity
  8
ADPDIM
 62
     0
100
AcDbLine
 10
24.41217256373136
 20
14.94867382012471
 30
0.0
 11
24.41217256373136
 21
15.13628144294951
 31
0.0
  0
LINE
  5
382
330
174
100
AcDbEntity
  8
ADPDIM
 62
     0
100
AcDbLine
 10
24.53717256373135
 20
14.82367382012471
 30
0.0
 11
24.28717256373135
 21
15.07367382012471
 31
0.0
  0
LINE
  5
383
330
174
100
AcDbEntity
  8
ADPDIM
 62
     0
100
AcDbLine
 10
24.53717256373135
 20
15.94888906577431
 30
0.0
 11
24.28717256373135
 21
16.19888906577431
 31
0.0
  0
MTEXT
  5
384
330
174
100
AcDbEntity
  8
ADPDIM
 62
     0
100
AcDbMText
 10
24.41217256373135
 20
15.51128144294952
 30
0.0
 40
0.125
 41
0.0
 71
     5
 72
     1
  1
\A1;1 1/8
 11
0.0000000000000001
 21
1.0
 31
0.0
  0
POINT
  5
385
330
174
100
AcDbEntity
  8
DEFPOINTS
 62
     0
100
AcDbPoint
 10
23.90349259393551
 20
16.07388906577432
 30
0.0
  0
POINT
  5
386
330
174
100
AcDbEntity
  8
DEFPOINTS
 62
     0
100
AcDbPoint
 10
23.9671428083675
 20
14.94867382012471
 30
0.0
  0
POINT
  5
387
330
174
100
AcDbEntity
  8
DEFPOINTS
 62
     0
100
AcDbPoint
 10
24.41217256373136
 20
14.94867382012471
 30
0.0
  0
ENDBLK
  5
180
330
174
100
AcDbEntity
  8
0
100
AcDbBlockEnd
  0
BLOCK
  5
18C
330
181
100
AcDbEntity
  8
0
100
AcDbBlockBegin
  2
*D4
 70
     1
 10
0.0
 20
0.0
 30
0.0
  3
*D4
  1

  0
LINE
  5
388
330
181
100
AcDbEntity
  8
ADPDIM
 62
     0
100
AcDbLine
 10
25.40349259393552
 20
16.14104859031267
 30
0.0
 11
25.40349259393552
 21
16.52396751739415
 31
0.0
  0
LINE
  5
389
330
181
100
AcDbEntity
  8
ADPDIM
 62
     0
100
AcDbLine
 10
26.15349259393552
 20
16.14104859031267
 30
0.0
 11
26.15349259393552
 21
16.52396751739415
 31
0.0
  0
LINE
  5
38A
330
181
100
AcDbEntity
  8
ADPDIM
 62
     0
100
AcDbLine
 10
25.40349259393552
 20
16.34396751739415
 30
0.0
 11
25.15349259393552
 21
16.34396751739415
 31
0.0
  0
LINE
  5
38B
330
181
100
AcDbEntity
  8
ADPDIM
 62
     0
100
AcDbLine
 10
26.15349259393552
 20
16.34396751739415
 30
0.0
 11
26.40349259393552
 21
16.34396751739415
 31
0.0
  0
LINE
  5
38C
330
181
100
AcDbEntity
  8
ADPDIM
 62
     0
100
AcDbLine
 10
26.02849259393552
 20
16.21896751739415
 30
0.0
 11
26.27849259393552
 21
16.46896751739415
 31
0.0
  0
LINE
  5
38D
330
181
100
AcDbEntity
  8
ADPDIM
 62
     0
100
AcDbLine
 10
25.27849259393552
 20
16.21896751739415
 30
0.0
 11
25.52849259393552
 21
16.46896751739415
 31
0.0
  0
MTEXT
  5
38E
330
181
100
AcDbEntity
  8
ADPDIM
 62
     0
100
AcDbMText
 10
25.77849259393552
 20
16.34396751739415
 30
0.0
 40
0.125
 41
0.0
 71
     5
 72
     1
  1
\A1;3/4
  0
POINT
  5
38F
330
181
100
AcDbEntity
  8
DEFPOINTS
 62
     0
100
AcDbPoint
 10
25.40349259393552
 20
16.07854859031267
 30
0.0
  0
POINT
  5
390
330
181
100
AcDbEntity
  8
DEFPOINTS
 62
     0
100
AcDbPoint
 10
26.15349259393552
 20
16.07854859031267
 30
0.0
  0
POINT
  5
391
330
181
100
AcDbEntity
  8
DEFPOINTS
 62
     0
100
AcDbPoint
 10
26.15349259393552
 20
16.34396751739415
 30
0.0
  0
ENDBLK
  5
18D
330
181
100
AcDbEntity
  8
0
100
AcDbBlockEnd
  0
ENDSEC
  0
SECTION
  2
ENTITIES
  0
LINE
  5
1D
330
2
100
AcDbEntity
  8
ADP1DETAIL
100
AcDbLine
 10
23.59099259393551
 20
16.07388906577432
 30
0.0
 11
23.90349259393551
 21
16.07388906577432
 31
0.0
  0
DIMENSION
  5
1F
330
2
100
AcDbEntity
  8
ADPDIM
100
AcDbDimension
  2
*D1
 10
23.90349259393551
 20
14.16750002045182
 30
0.0
 11
23.52849259393551
 21
14.16750002045182
 31
0.0
 70
    32
  3
STANDARD
100
AcDbAlignedDimension
 13
23.1534925939355
 23
14.49588906577432
 33
0.0
 14
23.90349259393551
 24
14.49588906577432
 34
0.0
100
AcDbRotatedDimension
1001
ACAD
1000
DSTYLE
1002
{
1070
   270
1070
     7
1070
   270
1070
     7
1070
   270
1070
     7
1070
   270
1070
     7
1070
   270
1070
     7
1070
    41
1040
0.125
1070
    73
1070
     0
1070
    74
1070
     0
1070
    78
1070
     2
1070
   140
1040
0.125
1070
   141
1040
0.1875
1070
   142
1040
0.125
1070
   147
1040
0.125
1070
   171
1070
     1
1070
   276
1070
     2
1070
   277
1070
     5
1002
}
  0
LINE
  5
2F
330
2
100
AcDbEntity
  8
ADP1DETAIL
100
AcDbLine
 10
23.90349259393551
 20
14.58609522591899
 30
0.0
 11
23.1534925939355
 21
14.58609522591899
 31
0.0
  0
LINE
  5
30
330
2
100
AcDbEntity
  8
ADP1DETAIL
100
AcDbLine
 10
23.90349259393551
 20
14.49588906577432
 30
0.0
 11
23.1534925939355
 21
14.49588906577432
 31
0.0
  0
LINE
  5
31
330
2
100
AcDbEntity
  8
ADP1DETAIL
100
AcDbLine
 10
23.52849259393551
 20
14.76117382012471
 30
0.0
 11
23.89260681449103
 21
14.76117382012471
 31
0.0
  0
DIMENSION
  5
32
330
2
100
AcDbEntity
  8
ADPDIM
100
AcDbDimension
  2
*D2
 10
23.52849259393551
 20
16.32846751739415
 30
0.0
 11
22.15349259393551
 21
16.32846751739415
 31
0.0
 70
    32
  3
STANDARD
100
AcDbAlignedDimension
 13
20.77849259393551
 23
15.35500002045182
 33
0.0
 14
23.52849259393551
 24
15.56348513038539
 34
0.0
100
AcDbRotatedDimension
1001
ACAD
1000
DSTYLE
1002
{
1070
   270
1070
     7
1070
   270
1070
     7
1070
   270
1070
     7
1070
   270
1070
     7
1070
   270
1070
     7
1070
    41
1040
0.125
1070
    73
1070
     0
1070
    74
1070
     0
1070
    78
1070
     2
1070
   140
1040
0.125
1070
   141
1040
0.1875
1070
   142
1040
0.125
1070
   147
1040
0.125
1070
   171
1070
     1
1070
   276
1070
     2
1070
   277
1070
     5
1002
}
  0
LINE
  5
40
330
2
100
AcDbEntity
  8
ADP1DETAIL
100
AcDbLine
 10
20.77849259393551
 20
15.35500002045182
 30
0.0
 11
20.90339299998214
 21
15.3209975632394
 31
0.0
  0
LINE
  5
41
330
2
100
AcDbEntity
  8
ADP1DETAIL
100
AcDbLine
 10
20.77849259393551
 20
14.48000002045182
 30
0.0
 11
20.90339299998214
 21
14.51400247766424
 31
0.0
  0
LINE
  5
42
330
2
100
AcDbEntity
  8
ADP1DETAIL
100
AcDbLine
 10
20.77849259393551
 20
14.91750002045182
 30
0.0
 11
20.77849259393551
 21
15.35500002045182
 31
0.0
  0
LINE
  5
43
330
2
100
AcDbEntity
  8
ADP1DETAIL
100
AcDbLine
 10
20.77849259393551
 20
14.91750002045182
 30
0.0
 11
20.77849259393551
 21
14.48000002045182
 31
0.0
  0
INSERT
  5
44
330
2
100
AcDbEntity
  8
ADP1DETAIL
100
AcDbBlockReference
  2
STUD
 10
20.77600439866068
 20
14.64042108775076
 30
0.0
  0
LINE
  5
7B
330
2
100
AcDbEntity
  8
ADP1DETAIL
100
AcDbLine
 10
23.52849259393551
 20
15.14356830320734
 30
0.0
 11
23.52849259393551
 21
15.56348513038539
 31
0.0
  0
LINE
  5
7C
330
2
100
AcDbEntity
  8
ADP1DETAIL
100
AcDbLine
 10
22.40349259393551
 20
15.16750002045182
 30
0.0
 11
23.1534925939355
 21
15.23000002045182
 31
0.0
  0
LINE
  5
7D
330
2
100
AcDbEntity
  8
ADP1DETAIL
100
AcDbLine
 10
23.1534925939355
 20
14.49588906577432
 30
0.0
 11
23.1534925939355
 21
16.07388906577432
 31
0.0
  0
LINE
  5
7E
330
2
100
AcDbEntity
  8
ADP1DETAIL
100
AcDbLine
 10
20.90339299998214
 20
15.3209975632394
 30
0.0
 11
20.90349259393551
 21
14.91750002045182
 31
0.0
  0
LINE
  5
7F
330
2
100
AcDbEntity
  8
ADP1DETAIL
100
AcDbLine
 10
20.90349259393551
 20
15.29250002045182
 30
0.0
 11
22.40349259393551
 21
15.16750002045182
 31
0.0
  0
LINE
  5
80
330
2
100
AcDbEntity
  8
ADP1DETAIL
100
AcDbLine
 10
22.40349259393551
 20
14.66750002045182
 30
0.0
 11
20.90349259393551
 21
14.54250002045182
 31
0.0
  0
LINE
  5
81
330
2
100
AcDbEntity
  8
ADP1DETAIL
100
AcDbLine
 10
20.90339299998214
 20
14.51400247766424
 30
0.0
 11
20.90349259393551
 21
14.91750002045182
 31
0.0
  0
LINE
  5
82
330
2
100
AcDbEntity
  8
ADP1DETAIL
100
AcDbLine
 10
23.1534925939355
 20
14.60500002045182
 30
0.0
 11
22.40349259393551
 21
14.66750002045182
 31
0.0
  0
LINE
  5
83
330
2
100
AcDbEntity
  8
ADP1DETAIL
100
AcDbLine
 10
22.39945482679725
 20
14.66833283701329
 30
0.0
 11
22.39945482679725
 21
15.16666720389035
 31
0.0
  0
LINE
  5
84
330
2
100
AcDbEntity
  8
ADP1DETAIL
100
AcDbLine
 10
23.16437837337997
 20
15.14356830320734
 30
0.0
 11
23.52849259393551
 21
15.14356830320734
 31
0.0
  0
LINE
  5
85
330
2
100
AcDbEntity
  8
ADP1DETAIL
100
AcDbLine
 10
23.52849259393551
 20
14.49358673198424
 30
0.0
 11
23.52849259393551
 21
14.76117382012471
 31
0.0
  0
LINE
  5
86
330
2
100
AcDbEntity
  8
ADP1DETAIL
100
AcDbLine
 10
23.4344925939355
 20
15.57388906577432
 30
0.0
 11
23.4344925939355
 21
15.94888906577432
 31
0.0
  0
LINE
  5
87
330
2
100
AcDbEntity
  8
ADP1DETAIL
100
AcDbLine
 10
23.6224925939355
 20
15.94888906577432
 30
0.0
 11
23.6224925939355
 21
15.57388906577432
 31
0.0
  0
LINE
  5
88
330
2
100
AcDbEntity
  8
ADP1DETAIL
100
AcDbLine
 10
23.6224925939355
 20
15.57388906577432
 30
0.0
 11
23.4344925939355
 21
15.57388906577432
 31
0.0
  0
LINE
  5
89
330
2
100
AcDbEntity
  8
ADP1DETAIL
100
AcDbLine
 10
23.1534925939355
 20
16.07388906577432
 30
0.0
 11
23.4659925939355
 21
16.07388906577432
 31
0.0
  0
LINE
  5
8A
330
2
100
AcDbEntity
  8
ADP1DETAIL
100
AcDbLine
 10
23.4344925939355
 20
15.94888906577432
 30
0.0
 11
23.4659925939355
 21
15.94888906577432
 31
0.0
  0
LINE
  5
8B
330
2
100
AcDbEntity
  8
ADP1DETAIL
100
AcDbLine
 10
23.4659925939355
 20
15.94888906577432
 30
0.0
 11
23.4659925939355
 21
16.07388906577432
 31
0.0
  0
LINE
  5
8C
330
2
100
AcDbEntity
  8
ADP1DETAIL
100
AcDbLine
 10
23.59099259393551
 20
15.94888906577432
 30
0.0
 11
23.6224925939355
 21
15.94888906577432
 31
0.0
  0
LINE
  5
8D
330
2
100
AcDbEntity
  8
ADP1DETAIL
100
AcDbLine
 10
23.59099259393551
 20
16.07388906577432
 30
0.0
 11
23.59099259393551
 21
15.94888906577432
 31
0.0
  0
CIRCLE
  5
8E
330
2
100
AcDbEntity
  8
ADP1DETAIL
100
AcDbCircle
 10
25.77849259393552
 20
14.90679859031267
 30
0.0
 40
0.3125
  0
CIRCLE
  5
8F
330
2
100
AcDbEntity
  8
ADP1DETAIL
100
AcDbCircle
 10
25.77849259393552
 20
14.90229830203291
 30
0.0
 40
0.2859512779740925
  0
LINE
  5
90
330
2
100
AcDbEntity
  8
ADP1DETAIL
100
AcDbLine
 10
24.02068235018974
 20
15.22695933932187
 30
0.0
 11
24.02068235018974
 21
14.94867382012471
 31
0.0
  0
ARC
  5
91
330
2
100
AcDbEntity
  8
ADP2DETAIL
  6
HIDDEN2
100
AcDbCircle
 10
24.71714280836749
 20
14.94867382012471
 30
0.0
 40
0.75
100
AcDbArc
 50
158.2197748746747
 51
180.0
  0
DIMENSION
  5
94
330
2
100
AcDbEntity
  8
ADPDIM
100
AcDbDimension
  2
*D3
 10
24.41217256373136
 20
14.94867382012471
 30
0.0
 11
24.41217256373135
 21
15.51128144294952
 31
0.0
 70
    32
  3
STANDARD
100
AcDbAlignedDimension
 13
23.90349259393551
 23
16.07388906577432
 33
0.0
 14
23.9671428083675
 24
14.94867382012471
 34
0.0
 50
90.0
100
AcDbRotatedDimension
1001
ACAD
1000
DSTYLE
1002
{
1070
   270
1070
     7
1070
   270
1070
     7
1070
   270
1070
     7
1070
   270
1070
     7
1070
   270
1070
     7
1070
    41
1040
0.125
1070
    73
1070
     0
1070
    74
1070
     0
1070
    78
1070
     2
1070
   140
1040
0.125
1070
   141
1040
0.1875
1070
   142
1040
0.125
1070
   147
1040
0.125
1070
   171
1070
     1
1070
   276
1070
     2
1070
   277
1070
     5
1002
}
  0
LINE
  5
A2
330
2
100
AcDbEntity
  8
ADP1DETAIL
100
AcDbLine
 10
23.90349259393551
 20
16.07388906577432
 30
0.0
 11
23.90349259393551
 21
14.49588906577432
 31
0.0
  0
LINE
  5
A3
330
2
100
AcDbEntity
  8
ADP1DETAIL
100
AcDbLine
 10
26.15349259393552
 20
16.07854859031267
 30
0.0
 11
26.27748191500063
 21
14.58853387070185
 31
0.0
  0
LINE
  5
A4
330
2
100
AcDbEntity
  8
ADP1DETAIL
100
AcDbLine
 10
25.40349259393552
 20
16.07854859031267
 30
0.0
 11
25.2795032728704
 21
14.58853387070185
 31
0.0
  0
LINE
  5
A5
330
2
100
AcDbEntity
  8
ADP1DETAIL
100
AcDbLine
 10
23.89568235018974
 20
14.63617382012471
 30
0.0
 11
24.01642307847586
 21
14.66852620076253
 31
0.0
  0
ARC
  5
A6
330
2
100
AcDbEntity
  8
ADP2DETAIL
  6
HIDDEN2
100
AcDbCircle
 10
24.71714280836749
 20
14.94867382012471
 30
0.0
 40
0.75
100
AcDbArc
 50
180.0
 51
201.7802251253252
  0
LINE
  5
A7
330
2
100
AcDbEntity
  8
ADP1DETAIL
100
AcDbLine
 10
24.02068235018974
 20
14.67038830092756
 30
0.0
 11
24.02068235018974
 21
14.94867382012471
 31
0.0
  0
LINE
  5
A8
330
2
100
AcDbEntity
  8
ADP1DETAIL
100
AcDbLine
 10
24.01642307847586
 20
14.66852620076253
 30
0.0
 11
24.01642307847586
 21
14.66852620076253
 31
0.0
  0
LINE
  5
A9
330
2
100
AcDbEntity
  8
ADP1DETAIL
100
AcDbLine
 10
25.77849259393552
 20
14.50054859031267
 30
0.0
 11
25.2795032728704
 21
14.58853387070185
 31
0.0
  0
LINE
  5
AA
330
2
100
AcDbEntity
  8
ADP1DETAIL
100
AcDbLine
 10
25.29102965658178
 20
14.71979859031267
 30
0.0
 11
25.53740748699127
 21
14.71979859031267
 31
0.0
  0
LINE
  5
AB
330
2
100
AcDbEntity
  8
ADP1DETAIL
100
AcDbLine
 10
26.02341513273599
 20
15.09492998975218
 30
0.0
 11
26.2283247059739
 21
15.09492998975218
 31
0.0
  0
LINE
  5
AC
330
2
100
AcDbEntity
  8
ADP1DETAIL
100
AcDbLine
 10
25.77849259393552
 20
14.50054859031267
 30
0.0
 11
26.27748191500063
 21
14.58853387070185
 31
0.0
  0
LINE
  5
AD
330
2
100
AcDbEntity
  8
ADP1DETAIL
100
AcDbLine
 10
23.89568235018974
 20
15.26117382012471
 30
0.0
 11
24.01642307847586
 21
15.2288214394869
 31
0.0
  0
LINE
  5
AE
330
2
100
AcDbEntity
  8
ADP1DETAIL
100
AcDbLine
 10
24.01642307847586
 20
15.2288214394869
 30
0.0
 11
24.01642307847586
 21
15.2288214394869
 31
0.0
  0
LINE
  5
AF
330
2
100
AcDbEntity
  8
ADP1DETAIL
100
AcDbLine
 10
25.77849259393552
 20
16.07854859031267
 30
0.0
 11
25.40349259393552
 21
16.07854859031267
 31
0.0
  0
DIMENSION
  5
B0
330
2
100
AcDbEntity
  8
ADPDIM
100
AcDbDimension
  2
*D4
 10
26.15349259393552
 20
16.34396751739415
 30
0.0
 11
25.77849259393552
 21
16.34396751739415
 31
0.0
 70
    32
  3
STANDARD
100
AcDbAlignedDimension
 13
25.40349259393552
 23
16.07854859031267
 33
0.0
 14
26.15349259393552
 24
16.07854859031267
 34
0.0
100
AcDbRotatedDimension
1001
ACAD
1000
DSTYLE
1002
{
1070
   270
1070
     7
1070
   270
1070
     7
1070
   270
1070
     7
1070
   270
1070
     7
1070
   270
1070
     7
1070
    41
1040
0.125
1070
    73
1070
     0
1070
    74
1070
     0
1070
    78
1070
     2
1070
   140
1040
0.125
1070
   141
1040
0.1875
1070
   142
1040
0.125
1070
   147
1040
0.125
1070
   171
1070
     1
1070
   276
1070
     2
1070
   277
1070
     5
1002
}
  0
CIRCLE
  5
BE
330
2
100
AcDbEntity
  8
ADP1DETAIL
100
AcDbCircle
 10
25.77865167444741
 20
15.34602135141548
 30
0.0
 40
0.125
  0
LINE
  5
BF
330
2
100
AcDbEntity
  8
ADP1DETAIL
100
AcDbLine
 10
25.69544303167845
 20
15.34602135141548
 30
0.0
 11
25.86186018541908
 21
15.34602135141548
 31
0.0
  0
LINE
  5
C0
330
2
100
AcDbEntity
  8
ADP1DETAIL
100
AcDbLine
 10
25.77865167444741
 20
15.41876531726994
 30
0.0
 11
25.77865167444741
 21
15.27327738556103
 31
0.0
  0
LINE
  5
C1
330
2
100
AcDbEntity
  8
ADP1DETAIL
100
AcDbLine
 10
25.77849259393552
 20
16.07854859031267
 30
0.0
 11
26.15349259393552
 21
16.07854859031267
 31
0.0
  0
TEXT
  5
CC
330
2
100
AcDbEntity
  8
ADPDIM
100
AcDbText
 10
17.39616385975508
 20
13.0437011748679
 30
0.0
 40
0.125
  1
J U L I U S  B L U M  &  C O . ,  I N C .      ( 8 0 0 )  5 2 6 - 6 2 9 3        W W W . J U L I U S B L U M . C O M        P A R T  N o .  4 4 0
 41
1.25
  7
ARIAL_WIDE
 72
     1
 11
23.83087139727213
 21
13.1687011748679
 31
0.0
100
AcDbText
 73
     3
  0
ENDSEC
  0
SECTION
  2
OBJECTS
  0
DICTIONARY
  5
1A
330
0
100
AcDbDictionary
  3
ACAD_GROUP
350
18
  3
ACAD_LAYOUT
350
C5
  3
ACAD_MLINESTYLE
350
19
  3
ACAD_PLOTSETTINGS
350
C6
  3
ACAD_PLOTSTYLENAME
350
C3
  3
ACDBHEADERROUNDTRIPXREC
350
347
  3
ACDBVARIABLEDICTIONARY
350
190
  0
DICTIONARY
  5
154
330
2
100
AcDbDictionary
280
     1
  3
ACAD_LAYOUTSELFREF
360
368
  0
DICTIONARY
  5
156
330
8
100
AcDbDictionary
280
     1
  3
ACAD_LAYOUTSELFREF
360
369
  0
DICTIONARY
  5
18
102
{ACAD_REACTORS
330
1A
102
}
330
1A
100
AcDbDictionary
  0
DICTIONARY
  5
C5
102
{ACAD_REACTORS
330
1A
102
}
330
1A
100
AcDbDictionary
  0
DICTIONARY
  5
19
102
{ACAD_REACTORS
330
1A
102
}
330
1A
100
AcDbDictionary
  3
STANDARD
350
1B
  0
DICTIONARY
  5
C6
102
{ACAD_REACTORS
330
1A
102
}
330
1A
100
AcDbDictionary
  0
ACDBDICTIONARYWDFLT
  5
C3
102
{ACAD_REACTORS
330
1A
102
}
330
1A
100
AcDbDictionary
281
     1
  3
Normal
350
C4
100
AcDbDictionaryWithDefault
340
C4
  0
DICTIONARY
  5
347
102
{ACAD_REACTORS
330
1A
102
}
330
1A
100
AcDbDictionary
  3
CEPSNTYPE
350
351
  3
DIMSTYLEDATA
350
355
  3
FINGERPRINTGUID
350
352
  3
HYPERLINKBASE
350
34A
  3
INSUNITS
350
350
  3
LAYOUTDICT
350
34C
  3
LWETCUNION
350
34F
  3
PLOTSETDICT
350
34D
  3
PLOTSTYLNAMDICT
350
34E
  3
PSVPSCALE
350
354
  3
PUCSBASE
350
358
  3
PUCSORGBACK
350
35E
  3
PUCSORGBOTTOM
350
35A
  3
PUCSORGFRONT
350
35D
  3
PUCSORGLEFT
350
35B
  3
PUCSORGRIGHT
350
35C
  3
PUCSORGTOP
350
359
  3
PUCSORTHOREF
350
356
  3
PUCSORTHOVIEW
350
357
  3
STYLESHEET
350
34B
  3
TSTACKALIGN
350
348
  3
TSTACKSIZE
350
349
  3
UCSBASE
350
361
  3
UCSORGBACK
350
367
  3
UCSORGBOTTOM
350
363
  3
UCSORGFRONT
350
366
  3
UCSORGLEFT
350
364
  3
UCSORGRIGHT
350
365
  3
UCSORGTOP
350
362
  3
UCSORTHOREF
350
35F
  3
UCSORTHOVIEW
350
360
  3
VERSIONGUID
350
353
  0
DICTIONARY
  5
190
102
{ACAD_REACTORS
330
1A
102
}
330
1A
100
AcDbDictionary
  3
DIMASSOC
350
191
  0
XRECORD
  5
368
102
{ACAD_REACTORS
330
154
102
}
330
154
100
AcDbXrecord
340
2
  0
XRECORD
  5
369
102
{ACAD_REACTORS
330
156
102
}
330
156
100
AcDbXrecord
340
8
  0
MLINESTYLE
  5
1B
102
{ACAD_REACTORS
330
19
102
}
330
19
100
AcDbMlineStyle
  2
STANDARD
 70
     0
  3

 62
     0
 51
90.0
 52
90.0
 71
     2
 49
0.5
 62
   256
  6
BYLAYER
 49
-0.5
 62
   256
  6
BYLAYER
  0
ACDBPLACEHOLDER
  5
C4
102
{ACAD_REACTORS
330
C3
102
}
330
C3
100
AcDbPlaceHolder
280
     0
  0
XRECORD
  5
351
102
{ACAD_REACTORS
330
347
102
}
330
347
100
AcDbXrecord
 90
        0
  0
XRECORD
  5
355
102
{ACAD_REACTORS
330
347
102
}
330
347
100
AcDbXrecord
1000
DSTYLE
1002
{
1070
   276
 70
     2
1070
   277
 70
     5
1002
}
  0
XRECORD
  5
352
102
{ACAD_REACTORS
330
347
102
}
330
347
100
AcDbXrecord
  1
{DBAD253E-EDC9-4AF2-B339-BA6EA7FDEF77}
  0
XRECORD
  5
34A
102
{ACAD_REACTORS
330
347
102
}
330
347
100
AcDbXrecord
  1

  0
XRECORD
  5
350
102
{ACAD_REACTORS
330
347
102
}
330
347
100
AcDbXrecord
 90
        0
  0
XRECORD
  5
34C
102
{ACAD_REACTORS
330
347
102
}
330
347
100
AcDbXrecord
340
C5
  0
XRECORD
  5
34F
102
{ACAD_REACTORS
330
347
102
}
330
347
100
AcDbXrecord
 90
    14877
  0
XRECORD
  5
34D
102
{ACAD_REACTORS
330
347
102
}
330
347
100
AcDbXrecord
340
C6
  0
XRECORD
  5
34E
102
{ACAD_REACTORS
330
347
102
}
330
347
100
AcDbXrecord
340
C3
  0
XRECORD
  5
354
102
{ACAD_REACTORS
330
347
102
}
330
347
100
AcDbXrecord
 40
0.0
  0
XRECORD
  5
358
102
{ACAD_REACTORS
330
347
102
}
330
347
100
AcDbXrecord
340
0
  0
XRECORD
  5
35E
102
{ACAD_REACTORS
330
347
102
}
330
347
100
AcDbXrecord
 10
0.0
 20
0.0
 30
0.0
  0
XRECORD
  5
35A
102
{ACAD_REACTORS
330
347
102
}
330
347
100
AcDbXrecord
 10
0.0
 20
0.0
 30
0.0
  0
XRECORD
  5
35D
102
{ACAD_REACTORS
330
347
102
}
330
347
100
AcDbXrecord
 10
0.0
 20
0.0
 30
0.0
  0
XRECORD
  5
35B
102
{ACAD_REACTORS
330
347
102
}
330
347
100
AcDbXrecord
 10
0.0
 20
0.0
 30
0.0
  0
XRECORD
  5
35C
102
{ACAD_REACTORS
330
347
102
}
330
347
100
AcDbXrecord
 10
0.0
 20
0.0
 30
0.0
  0
XRECORD
  5
359
102
{ACAD_REACTORS
330
347
102
}
330
347
100
AcDbXrecord
 10
0.0
 20
0.0
 30
0.0
  0
XRECORD
  5
356
102
{ACAD_REACTORS
330
347
102
}
330
347
100
AcDbXrecord
340
0
  0
XRECORD
  5
357
102
{ACAD_REACTORS
330
347
102
}
330
347
100
AcDbXrecord
 70
     0
  0
XRECORD
  5
34B
102
{ACAD_REACTORS
330
347
102
}
330
347
100
AcDbXrecord
  1

  0
XRECORD
  5
348
102
{ACAD_REACTORS
330
347
102
}
330
347
100
AcDbXrecord
 90
        1
  0
XRECORD
  5
349
102
{ACAD_REACTORS
330
347
102
}
330
347
100
AcDbXrecord
 90
       70
  0
XRECORD
  5
361
102
{ACAD_REACTORS
330
347
102
}
330
347
100
AcDbXrecord
340
0
  0
XRECORD
  5
367
102
{ACAD_REACTORS
330
347
102
}
330
347
100
AcDbXrecord
 10
0.0
 20
0.0
 30
0.0
  0
XRECORD
  5
363
102
{ACAD_REACTORS
330
347
102
}
330
347
100
AcDbXrecord
 10
0.0
 20
0.0
 30
0.0
  0
XRECORD
  5
366
102
{ACAD_REACTORS
330
347
102
}
330
347
100
AcDbXrecord
 10
0.0
 20
0.0
 30
0.0
  0
XRECORD
  5
364
102
{ACAD_REACTORS
330
347
102
}
330
347
100
AcDbXrecord
 10
0.0
 20
0.0
 30
0.0
  0
XRECORD
  5
365
102
{ACAD_REACTORS
330
347
102
}
330
347
100
AcDbXrecord
 10
0.0
 20
0.0
 30
0.0
  0
XRECORD
  5
362
102
{ACAD_REACTORS
330
347
102
}
330
347
100
AcDbXrecord
 10
0.0
 20
0.0
 30
0.0
  0
XRECORD
  5
35F
102
{ACAD_REACTORS
330
347
102
}
330
347
100
AcDbXrecord
340
0
  0
XRECORD
  5
360
102
{ACAD_REACTORS
330
347
102
}
330
347
100
AcDbXrecord
 70
     0
  0
XRECORD
  5
353
102
{ACAD_REACTORS
330
347
102
}
330
347
100
AcDbXrecord
  1
{DB3FFEE6-5A77-4A86-AF1A-338BED21FA39}
  0
DICTIONARYVAR
  5
191
102
{ACAD_REACTORS
330
190
102
}
330
190
100
DictionaryVariables
280
     0
  1
1
  0
ENDSEC
  0
EOF
