  0
SECTION
  2
HEADER
  9
$ACADVER
  1
AC1014
  9
$ACADMAINTVER
 70
     9
  9
$DWGCODEPAGE
  3
ANSI_1252
  9
$INSBASE
 10
20.77849259393551
 20
16.50846751739415
 30
0.0
  9
$EXTMIN
 10
16.88828052184164
 20
15.07360790116244
 30
0.0
  9
$EXTMAX
 10
29.75769559687575
 20
18.75396854008067
 30
0.0
  9
$LIMMIN
 10
0.0
 20
0.0
  9
$LIMMAX
 10
36.0
 20
36.0
  9
$ORTHOMODE
 70
     1
  9
$REGENMODE
 70
     1
  9
$FILLMODE
 70
     1
  9
$QTEXTMODE
 70
     0
  9
$MIRRTEXT
 70
     1
  9
$DRAGMODE
 70
     0
  9
$LTSCALE
 40
1.0
  9
$OSMODE
 70
    37
  9
$ATTMODE
 70
     1
  9
$TEXTSIZE
 40
0.2
  9
$TRACEWID
 40
0.05
  9
$TEXTSTYLE
  7
STANDARD
  9
$CLAYER
  8
0
  9
$CELTYPE
  6
BYLAYER
  9
$CECOLOR
 62
   256
  9
$CELTSCALE
 40
1.0
  9
$DELOBJ
 70
     1
  9
$DISPSILH
 70
     0
  9
$DIMSCALE
 40
1.0
  9
$DIMASZ
 40
0.125
  9
$DIMEXO
 40
0.0625
  9
$DIMDLI
 40
0.38
  9
$DIMRND
 40
0.0
  9
$DIMDLE
 40
0.0
  9
$DIMEXE
 40
0.18
  9
$DIMTP
 40
0.0
  9
$DIMTM
 40
0.0
  9
$DIMTXT
 40
0.125
  9
$DIMCEN
 40
0.1875
  9
$DIMTSZ
 40
0.125
  9
$DIMTOL
 70
     0
  9
$DIMLIM
 70
     0
  9
$DIMTIH
 70
     0
  9
$DIMTOH
 70
     0
  9
$DIMSE1
 70
     0
  9
$DIMSE2
 70
     0
  9
$DIMTAD
 70
     0
  9
$DIMZIN
 70
     2
  9
$DIMBLK
  1

  9
$DIMASO
 70
     1
  9
$DIMSHO
 70
     1
  9
$DIMPOST
  1

  9
$DIMAPOST
  1

  9
$DIMALT
 70
     0
  9
$DIMALTD
 70
     1
  9
$DIMALTF
 40
25.4
  9
$DIMLFAC
 40
1.0
  9
$DIMTOFL
 70
     0
  9
$DIMTVP
 40
0.0
  9
$DIMTIX
 70
     0
  9
$DIMSOXD
 70
     0
  9
$DIMSAH
 70
     0
  9
$DIMBLK1
  1

  9
$DIMBLK2
  1

  9
$DIMSTYLE
  2
STANDARD
  9
$DIMCLRD
 70
     0
  9
$DIMCLRE
 70
     0
  9
$DIMCLRT
 70
     0
  9
$DIMTFAC
 40
1.0
  9
$DIMGAP
 40
0.125
  9
$DIMJUST
 70
     0
  9
$DIMSD1
 70
     0
  9
$DIMSD2
 70
     0
  9
$DIMTOLJ
 70
     1
  9
$DIMTZIN
 70
     0
  9
$DIMALTZ
 70
     0
  9
$DIMALTTZ
 70
     0
  9
$DIMFIT
 70
     3
  9
$DIMUPT
 70
     0
  9
$DIMUNIT
 70
     7
  9
$DIMDEC
 70
     4
  9
$DIMTDEC
 70
     4
  9
$DIMALTU
 70
     2
  9
$DIMALTTD
 70
     2
  9
$DIMTXSTY
  7
STANDARD
  9
$DIMAUNIT
 70
     0
  9
$LUNITS
 70
     5
  9
$LUPREC
 70
     4
  9
$SKETCHINC
 40
0.1
  9
$FILLETRAD
 40
0.062
  9
$AUNITS
 70
     0
  9
$AUPREC
 70
     0
  9
$MENU
  1
acad
  9
$ELEVATION
 40
0.0
  9
$PELEVATION
 40
0.0
  9
$THICKNESS
 40
0.0
  9
$LIMCHECK
 70
     0
  9
$BLIPMODE
 70
     0
  9
$CHAMFERA
 40
0.0
  9
$CHAMFERB
 40
0.0
  9
$CHAMFERC
 40
0.0
  9
$CHAMFERD
 40
0.0
  9
$SKPOLY
 70
     0
  9
$TDCREATE
 40
2450386.504063460
  9
$TDUPDATE
 40
2452297.070668762
  9
$TDINDWG
 40
0.0350460764
  9
$TDUSRTIMER
 40
0.0350460764
  9
$USRTIMER
 70
     1
  9
$ANGBASE
 50
0.0
  9
$ANGDIR
 70
     0
  9
$PDMODE
 70
     0
  9
$PDSIZE
 40
0.0
  9
$PLINEWID
 40
0.0
  9
$COORDS
 70
     2
  9
$SPLFRAME
 70
     0
  9
$SPLINETYPE
 70
     6
  9
$SPLINESEGS
 70
     8
  9
$ATTDIA
 70
     0
  9
$ATTREQ
 70
     1
  9
$HANDLING
 70
 22529
  9
$HANDSEED
  5
393
  9
$SURFTAB1
 70
     6
  9
$SURFTAB2
 70
     6
  9
$SURFTYPE
 70
     6
  9
$SURFU
 70
     6
  9
$SURFV
 70
     6
  9
$UCSNAME
  2

  9
$UCSORG
 10
0.0
 20
0.0
 30
0.0
  9
$UCSXDIR
 10
1.0
 20
0.0
 30
0.0
  9
$UCSYDIR
 10
0.0
 20
1.0
 30
0.0
  9
$PUCSNAME
  2

  9
$PUCSORG
 10
0.0
 20
0.0
 30
0.0
  9
$PUCSXDIR
 10
1.0
 20
0.0
 30
0.0
  9
$PUCSYDIR
 10
0.0
 20
1.0
 30
0.0
  9
$USERI1
 70
     0
  9
$USERI2
 70
     0
  9
$USERI3
 70
     0
  9
$USERI4
 70
     0
  9
$USERI5
 70
     0
  9
$USERR1
 40
0.0
  9
$USERR2
 40
0.0
  9
$USERR3
 40
0.0
  9
$USERR4
 40
0.0
  9
$USERR5
 40
0.0
  9
$WORLDVIEW
 70
     1
  9
$SHADEDGE
 70
     3
  9
$SHADEDIF
 70
    70
  9
$TILEMODE
 70
     1
  9
$MAXACTVP
 70
    15
  9
$PINSBASE
 10
4.403525741743744E+99
 20
7.061986388769092E+99
 30
0.0
  9
$PLIMCHECK
 70
     0
  9
$PEXTMIN
 10
1.000000000000000E+20
 20
1.000000000000000E+20
 30
1.000000000000000E+20
  9
$PEXTMAX
 10
-1.000000000000000E+20
 20
-1.000000000000000E+20
 30
-1.000000000000000E+20
  9
$PLIMMIN
 10
0.0
 20
0.0
  9
$PLIMMAX
 10
12.0
 20
9.0
  9
$UNITMODE
 70
     0
  9
$VISRETAIN
 70
     0
  9
$PLINEGEN
 70
     0
  9
$PSLTSCALE
 70
     1
  9
$TREEDEPTH
 70
  3020
  9
$PICKSTYLE
 70
     1
  9
$CMLSTYLE
  2
STANDARD
  9
$CMLJUST
 70
     0
  9
$CMLSCALE
 40
1.0
  9
$PROXYGRAPHICS
 70
     1
  9
$MEASUREMENT
 70
     0
  0
ENDSEC
  0
SECTION
  2
CLASSES
  0
CLASS
  1
ACDBDICTIONARYWDFLT
  2
AcDbDictionaryWithDefault
  3
AutoCAD 2000
 90
        0
280
     0
281
     0
  0
CLASS
  1
ACDBPLACEHOLDER
  2
AcDbPlaceHolder
  3
AutoCAD 2000
 90
        0
280
     0
281
     0
  0
CLASS
  1
LAYOUT
  2
AcDbLayout
  3
AutoCAD 2000
 90
        0
280
     0
281
     0
  0
CLASS
  1
DICTIONARYVAR
  2
AcDbDictionaryVar
  3
AutoCAD 2000
 90
        0
280
     0
281
     0
  0
CLASS
  1
LONG_TRANSACTION
  2
AcDbLongTransaction
  3
AutoCAD 2000
 90
        0
280
     0
281
     0
  0
CLASS
  1
LWPOLYLINE
  2
AcDbPolyline
  3
AutoCAD 2000
 90
        0
280
     0
281
     1
  0
CLASS
  1
HATCH
  2
AcDbHatch
  3
AutoCAD 2000
 90
        0
280
     0
281
     1
  0
CLASS
  1
XRECORD
  2
AcDbXrecord
  3
AutoCAD 2000
 90
        0
280
     0
281
     0
  0
CLASS
  1
LONG_TRANSACTION
  2
AcDbLongTransaction
  3
AutoCAD 2000
 90
        0
280
     0
281
     0
  0
CLASS
  1
LWPOLYLINE
  2
AcDbPolyline
  3
AutoCAD 2000
 90
        0
280
     0
281
     1
  0
CLASS
  1
HATCH
  2
AcDbHatch
  3
AutoCAD 2000
 90
        0
280
     0
281
     1
  0
CLASS
  1
XRECORD
  2
AcDbXrecord
  3
AutoCAD 2000
 90
        0
280
     0
281
     0
  0
CLASS
  1
LONG_TRANSACTION
  2
AcDbLongTransaction
  3
AutoCAD 2000
 90
        0
280
     0
281
     0
  0
CLASS
  1
LWPOLYLINE
  2
AcDbPolyline
  3
AutoCAD 2000
 90
        0
280
     0
281
     1
  0
CLASS
  1
HATCH
  2
AcDbHatch
  3
AutoCAD 2000
 90
        0
280
     0
281
     1
  0
CLASS
  1
XRECORD
  2
AcDbXrecord
  3
AutoCAD 2000
 90
        0
280
     0
281
     0
  0
CLASS
  1
LONG_TRANSACTION
  2
AcDbLongTransaction
  3
AutoCAD 2000
 90
        0
280
     0
281
     0
  0
CLASS
  1
LWPOLYLINE
  2
AcDbPolyline
  3
AutoCAD 2000
 90
        0
280
     0
281
     1
  0
CLASS
  1
HATCH
  2
AcDbHatch
  3
AutoCAD 2000
 90
        0
280
     0
281
     1
  0
CLASS
  1
XRECORD
  2
AcDbXrecord
  3
AutoCAD 2000
 90
        0
280
     0
281
     0
  0
CLASS
  1
LONG_TRANSACTION
  2
AcDbLongTransaction
  3
AutoCAD 2000
 90
        0
280
     0
281
     0
  0
CLASS
  1
LWPOLYLINE
  2
AcDbPolyline
  3
AutoCAD 2000
 90
        0
280
     0
281
     1
  0
CLASS
  1
HATCH
  2
AcDbHatch
  3
AutoCAD 2000
 90
        0
280
     0
281
     1
  0
CLASS
  1
XRECORD
  2
AcDbXrecord
  3
AutoCAD 2000
 90
        0
280
     0
281
     0
  0
ENDSEC
  0
SECTION
  2
TABLES
  0
TABLE
  2
VPORT
  5
12
330
0
100
AcDbSymbolTable
 70
     2
  0
VPORT
  5
347
330
12
100
AcDbSymbolTableRecord
100
AcDbViewportTableRecord
  2
*ACTIVE
 70
     0
 10
0.0
 20
0.0
 11
1.0
 21
1.0
 12
23.32287606657817
 22
16.91372688919506
 13
0.0
 23
0.0
 14
0.5740882589684922
 24
0.5740882589684922
 15
0.5
 25
0.5
 16
0.0
 26
0.0
 36
1.0
 17
0.0
 27
0.0
 37
0.0
 40
8.234380065871835
 41
1.570528967254408
 42
50.0
 43
0.0
 44
0.0
 50
0.0
 51
0.0
 71
     0
 72
   100
 73
     1
 74
     0
 75
     0
 76
     0
 77
     0
 78
     1
  0
ENDTAB
  0
TABLE
  2
LTYPE
  5
E
330
0
100
AcDbSymbolTable
 70
     2
  0
LTYPE
  5
F
330
E
100
AcDbSymbolTableRecord
100
AcDbLinetypeTableRecord
  2
BYBLOCK
 70
     0
  3

 72
    65
 73
     0
 40
0.0
  0
LTYPE
  5
6
330
E
100
AcDbSymbolTableRecord
100
AcDbLinetypeTableRecord
  2
BYLAYER
 70
     0
  3

 72
    65
 73
     0
 40
0.0
  0
LTYPE
  5
5
330
E
100
AcDbSymbolTableRecord
100
AcDbLinetypeTableRecord
  2
CONTINUOUS
 70
     0
  3
Solid line
 72
    65
 73
     0
 40
0.0
  0
LTYPE
  5
9B
330
E
100
AcDbSymbolTableRecord
100
AcDbLinetypeTableRecord
  2
HIDDEN2
 70
     0
  3
_ _ _ _ _ _ _ _ _ _ _ _ _ _ _ _ _ _ _ _ _ _ _ _
 72
    65
 73
     2
 40
0.1875
 49
0.125
 74
     0
 49
-0.0625
 74
     0
  0
ENDTAB
  0
TABLE
  2
LAYER
  5
B
330
0
100
AcDbSymbolTable
 70
     5
  0
LAYER
  5
4
330
B
100
AcDbSymbolTableRecord
100
AcDbLayerTableRecord
  2
0
 70
     0
 62
     7
  6
CONTINUOUS
  0
LAYER
  5
1E
330
B
100
AcDbSymbolTableRecord
100
AcDbLayerTableRecord
  2
ADP1DETAIL
 70
     0
 62
     7
  6
CONTINUOUS
  0
LAYER
  5
2B
330
B
100
AcDbSymbolTableRecord
100
AcDbLayerTableRecord
  2
DEFPOINTS
 70
     0
 62
     7
  6
CONTINUOUS
  0
LAYER
  5
21
330
B
100
AcDbSymbolTableRecord
100
AcDbLayerTableRecord
  2
ADPDIM
 70
     0
 62
     3
  6
CONTINUOUS
  0
LAYER
  5
9A
330
B
100
AcDbSymbolTableRecord
100
AcDbLayerTableRecord
  2
ADP2DETAIL
 70
     0
 62
     5
  6
CONTINUOUS
  0
ENDTAB
  0
TABLE
  2
STYLE
  5
C
330
0
100
AcDbSymbolTable
 70
     2
  0
STYLE
  5
D
330
C
100
AcDbSymbolTableRecord
100
AcDbTextStyleTableRecord
  2
STANDARD
 70
     0
 40
0.0
 41
1.0
 50
0.0
 71
     0
 42
0.2
  3
txt
  4

  0
STYLE
  5
CC
330
C
100
AcDbSymbolTableRecord
100
AcDbTextStyleTableRecord
  2
ARIAL_WIDE
 70
     0
 40
0.0
 41
1.25
 50
0.0
 71
     0
 42
0.2
  3
ARIAL.TTF
  4

1001
ACAD
1000
Arial
1071
       34
  0
ENDTAB
  0
TABLE
  2
VIEW
  5
10
330
0
100
AcDbSymbolTable
 70
     0
  0
ENDTAB
  0
TABLE
  2
UCS
  5
11
330
0
100
AcDbSymbolTable
 70
     0
  0
ENDTAB
  0
TABLE
  2
APPID
  5
14
330
0
100
AcDbSymbolTable
 70
     1
  0
APPID
  5
15
330
14
100
AcDbSymbolTableRecord
100
AcDbRegAppTableRecord
  2
ACAD
 70
     0
  0
ENDTAB
  0
TABLE
  2
DIMSTYLE
  5
16
330
0
100
AcDbSymbolTable
 70
     1
  0
DIMSTYLE
105
1C
102
{ACAD_REACTORS
330
20
330
34
330
42
330
B4
102
}
330
16
100
AcDbSymbolTableRecord
100
AcDbDimStyleTableRecord
  2
STANDARD
 70
     0
  3

  4

  5

  6

  7

 40
1.0
 41
0.18
 42
0.0625
 43
0.38
 44
0.18
 45
0.0
 46
0.0
 47
0.0
 48
0.0
140
0.18
141
0.09
142
0.0
143
25.4
144
1.0
145
0.0
146
1.0
147
0.09
 71
     0
 72
     0
 73
     1
 74
     1
 75
     0
 76
     0
 77
     0
 78
     0
170
     0
171
     2
172
     0
173
     0
174
     0
175
     0
176
     0
177
     0
178
     0
270
     2
271
     4
272
     4
273
     2
274
     2
340
D
275
     0
280
     0
281
     0
282
     0
283
     1
284
     0
285
     0
286
     0
287
     3
288
     0
  0
ENDTAB
  0
TABLE
  2
BLOCK_RECORD
  5
1
330
0
100
AcDbSymbolTable
 70
     5
  0
BLOCK_RECORD
  5
2
102
{ACAD_XDICTIONARY
360
155
102
}
330
1
100
AcDbSymbolTableRecord
100
AcDbBlockTableRecord
  2
*MODEL_SPACE
  0
BLOCK_RECORD
  5
8
102
{ACAD_XDICTIONARY
360
157
102
}
330
1
100
AcDbSymbolTableRecord
100
AcDbBlockTableRecord
  2
*PAPER_SPACE
  0
BLOCK_RECORD
  5
55
330
1
100
AcDbSymbolTableRecord
100
AcDbBlockTableRecord
  2
STUD
  0
BLOCK_RECORD
  5
159
330
1
100
AcDbSymbolTableRecord
100
AcDbBlockTableRecord
  2
*D1
  0
BLOCK_RECORD
  5
168
330
1
100
AcDbSymbolTableRecord
100
AcDbBlockTableRecord
  2
*D2
  0
BLOCK_RECORD
  5
175
330
1
100
AcDbSymbolTableRecord
100
AcDbBlockTableRecord
  2
*D3
  0
BLOCK_RECORD
  5
182
330
1
100
AcDbSymbolTableRecord
100
AcDbBlockTableRecord
  2
*D4
  0
ENDTAB
  0
ENDSEC
  0
SECTION
  2
BLOCKS
  0
BLOCK
  5
3
330
2
100
AcDbEntity
  8
0
100
AcDbBlockBegin
  2
*MODEL_SPACE
 70
     0
 10
0.0
 20
0.0
 30
0.0
  3
*MODEL_SPACE
  1

  0
ENDBLK
  5
7
330
2
100
AcDbEntity
  8
0
100
AcDbBlockEnd
  0
BLOCK
  5
9
330
8
100
AcDbEntity
 67
     1
  8
0
100
AcDbBlockBegin
  2
*PAPER_SPACE
 70
     0
 10
0.0
 20
0.0
 30
0.0
  3
*PAPER_SPACE
  1

  0
ENDBLK
  5
A
330
8
100
AcDbEntity
 67
     1
  8
0
100
AcDbBlockEnd
  0
BLOCK
  5
89
330
55
100
AcDbEntity
  8
0
100
AcDbBlockBegin
  2
STUD
 70
     0
 10
0.0
 20
0.0
 30
0.0
  3
STUD
  1

  0
LINE
  5
56
330
55
100
AcDbEntity
  8
0
100
AcDbLine
 10
-0.2106546533272015
 20
0.4345838899572075
 30
0.0
 11
-0.2416546533272015
 21
0.4965838899572073
 31
0.0
  0
LINE
  5
57
330
55
100
AcDbEntity
  8
0
100
AcDbLine
 10
-0.2128857855944517
 20
-0.0034161100427927
 30
0.0
 11
-0.2438857855944517
 21
0.0585838899572071
 31
0.0
  0
LINE
  5
58
330
55
100
AcDbEntity
  8
0
100
AcDbLine
 10
-0.6191843435445581
 20
0.4965838899572073
 30
0.0
 11
-0.6191843435445581
 21
0.0575739754449174
 31
0.0
  0
LINE
  5
59
330
55
100
AcDbEntity
  8
0
100
AcDbLine
 10
-0.274160893627193
 20
0.4345838899572075
 30
0.0
 11
-0.2438857855944517
 21
0.0585838899572071
 31
0.0
  0
LINE
  5
5A
330
55
100
AcDbEntity
  8
0
100
AcDbLine
 10
-0.3376671339271846
 20
0.4345838899572075
 30
0.0
 11
-0.3073920258944432
 21
0.0585838899572071
 31
0.0
  0
LINE
  5
5B
330
55
100
AcDbEntity
  8
0
100
AcDbLine
 10
-0.401173374227176
 20
0.4345838899572075
 30
0.0
 11
-0.3708982661944346
 21
0.0585838899572071
 31
0.0
  0
LINE
  5
5C
330
55
100
AcDbEntity
  8
0
100
AcDbLine
 10
-0.4646796613424146
 20
0.4345838899572075
 30
0.0
 11
-0.4344045533096732
 21
0.0585838899572071
 31
0.0
  0
LINE
  5
5D
330
55
100
AcDbEntity
  8
0
100
AcDbLine
 10
-0.5224125985578164
 20
0.4345838899572075
 30
0.0
 11
-0.492137490525075
 21
0.0585838899572071
 31
0.0
  0
LINE
  5
5E
330
55
100
AcDbEntity
  8
0
100
AcDbLine
 10
-0.585918838857808
 20
0.4345838899572075
 30
0.0
 11
-0.5556437308250666
 21
0.0585838899572071
 31
0.0
  0
LINE
  5
5F
330
55
100
AcDbEntity
  8
0
100
AcDbLine
 10
-0.4654045533096733
 20
-0.0034161100427927
 30
0.0
 11
-0.492137490525075
 21
0.0585838899572071
 31
0.0
  0
LINE
  5
60
330
55
100
AcDbEntity
  8
0
100
AcDbLine
 10
-0.6191843435445581
 20
0.0575739754449174
 30
0.0
 11
-0.5866437308250667
 21
-0.0034161100427927
 31
0.0
  0
LINE
  5
61
330
55
100
AcDbEntity
  8
0
100
AcDbLine
 10
-0.5246437308250666
 20
-0.0034161100427927
 30
0.0
 11
-0.5556437308250666
 21
0.0585838899572071
 31
0.0
  0
LINE
  5
62
330
55
100
AcDbEntity
  8
0
100
AcDbLine
 10
-0.5556437308250666
 20
0.0585838899572071
 30
0.0
 11
-0.5866437308250667
 21
-0.0034161100427927
 31
0.0
  0
LINE
  5
63
330
55
100
AcDbEntity
  8
0
100
AcDbLine
 10
-0.492137490525075
 20
0.0585838899572071
 30
0.0
 11
-0.5231374905250751
 21
-0.0034161100427927
 31
0.0
  0
LINE
  5
64
330
55
100
AcDbEntity
  8
0
100
AcDbLine
 10
-0.3398982661944347
 20
-0.0034161100427927
 30
0.0
 11
-0.3708982661944346
 21
0.0585838899572071
 31
0.0
  0
LINE
  5
65
330
55
100
AcDbEntity
  8
0
100
AcDbLine
 10
-0.4034045533096732
 20
-0.0034161100427927
 30
0.0
 11
-0.4344045533096732
 21
0.0585838899572071
 31
0.0
  0
LINE
  5
66
330
55
100
AcDbEntity
  8
0
100
AcDbLine
 10
-0.4344045533096732
 20
0.0585838899572071
 30
0.0
 11
-0.4654045533096733
 21
-0.0034161100427927
 31
0.0
  0
LINE
  5
67
330
55
100
AcDbEntity
  8
0
100
AcDbLine
 10
-0.3708982661944346
 20
0.0585838899572071
 30
0.0
 11
-0.4018982661944348
 21
-0.0034161100427927
 31
0.0
  0
LINE
  5
68
330
55
100
AcDbEntity
  8
0
100
AcDbLine
 10
-0.2763920258944432
 20
-0.0034161100427927
 30
0.0
 11
-0.3073920258944432
 21
0.0585838899572071
 31
0.0
  0
LINE
  5
69
330
55
100
AcDbEntity
  8
0
100
AcDbLine
 10
-0.3073920258944432
 20
0.0585838899572071
 30
0.0
 11
-0.3383920258944432
 21
-0.0034161100427927
 31
0.0
  0
LINE
  5
6A
330
55
100
AcDbEntity
  8
0
100
AcDbLine
 10
-0.2438857855944517
 20
0.0585838899572071
 30
0.0
 11
-0.2748857855944518
 21
-0.0034161100427927
 31
0.0
  0
LINE
  5
6B
330
55
100
AcDbEntity
  8
0
100
AcDbLine
 10
-0.4646796613424146
 20
0.4345838899572075
 30
0.0
 11
-0.4956796613424145
 21
0.4965838899572073
 31
0.0
  0
LINE
  5
6C
330
55
100
AcDbEntity
  8
0
100
AcDbLine
 10
-0.585918838857808
 20
0.4345838899572075
 30
0.0
 11
-0.616918838857808
 21
0.4965838899572073
 31
0.0
  0
LINE
  5
6D
330
55
100
AcDbEntity
  8
0
100
AcDbLine
 10
-0.5224125985578164
 20
0.4345838899572075
 30
0.0
 11
-0.5534125985578165
 21
0.4965838899572073
 31
0.0
  0
LINE
  5
6E
330
55
100
AcDbEntity
  8
0
100
AcDbLine
 10
-0.4956796613424145
 20
0.4965838899572073
 30
0.0
 11
-0.5224125985578164
 21
0.4345838899572075
 31
0.0
  0
LINE
  5
6F
330
55
100
AcDbEntity
  8
0
100
AcDbLine
 10
-0.5549188388578079
 20
0.4965838899572073
 30
0.0
 11
-0.585918838857808
 21
0.4345838899572075
 31
0.0
  0
LINE
  5
70
330
55
100
AcDbEntity
  8
0
100
AcDbLine
 10
-0.3376671339271846
 20
0.4345838899572075
 30
0.0
 11
-0.3686671339271845
 21
0.4965838899572073
 31
0.0
  0
LINE
  5
71
330
55
100
AcDbEntity
  8
0
100
AcDbLine
 10
-0.401173374227176
 20
0.4345838899572075
 30
0.0
 11
-0.432173374227176
 21
0.4965838899572073
 31
0.0
  0
LINE
  5
72
330
55
100
AcDbEntity
  8
0
100
AcDbLine
 10
-0.3701733742271759
 20
0.4965838899572073
 30
0.0
 11
-0.401173374227176
 21
0.4345838899572075
 31
0.0
  0
LINE
  5
73
330
55
100
AcDbEntity
  8
0
100
AcDbLine
 10
-0.4336796613424145
 20
0.4965838899572073
 30
0.0
 11
-0.4646796613424146
 21
0.4345838899572075
 31
0.0
  0
LINE
  5
74
330
55
100
AcDbEntity
  8
0
100
AcDbLine
 10
-0.274160893627193
 20
0.4345838899572075
 30
0.0
 11
-0.305160893627193
 21
0.4965838899572073
 31
0.0
  0
LINE
  5
75
330
55
100
AcDbEntity
  8
0
100
AcDbLine
 10
-0.243160893627193
 20
0.4965838899572073
 30
0.0
 11
-0.274160893627193
 21
0.4345838899572075
 31
0.0
  0
LINE
  5
76
330
55
100
AcDbEntity
  8
0
100
AcDbLine
 10
-0.3066671339271845
 20
0.4965838899572073
 30
0.0
 11
-0.3376671339271846
 21
0.4345838899572075
 31
0.0
  0
LINE
  5
77
330
55
100
AcDbEntity
  8
0
100
AcDbLine
 10
-0.0251843435445581
 20
0.4345838899572075
 30
0.0
 11
0.0050907644881833
 21
0.0585838899572071
 31
0.0
  0
LINE
  5
78
330
55
100
AcDbEntity
  8
0
100
AcDbLine
 10
-0.0871843435445581
 20
0.4345838899572075
 30
0.0
 11
-0.0569092355118167
 21
0.0585838899572071
 31
0.0
  0
LINE
  5
79
330
55
100
AcDbEntity
  8
0
100
AcDbLine
 10
-0.1491843435445581
 20
0.4345838899572075
 30
0.0
 11
-0.1189092355118167
 21
0.0585838899572071
 31
0.0
  0
LINE
  5
7A
330
55
100
AcDbEntity
  8
0
100
AcDbLine
 10
-0.2106546533272015
 20
0.4345838899572075
 30
0.0
 11
-0.1803795452944603
 21
0.0585838899572071
 31
0.0
  0
LINE
  5
7B
330
55
100
AcDbEntity
  8
0
100
AcDbLine
 10
-0.0879092355118168
 20
-0.0034161100427927
 30
0.0
 11
-0.1189092355118167
 21
0.0585838899572071
 31
0.0
  0
LINE
  5
7C
330
55
100
AcDbEntity
  8
0
100
AcDbLine
 10
-0.1493795452944602
 20
-0.0034161100427927
 30
0.0
 11
-0.1803795452944603
 21
0.0585838899572071
 31
0.0
  0
LINE
  5
7D
330
55
100
AcDbEntity
  8
0
100
AcDbLine
 10
-0.1803795452944603
 20
0.0585838899572071
 30
0.0
 11
-0.2113795452944602
 21
-0.0034161100427927
 31
0.0
  0
LINE
  5
7E
330
55
100
AcDbEntity
  8
0
100
AcDbLine
 10
-0.1189092355118167
 20
0.0585838899572071
 30
0.0
 11
-0.1499092355118167
 21
-0.0034161100427927
 31
0.0
  0
LINE
  5
7F
330
55
100
AcDbEntity
  8
0
100
AcDbLine
 10
-0.0569092355118167
 20
0.0585838899572071
 30
0.0
 11
-0.0879092355118168
 21
-0.0034161100427927
 31
0.0
  0
LINE
  5
80
330
55
100
AcDbEntity
  8
0
100
AcDbLine
 10
-0.0259092355118167
 20
-0.0034161100427927
 30
0.0
 11
-0.0569092355118167
 21
0.0585838899572071
 31
0.0
  0
LINE
  5
81
330
55
100
AcDbEntity
  8
0
100
AcDbLine
 10
0.0050907644881833
 20
0.0585838899572071
 30
0.0
 11
-0.0259092355118167
 21
-0.0034161100427927
 31
0.0
  0
LINE
  5
82
330
55
100
AcDbEntity
  8
0
100
AcDbLine
 10
-0.0871843435445581
 20
0.4345838899572075
 30
0.0
 11
-0.118184343544558
 21
0.4965838899572073
 31
0.0
  0
LINE
  5
83
330
55
100
AcDbEntity
  8
0
100
AcDbLine
 10
-0.1491843435445581
 20
0.4345838899572075
 30
0.0
 11
-0.180184343544558
 21
0.4965838899572073
 31
0.0
  0
LINE
  5
84
330
55
100
AcDbEntity
  8
0
100
AcDbLine
 10
-0.118184343544558
 20
0.4965838899572073
 30
0.0
 11
-0.1491843435445581
 21
0.4345838899572075
 31
0.0
  0
LINE
  5
85
330
55
100
AcDbEntity
  8
0
100
AcDbLine
 10
-0.1796546533272015
 20
0.4965838899572073
 30
0.0
 11
-0.2106546533272015
 21
0.4345838899572075
 31
0.0
  0
LINE
  5
86
330
55
100
AcDbEntity
  8
0
100
AcDbLine
 10
0.005815656455442
 20
0.4965838899572073
 30
0.0
 11
-0.0251843435445581
 21
0.4345838899572075
 31
0.0
  0
LINE
  5
87
330
55
100
AcDbEntity
  8
0
100
AcDbLine
 10
-0.0251843435445581
 20
0.4345838899572075
 30
0.0
 11
-0.0561843435445581
 21
0.4965838899572073
 31
0.0
  0
LINE
  5
88
330
55
100
AcDbEntity
  8
0
100
AcDbLine
 10
-0.0561843435445581
 20
0.4965838899572073
 30
0.0
 11
-0.0871843435445581
 21
0.4345838899572075
 31
0.0
  0
ENDBLK
  5
8A
330
55
100
AcDbEntity
  8
0
100
AcDbBlockEnd
  0
BLOCK
  5
164
330
159
100
AcDbEntity
  8
0
100
AcDbBlockBegin
  2
*D1
 70
     1
 10
0.0
 20
0.0
 30
0.0
  3
*D1
  1

  0
LINE
  5
36B
330
159
100
AcDbEntity
  8
ADPDIM
 62
     0
100
AcDbLine
 10
23.4695435659674
 20
18.08071374128611
 30
0.0
 11
24.09572353576325
 21
18.0807137412861
 31
0.0
  0
LINE
  5
36C
330
159
100
AcDbEntity
  8
ADPDIM
 62
     0
100
AcDbLine
 10
23.53319378039939
 20
16.95549849563651
 30
0.0
 11
24.09572353576325
 21
16.9554984956365
 31
0.0
  0
LINE
  5
36D
330
159
100
AcDbEntity
  8
ADPDIM
 62
     0
100
AcDbLine
 10
23.91572353576325
 20
18.08071374128611
 30
0.0
 11
23.91572353576325
 21
17.8931061184613
 31
0.0
  0
LINE
  5
36E
330
159
100
AcDbEntity
  8
ADPDIM
 62
     0
100
AcDbLine
 10
23.91572353576325
 20
16.95549849563651
 30
0.0
 11
23.91572353576325
 21
17.1431061184613
 31
0.0
  0
LINE
  5
36F
330
159
100
AcDbEntity
  8
ADPDIM
 62
     0
100
AcDbLine
 10
24.04072353576325
 20
16.8304984956365
 30
0.0
 11
23.79072353576325
 21
17.0804984956365
 31
0.0
  0
LINE
  5
370
330
159
100
AcDbEntity
  8
ADPDIM
 62
     0
100
AcDbLine
 10
24.04072353576325
 20
17.9557137412861
 30
0.0
 11
23.79072353576325
 21
18.20571374128611
 31
0.0
  0
MTEXT
  5
371
330
159
100
AcDbEntity
  8
ADPDIM
 62
     0
100
AcDbMText
 10
23.91572353576325
 20
17.51810611846131
 30
0.0
 40
0.125
 41
0.0
 71
     5
 72
     1
  1
\A1;1 1/8
 11
0.0000000000000001
 21
1.0
 31
0.0
  0
POINT
  5
372
330
159
100
AcDbEntity
  8
DEFPOINTS
 62
     0
100
AcDbPoint
 10
23.4070435659674
 20
18.08071374128611
 30
0.0
  0
POINT
  5
373
330
159
100
AcDbEntity
  8
DEFPOINTS
 62
     0
100
AcDbPoint
 10
23.47069378039939
 20
16.95549849563651
 30
0.0
  0
POINT
  5
374
330
159
100
AcDbEntity
  8
DEFPOINTS
 62
     0
100
AcDbPoint
 10
23.91572353576325
 20
16.95549849563651
 30
0.0
  0
ENDBLK
  5
165
330
159
100
AcDbEntity
  8
0
100
AcDbBlockEnd
  0
BLOCK
  5
173
330
168
100
AcDbEntity
  8
0
100
AcDbBlockBegin
  2
*D2
 70
     1
 10
0.0
 20
0.0
 30
0.0
  3
*D2
  1

  0
LINE
  5
375
330
168
100
AcDbEntity
  8
ADPDIM
 62
     0
100
AcDbLine
 10
20.78717256373135
 20
17.44896854008067
 30
0.0
 11
20.78717256373135
 21
18.75396854008067
 31
0.0
  0
LINE
  5
376
330
168
100
AcDbEntity
  8
ADPDIM
 62
     0
100
AcDbLine
 10
23.03717256373135
 20
18.51146854008067
 30
0.0
 11
23.03717256373135
 21
18.75396854008067
 31
0.0
  0
LINE
  5
377
330
168
100
AcDbEntity
  8
ADPDIM
 62
     0
100
AcDbLine
 10
20.78717256373135
 20
18.57396854008067
 30
0.0
 11
21.51633923039802
 21
18.57396854008067
 31
0.0
  0
LINE
  5
378
330
168
100
AcDbEntity
  8
ADPDIM
 62
     0
100
AcDbLine
 10
23.03717256373135
 20
18.57396854008067
 30
0.0
 11
22.30800589706468
 21
18.57396854008067
 31
0.0
  0
LINE
  5
379
330
168
100
AcDbEntity
  8
ADPDIM
 62
     0
100
AcDbLine
 10
22.91217256373135
 20
18.44896854008067
 30
0.0
 11
23.16217256373135
 21
18.69896854008067
 31
0.0
  0
LINE
  5
37A
330
168
100
AcDbEntity
  8
ADPDIM
 62
     0
100
AcDbLine
 10
20.66217256373135
 20
18.44896854008067
 30
0.0
 11
20.91217256373135
 21
18.69896854008067
 31
0.0
  0
MTEXT
  5
37B
330
168
100
AcDbEntity
  8
ADPDIM
 62
     0
100
AcDbMText
 10
21.91217256373135
 20
18.57396854008067
 30
0.0
 40
0.125
 41
0.0
 71
     5
 72
     1
  1
\A1;2 1/4
  0
POINT
  5
37C
330
168
100
AcDbEntity
  8
DEFPOINTS
 62
     0
100
AcDbPoint
 10
20.78717256373135
 20
17.38646854008067
 30
0.0
  0
POINT
  5
37D
330
168
100
AcDbEntity
  8
DEFPOINTS
 62
     0
100
AcDbPoint
 10
23.03717256373135
 20
18.44896854008067
 30
0.0
  0
POINT
  5
37E
330
168
100
AcDbEntity
  8
DEFPOINTS
 62
     0
100
AcDbPoint
 10
23.03717256373135
 20
18.57396854008067
 30
0.0
  0
ENDBLK
  5
174
330
168
100
AcDbEntity
  8
0
100
AcDbBlockEnd
  0
BLOCK
  5
180
330
175
100
AcDbEntity
  8
0
100
AcDbBlockBegin
  2
*D3
 70
     1
 10
0.0
 20
0.0
 30
0.0
  3
*D3
  1

  0
LINE
  5
37F
330
175
100
AcDbEntity
  8
ADPDIM
 62
     0
100
AcDbLine
 10
22.6570435659674
 20
16.44021374128611
 30
0.0
 11
22.6570435659674
 21
15.99432469596361
 31
0.0
  0
LINE
  5
380
330
175
100
AcDbEntity
  8
ADPDIM
 62
     0
100
AcDbLine
 10
23.4070435659674
 20
16.44021374128611
 30
0.0
 11
23.4070435659674
 21
15.99432469596361
 31
0.0
  0
LINE
  5
381
330
175
100
AcDbEntity
  8
ADPDIM
 62
     0
100
AcDbLine
 10
22.6570435659674
 20
16.17432469596361
 30
0.0
 11
22.4070435659674
 21
16.17432469596361
 31
0.0
  0
LINE
  5
382
330
175
100
AcDbEntity
  8
ADPDIM
 62
     0
100
AcDbLine
 10
23.4070435659674
 20
16.17432469596361
 30
0.0
 11
23.6570435659674
 21
16.17432469596361
 31
0.0
  0
LINE
  5
383
330
175
100
AcDbEntity
  8
ADPDIM
 62
     0
100
AcDbLine
 10
23.2820435659674
 20
16.04932469596361
 30
0.0
 11
23.5320435659674
 21
16.29932469596361
 31
0.0
  0
LINE
  5
384
330
175
100
AcDbEntity
  8
ADPDIM
 62
     0
100
AcDbLine
 10
22.5320435659674
 20
16.04932469596361
 30
0.0
 11
22.7820435659674
 21
16.29932469596361
 31
0.0
  0
MTEXT
  5
385
330
175
100
AcDbEntity
  8
ADPDIM
 62
     0
100
AcDbMText
 10
23.0320435659674
 20
16.17432469596361
 30
0.0
 40
0.125
 41
0.0
 71
     5
 72
     1
  1
\A1;3/4
  0
POINT
  5
386
330
175
100
AcDbEntity
  8
DEFPOINTS
 62
     0
100
AcDbPoint
 10
22.6570435659674
 20
16.50271374128611
 30
0.0
  0
POINT
  5
387
330
175
100
AcDbEntity
  8
DEFPOINTS
 62
     0
100
AcDbPoint
 10
23.4070435659674
 20
16.50271374128611
 30
0.0
  0
POINT
  5
388
330
175
100
AcDbEntity
  8
DEFPOINTS
 62
     0
100
AcDbPoint
 10
23.4070435659674
 20
16.17432469596361
 30
0.0
  0
ENDBLK
  5
181
330
175
100
AcDbEntity
  8
0
100
AcDbBlockEnd
  0
BLOCK
  5
18D
330
182
100
AcDbEntity
  8
0
100
AcDbBlockBegin
  2
*D4
 70
     1
 10
0.0
 20
0.0
 30
0.0
  3
*D4
  1

  0
LINE
  5
389
330
182
100
AcDbEntity
  8
ADPDIM
 62
     0
100
AcDbLine
 10
24.90704356596742
 20
18.14787326582446
 30
0.0
 11
24.90704356596742
 21
18.53079219290594
 31
0.0
  0
LINE
  5
38A
330
182
100
AcDbEntity
  8
ADPDIM
 62
     0
100
AcDbLine
 10
25.65704356596742
 20
18.14787326582446
 30
0.0
 11
25.65704356596742
 21
18.53079219290594
 31
0.0
  0
LINE
  5
38B
330
182
100
AcDbEntity
  8
ADPDIM
 62
     0
100
AcDbLine
 10
24.90704356596742
 20
18.35079219290594
 30
0.0
 11
24.65704356596742
 21
18.35079219290594
 31
0.0
  0
LINE
  5
38C
330
182
100
AcDbEntity
  8
ADPDIM
 62
     0
100
AcDbLine
 10
25.65704356596742
 20
18.35079219290594
 30
0.0
 11
25.90704356596742
 21
18.35079219290594
 31
0.0
  0
LINE
  5
38D
330
182
100
AcDbEntity
  8
ADPDIM
 62
     0
100
AcDbLine
 10
25.53204356596742
 20
18.22579219290594
 30
0.0
 11
25.78204356596742
 21
18.47579219290594
 31
0.0
  0
LINE
  5
38E
330
182
100
AcDbEntity
  8
ADPDIM
 62
     0
100
AcDbLine
 10
24.78204356596742
 20
18.22579219290594
 30
0.0
 11
25.03204356596742
 21
18.47579219290594
 31
0.0
  0
MTEXT
  5
38F
330
182
100
AcDbEntity
  8
ADPDIM
 62
     0
100
AcDbMText
 10
25.28204356596742
 20
18.35079219290594
 30
0.0
 40
0.125
 41
0.0
 71
     5
 72
     1
  1
\A1;3/4
  0
POINT
  5
390
330
182
100
AcDbEntity
  8
DEFPOINTS
 62
     0
100
AcDbPoint
 10
24.90704356596742
 20
18.08537326582446
 30
0.0
  0
POINT
  5
391
330
182
100
AcDbEntity
  8
DEFPOINTS
 62
     0
100
AcDbPoint
 10
25.65704356596742
 20
18.08537326582446
 30
0.0
  0
POINT
  5
392
330
182
100
AcDbEntity
  8
DEFPOINTS
 62
     0
100
AcDbPoint
 10
25.65704356596742
 20
18.35079219290594
 30
0.0
  0
ENDBLK
  5
18E
330
182
100
AcDbEntity
  8
0
100
AcDbBlockEnd
  0
ENDSEC
  0
SECTION
  2
ENTITIES
  0
LINE
  5
1D
330
2
100
AcDbEntity
  8
ADP1DETAIL
100
AcDbLine
 10
22.9695435659674
 20
17.95571374128611
 30
0.0
 11
22.9695435659674
 21
18.08071374128611
 31
0.0
  0
LINE
  5
1F
330
2
100
AcDbEntity
  8
ADP1DETAIL
100
AcDbLine
 10
23.0945435659674
 20
18.08071374128611
 30
0.0
 11
23.0945435659674
 21
17.95571374128611
 31
0.0
  0
DIMENSION
  5
20
330
2
100
AcDbEntity
  8
ADPDIM
100
AcDbDimension
  2
*D1
 10
23.91572353576325
 20
16.95549849563651
 30
0.0
 11
23.91572353576325
 21
17.51810611846131
 31
0.0
 70
    32
  3
STANDARD
100
AcDbAlignedDimension
 13
23.4070435659674
 23
18.08071374128611
 33
0.0
 14
23.47069378039939
 24
16.95549849563651
 34
0.0
 50
90.0
100
AcDbRotatedDimension
1001
ACAD
1000
DSTYLE
1002
{
1070
   270
1070
     7
1070
   270
1070
     7
1070
   270
1070
     7
1070
   270
1070
     7
1070
   270
1070
     7
1070
    41
1040
0.125
1070
    73
1070
     0
1070
    74
1070
     0
1070
    78
1070
     2
1070
   140
1040
0.125
1070
   141
1040
0.1875
1070
   142
1040
0.125
1070
   147
1040
0.125
1070
   171
1070
     1
1070
   276
1070
     2
1070
   277
1070
     5
1002
}
  0
LINE
  5
30
330
2
100
AcDbEntity
  8
ADP1DETAIL
100
AcDbLine
 10
22.6570435659674
 20
16.50271374128611
 30
0.0
 11
22.6570435659674
 21
18.08071374128611
 31
0.0
  0
LINE
  5
31
330
2
100
AcDbEntity
  8
ADP1DETAIL
100
AcDbLine
 10
23.4070435659674
 20
18.08071374128611
 30
0.0
 11
23.4070435659674
 21
16.50271374128611
 31
0.0
  0
LINE
  5
32
330
2
100
AcDbEntity
  8
ADP1DETAIL
100
AcDbLine
 10
25.65704356596742
 20
18.08537326582446
 30
0.0
 11
25.78103288703253
 21
16.59535854621364
 31
0.0
  0
LINE
  5
33
330
2
100
AcDbEntity
  8
ADP1DETAIL
100
AcDbLine
 10
24.90704356596742
 20
18.08537326582446
 30
0.0
 11
24.78305424490229
 21
16.59535854621364
 31
0.0
  0
DIMENSION
  5
34
330
2
100
AcDbEntity
  8
ADPDIM
100
AcDbDimension
  2
*D2
 10
23.03717256373135
 20
18.57396854008067
 30
0.0
 11
21.91217256373135
 21
18.57396854008067
 31
0.0
 70
    32
  3
STANDARD
100
AcDbAlignedDimension
 13
20.78717256373135
 23
17.38646854008067
 33
0.0
 14
23.03717256373135
 24
18.44896854008067
 34
0.0
100
AcDbRotatedDimension
1001
ACAD
1000
DSTYLE
1002
{
1070
   270
1070
     7
1070
   270
1070
     7
1070
   270
1070
     7
1070
   270
1070
     7
1070
   270
1070
     7
1070
    41
1040
0.125
1070
    73
1070
     0
1070
    74
1070
     0
1070
    78
1070
     2
1070
   140
1040
0.125
1070
   141
1040
0.1875
1070
   142
1040
0.125
1070
   147
1040
0.125
1070
   171
1070
     1
1070
   276
1070
     2
1070
   277
1070
     5
1002
}
  0
DIMENSION
  5
42
330
2
100
AcDbEntity
  8
ADPDIM
100
AcDbDimension
  2
*D3
 10
23.4070435659674
 20
16.17432469596361
 30
0.0
 11
23.0320435659674
 21
16.17432469596361
 31
0.0
 70
    32
  3
STANDARD
100
AcDbAlignedDimension
 13
22.6570435659674
 23
16.50271374128611
 33
0.0
 14
23.4070435659674
 24
16.50271374128611
 34
0.0
100
AcDbRotatedDimension
1001
ACAD
1000
DSTYLE
1002
{
1070
   270
1070
     7
1070
   270
1070
     7
1070
   270
1070
     7
1070
   270
1070
     7
1070
   270
1070
     7
1070
    41
1040
0.125
1070
    73
1070
     0
1070
    74
1070
     0
1070
    78
1070
     2
1070
   140
1040
0.125
1070
   141
1040
0.1875
1070
   142
1040
0.125
1070
   147
1040
0.125
1070
   171
1070
     1
1070
   276
1070
     2
1070
   277
1070
     5
1002
}
  0
LINE
  5
50
330
2
100
AcDbEntity
  8
ADP1DETAIL
100
AcDbLine
 10
20.77849259393551
 20
17.38346751739415
 30
0.0
 11
20.90339299998214
 21
17.34946506018173
 31
0.0
  0
LINE
  5
51
330
2
100
AcDbEntity
  8
ADP1DETAIL
100
AcDbLine
 10
20.77849259393551
 20
16.50846751739415
 30
0.0
 11
20.90339299998214
 21
16.54246997460658
 31
0.0
  0
LINE
  5
52
330
2
100
AcDbEntity
  8
ADP1DETAIL
100
AcDbLine
 10
20.77849259393551
 20
16.94596751739415
 30
0.0
 11
20.77849259393551
 21
16.50846751739415
 31
0.0
  0
LINE
  5
53
330
2
100
AcDbEntity
  8
ADP1DETAIL
100
AcDbLine
 10
20.77849259393551
 20
16.94596751739415
 30
0.0
 11
20.77849259393551
 21
17.38346751739415
 31
0.0
  0
INSERT
  5
54
330
2
100
AcDbEntity
  8
ADP1DETAIL
100
AcDbBlockReference
  2
STUD
 10
20.77267693748007
 20
16.69938362743694
 30
0.0
  0
LINE
  5
8B
330
2
100
AcDbEntity
  8
ADP1DETAIL
100
AcDbLine
 10
22.15349259393551
 20
17.19596751739415
 30
0.0
 11
22.65349259393551
 21
17.25846751739415
 31
0.0
  0
LINE
  5
8C
330
2
100
AcDbEntity
  8
ADP1DETAIL
100
AcDbLine
 10
22.65349259393551
 20
16.63346751739415
 30
0.0
 11
22.15349259393551
 21
16.69596751739415
 31
0.0
  0
LINE
  5
8D
330
2
100
AcDbEntity
  8
ADP1DETAIL
100
AcDbLine
 10
20.90339299998214
 20
16.54246997460658
 30
0.0
 11
20.90349259393551
 21
16.94596751739415
 31
0.0
  0
LINE
  5
8E
330
2
100
AcDbEntity
  8
ADP1DETAIL
100
AcDbLine
 10
22.15349259393551
 20
16.69596751739415
 30
0.0
 11
20.90349259393551
 21
16.57096751739415
 31
0.0
  0
LINE
  5
8F
330
2
100
AcDbEntity
  8
ADP1DETAIL
100
AcDbLine
 10
20.90349259393551
 20
17.32096751739415
 30
0.0
 11
22.15349259393551
 21
17.19596751739415
 31
0.0
  0
LINE
  5
90
330
2
100
AcDbEntity
  8
ADP1DETAIL
100
AcDbLine
 10
20.90339299998214
 20
17.34946506018173
 30
0.0
 11
20.90349259393551
 21
16.94596751739415
 31
0.0
  0
LINE
  5
91
330
2
100
AcDbEntity
  8
ADP1DETAIL
100
AcDbLine
 10
22.14945482679725
 20
16.69680033395562
 30
0.0
 11
22.14945482679725
 21
17.19513470083269
 31
0.0
  0
LINE
  5
92
330
2
100
AcDbEntity
  8
ADP1DETAIL
100
AcDbLine
 10
23.0320435659674
 20
16.50041140749603
 30
0.0
 11
23.0320435659674
 21
16.7679984956365
 31
0.0
  0
LINE
  5
93
330
2
100
AcDbEntity
  8
ADP1DETAIL
100
AcDbLine
 10
23.4070435659674
 20
16.59291990143078
 30
0.0
 11
22.6570435659674
 21
16.59291990143078
 31
0.0
  0
LINE
  5
94
330
2
100
AcDbEntity
  8
ADP1DETAIL
100
AcDbLine
 10
23.4070435659674
 20
16.50271374128611
 30
0.0
 11
22.6570435659674
 21
16.50271374128611
 31
0.0
  0
LINE
  5
95
330
2
100
AcDbEntity
  8
ADP1DETAIL
100
AcDbLine
 10
22.66792934541187
 20
17.15039297871912
 30
0.0
 11
23.0320435659674
 21
17.15039297871912
 31
0.0
  0
LINE
  5
96
330
2
100
AcDbEntity
  8
ADP1DETAIL
100
AcDbLine
 10
23.0320435659674
 20
17.15039297871912
 30
0.0
 11
23.0320435659674
 21
17.57030980589719
 31
0.0
  0
LINE
  5
97
330
2
100
AcDbEntity
  8
ADP1DETAIL
100
AcDbLine
 10
23.0320435659674
 20
16.7679984956365
 30
0.0
 11
23.39615778652292
 21
16.7679984956365
 31
0.0
  0
LINE
  5
98
330
2
100
AcDbEntity
  8
ADP1DETAIL
100
AcDbLine
 10
23.52423332222163
 20
17.23378401483366
 30
0.0
 11
23.52423332222163
 21
16.95549849563651
 31
0.0
  0
ARC
  5
99
330
2
100
AcDbEntity
  8
ADP2DETAIL
  6
HIDDEN2
100
AcDbCircle
 10
24.22069378039939
 20
16.95549849563651
 30
0.0
 40
0.75
100
AcDbArc
 50
158.2197748746747
 51
180.0
  0
LINE
  5
9C
330
2
100
AcDbEntity
  8
ADP1DETAIL
100
AcDbLine
 10
23.52423332222163
 20
16.67721297643935
 30
0.0
 11
23.52423332222163
 21
16.95549849563651
 31
0.0
  0
LINE
  5
9D
330
2
100
AcDbEntity
  8
ADP1DETAIL
100
AcDbLine
 10
23.51997405050776
 20
16.67535087627432
 30
0.0
 11
23.51997405050776
 21
16.67535087627432
 31
0.0
  0
ARC
  5
9E
330
2
100
AcDbEntity
  8
ADP2DETAIL
  6
HIDDEN2
100
AcDbCircle
 10
24.22069378039939
 20
16.95549849563651
 30
0.0
 40
0.75
100
AcDbArc
 50
180.0
 51
201.7802251253252
  0
LINE
  5
9F
330
2
100
AcDbEntity
  8
ADP1DETAIL
100
AcDbLine
 10
23.39923332222164
 20
17.26799849563651
 30
0.0
 11
23.51997405050776
 21
17.23564611499869
 31
0.0
  0
LINE
  5
A0
330
2
100
AcDbEntity
  8
ADP1DETAIL
100
AcDbLine
 10
23.51997405050776
 20
17.23564611499869
 30
0.0
 11
23.51997405050776
 21
17.23564611499869
 31
0.0
  0
LINE
  5
A1
330
2
100
AcDbEntity
  8
ADP1DETAIL
100
AcDbLine
 10
23.52423332222163
 20
16.67721297643935
 30
0.0
 11
23.52423332222163
 21
16.67721297643935
 31
0.0
  0
LINE
  5
A2
330
2
100
AcDbEntity
  8
ADP1DETAIL
100
AcDbLine
 10
23.40349259393551
 20
16.64486059580153
 30
0.0
 11
23.52423332222163
 21
16.67721297643935
 31
0.0
  0
LINE
  5
A3
330
2
100
AcDbEntity
  8
ADP1DETAIL
100
AcDbLine
 10
22.93804356596739
 20
17.95571374128611
 30
0.0
 11
22.9695435659674
 21
17.95571374128611
 31
0.0
  0
LINE
  5
A4
330
2
100
AcDbEntity
  8
ADP1DETAIL
100
AcDbLine
 10
23.0945435659674
 20
17.95571374128611
 30
0.0
 11
23.1260435659674
 21
17.95571374128611
 31
0.0
  0
LINE
  5
A5
330
2
100
AcDbEntity
  8
ADP1DETAIL
100
AcDbLine
 10
23.1260435659674
 20
17.58071374128611
 30
0.0
 11
22.93804356596739
 21
17.58071374128611
 31
0.0
  0
LINE
  5
A6
330
2
100
AcDbEntity
  8
ADP1DETAIL
100
AcDbLine
 10
22.93804356596739
 20
17.58071374128611
 30
0.0
 11
22.93804356596739
 21
17.95571374128611
 31
0.0
  0
LINE
  5
A7
330
2
100
AcDbEntity
  8
ADP1DETAIL
100
AcDbLine
 10
23.1260435659674
 20
17.95571374128611
 30
0.0
 11
23.1260435659674
 21
17.58071374128611
 31
0.0
  0
LINE
  5
A8
330
2
100
AcDbEntity
  8
ADP1DETAIL
100
AcDbLine
 10
24.79458062861368
 20
16.72662326582446
 30
0.0
 11
25.04095845902317
 21
16.72662326582446
 31
0.0
  0
LINE
  5
A9
330
2
100
AcDbEntity
  8
ADP1DETAIL
100
AcDbLine
 10
25.28204356596742
 20
16.50737326582446
 30
0.0
 11
24.78305424490229
 21
16.59535854621364
 31
0.0
  0
CIRCLE
  5
AA
330
2
100
AcDbEntity
  8
ADP1DETAIL
100
AcDbCircle
 10
25.28204356596742
 20
16.91362326582446
 30
0.0
 40
0.3125
  0
CIRCLE
  5
AB
330
2
100
AcDbEntity
  8
ADP1DETAIL
100
AcDbCircle
 10
25.28204356596742
 20
16.9091229775447
 30
0.0
 40
0.2859512779740925
  0
LINE
  5
AC
330
2
100
AcDbEntity
  8
ADP1DETAIL
100
AcDbLine
 10
25.28204356596742
 20
16.50737326582446
 30
0.0
 11
25.78103288703253
 21
16.59535854621364
 31
0.0
  0
LINE
  5
AD
330
2
100
AcDbEntity
  8
ADP1DETAIL
100
AcDbLine
 10
25.28220264647931
 20
17.42558999278173
 30
0.0
 11
25.28220264647931
 21
17.28010206107282
 31
0.0
  0
CIRCLE
  5
AE
330
2
100
AcDbEntity
  8
ADP1DETAIL
100
AcDbCircle
 10
25.28220264647931
 20
17.35284602692727
 30
0.0
 40
0.125
  0
LINE
  5
AF
330
2
100
AcDbEntity
  8
ADP1DETAIL
100
AcDbLine
 10
25.52696610476788
 20
17.10175466526397
 30
0.0
 11
25.7318756780058
 21
17.10175466526397
 31
0.0
  0
LINE
  5
B0
330
2
100
AcDbEntity
  8
ADP1DETAIL
100
AcDbLine
 10
25.19899400371034
 20
17.35284602692727
 30
0.0
 11
25.36541115745098
 21
17.35284602692727
 31
0.0
  0
LINE
  5
B1
330
2
100
AcDbEntity
  8
ADP1DETAIL
100
AcDbLine
 10
22.6570435659674
 20
18.08071374128611
 30
0.0
 11
22.9695435659674
 21
18.08071374128611
 31
0.0
  0
LINE
  5
B2
330
2
100
AcDbEntity
  8
ADP1DETAIL
100
AcDbLine
 10
23.0945435659674
 20
18.08071374128611
 30
0.0
 11
23.4070435659674
 21
18.08071374128611
 31
0.0
  0
LINE
  5
B3
330
2
100
AcDbEntity
  8
ADP1DETAIL
100
AcDbLine
 10
25.28204356596742
 20
18.08537326582446
 30
0.0
 11
24.90704356596742
 21
18.08537326582446
 31
0.0
  0
DIMENSION
  5
B4
330
2
100
AcDbEntity
  8
ADPDIM
100
AcDbDimension
  2
*D4
 10
25.65704356596742
 20
18.35079219290594
 30
0.0
 11
25.28204356596742
 21
18.35079219290594
 31
0.0
 70
    32
  3
STANDARD
100
AcDbAlignedDimension
 13
24.90704356596742
 23
18.08537326582446
 33
0.0
 14
25.65704356596742
 24
18.08537326582446
 34
0.0
100
AcDbRotatedDimension
1001
ACAD
1000
DSTYLE
1002
{
1070
   270
1070
     7
1070
   270
1070
     7
1070
   270
1070
     7
1070
   270
1070
     7
1070
   270
1070
     7
1070
    41
1040
0.125
1070
    73
1070
     0
1070
    74
1070
     0
1070
    78
1070
     2
1070
   140
1040
0.125
1070
   141
1040
0.1875
1070
   142
1040
0.125
1070
   147
1040
0.125
1070
   171
1070
     1
1070
   276
1070
     2
1070
   277
1070
     5
1002
}
  0
LINE
  5
C2
330
2
100
AcDbEntity
  8
ADP1DETAIL
100
AcDbLine
 10
25.28204356596742
 20
18.08537326582446
 30
0.0
 11
25.65704356596742
 21
18.08537326582446
 31
0.0
  0
TEXT
  5
CD
330
2
100
AcDbEntity
  8
ADPDIM
100
AcDbText
 10
16.88828052184164
 20
15.11061335818836
 30
0.0
 40
0.125
  1
J U L I U S  B L U M  &  C O . ,  I N C .      ( 8 0 0 )  5 2 6 - 6 2 9 3        W W W . J U L I U S B L U M . C O M        P A R T  N o .  4 3 9
 41
1.25
  7
ARIAL_WIDE
 72
     1
 11
23.32298805935869
 21
15.23561335818836
 31
0.0
100
AcDbText
 73
     3
  0
ENDSEC
  0
SECTION
  2
OBJECTS
  0
DICTIONARY
  5
1A
330
0
100
AcDbDictionary
  3
ACAD_GROUP
350
18
  3
ACAD_LAYOUT
350
C6
  3
ACAD_MLINESTYLE
350
19
  3
ACAD_PLOTSETTINGS
350
C7
  3
ACAD_PLOTSTYLENAME
350
C4
  3
ACDBHEADERROUNDTRIPXREC
350
348
  3
ACDBVARIABLEDICTIONARY
350
191
  0
DICTIONARY
  5
155
330
2
100
AcDbDictionary
280
     1
  3
ACAD_LAYOUTSELFREF
360
369
  0
DICTIONARY
  5
157
330
8
100
AcDbDictionary
280
     1
  3
ACAD_LAYOUTSELFREF
360
36A
  0
DICTIONARY
  5
18
102
{ACAD_REACTORS
330
1A
102
}
330
1A
100
AcDbDictionary
  0
DICTIONARY
  5
C6
102
{ACAD_REACTORS
330
1A
102
}
330
1A
100
AcDbDictionary
  0
DICTIONARY
  5
19
102
{ACAD_REACTORS
330
1A
102
}
330
1A
100
AcDbDictionary
  3
STANDARD
350
1B
  0
DICTIONARY
  5
C7
102
{ACAD_REACTORS
330
1A
102
}
330
1A
100
AcDbDictionary
  0
ACDBDICTIONARYWDFLT
  5
C4
102
{ACAD_REACTORS
330
1A
102
}
330
1A
100
AcDbDictionary
281
     1
  3
Normal
350
C5
100
AcDbDictionaryWithDefault
340
C5
  0
DICTIONARY
  5
348
102
{ACAD_REACTORS
330
1A
102
}
330
1A
100
AcDbDictionary
  3
CEPSNTYPE
350
352
  3
DIMSTYLEDATA
350
356
  3
FINGERPRINTGUID
350
353
  3
HYPERLINKBASE
350
34B
  3
INSUNITS
350
351
  3
LAYOUTDICT
350
34D
  3
LWETCUNION
350
350
  3
PLOTSETDICT
350
34E
  3
PLOTSTYLNAMDICT
350
34F
  3
PSVPSCALE
350
355
  3
PUCSBASE
350
359
  3
PUCSORGBACK
350
35F
  3
PUCSORGBOTTOM
350
35B
  3
PUCSORGFRONT
350
35E
  3
PUCSORGLEFT
350
35C
  3
PUCSORGRIGHT
350
35D
  3
PUCSORGTOP
350
35A
  3
PUCSORTHOREF
350
357
  3
PUCSORTHOVIEW
350
358
  3
STYLESHEET
350
34C
  3
TSTACKALIGN
350
349
  3
TSTACKSIZE
350
34A
  3
UCSBASE
350
362
  3
UCSORGBACK
350
368
  3
UCSORGBOTTOM
350
364
  3
UCSORGFRONT
350
367
  3
UCSORGLEFT
350
365
  3
UCSORGRIGHT
350
366
  3
UCSORGTOP
350
363
  3
UCSORTHOREF
350
360
  3
UCSORTHOVIEW
350
361
  3
VERSIONGUID
350
354
  0
DICTIONARY
  5
191
102
{ACAD_REACTORS
330
1A
102
}
330
1A
100
AcDbDictionary
  3
DIMASSOC
350
192
  0
XRECORD
  5
369
102
{ACAD_REACTORS
330
155
102
}
330
155
100
AcDbXrecord
340
2
  0
XRECORD
  5
36A
102
{ACAD_REACTORS
330
157
102
}
330
157
100
AcDbXrecord
340
8
  0
MLINESTYLE
  5
1B
102
{ACAD_REACTORS
330
19
102
}
330
19
100
AcDbMlineStyle
  2
STANDARD
 70
     0
  3

 62
     0
 51
90.0
 52
90.0
 71
     2
 49
0.5
 62
   256
  6
BYLAYER
 49
-0.5
 62
   256
  6
BYLAYER
  0
ACDBPLACEHOLDER
  5
C5
102
{ACAD_REACTORS
330
C4
102
}
330
C4
100
AcDbPlaceHolder
280
     0
  0
XRECORD
  5
352
102
{ACAD_REACTORS
330
348
102
}
330
348
100
AcDbXrecord
 90
        0
  0
XRECORD
  5
356
102
{ACAD_REACTORS
330
348
102
}
330
348
100
AcDbXrecord
1000
DSTYLE
1002
{
1070
   276
 70
     2
1070
   277
 70
     5
1002
}
  0
XRECORD
  5
353
102
{ACAD_REACTORS
330
348
102
}
330
348
100
AcDbXrecord
  1
{9A2FB540-D40F-4D0C-A487-4824DF3E13BD}
  0
XRECORD
  5
34B
102
{ACAD_REACTORS
330
348
102
}
330
348
100
AcDbXrecord
  1

  0
XRECORD
  5
351
102
{ACAD_REACTORS
330
348
102
}
330
348
100
AcDbXrecord
 90
        0
  0
XRECORD
  5
34D
102
{ACAD_REACTORS
330
348
102
}
330
348
100
AcDbXrecord
340
C6
  0
XRECORD
  5
350
102
{ACAD_REACTORS
330
348
102
}
330
348
100
AcDbXrecord
 90
    14877
  0
XRECORD
  5
34E
102
{ACAD_REACTORS
330
348
102
}
330
348
100
AcDbXrecord
340
C7
  0
XRECORD
  5
34F
102
{ACAD_REACTORS
330
348
102
}
330
348
100
AcDbXrecord
340
C4
  0
XRECORD
  5
355
102
{ACAD_REACTORS
330
348
102
}
330
348
100
AcDbXrecord
 40
0.0
  0
XRECORD
  5
359
102
{ACAD_REACTORS
330
348
102
}
330
348
100
AcDbXrecord
340
0
  0
XRECORD
  5
35F
102
{ACAD_REACTORS
330
348
102
}
330
348
100
AcDbXrecord
 10
0.0
 20
0.0
 30
0.0
  0
XRECORD
  5
35B
102
{ACAD_REACTORS
330
348
102
}
330
348
100
AcDbXrecord
 10
0.0
 20
0.0
 30
0.0
  0
XRECORD
  5
35E
102
{ACAD_REACTORS
330
348
102
}
330
348
100
AcDbXrecord
 10
0.0
 20
0.0
 30
0.0
  0
XRECORD
  5
35C
102
{ACAD_REACTORS
330
348
102
}
330
348
100
AcDbXrecord
 10
0.0
 20
0.0
 30
0.0
  0
XRECORD
  5
35D
102
{ACAD_REACTORS
330
348
102
}
330
348
100
AcDbXrecord
 10
0.0
 20
0.0
 30
0.0
  0
XRECORD
  5
35A
102
{ACAD_REACTORS
330
348
102
}
330
348
100
AcDbXrecord
 10
0.0
 20
0.0
 30
0.0
  0
XRECORD
  5
357
102
{ACAD_REACTORS
330
348
102
}
330
348
100
AcDbXrecord
340
0
  0
XRECORD
  5
358
102
{ACAD_REACTORS
330
348
102
}
330
348
100
AcDbXrecord
 70
     0
  0
XRECORD
  5
34C
102
{ACAD_REACTORS
330
348
102
}
330
348
100
AcDbXrecord
  1

  0
XRECORD
  5
349
102
{ACAD_REACTORS
330
348
102
}
330
348
100
AcDbXrecord
 90
        1
  0
XRECORD
  5
34A
102
{ACAD_REACTORS
330
348
102
}
330
348
100
AcDbXrecord
 90
       70
  0
XRECORD
  5
362
102
{ACAD_REACTORS
330
348
102
}
330
348
100
AcDbXrecord
340
0
  0
XRECORD
  5
368
102
{ACAD_REACTORS
330
348
102
}
330
348
100
AcDbXrecord
 10
0.0
 20
0.0
 30
0.0
  0
XRECORD
  5
364
102
{ACAD_REACTORS
330
348
102
}
330
348
100
AcDbXrecord
 10
0.0
 20
0.0
 30
0.0
  0
XRECORD
  5
367
102
{ACAD_REACTORS
330
348
102
}
330
348
100
AcDbXrecord
 10
0.0
 20
0.0
 30
0.0
  0
XRECORD
  5
365
102
{ACAD_REACTORS
330
348
102
}
330
348
100
AcDbXrecord
 10
0.0
 20
0.0
 30
0.0
  0
XRECORD
  5
366
102
{ACAD_REACTORS
330
348
102
}
330
348
100
AcDbXrecord
 10
0.0
 20
0.0
 30
0.0
  0
XRECORD
  5
363
102
{ACAD_REACTORS
330
348
102
}
330
348
100
AcDbXrecord
 10
0.0
 20
0.0
 30
0.0
  0
XRECORD
  5
360
102
{ACAD_REACTORS
330
348
102
}
330
348
100
AcDbXrecord
340
0
  0
XRECORD
  5
361
102
{ACAD_REACTORS
330
348
102
}
330
348
100
AcDbXrecord
 70
     0
  0
XRECORD
  5
354
102
{ACAD_REACTORS
330
348
102
}
330
348
100
AcDbXrecord
  1
{49844D77-F041-464C-B044-CD30D5DAC187}
  0
DICTIONARYVAR
  5
192
102
{ACAD_REACTORS
330
191
102
}
330
191
100
DictionaryVariables
280
     0
  1
1
  0
ENDSEC
  0
EOF
