  0
SECTION
  2
HEADER
  9
$ACADVER
  1
AC1014
  9
$ACADMAINTVER
 70
     9
  9
$DWGCODEPAGE
  3
ANSI_1252
  9
$INSBASE
 10
14.77908128534906
 20
-9.881688985348317
 30
0.0
  9
$EXTMIN
 10
-31.54487147727031
 20
-13.01714336733941
 30
0.0
  9
$EXTMAX
 10
58.54103404796844
 20
40.92836390396765
 30
0.0
  9
$LIMMIN
 10
0.0
 20
0.0
  9
$LIMMAX
 10
36.0
 20
36.0
  9
$ORTHOMODE
 70
     1
  9
$REGENMODE
 70
     1
  9
$FILLMODE
 70
     1
  9
$QTEXTMODE
 70
     0
  9
$MIRRTEXT
 70
     1
  9
$DRAGMODE
 70
     0
  9
$LTSCALE
 40
1.0
  9
$OSMODE
 70
    37
  9
$ATTMODE
 70
     1
  9
$TEXTSIZE
 40
0.2
  9
$TRACEWID
 40
0.05
  9
$TEXTSTYLE
  7
STANDARD
  9
$CLAYER
  8
0
  9
$CELTYPE
  6
BYLAYER
  9
$CECOLOR
 62
   256
  9
$CELTSCALE
 40
1.0
  9
$DELOBJ
 70
     1
  9
$DISPSILH
 70
     0
  9
$DIMSCALE
 40
1.0
  9
$DIMASZ
 40
0.125
  9
$DIMEXO
 40
0.0625
  9
$DIMDLI
 40
0.38
  9
$DIMRND
 40
0.0
  9
$DIMDLE
 40
0.0
  9
$DIMEXE
 40
0.18
  9
$DIMTP
 40
0.0
  9
$DIMTM
 40
0.0
  9
$DIMTXT
 40
0.125
  9
$DIMCEN
 40
0.1875
  9
$DIMTSZ
 40
0.125
  9
$DIMTOL
 70
     0
  9
$DIMLIM
 70
     0
  9
$DIMTIH
 70
     0
  9
$DIMTOH
 70
     0
  9
$DIMSE1
 70
     0
  9
$DIMSE2
 70
     0
  9
$DIMTAD
 70
     0
  9
$DIMZIN
 70
     2
  9
$DIMBLK
  1

  9
$DIMASO
 70
     1
  9
$DIMSHO
 70
     1
  9
$DIMPOST
  1

  9
$DIMAPOST
  1

  9
$DIMALT
 70
     0
  9
$DIMALTD
 70
     1
  9
$DIMALTF
 40
25.4
  9
$DIMLFAC
 40
1.0
  9
$DIMTOFL
 70
     0
  9
$DIMTVP
 40
0.0
  9
$DIMTIX
 70
     0
  9
$DIMSOXD
 70
     0
  9
$DIMSAH
 70
     0
  9
$DIMBLK1
  1

  9
$DIMBLK2
  1

  9
$DIMSTYLE
  2
STANDARD
  9
$DIMCLRD
 70
     0
  9
$DIMCLRE
 70
     0
  9
$DIMCLRT
 70
     0
  9
$DIMTFAC
 40
1.0
  9
$DIMGAP
 40
0.125
  9
$DIMJUST
 70
     0
  9
$DIMSD1
 70
     0
  9
$DIMSD2
 70
     0
  9
$DIMTOLJ
 70
     1
  9
$DIMTZIN
 70
     0
  9
$DIMALTZ
 70
     0
  9
$DIMALTTZ
 70
     0
  9
$DIMFIT
 70
     3
  9
$DIMUPT
 70
     0
  9
$DIMUNIT
 70
     7
  9
$DIMDEC
 70
     3
  9
$DIMTDEC
 70
     4
  9
$DIMALTU
 70
     2
  9
$DIMALTTD
 70
     2
  9
$DIMTXSTY
  7
STANDARD
  9
$DIMAUNIT
 70
     0
  9
$LUNITS
 70
     5
  9
$LUPREC
 70
     4
  9
$SKETCHINC
 40
0.1
  9
$FILLETRAD
 40
0.187
  9
$AUNITS
 70
     0
  9
$AUPREC
 70
     0
  9
$MENU
  1
acad
  9
$ELEVATION
 40
0.0
  9
$PELEVATION
 40
0.0
  9
$THICKNESS
 40
0.0
  9
$LIMCHECK
 70
     0
  9
$BLIPMODE
 70
     0
  9
$CHAMFERA
 40
0.0
  9
$CHAMFERB
 40
0.0
  9
$CHAMFERC
 40
0.0
  9
$CHAMFERD
 40
0.0
  9
$SKPOLY
 70
     0
  9
$TDCREATE
 40
2450399.618162615
  9
$TDUPDATE
 40
2452297.070251006
  9
$TDINDWG
 40
0.0355392940
  9
$TDUSRTIMER
 40
0.0355392940
  9
$USRTIMER
 70
     1
  9
$ANGBASE
 50
0.0
  9
$ANGDIR
 70
     0
  9
$PDMODE
 70
     0
  9
$PDSIZE
 40
0.0
  9
$PLINEWID
 40
0.0
  9
$COORDS
 70
     2
  9
$SPLFRAME
 70
     0
  9
$SPLINETYPE
 70
     6
  9
$SPLINESEGS
 70
     8
  9
$ATTDIA
 70
     0
  9
$ATTREQ
 70
     1
  9
$HANDLING
 70
 22529
  9
$HANDSEED
  5
3E7
  9
$SURFTAB1
 70
     6
  9
$SURFTAB2
 70
     6
  9
$SURFTYPE
 70
     6
  9
$SURFU
 70
     6
  9
$SURFV
 70
     6
  9
$UCSNAME
  2

  9
$UCSORG
 10
0.0
 20
0.0
 30
0.0
  9
$UCSXDIR
 10
1.0
 20
0.0
 30
0.0
  9
$UCSYDIR
 10
0.0
 20
1.0
 30
0.0
  9
$PUCSNAME
  2

  9
$PUCSORG
 10
0.0
 20
0.0
 30
0.0
  9
$PUCSXDIR
 10
1.0
 20
0.0
 30
0.0
  9
$PUCSYDIR
 10
0.0
 20
1.0
 30
0.0
  9
$USERI1
 70
     0
  9
$USERI2
 70
     0
  9
$USERI3
 70
     0
  9
$USERI4
 70
     0
  9
$USERI5
 70
     0
  9
$USERR1
 40
0.0
  9
$USERR2
 40
0.0
  9
$USERR3
 40
0.0
  9
$USERR4
 40
0.0
  9
$USERR5
 40
0.0
  9
$WORLDVIEW
 70
     1
  9
$SHADEDGE
 70
     3
  9
$SHADEDIF
 70
    70
  9
$TILEMODE
 70
     1
  9
$MAXACTVP
 70
    15
  9
$PINSBASE
 10
0.0004882914945483
 20
0.7501408034022604
 30
0.0
  9
$PLIMCHECK
 70
     0
  9
$PEXTMIN
 10
1.000000000000000E+20
 20
1.000000000000000E+20
 30
1.000000000000000E+20
  9
$PEXTMAX
 10
-1.000000000000000E+20
 20
-1.000000000000000E+20
 30
-1.000000000000000E+20
  9
$PLIMMIN
 10
0.0
 20
0.0
  9
$PLIMMAX
 10
12.0
 20
9.0
  9
$UNITMODE
 70
     0
  9
$VISRETAIN
 70
     0
  9
$PLINEGEN
 70
     0
  9
$PSLTSCALE
 70
     1
  9
$TREEDEPTH
 70
  3020
  9
$PICKSTYLE
 70
     1
  9
$CMLSTYLE
  2
STANDARD
  9
$CMLJUST
 70
     0
  9
$CMLSCALE
 40
1.0
  9
$PROXYGRAPHICS
 70
     1
  9
$MEASUREMENT
 70
     0
  0
ENDSEC
  0
SECTION
  2
CLASSES
  0
CLASS
  1
ACDBDICTIONARYWDFLT
  2
AcDbDictionaryWithDefault
  3
AutoCAD 2000
 90
        0
280
     0
281
     0
  0
CLASS
  1
ACDBPLACEHOLDER
  2
AcDbPlaceHolder
  3
AutoCAD 2000
 90
        0
280
     0
281
     0
  0
CLASS
  1
LAYOUT
  2
AcDbLayout
  3
AutoCAD 2000
 90
        0
280
     0
281
     0
  0
CLASS
  1
DICTIONARYVAR
  2
AcDbDictionaryVar
  3
AutoCAD 2000
 90
        0
280
     0
281
     0
  0
CLASS
  1
LONG_TRANSACTION
  2
AcDbLongTransaction
  3
AutoCAD 2000
 90
        0
280
     0
281
     0
  0
CLASS
  1
LWPOLYLINE
  2
AcDbPolyline
  3
AutoCAD 2000
 90
        0
280
     0
281
     1
  0
CLASS
  1
HATCH
  2
AcDbHatch
  3
AutoCAD 2000
 90
        0
280
     0
281
     1
  0
CLASS
  1
XRECORD
  2
AcDbXrecord
  3
AutoCAD 2000
 90
        0
280
     0
281
     0
  0
CLASS
  1
LONG_TRANSACTION
  2
AcDbLongTransaction
  3
AutoCAD 2000
 90
        0
280
     0
281
     0
  0
CLASS
  1
LWPOLYLINE
  2
AcDbPolyline
  3
AutoCAD 2000
 90
        0
280
     0
281
     1
  0
CLASS
  1
HATCH
  2
AcDbHatch
  3
AutoCAD 2000
 90
        0
280
     0
281
     1
  0
CLASS
  1
XRECORD
  2
AcDbXrecord
  3
AutoCAD 2000
 90
        0
280
     0
281
     0
  0
CLASS
  1
LONG_TRANSACTION
  2
AcDbLongTransaction
  3
AutoCAD 2000
 90
        0
280
     0
281
     0
  0
CLASS
  1
LWPOLYLINE
  2
AcDbPolyline
  3
AutoCAD 2000
 90
        0
280
     0
281
     1
  0
CLASS
  1
HATCH
  2
AcDbHatch
  3
AutoCAD 2000
 90
        0
280
     0
281
     1
  0
CLASS
  1
XRECORD
  2
AcDbXrecord
  3
AutoCAD 2000
 90
        0
280
     0
281
     0
  0
CLASS
  1
LONG_TRANSACTION
  2
AcDbLongTransaction
  3
AutoCAD 2000
 90
        0
280
     0
281
     0
  0
CLASS
  1
LWPOLYLINE
  2
AcDbPolyline
  3
AutoCAD 2000
 90
        0
280
     0
281
     1
  0
CLASS
  1
HATCH
  2
AcDbHatch
  3
AutoCAD 2000
 90
        0
280
     0
281
     1
  0
CLASS
  1
XRECORD
  2
AcDbXrecord
  3
AutoCAD 2000
 90
        0
280
     0
281
     0
  0
CLASS
  1
LONG_TRANSACTION
  2
AcDbLongTransaction
  3
AutoCAD 2000
 90
        0
280
     0
281
     0
  0
CLASS
  1
LWPOLYLINE
  2
AcDbPolyline
  3
AutoCAD 2000
 90
        0
280
     0
281
     1
  0
CLASS
  1
HATCH
  2
AcDbHatch
  3
AutoCAD 2000
 90
        0
280
     0
281
     1
  0
CLASS
  1
XRECORD
  2
AcDbXrecord
  3
AutoCAD 2000
 90
        0
280
     0
281
     0
  0
ENDSEC
  0
SECTION
  2
TABLES
  0
TABLE
  2
VPORT
  5
8
330
0
100
AcDbSymbolTable
 70
     2
  0
VPORT
  5
39B
330
8
100
AcDbSymbolTableRecord
100
AcDbViewportTableRecord
  2
*ACTIVE
 70
     0
 10
0.0
 20
0.0
 11
1.0
 21
1.0
 12
13.56979712988589
 22
13.9565853747937
 13
0.0
 23
0.0
 14
0.5740882589684922
 24
0.5740882589684922
 15
0.5
 25
0.5
 16
0.0
 26
0.0
 36
1.0
 17
0.0
 27
0.0
 37
0.0
 40
57.73171432288551
 41
1.570528967254407
 42
50.0
 43
0.0
 44
0.0
 50
0.0
 51
0.0
 71
     0
 72
   100
 73
     1
 74
     0
 75
     0
 76
     0
 77
     0
 78
     0
  0
ENDTAB
  0
TABLE
  2
LTYPE
  5
5
330
0
100
AcDbSymbolTable
 70
     1
  0
LTYPE
  5
12
330
5
100
AcDbSymbolTableRecord
100
AcDbLinetypeTableRecord
  2
BYBLOCK
 70
     0
  3

 72
    65
 73
     0
 40
0.0
  0
LTYPE
  5
13
330
5
100
AcDbSymbolTableRecord
100
AcDbLinetypeTableRecord
  2
BYLAYER
 70
     0
  3

 72
    65
 73
     0
 40
0.0
  0
LTYPE
  5
14
330
5
100
AcDbSymbolTableRecord
100
AcDbLinetypeTableRecord
  2
CONTINUOUS
 70
     0
  3
Solid line
 72
    65
 73
     0
 40
0.0
  0
ENDTAB
  0
TABLE
  2
LAYER
  5
2
330
0
100
AcDbSymbolTable
 70
     4
  0
LAYER
  5
F
330
2
100
AcDbSymbolTableRecord
100
AcDbLayerTableRecord
  2
0
 70
     0
 62
     7
  6
CONTINUOUS
  0
LAYER
  5
93
330
2
100
AcDbSymbolTableRecord
100
AcDbLayerTableRecord
  2
ADP1DETAIL
 70
     0
 62
     7
  6
CONTINUOUS
  0
LAYER
  5
95
330
2
100
AcDbSymbolTableRecord
100
AcDbLayerTableRecord
  2
DEFPOINTS
 70
     0
 62
     7
  6
CONTINUOUS
  0
LAYER
  5
96
330
2
100
AcDbSymbolTableRecord
100
AcDbLayerTableRecord
  2
ADPDIM
 70
     0
 62
     3
  6
CONTINUOUS
  0
ENDTAB
  0
TABLE
  2
STYLE
  5
3
330
0
100
AcDbSymbolTable
 70
     2
  0
STYLE
  5
10
330
3
100
AcDbSymbolTableRecord
100
AcDbTextStyleTableRecord
  2
STANDARD
 70
     0
 40
0.0
 41
1.0
 50
0.0
 71
     0
 42
0.2
  3
txt
  4

  0
STYLE
  5
138
330
3
100
AcDbSymbolTableRecord
100
AcDbTextStyleTableRecord
  2
ARIAL_WIDE
 70
     0
 40
0.0
 41
1.25
 50
0.0
 71
     0
 42
0.2
  3
ARIAL.TTF
  4

1001
ACAD
1000
Arial
1071
       34
  0
ENDTAB
  0
TABLE
  2
VIEW
  5
6
330
0
100
AcDbSymbolTable
 70
     0
  0
ENDTAB
  0
TABLE
  2
UCS
  5
7
330
0
100
AcDbSymbolTable
 70
     0
  0
ENDTAB
  0
TABLE
  2
APPID
  5
9
330
0
100
AcDbSymbolTable
 70
     1
  0
APPID
  5
11
330
9
100
AcDbSymbolTableRecord
100
AcDbRegAppTableRecord
  2
ACAD
 70
     0
  0
ENDTAB
  0
TABLE
  2
DIMSTYLE
  5
A
330
0
100
AcDbSymbolTable
 70
     1
  0
DIMSTYLE
105
BE
102
{ACAD_REACTORS
330
B4
330
BA
330
C2
330
C7
102
}
330
A
100
AcDbSymbolTableRecord
100
AcDbDimStyleTableRecord
  2
STANDARD
 70
     0
  3

  4

  5

  6

  7

 40
1.0
 41
0.18
 42
0.0625
 43
0.38
 44
0.18
 45
0.0
 46
0.0
 47
0.0
 48
0.0
140
0.18
141
0.09
142
0.0
143
25.4
144
1.0
145
0.0
146
1.0
147
0.09
 71
     0
 72
     0
 73
     1
 74
     1
 75
     0
 76
     0
 77
     0
 78
     0
170
     0
171
     2
172
     0
173
     0
174
     0
175
     0
176
     0
177
     0
178
     0
270
     2
271
     4
272
     4
273
     2
274
     2
340
10
275
     0
280
     0
281
     0
282
     0
283
     1
284
     0
285
     0
286
     0
287
     3
288
     0
  0
ENDTAB
  0
TABLE
  2
BLOCK_RECORD
  5
1
330
0
100
AcDbSymbolTable
 70
     4
  0
BLOCK_RECORD
  5
18
102
{ACAD_XDICTIONARY
360
1B7
102
}
330
1
100
AcDbSymbolTableRecord
100
AcDbBlockTableRecord
  2
*MODEL_SPACE
  0
BLOCK_RECORD
  5
15
102
{ACAD_XDICTIONARY
360
1B5
102
}
330
1
100
AcDbSymbolTableRecord
100
AcDbBlockTableRecord
  2
*PAPER_SPACE
  0
BLOCK_RECORD
  5
CA
330
1
100
AcDbSymbolTableRecord
100
AcDbBlockTableRecord
  2
*D0
  0
BLOCK_RECORD
  5
D7
330
1
100
AcDbSymbolTableRecord
100
AcDbBlockTableRecord
  2
*D1
  0
BLOCK_RECORD
  5
114
330
1
100
AcDbSymbolTableRecord
100
AcDbBlockTableRecord
  2
*D2
  0
BLOCK_RECORD
  5
121
330
1
100
AcDbSymbolTableRecord
100
AcDbBlockTableRecord
  2
*D3
  0
ENDTAB
  0
ENDSEC
  0
SECTION
  2
BLOCKS
  0
BLOCK
  5
99
330
18
100
AcDbEntity
  8
0
100
AcDbBlockBegin
  2
*MODEL_SPACE
 70
     0
 10
0.0
 20
0.0
 30
0.0
  3
*MODEL_SPACE
  1

  0
ENDBLK
  5
9A
330
18
100
AcDbEntity
  8
0
100
AcDbBlockEnd
  0
BLOCK
  5
97
330
15
100
AcDbEntity
 67
     1
  8
0
100
AcDbBlockBegin
  2
*PAPER_SPACE
 70
     0
 10
0.0
 20
0.0
 30
0.0
  3
*PAPER_SPACE
  1

  0
ENDBLK
  5
98
330
15
100
AcDbEntity
 67
     1
  8
0
100
AcDbBlockEnd
  0
BLOCK
  5
108
330
CA
100
AcDbEntity
  8
0
100
AcDbBlockBegin
  2
*D0
 70
     1
 10
0.0
 20
0.0
 30
0.0
  3
*D0
  1

  0
LINE
  5
3D3
330
CA
100
AcDbEntity
  8
ADPDIM
 62
     0
100
AcDbLine
 10
12.15458128534906
 20
40.51908174360412
 30
0.0
 11
11.53877025263783
 21
40.51908174360412
 31
0.0
  0
LINE
  5
3D4
330
CA
100
AcDbEntity
  8
ADPDIM
 62
     0
100
AcDbLine
 10
12.15458128534906
 20
-7.480918256395881
 30
0.0
 11
11.53877025263782
 21
-7.480918256395881
 31
0.0
  0
LINE
  5
3D5
330
CA
100
AcDbEntity
  8
ADPDIM
 62
     0
100
AcDbLine
 10
11.71877025263783
 20
40.51908174360412
 30
0.0
 11
11.71877025263782
 21
16.74824841027078
 31
0.0
  0
LINE
  5
3D6
330
CA
100
AcDbEntity
  8
ADPDIM
 62
     0
100
AcDbLine
 10
11.71877025263782
 20
-7.480918256395881
 30
0.0
 11
11.71877025263782
 21
16.28991507693744
 31
0.0
  0
LINE
  5
3D7
330
CA
100
AcDbEntity
  8
ADPDIM
 62
     0
100
AcDbLine
 10
11.84377025263782
 20
-7.605918256395881
 30
0.0
 11
11.59377025263782
 21
-7.355918256395881
 31
0.0
  0
LINE
  5
3D8
330
CA
100
AcDbEntity
  8
ADPDIM
 62
     0
100
AcDbLine
 10
11.84377025263783
 20
40.39408174360412
 30
0.0
 11
11.59377025263783
 21
40.64408174360411
 31
0.0
  0
MTEXT
  5
3D9
330
CA
100
AcDbEntity
  8
ADPDIM
 62
     0
100
AcDbMText
 10
11.71877025263782
 20
16.51908174360412
 30
0.0
 40
0.125
 41
0.0
 71
     5
 72
     1
  1
\A1;48
 11
0.0000000000000001
 21
1.0
 31
0.0
  0
POINT
  5
3DA
330
CA
100
AcDbEntity
  8
DEFPOINTS
 62
     0
100
AcDbPoint
 10
12.21708128534906
 20
40.51908174360412
 30
0.0
  0
POINT
  5
3DB
330
CA
100
AcDbEntity
  8
DEFPOINTS
 62
     0
100
AcDbPoint
 10
12.21708128534906
 20
-7.480918256395881
 30
0.0
  0
POINT
  5
3DC
330
CA
100
AcDbEntity
  8
DEFPOINTS
 62
     0
100
AcDbPoint
 10
11.71877025263782
 20
-7.480918256395881
 30
0.0
  0
ENDBLK
  5
113
330
CA
100
AcDbEntity
  8
0
100
AcDbBlockEnd
  0
BLOCK
  5
FC
330
D7
100
AcDbEntity
  8
0
100
AcDbBlockBegin
  2
*D1
 70
     1
 10
0.0
 20
0.0
 30
0.0
  3
*D1
  1

  0
LINE
  5
3DD
330
D7
100
AcDbEntity
  8
ADPDIM
 62
     0
100
AcDbLine
 10
12.12308128534906
 20
40.48758174360411
 30
0.0
 11
12.12308128534906
 21
40.92836390396765
 31
0.0
  0
LINE
  5
3DE
330
D7
100
AcDbEntity
  8
ADPDIM
 62
     0
100
AcDbLine
 10
14.87308128534906
 20
40.48758174360411
 30
0.0
 11
14.87308128534906
 21
40.92836390396765
 31
0.0
  0
LINE
  5
3DF
330
D7
100
AcDbEntity
  8
ADPDIM
 62
     0
100
AcDbLine
 10
12.12308128534906
 20
40.74836390396765
 30
0.0
 11
13.08141461868239
 21
40.74836390396765
 31
0.0
  0
LINE
  5
3E0
330
D7
100
AcDbEntity
  8
ADPDIM
 62
     0
100
AcDbLine
 10
14.87308128534906
 20
40.74836390396765
 30
0.0
 11
13.91474795201572
 21
40.74836390396765
 31
0.0
  0
LINE
  5
3E1
330
D7
100
AcDbEntity
  8
ADPDIM
 62
     0
100
AcDbLine
 10
14.74808128534906
 20
40.62336390396765
 30
0.0
 11
14.99808128534906
 21
40.87336390396766
 31
0.0
  0
LINE
  5
3E2
330
D7
100
AcDbEntity
  8
ADPDIM
 62
     0
100
AcDbLine
 10
11.99808128534906
 20
40.62336390396765
 30
0.0
 11
12.24808128534906
 21
40.87336390396766
 31
0.0
  0
MTEXT
  5
3E3
330
D7
100
AcDbEntity
  8
ADPDIM
 62
     0
100
AcDbMText
 10
13.49808128534906
 20
40.74836390396765
 30
0.0
 40
0.125
 41
0.0
 71
     5
 72
     1
  1
\A1;2 3/4
  0
POINT
  5
3E4
330
D7
100
AcDbEntity
  8
DEFPOINTS
 62
     0
100
AcDbPoint
 10
12.12308128534906
 20
40.42508174360412
 30
0.0
  0
POINT
  5
3E5
330
D7
100
AcDbEntity
  8
DEFPOINTS
 62
     0
100
AcDbPoint
 10
14.87308128534906
 20
40.42508174360412
 30
0.0
  0
POINT
  5
3E6
330
D7
100
AcDbEntity
  8
DEFPOINTS
 62
     0
100
AcDbPoint
 10
14.87308128534906
 20
40.74836390396765
 30
0.0
  0
ENDBLK
  5
107
330
D7
100
AcDbEntity
  8
0
100
AcDbBlockEnd
  0
BLOCK
  5
115
330
114
100
AcDbEntity
  8
0
100
AcDbBlockBegin
  2
*D2
 70
     1
 10
0.0
 20
0.0
 30
0.0
  3
*D2
  1

  0
LINE
  5
3C9
330
114
100
AcDbEntity
  8
ADPDIM
 62
     0
100
AcDbLine
 10
12.12308128534906
 20
-8.663188985348316
 30
0.0
 11
12.12308128534906
 21
-8.222406824984778
 31
0.0
  0
LINE
  5
3CA
330
114
100
AcDbEntity
  8
ADPDIM
 62
     0
100
AcDbLine
 10
14.87308128534906
 20
-8.663188985348316
 30
0.0
 11
14.87308128534906
 21
-8.222406824984778
 31
0.0
  0
LINE
  5
3CB
330
114
100
AcDbEntity
  8
ADPDIM
 62
     0
100
AcDbLine
 10
12.12308128534906
 20
-8.402406824984778
 30
0.0
 11
13.08141461868239
 21
-8.402406824984778
 31
0.0
  0
LINE
  5
3CC
330
114
100
AcDbEntity
  8
ADPDIM
 62
     0
100
AcDbLine
 10
14.87308128534906
 20
-8.402406824984778
 30
0.0
 11
13.91474795201572
 21
-8.402406824984778
 31
0.0
  0
LINE
  5
3CD
330
114
100
AcDbEntity
  8
ADPDIM
 62
     0
100
AcDbLine
 10
14.74808128534906
 20
-8.527406824984778
 30
0.0
 11
14.99808128534906
 21
-8.277406824984778
 31
0.0
  0
LINE
  5
3CE
330
114
100
AcDbEntity
  8
ADPDIM
 62
     0
100
AcDbLine
 10
11.99808128534906
 20
-8.527406824984778
 30
0.0
 11
12.24808128534906
 21
-8.277406824984778
 31
0.0
  0
MTEXT
  5
3CF
330
114
100
AcDbEntity
  8
ADPDIM
 62
     0
100
AcDbMText
 10
13.49808128534906
 20
-8.402406824984778
 30
0.0
 40
0.125
 41
0.0
 71
     5
 72
     1
  1
\A1;2 3/4
  0
POINT
  5
3D0
330
114
100
AcDbEntity
  8
DEFPOINTS
 62
     0
100
AcDbPoint
 10
12.12308128534906
 20
-8.725688985348316
 30
0.0
  0
POINT
  5
3D1
330
114
100
AcDbEntity
  8
DEFPOINTS
 62
     0
100
AcDbPoint
 10
14.87308128534906
 20
-8.725688985348316
 30
0.0
  0
POINT
  5
3D2
330
114
100
AcDbEntity
  8
DEFPOINTS
 62
     0
100
AcDbPoint
 10
14.87308128534906
 20
-8.402406824984778
 30
0.0
  0
ENDBLK
  5
120
330
114
100
AcDbEntity
  8
0
100
AcDbBlockEnd
  0
BLOCK
  5
122
330
121
100
AcDbEntity
  8
0
100
AcDbBlockBegin
  2
*D3
 70
     1
 10
0.0
 20
0.0
 30
0.0
  3
*D3
  1

  0
LINE
  5
3BF
330
121
100
AcDbEntity
  8
ADPDIM
 62
     0
100
AcDbLine
 10
12.15458128534906
 20
-8.631688985348317
 30
0.0
 11
11.53877025263782
 21
-8.631688985348315
 31
0.0
  0
LINE
  5
3C0
330
121
100
AcDbEntity
  8
ADPDIM
 62
     0
100
AcDbLine
 10
12.15458128534906
 20
-9.881688985348317
 30
0.0
 11
11.53877025263782
 21
-9.881688985348315
 31
0.0
  0
LINE
  5
3C1
330
121
100
AcDbEntity
  8
ADPDIM
 62
     0
100
AcDbLine
 10
11.71877025263782
 20
-8.631688985348315
 30
0.0
 11
11.71877025263782
 21
-8.881688985348315
 31
0.0
  0
LINE
  5
3C2
330
121
100
AcDbEntity
  8
ADPDIM
 62
     0
100
AcDbLine
 10
11.71877025263782
 20
-9.881688985348315
 30
0.0
 11
11.71877025263782
 21
-9.631688985348315
 31
0.0
  0
LINE
  5
3C3
330
121
100
AcDbEntity
  8
ADPDIM
 62
     0
100
AcDbLine
 10
11.84377025263782
 20
-10.00668898534831
 30
0.0
 11
11.59377025263782
 21
-9.756688985348315
 31
0.0
  0
LINE
  5
3C4
330
121
100
AcDbEntity
  8
ADPDIM
 62
     0
100
AcDbLine
 10
11.84377025263782
 20
-8.756688985348315
 30
0.0
 11
11.59377025263782
 21
-8.506688985348315
 31
0.0
  0
MTEXT
  5
3C5
330
121
100
AcDbEntity
  8
ADPDIM
 62
     0
100
AcDbMText
 10
11.71877025263782
 20
-9.256688985348313
 30
0.0
 40
0.125
 41
0.0
 71
     5
 72
     1
  1
\A1;1 1/4
 11
0.0000000000000001
 21
1.0
 31
0.0
  0
POINT
  5
3C6
330
121
100
AcDbEntity
  8
DEFPOINTS
 62
     0
100
AcDbPoint
 10
12.21708128534906
 20
-8.631688985348317
 30
0.0
  0
POINT
  5
3C7
330
121
100
AcDbEntity
  8
DEFPOINTS
 62
     0
100
AcDbPoint
 10
12.21708128534906
 20
-9.881688985348317
 30
0.0
  0
POINT
  5
3C8
330
121
100
AcDbEntity
  8
DEFPOINTS
 62
     0
100
AcDbPoint
 10
11.71877025263782
 20
-9.881688985348315
 30
0.0
  0
ENDBLK
  5
12D
330
121
100
AcDbEntity
  8
0
100
AcDbBlockEnd
  0
ENDSEC
  0
SECTION
  2
ENTITIES
  0
DIMENSION
  5
B4
330
18
100
AcDbEntity
  8
ADPDIM
100
AcDbDimension
  2
*D3
 10
11.71877025263782
 20
-9.881688985348315
 30
0.0
 11
11.71877025263782
 21
-9.256688985348313
 31
0.0
 70
    32
  3
STANDARD
100
AcDbAlignedDimension
 13
12.21708128534906
 23
-8.631688985348317
 33
0.0
 14
12.21708128534906
 24
-9.881688985348317
 34
0.0
 50
90.0
100
AcDbRotatedDimension
1001
ACAD
1000
DSTYLE
1002
{
1070
   270
1070
     7
1070
   270
1070
     7
1070
   270
1070
     7
1070
   270
1070
     7
1070
   270
1070
     7
1070
    41
1040
0.125
1070
    73
1070
     0
1070
    74
1070
     0
1070
    78
1070
     2
1070
   140
1040
0.125
1070
   141
1040
0.1875
1070
   142
1040
0.125
1070
   147
1040
0.125
1070
   171
1070
     1
1070
   271
1070
     3
1070
   276
1070
     2
1070
   277
1070
     5
1002
}
  0
LINE
  5
B5
330
18
100
AcDbEntity
  8
ADP1DETAIL
100
AcDbLine
 10
12.12308128534905
 20
-9.787688985348317
 30
0.0
 11
12.12308128534905
 21
-8.725688985348316
 31
0.0
  0
LINE
  5
B6
330
18
100
AcDbEntity
  8
ADP1DETAIL
100
AcDbLine
 10
14.87308128534905
 20
-8.725688985348316
 30
0.0
 11
14.87308128534905
 21
-9.787688985348317
 31
0.0
  0
LINE
  5
B7
330
18
100
AcDbEntity
  8
ADP1DETAIL
100
AcDbLine
 10
14.77908128534906
 20
-9.881688985348317
 30
0.0
 11
12.21708128534905
 21
-9.881688985348317
 31
0.0
  0
ARC
  5
B8
330
18
100
AcDbEntity
  8
ADP1DETAIL
100
AcDbCircle
 10
12.21708128534905
 20
-9.787688985348317
 30
0.0
 40
0.0939999999999994
100
AcDbArc
 50
180.0
 51
270.0
  0
ARC
  5
B9
330
18
100
AcDbEntity
  8
ADP1DETAIL
100
AcDbCircle
 10
14.77908128534906
 20
-9.787688985348317
 30
0.0
 40
0.0939999999999994
100
AcDbArc
 50
270.0
 51
0.0
  0
DIMENSION
  5
BA
330
18
100
AcDbEntity
  8
ADPDIM
100
AcDbDimension
  2
*D2
 10
14.87308128534906
 20
-8.402406824984778
 30
0.0
 11
13.49808128534906
 21
-8.402406824984778
 31
0.0
 70
    32
  3
STANDARD
100
AcDbAlignedDimension
 13
12.12308128534906
 23
-8.725688985348316
 33
0.0
 14
14.87308128534906
 24
-8.725688985348316
 34
0.0
100
AcDbRotatedDimension
1001
ACAD
1000
DSTYLE
1002
{
1070
   270
1070
     7
1070
   270
1070
     7
1070
   270
1070
     7
1070
   270
1070
     7
1070
   270
1070
     7
1070
    41
1040
0.125
1070
    73
1070
     0
1070
    74
1070
     0
1070
    78
1070
     2
1070
   140
1040
0.125
1070
   141
1040
0.1875
1070
   142
1040
0.125
1070
   147
1040
0.125
1070
   171
1070
     1
1070
   271
1070
     3
1070
   276
1070
     2
1070
   277
1070
     5
1002
}
  0
LINE
  5
BB
330
18
100
AcDbEntity
  8
ADP1DETAIL
100
AcDbLine
 10
12.21708128534905
 20
-8.631688985348317
 30
0.0
 11
14.77908128534906
 21
-8.631688985348317
 31
0.0
  0
ARC
  5
BC
330
18
100
AcDbEntity
  8
ADP1DETAIL
100
AcDbCircle
 10
12.21708128534905
 20
-8.725688985348316
 30
0.0
 40
0.0939999999999994
100
AcDbArc
 50
90.0
 51
180.0
  0
ARC
  5
BD
330
18
100
AcDbEntity
  8
ADP1DETAIL
100
AcDbCircle
 10
14.77908128534906
 20
-8.725688985348316
 30
0.0
 40
0.0939999999999994
100
AcDbArc
 50
0.0
 51
90.0
  0
LINE
  5
C0
330
18
100
AcDbEntity
  8
ADP1DETAIL
100
AcDbLine
 10
14.87308128534905
 20
40.42508174360412
 30
0.0
 11
14.87308128534905
 21
-7.386918256395881
 31
0.0
  0
LINE
  5
C1
330
18
100
AcDbEntity
  8
ADP1DETAIL
100
AcDbLine
 10
12.12308128534905
 20
-7.386918256395881
 30
0.0
 11
12.12308128534905
 21
40.42508174360412
 31
0.0
  0
DIMENSION
  5
C2
330
18
100
AcDbEntity
  8
ADPDIM
100
AcDbDimension
  2
*D0
 10
11.71877025263782
 20
-7.480918256395881
 30
0.0
 11
11.71877025263782
 21
16.51908174360412
 31
0.0
 70
    32
  3
STANDARD
100
AcDbAlignedDimension
 13
12.21708128534906
 23
40.51908174360412
 33
0.0
 14
12.21708128534906
 24
-7.480918256395881
 34
0.0
 50
90.0
100
AcDbRotatedDimension
1001
ACAD
1000
DSTYLE
1002
{
1070
   270
1070
     7
1070
   270
1070
     7
1070
   270
1070
     7
1070
   270
1070
     7
1070
   270
1070
     7
1070
    41
1040
0.125
1070
    73
1070
     0
1070
    74
1070
     0
1070
    78
1070
     2
1070
   140
1040
0.125
1070
   141
1040
0.1875
1070
   142
1040
0.125
1070
   147
1040
0.125
1070
   171
1070
     1
1070
   271
1070
     3
1070
   276
1070
     2
1070
   277
1070
     5
1002
}
  0
LINE
  5
C3
330
18
100
AcDbEntity
  8
ADP1DETAIL
100
AcDbLine
 10
14.77908128534906
 20
-7.480918256395881
 30
0.0
 11
12.21708128534905
 21
-7.480918256395881
 31
0.0
  0
ARC
  5
C4
330
18
100
AcDbEntity
  8
ADP1DETAIL
100
AcDbCircle
 10
12.21708128534905
 20
-7.386918256395881
 30
0.0
 40
0.0939999999999994
100
AcDbArc
 50
180.0
 51
270.0
  0
ARC
  5
C5
330
18
100
AcDbEntity
  8
ADP1DETAIL
100
AcDbCircle
 10
14.77908128534906
 20
-7.386918256395881
 30
0.0
 40
0.0939999999999994
100
AcDbArc
 50
270.0
 51
0.0
  0
LINE
  5
C6
330
18
100
AcDbEntity
  8
ADP1DETAIL
100
AcDbLine
 10
12.21708128534905
 20
40.51908174360412
 30
0.0
 11
14.77908128534906
 21
40.51908174360412
 31
0.0
  0
DIMENSION
  5
C7
330
18
100
AcDbEntity
  8
ADPDIM
100
AcDbDimension
  2
*D1
 10
14.87308128534906
 20
40.74836390396765
 30
0.0
 11
13.49808128534906
 21
40.74836390396765
 31
0.0
 70
    32
  3
STANDARD
100
AcDbAlignedDimension
 13
12.12308128534906
 23
40.42508174360412
 33
0.0
 14
14.87308128534906
 24
40.42508174360412
 34
0.0
100
AcDbRotatedDimension
1001
ACAD
1000
DSTYLE
1002
{
1070
   270
1070
     7
1070
   270
1070
     7
1070
   270
1070
     7
1070
   270
1070
     7
1070
   270
1070
     7
1070
    41
1040
0.125
1070
    73
1070
     0
1070
    74
1070
     0
1070
    78
1070
     2
1070
   140
1040
0.125
1070
   141
1040
0.1875
1070
   142
1040
0.125
1070
   147
1040
0.125
1070
   171
1070
     1
1070
   271
1070
     3
1070
   276
1070
     2
1070
   277
1070
     5
1002
}
  0
ARC
  5
C8
330
18
100
AcDbEntity
  8
ADP1DETAIL
100
AcDbCircle
 10
12.21708128534905
 20
40.42508174360412
 30
0.0
 40
0.0939999999999994
100
AcDbArc
 50
90.0
 51
180.0
  0
ARC
  5
C9
330
18
100
AcDbEntity
  8
ADP1DETAIL
100
AcDbCircle
 10
14.77908128534906
 20
40.42508174360412
 30
0.0
 40
0.0939999999999994
100
AcDbArc
 50
0.0
 51
90.0
  0
TEXT
  5
139
330
18
100
AcDbEntity
  8
ADPDIM
100
AcDbText
 10
-31.54487147727031
 20
-12.75810516815796
 30
0.0
 40
0.875
  1
J U L I U S  B L U M  &  C O . ,  I N C .      ( 8 0 0 )  5 2 6 - 6 2 9 3        W W W . J U L I U S B L U M . C O M        P A R T  N o .  4 2 4
 41
1.25
  7
ARIAL_WIDE
 72
     1
 11
13.49808128534905
 21
-11.88310516815796
 31
0.0
100
AcDbText
 73
     3
  0
ENDSEC
  0
SECTION
  2
OBJECTS
  0
DICTIONARY
  5
C
330
0
100
AcDbDictionary
  3
ACAD_GROUP
350
D
  3
ACAD_LAYOUT
350
132
  3
ACAD_MLINESTYLE
350
E
  3
ACAD_PLOTSETTINGS
350
133
  3
ACAD_PLOTSTYLENAME
350
130
  3
ACDBHEADERROUNDTRIPXREC
350
39C
  3
ACDBVARIABLEDICTIONARY
350
1E5
  0
DICTIONARY
  5
1B7
330
18
100
AcDbDictionary
280
     1
  3
ACAD_LAYOUTSELFREF
360
3BE
  0
DICTIONARY
  5
1B5
330
15
100
AcDbDictionary
280
     1
  3
ACAD_LAYOUTSELFREF
360
3BD
  0
DICTIONARY
  5
D
102
{ACAD_REACTORS
330
C
102
}
330
C
100
AcDbDictionary
  0
DICTIONARY
  5
132
102
{ACAD_REACTORS
330
C
102
}
330
C
100
AcDbDictionary
  0
DICTIONARY
  5
E
102
{ACAD_REACTORS
330
C
102
}
330
C
100
AcDbDictionary
  3
STANDARD
350
1B
  0
DICTIONARY
  5
133
102
{ACAD_REACTORS
330
C
102
}
330
C
100
AcDbDictionary
  0
ACDBDICTIONARYWDFLT
  5
130
102
{ACAD_REACTORS
330
C
102
}
330
C
100
AcDbDictionary
281
     1
  3
Normal
350
131
100
AcDbDictionaryWithDefault
340
131
  0
DICTIONARY
  5
39C
102
{ACAD_REACTORS
330
C
102
}
330
C
100
AcDbDictionary
  3
CEPSNTYPE
350
3A6
  3
DIMSTYLEDATA
350
3AA
  3
FINGERPRINTGUID
350
3A7
  3
HYPERLINKBASE
350
39F
  3
INSUNITS
350
3A5
  3
LAYOUTDICT
350
3A1
  3
LWETCUNION
350
3A4
  3
PLOTSETDICT
350
3A2
  3
PLOTSTYLNAMDICT
350
3A3
  3
PSVPSCALE
350
3A9
  3
PUCSBASE
350
3AD
  3
PUCSORGBACK
350
3B3
  3
PUCSORGBOTTOM
350
3AF
  3
PUCSORGFRONT
350
3B2
  3
PUCSORGLEFT
350
3B0
  3
PUCSORGRIGHT
350
3B1
  3
PUCSORGTOP
350
3AE
  3
PUCSORTHOREF
350
3AB
  3
PUCSORTHOVIEW
350
3AC
  3
STYLESHEET
350
3A0
  3
TSTACKALIGN
350
39D
  3
TSTACKSIZE
350
39E
  3
UCSBASE
350
3B6
  3
UCSORGBACK
350
3BC
  3
UCSORGBOTTOM
350
3B8
  3
UCSORGFRONT
350
3BB
  3
UCSORGLEFT
350
3B9
  3
UCSORGRIGHT
350
3BA
  3
UCSORGTOP
350
3B7
  3
UCSORTHOREF
350
3B4
  3
UCSORTHOVIEW
350
3B5
  3
VERSIONGUID
350
3A8
  0
DICTIONARY
  5
1E5
102
{ACAD_REACTORS
330
C
102
}
330
C
100
AcDbDictionary
  3
DIMASSOC
350
1E6
  0
XRECORD
  5
3BE
102
{ACAD_REACTORS
330
1B7
102
}
330
1B7
100
AcDbXrecord
340
18
  0
XRECORD
  5
3BD
102
{ACAD_REACTORS
330
1B5
102
}
330
1B5
100
AcDbXrecord
340
15
  0
MLINESTYLE
  5
1B
102
{ACAD_REACTORS
330
E
102
}
330
E
100
AcDbMlineStyle
  2
STANDARD
 70
     0
  3

 62
     0
 51
90.0
 52
90.0
 71
     2
 49
0.5
 62
   256
  6
BYLAYER
 49
-0.5
 62
   256
  6
BYLAYER
  0
ACDBPLACEHOLDER
  5
131
102
{ACAD_REACTORS
330
130
102
}
330
130
100
AcDbPlaceHolder
280
     0
  0
XRECORD
  5
3A6
102
{ACAD_REACTORS
330
39C
102
}
330
39C
100
AcDbXrecord
 90
        0
  0
XRECORD
  5
3AA
102
{ACAD_REACTORS
330
39C
102
}
330
39C
100
AcDbXrecord
1000
DSTYLE
1002
{
1070
   276
 70
     2
1070
   277
 70
     5
1002
}
  0
XRECORD
  5
3A7
102
{ACAD_REACTORS
330
39C
102
}
330
39C
100
AcDbXrecord
  1
{3E46C201-C34D-4ABF-9931-2BF0B412A886}
  0
XRECORD
  5
39F
102
{ACAD_REACTORS
330
39C
102
}
330
39C
100
AcDbXrecord
  1

  0
XRECORD
  5
3A5
102
{ACAD_REACTORS
330
39C
102
}
330
39C
100
AcDbXrecord
 90
        0
  0
XRECORD
  5
3A1
102
{ACAD_REACTORS
330
39C
102
}
330
39C
100
AcDbXrecord
340
132
  0
XRECORD
  5
3A4
102
{ACAD_REACTORS
330
39C
102
}
330
39C
100
AcDbXrecord
 90
    14877
  0
XRECORD
  5
3A2
102
{ACAD_REACTORS
330
39C
102
}
330
39C
100
AcDbXrecord
340
133
  0
XRECORD
  5
3A3
102
{ACAD_REACTORS
330
39C
102
}
330
39C
100
AcDbXrecord
340
130
  0
XRECORD
  5
3A9
102
{ACAD_REACTORS
330
39C
102
}
330
39C
100
AcDbXrecord
 40
0.0
  0
XRECORD
  5
3AD
102
{ACAD_REACTORS
330
39C
102
}
330
39C
100
AcDbXrecord
340
0
  0
XRECORD
  5
3B3
102
{ACAD_REACTORS
330
39C
102
}
330
39C
100
AcDbXrecord
 10
0.0
 20
0.0
 30
0.0
  0
XRECORD
  5
3AF
102
{ACAD_REACTORS
330
39C
102
}
330
39C
100
AcDbXrecord
 10
0.0
 20
0.0
 30
0.0
  0
XRECORD
  5
3B2
102
{ACAD_REACTORS
330
39C
102
}
330
39C
100
AcDbXrecord
 10
0.0
 20
0.0
 30
0.0
  0
XRECORD
  5
3B0
102
{ACAD_REACTORS
330
39C
102
}
330
39C
100
AcDbXrecord
 10
0.0
 20
0.0
 30
0.0
  0
XRECORD
  5
3B1
102
{ACAD_REACTORS
330
39C
102
}
330
39C
100
AcDbXrecord
 10
0.0
 20
0.0
 30
0.0
  0
XRECORD
  5
3AE
102
{ACAD_REACTORS
330
39C
102
}
330
39C
100
AcDbXrecord
 10
0.0
 20
0.0
 30
0.0
  0
XRECORD
  5
3AB
102
{ACAD_REACTORS
330
39C
102
}
330
39C
100
AcDbXrecord
340
0
  0
XRECORD
  5
3AC
102
{ACAD_REACTORS
330
39C
102
}
330
39C
100
AcDbXrecord
 70
     0
  0
XRECORD
  5
3A0
102
{ACAD_REACTORS
330
39C
102
}
330
39C
100
AcDbXrecord
  1

  0
XRECORD
  5
39D
102
{ACAD_REACTORS
330
39C
102
}
330
39C
100
AcDbXrecord
 90
        1
  0
XRECORD
  5
39E
102
{ACAD_REACTORS
330
39C
102
}
330
39C
100
AcDbXrecord
 90
       70
  0
XRECORD
  5
3B6
102
{ACAD_REACTORS
330
39C
102
}
330
39C
100
AcDbXrecord
340
0
  0
XRECORD
  5
3BC
102
{ACAD_REACTORS
330
39C
102
}
330
39C
100
AcDbXrecord
 10
0.0
 20
0.0
 30
0.0
  0
XRECORD
  5
3B8
102
{ACAD_REACTORS
330
39C
102
}
330
39C
100
AcDbXrecord
 10
0.0
 20
0.0
 30
0.0
  0
XRECORD
  5
3BB
102
{ACAD_REACTORS
330
39C
102
}
330
39C
100
AcDbXrecord
 10
0.0
 20
0.0
 30
0.0
  0
XRECORD
  5
3B9
102
{ACAD_REACTORS
330
39C
102
}
330
39C
100
AcDbXrecord
 10
0.0
 20
0.0
 30
0.0
  0
XRECORD
  5
3BA
102
{ACAD_REACTORS
330
39C
102
}
330
39C
100
AcDbXrecord
 10
0.0
 20
0.0
 30
0.0
  0
XRECORD
  5
3B7
102
{ACAD_REACTORS
330
39C
102
}
330
39C
100
AcDbXrecord
 10
0.0
 20
0.0
 30
0.0
  0
XRECORD
  5
3B4
102
{ACAD_REACTORS
330
39C
102
}
330
39C
100
AcDbXrecord
340
0
  0
XRECORD
  5
3B5
102
{ACAD_REACTORS
330
39C
102
}
330
39C
100
AcDbXrecord
 70
     0
  0
XRECORD
  5
3A8
102
{ACAD_REACTORS
330
39C
102
}
330
39C
100
AcDbXrecord
  1
{FB66B8C3-C189-493D-A914-7CC6A20FECDD}
  0
DICTIONARYVAR
  5
1E6
102
{ACAD_REACTORS
330
1E5
102
}
330
1E5
100
DictionaryVariables
280
     0
  1
1
  0
ENDSEC
  0
EOF
