  0
SECTION
  2
HEADER
  9
$ACADVER
  1
AC1014
  9
$ACADMAINTVER
 70
     9
  9
$DWGCODEPAGE
  3
ANSI_1252
  9
$INSBASE
 10
9.073894636977941
 20
2.377632317538302
 30
0.0
  9
$EXTMIN
 10
-0.1868435536769031
 20
-5.085853429489204
 30
0.0
  9
$EXTMAX
 10
22.33463282763278
 20
8.502632317538303
 30
0.0
  9
$LIMMIN
 10
0.0
 20
0.0
  9
$LIMMAX
 10
36.0
 20
36.0
  9
$ORTHOMODE
 70
     1
  9
$REGENMODE
 70
     1
  9
$FILLMODE
 70
     1
  9
$QTEXTMODE
 70
     0
  9
$MIRRTEXT
 70
     1
  9
$DRAGMODE
 70
     0
  9
$LTSCALE
 40
1.0
  9
$OSMODE
 70
    37
  9
$ATTMODE
 70
     1
  9
$TEXTSIZE
 40
0.2
  9
$TRACEWID
 40
0.05
  9
$TEXTSTYLE
  7
STANDARD
  9
$CLAYER
  8
ADPDIM
  9
$CELTYPE
  6
BYLAYER
  9
$CECOLOR
 62
   256
  9
$CELTSCALE
 40
1.0
  9
$DELOBJ
 70
     1
  9
$DISPSILH
 70
     0
  9
$DIMSCALE
 40
1.0
  9
$DIMASZ
 40
0.125
  9
$DIMEXO
 40
0.0625
  9
$DIMDLI
 40
0.38
  9
$DIMRND
 40
0.0
  9
$DIMDLE
 40
0.0
  9
$DIMEXE
 40
0.18
  9
$DIMTP
 40
0.0
  9
$DIMTM
 40
0.0
  9
$DIMTXT
 40
0.125
  9
$DIMCEN
 40
0.1875
  9
$DIMTSZ
 40
0.125
  9
$DIMTOL
 70
     0
  9
$DIMLIM
 70
     0
  9
$DIMTIH
 70
     0
  9
$DIMTOH
 70
     0
  9
$DIMSE1
 70
     0
  9
$DIMSE2
 70
     0
  9
$DIMTAD
 70
     0
  9
$DIMZIN
 70
     3
  9
$DIMBLK
  1

  9
$DIMASO
 70
     1
  9
$DIMSHO
 70
     1
  9
$DIMPOST
  1

  9
$DIMAPOST
  1

  9
$DIMALT
 70
     0
  9
$DIMALTD
 70
     1
  9
$DIMALTF
 40
25.4
  9
$DIMLFAC
 40
1.0
  9
$DIMTOFL
 70
     0
  9
$DIMTVP
 40
0.0
  9
$DIMTIX
 70
     0
  9
$DIMSOXD
 70
     0
  9
$DIMSAH
 70
     0
  9
$DIMBLK1
  1

  9
$DIMBLK2
  1

  9
$DIMSTYLE
  2
STANDARD
  9
$DIMCLRD
 70
     0
  9
$DIMCLRE
 70
     0
  9
$DIMCLRT
 70
     0
  9
$DIMTFAC
 40
1.0
  9
$DIMGAP
 40
0.125
  9
$DIMJUST
 70
     0
  9
$DIMSD1
 70
     0
  9
$DIMSD2
 70
     0
  9
$DIMTOLJ
 70
     1
  9
$DIMTZIN
 70
     3
  9
$DIMALTZ
 70
     3
  9
$DIMALTTZ
 70
     3
  9
$DIMFIT
 70
     5
  9
$DIMUPT
 70
     0
  9
$DIMUNIT
 70
     5
  9
$DIMDEC
 70
     4
  9
$DIMTDEC
 70
     4
  9
$DIMALTU
 70
     5
  9
$DIMALTTD
 70
     1
  9
$DIMTXSTY
  7
STANDARD
  9
$DIMAUNIT
 70
     0
  9
$LUNITS
 70
     5
  9
$LUPREC
 70
     4
  9
$SKETCHINC
 40
0.1
  9
$FILLETRAD
 40
0.25
  9
$AUNITS
 70
     0
  9
$AUPREC
 70
     0
  9
$MENU
  1
acad
  9
$ELEVATION
 40
0.0
  9
$PELEVATION
 40
0.0
  9
$THICKNESS
 40
0.0
  9
$LIMCHECK
 70
     0
  9
$BLIPMODE
 70
     0
  9
$CHAMFERA
 40
0.0
  9
$CHAMFERB
 40
0.0
  9
$CHAMFERC
 40
0.0
  9
$CHAMFERD
 40
0.0
  9
$SKPOLY
 70
     0
  9
$TDCREATE
 40
2450233.566636759
  9
$TDUPDATE
 40
2452297.070195486
  9
$TDINDWG
 40
0.0336505093
  9
$TDUSRTIMER
 40
0.0336505093
  9
$USRTIMER
 70
     1
  9
$ANGBASE
 50
0.0
  9
$ANGDIR
 70
     0
  9
$PDMODE
 70
     0
  9
$PDSIZE
 40
0.0
  9
$PLINEWID
 40
0.0
  9
$COORDS
 70
     2
  9
$SPLFRAME
 70
     0
  9
$SPLINETYPE
 70
     6
  9
$SPLINESEGS
 70
     8
  9
$ATTDIA
 70
     0
  9
$ATTREQ
 70
     1
  9
$HANDLING
 70
 22529
  9
$HANDSEED
  5
2B3
  9
$SURFTAB1
 70
     6
  9
$SURFTAB2
 70
     6
  9
$SURFTYPE
 70
     6
  9
$SURFU
 70
     6
  9
$SURFV
 70
     6
  9
$UCSNAME
  2

  9
$UCSORG
 10
0.0
 20
0.0
 30
0.0
  9
$UCSXDIR
 10
1.0
 20
0.0
 30
0.0
  9
$UCSYDIR
 10
0.0
 20
1.0
 30
0.0
  9
$PUCSNAME
  2

  9
$PUCSORG
 10
0.0
 20
0.0
 30
0.0
  9
$PUCSXDIR
 10
1.0
 20
0.0
 30
0.0
  9
$PUCSYDIR
 10
0.0
 20
1.0
 30
0.0
  9
$USERI1
 70
     0
  9
$USERI2
 70
     0
  9
$USERI3
 70
     0
  9
$USERI4
 70
     0
  9
$USERI5
 70
     0
  9
$USERR1
 40
0.0
  9
$USERR2
 40
0.0
  9
$USERR3
 40
0.0
  9
$USERR4
 40
0.0
  9
$USERR5
 40
0.0
  9
$WORLDVIEW
 70
     1
  9
$SHADEDGE
 70
     3
  9
$SHADEDIF
 70
    70
  9
$TILEMODE
 70
     1
  9
$MAXACTVP
 70
    15
  9
$PINSBASE
 10
0.0
 20
-3.941062727799726E+99
 30
0.0
  9
$PLIMCHECK
 70
     0
  9
$PEXTMIN
 10
1.000000000000000E+20
 20
1.000000000000000E+20
 30
1.000000000000000E+20
  9
$PEXTMAX
 10
-1.000000000000000E+20
 20
-1.000000000000000E+20
 30
-1.000000000000000E+20
  9
$PLIMMIN
 10
0.0
 20
0.0
  9
$PLIMMAX
 10
12.0
 20
9.0
  9
$UNITMODE
 70
     0
  9
$VISRETAIN
 70
     0
  9
$PLINEGEN
 70
     0
  9
$PSLTSCALE
 70
     1
  9
$TREEDEPTH
 70
  3020
  9
$PICKSTYLE
 70
     1
  9
$CMLSTYLE
  2
STANDARD
  9
$CMLJUST
 70
     0
  9
$CMLSCALE
 40
1.0
  9
$PROXYGRAPHICS
 70
     1
  9
$MEASUREMENT
 70
     0
  0
ENDSEC
  0
SECTION
  2
CLASSES
  0
CLASS
  1
ACDBDICTIONARYWDFLT
  2
AcDbDictionaryWithDefault
  3
AutoCAD 2000
 90
        0
280
     0
281
     0
  0
CLASS
  1
ACDBPLACEHOLDER
  2
AcDbPlaceHolder
  3
AutoCAD 2000
 90
        0
280
     0
281
     0
  0
CLASS
  1
LAYOUT
  2
AcDbLayout
  3
AutoCAD 2000
 90
        0
280
     0
281
     0
  0
CLASS
  1
DICTIONARYVAR
  2
AcDbDictionaryVar
  3
AutoCAD 2000
 90
        0
280
     0
281
     0
  0
CLASS
  1
LONG_TRANSACTION
  2
AcDbLongTransaction
  3
AutoCAD 2000
 90
        0
280
     0
281
     0
  0
CLASS
  1
LWPOLYLINE
  2
AcDbPolyline
  3
AutoCAD 2000
 90
        0
280
     0
281
     1
  0
CLASS
  1
HATCH
  2
AcDbHatch
  3
AutoCAD 2000
 90
        0
280
     0
281
     1
  0
CLASS
  1
XRECORD
  2
AcDbXrecord
  3
AutoCAD 2000
 90
        0
280
     0
281
     0
  0
CLASS
  1
LONG_TRANSACTION
  2
AcDbLongTransaction
  3
AutoCAD 2000
 90
        0
280
     0
281
     0
  0
CLASS
  1
LWPOLYLINE
  2
AcDbPolyline
  3
AutoCAD 2000
 90
        0
280
     0
281
     1
  0
CLASS
  1
HATCH
  2
AcDbHatch
  3
AutoCAD 2000
 90
        0
280
     0
281
     1
  0
CLASS
  1
XRECORD
  2
AcDbXrecord
  3
AutoCAD 2000
 90
        0
280
     0
281
     0
  0
CLASS
  1
LONG_TRANSACTION
  2
AcDbLongTransaction
  3
AutoCAD 2000
 90
        0
280
     0
281
     0
  0
CLASS
  1
LWPOLYLINE
  2
AcDbPolyline
  3
AutoCAD 2000
 90
        0
280
     0
281
     1
  0
CLASS
  1
HATCH
  2
AcDbHatch
  3
AutoCAD 2000
 90
        0
280
     0
281
     1
  0
CLASS
  1
XRECORD
  2
AcDbXrecord
  3
AutoCAD 2000
 90
        0
280
     0
281
     0
  0
CLASS
  1
LONG_TRANSACTION
  2
AcDbLongTransaction
  3
AutoCAD 2000
 90
        0
280
     0
281
     0
  0
CLASS
  1
LWPOLYLINE
  2
AcDbPolyline
  3
AutoCAD 2000
 90
        0
280
     0
281
     1
  0
CLASS
  1
HATCH
  2
AcDbHatch
  3
AutoCAD 2000
 90
        0
280
     0
281
     1
  0
CLASS
  1
XRECORD
  2
AcDbXrecord
  3
AutoCAD 2000
 90
        0
280
     0
281
     0
  0
CLASS
  1
LONG_TRANSACTION
  2
AcDbLongTransaction
  3
AutoCAD 2000
 90
        0
280
     0
281
     0
  0
CLASS
  1
LWPOLYLINE
  2
AcDbPolyline
  3
AutoCAD 2000
 90
        0
280
     0
281
     1
  0
CLASS
  1
HATCH
  2
AcDbHatch
  3
AutoCAD 2000
 90
        0
280
     0
281
     1
  0
CLASS
  1
XRECORD
  2
AcDbXrecord
  3
AutoCAD 2000
 90
        0
280
     0
281
     0
  0
ENDSEC
  0
SECTION
  2
TABLES
  0
TABLE
  2
VPORT
  5
8
330
0
100
AcDbSymbolTable
 70
     2
  0
VPORT
  5
28F
330
8
100
AcDbSymbolTableRecord
100
AcDbViewportTableRecord
  2
*ACTIVE
 70
     0
 10
0.0
 20
0.0
 11
1.0
 21
1.0
 12
11.09267270929461
 22
1.709573315652924
 13
0.0
 23
0.0
 14
0.5740882589684922
 24
0.5740882589684922
 15
0.5
 25
0.5
 16
0.0
 26
0.0
 36
1.0
 17
0.0
 27
0.0
 37
0.0
 40
14.4343049158367
 41
1.570528967254407
 42
50.0
 43
0.0
 44
0.0
 50
0.0
 51
0.0
 71
     0
 72
   100
 73
     1
 74
     0
 75
     0
 76
     0
 77
     0
 78
     0
  0
ENDTAB
  0
TABLE
  2
LTYPE
  5
5
330
0
100
AcDbSymbolTable
 70
     2
  0
LTYPE
  5
13
330
5
100
AcDbSymbolTableRecord
100
AcDbLinetypeTableRecord
  2
BYBLOCK
 70
     0
  3

 72
    65
 73
     0
 40
0.0
  0
LTYPE
  5
14
330
5
100
AcDbSymbolTableRecord
100
AcDbLinetypeTableRecord
  2
BYLAYER
 70
     0
  3

 72
    65
 73
     0
 40
0.0
  0
LTYPE
  5
15
330
5
100
AcDbSymbolTableRecord
100
AcDbLinetypeTableRecord
  2
CONTINUOUS
 70
     0
  3
Solid line
 72
    65
 73
     0
 40
0.0
  0
LTYPE
  5
2B
330
5
100
AcDbSymbolTableRecord
100
AcDbLinetypeTableRecord
  2
HIDDEN2
 70
     0
  3
_ _ _ _ _ _ _ _ _ _ _ _ _ _ _ _ _ _ _ _ _ _ _ _
 72
    65
 73
     2
 40
0.1875
 49
0.125
 74
     0
 49
-0.0625
 74
     0
  0
ENDTAB
  0
TABLE
  2
LAYER
  5
2
330
0
100
AcDbSymbolTable
 70
     5
  0
LAYER
  5
10
330
2
100
AcDbSymbolTableRecord
100
AcDbLayerTableRecord
  2
0
 70
     0
 62
     7
  6
CONTINUOUS
  0
LAYER
  5
2D
330
2
100
AcDbSymbolTableRecord
100
AcDbLayerTableRecord
  2
ADP2DETAIL
 70
     0
 62
     5
  6
CONTINUOUS
  0
LAYER
  5
2E
330
2
100
AcDbSymbolTableRecord
100
AcDbLayerTableRecord
  2
ADPDIM
 70
     0
 62
     3
  6
CONTINUOUS
  0
LAYER
  5
2F
330
2
100
AcDbSymbolTableRecord
100
AcDbLayerTableRecord
  2
ADP1DETAIL
 70
     0
 62
     7
  6
CONTINUOUS
  0
LAYER
  5
30
330
2
100
AcDbSymbolTableRecord
100
AcDbLayerTableRecord
  2
DEFPOINTS
 70
     0
 62
     7
  6
CONTINUOUS
  0
ENDTAB
  0
TABLE
  2
STYLE
  5
3
330
0
100
AcDbSymbolTable
 70
     2
  0
STYLE
  5
11
330
3
100
AcDbSymbolTableRecord
100
AcDbTextStyleTableRecord
  2
STANDARD
 70
     0
 40
0.0
 41
1.0
 50
0.0
 71
     0
 42
0.2
  3
txt
  4

  0
STYLE
  5
FC
330
3
100
AcDbSymbolTableRecord
100
AcDbTextStyleTableRecord
  2
ARIAL_WIDE
 70
     0
 40
0.0
 41
1.25
 50
0.0
 71
     0
 42
0.2
  3
ARIAL.TTF
  4

1001
ACAD
1000
Arial
1071
       34
  0
ENDTAB
  0
TABLE
  2
VIEW
  5
6
330
0
100
AcDbSymbolTable
 70
     0
  0
ENDTAB
  0
TABLE
  2
UCS
  5
7
330
0
100
AcDbSymbolTable
 70
     0
  0
ENDTAB
  0
TABLE
  2
APPID
  5
9
330
0
100
AcDbSymbolTable
 70
     1
  0
APPID
  5
12
330
9
100
AcDbSymbolTableRecord
100
AcDbRegAppTableRecord
  2
ACAD
 70
     0
  0
ENDTAB
  0
TABLE
  2
DIMSTYLE
  5
A
330
0
100
AcDbSymbolTable
 70
     1
  0
DIMSTYLE
105
FA
330
A
100
AcDbSymbolTableRecord
100
AcDbDimStyleTableRecord
  2
STANDARD
 70
     0
  3

  4

  5

  6

  7

 40
1.0
 41
0.18
 42
0.0625
 43
0.38
 44
0.18
 45
0.0
 46
0.0
 47
0.0
 48
0.0
140
0.18
141
0.09
142
0.0
143
25.4
144
1.0
145
0.0
146
1.0
147
0.09
 71
     0
 72
     0
 73
     1
 74
     1
 75
     0
 76
     0
 77
     0
 78
     0
170
     0
171
     2
172
     0
173
     0
174
     0
175
     0
176
     0
177
     0
178
     0
270
     2
271
     4
272
     4
273
     2
274
     2
340
11
275
     0
280
     0
281
     0
282
     0
283
     1
284
     0
285
     0
286
     0
287
     3
288
     0
  0
ENDTAB
  0
TABLE
  2
BLOCK_RECORD
  5
1
330
0
100
AcDbSymbolTable
 70
     9
  0
BLOCK_RECORD
  5
1E
102
{ACAD_XDICTIONARY
360
139
102
}
330
1
100
AcDbSymbolTableRecord
100
AcDbBlockTableRecord
  2
*MODEL_SPACE
  0
BLOCK_RECORD
  5
1A
102
{ACAD_XDICTIONARY
360
13B
102
}
330
1
100
AcDbSymbolTableRecord
100
AcDbBlockTableRecord
  2
*PAPER_SPACE
  0
BLOCK_RECORD
  5
22
330
1
100
AcDbSymbolTableRecord
100
AcDbBlockTableRecord
  2
*D0
  0
BLOCK_RECORD
  5
23
330
1
100
AcDbSymbolTableRecord
100
AcDbBlockTableRecord
  2
*D1
  0
BLOCK_RECORD
  5
24
330
1
100
AcDbSymbolTableRecord
100
AcDbBlockTableRecord
  2
*D2
  0
BLOCK_RECORD
  5
25
330
1
100
AcDbSymbolTableRecord
100
AcDbBlockTableRecord
  2
*D3
  0
BLOCK_RECORD
  5
26
330
1
100
AcDbSymbolTableRecord
100
AcDbBlockTableRecord
  2
*D4
  0
BLOCK_RECORD
  5
27
330
1
100
AcDbSymbolTableRecord
100
AcDbBlockTableRecord
  2
*D5
  0
BLOCK_RECORD
  5
28
330
1
100
AcDbSymbolTableRecord
100
AcDbBlockTableRecord
  2
*D6
  0
BLOCK_RECORD
  5
29
330
1
100
AcDbSymbolTableRecord
100
AcDbBlockTableRecord
  2
*D7
  0
BLOCK_RECORD
  5
2A
330
1
100
AcDbSymbolTableRecord
100
AcDbBlockTableRecord
  2
*D8
  0
ENDTAB
  0
ENDSEC
  0
SECTION
  2
BLOCKS
  0
BLOCK
  5
33
330
1E
100
AcDbEntity
  8
0
100
AcDbBlockBegin
  2
*MODEL_SPACE
 70
     0
 10
0.0
 20
0.0
 30
0.0
  3
*MODEL_SPACE
  1

  0
ENDBLK
  5
34
330
1E
100
AcDbEntity
  8
0
100
AcDbBlockEnd
  0
BLOCK
  5
31
330
1A
100
AcDbEntity
 67
     1
  8
0
100
AcDbBlockBegin
  2
*PAPER_SPACE
 70
     0
 10
0.0
 20
0.0
 30
0.0
  3
*PAPER_SPACE
  1

  0
ENDBLK
  5
32
330
1A
100
AcDbEntity
 67
     1
  8
0
100
AcDbBlockEnd
  0
BLOCK
  5
35
330
22
100
AcDbEntity
  8
0
100
AcDbBlockBegin
  2
*D0
 70
     1
 10
0.0
 20
0.0
 30
0.0
  3
*D0
  1

  0
LINE
  5
36
330
22
100
AcDbEntity
  8
0
  6
BYBLOCK
 62
     0
100
AcDbLine
 10
12.51139463697794
 20
3.627632317538302
 30
0.0
 11
13.79995829191185
 21
3.627632317538302
 31
0.0
  0
LINE
  5
37
330
22
100
AcDbEntity
  8
0
  6
BYBLOCK
 62
     0
100
AcDbLine
 10
11.66839463697794
 20
0.3776323175383025
 30
0.0
 11
13.79995829191185
 21
0.3776323175383024
 31
0.0
  0
LINE
  5
38
330
22
100
AcDbEntity
  8
0
  6
BYBLOCK
 62
     0
100
AcDbLine
 10
13.61995829191185
 20
3.627632317538302
 30
0.0
 11
13.61995829191185
 21
2.398465650871635
 31
0.0
  0
LINE
  5
39
330
22
100
AcDbEntity
  8
0
  6
BYBLOCK
 62
     0
100
AcDbLine
 10
13.61995829191185
 20
0.3776323175383024
 30
0.0
 11
13.61995829191185
 21
1.606798984204969
 31
0.0
  0
LINE
  5
3A
330
22
100
AcDbEntity
  8
0
  6
BYBLOCK
 62
     0
100
AcDbLine
 10
13.74495829191185
 20
3.502632317538302
 30
0.0
 11
13.49495829191185
 21
3.752632317538302
 31
0.0
  0
LINE
  5
3B
330
22
100
AcDbEntity
  8
0
  6
BYBLOCK
 62
     0
100
AcDbLine
 10
13.74495829191185
 20
0.2526323175383024
 30
0.0
 11
13.49495829191185
 21
0.5026323175383025
 31
0.0
  0
TEXT
  5
3C
330
22
100
AcDbEntity
  8
0
  6
BYBLOCK
 62
     0
100
AcDbText
 10
13.68245829191184
 20
1.731798984204969
 30
0.0
 40
0.125
  1
3 1/4
 50
90.0
 72
     1
 11
13.61995829191185
 21
2.002632317538302
 31
0.0
100
AcDbText
 73
     2
  0
POINT
  5
3E
330
22
100
AcDbEntity
  8
DEFPOINTS
  6
BYBLOCK
 62
     0
100
AcDbPoint
 10
12.44889463697794
 20
3.627632317538302
 30
0.0
  0
POINT
  5
3F
330
22
100
AcDbEntity
  8
DEFPOINTS
  6
BYBLOCK
 62
     0
100
AcDbPoint
 10
11.60589463697794
 20
0.3776323175383025
 30
0.0
  0
POINT
  5
40
330
22
100
AcDbEntity
  8
DEFPOINTS
  6
BYBLOCK
 62
     0
100
AcDbPoint
 10
13.61995829191185
 20
0.3776323175383024
 30
0.0
  0
ENDBLK
  5
41
330
22
100
AcDbEntity
  8
0
100
AcDbBlockEnd
  0
BLOCK
  5
42
330
23
100
AcDbEntity
  8
0
100
AcDbBlockBegin
  2
*D1
 70
     1
 10
0.0
 20
0.0
 30
0.0
  3
*D1
  1

  0
LINE
  5
43
330
23
100
AcDbEntity
  8
0
  6
BYBLOCK
 62
     0
100
AcDbLine
 10
9.011394636977941
 20
2.377632317538302
 30
0.0
 11
8.414535117731276
 21
2.377632317538302
 31
0.0
  0
LINE
  5
44
330
23
100
AcDbEntity
  8
0
  6
BYBLOCK
 62
     0
100
AcDbLine
 10
9.011394636977941
 20
8.377632317538303
 30
0.0
 11
8.414535117731276
 21
8.377632317538303
 31
0.0
  0
LINE
  5
45
330
23
100
AcDbEntity
  8
0
  6
BYBLOCK
 62
     0
100
AcDbLine
 10
8.594535117731275
 20
2.377632317538302
 30
0.0
 11
8.594535117731275
 21
5.210965650871635
 31
0.0
  0
LINE
  5
46
330
23
100
AcDbEntity
  8
0
  6
BYBLOCK
 62
     0
100
AcDbLine
 10
8.594535117731275
 20
8.377632317538303
 30
0.0
 11
8.594535117731275
 21
5.544298984204969
 31
0.0
  0
LINE
  5
47
330
23
100
AcDbEntity
  8
0
  6
BYBLOCK
 62
     0
100
AcDbLine
 10
8.719535117731275
 20
2.252632317538302
 30
0.0
 11
8.469535117731275
 21
2.502632317538302
 31
0.0
  0
LINE
  5
48
330
23
100
AcDbEntity
  8
0
  6
BYBLOCK
 62
     0
100
AcDbLine
 10
8.719535117731275
 20
8.252632317538303
 30
0.0
 11
8.469535117731275
 21
8.502632317538303
 31
0.0
  0
TEXT
  5
49
330
23
100
AcDbEntity
  8
0
  6
BYBLOCK
 62
     0
100
AcDbText
 10
8.657035117731275
 20
5.335965650871635
 30
0.0
 40
0.125
  1
6
 50
90.0
 72
     1
 11
8.594535117731275
 21
5.377632317538302
 31
0.0
100
AcDbText
 73
     2
  0
POINT
  5
4A
330
23
100
AcDbEntity
  8
DEFPOINTS
  6
BYBLOCK
 62
     0
100
AcDbPoint
 10
9.073894636977941
 20
2.377632317538302
 30
0.0
  0
POINT
  5
4B
330
23
100
AcDbEntity
  8
DEFPOINTS
  6
BYBLOCK
 62
     0
100
AcDbPoint
 10
9.073894636977941
 20
8.377632317538303
 30
0.0
  0
POINT
  5
4C
330
23
100
AcDbEntity
  8
DEFPOINTS
  6
BYBLOCK
 62
     0
100
AcDbPoint
 10
8.594535117731275
 20
8.377632317538303
 30
0.0
  0
ENDBLK
  5
4D
330
23
100
AcDbEntity
  8
0
100
AcDbBlockEnd
  0
BLOCK
  5
4E
330
24
100
AcDbEntity
  8
0
100
AcDbBlockBegin
  2
*D2
 70
     1
 10
0.0
 20
0.0
 30
0.0
  3
*D2
  1

  0
LINE
  5
4F
330
24
100
AcDbEntity
  8
0
  6
BYBLOCK
 62
     0
100
AcDbLine
 10
12.51139463697794
 20
7.127632317538302
 30
0.0
 11
13.79995829191185
 21
7.127632317538302
 31
0.0
  0
LINE
  5
50
330
24
100
AcDbEntity
  8
0
  6
BYBLOCK
 62
     0
100
AcDbLine
 10
12.51139463697794
 20
3.627632317538302
 30
0.0
 11
13.79995829191185
 21
3.627632317538302
 31
0.0
  0
LINE
  5
51
330
24
100
AcDbEntity
  8
0
  6
BYBLOCK
 62
     0
100
AcDbLine
 10
13.61995829191185
 20
7.127632317538302
 30
0.0
 11
13.61995829191185
 21
5.773465650871635
 31
0.0
  0
LINE
  5
52
330
24
100
AcDbEntity
  8
0
  6
BYBLOCK
 62
     0
100
AcDbLine
 10
13.61995829191185
 20
3.627632317538302
 30
0.0
 11
13.61995829191185
 21
4.981798984204969
 31
0.0
  0
LINE
  5
53
330
24
100
AcDbEntity
  8
0
  6
BYBLOCK
 62
     0
100
AcDbLine
 10
13.74495829191185
 20
7.002632317538302
 30
0.0
 11
13.49495829191185
 21
7.252632317538302
 31
0.0
  0
LINE
  5
54
330
24
100
AcDbEntity
  8
0
  6
BYBLOCK
 62
     0
100
AcDbLine
 10
13.74495829191185
 20
3.502632317538302
 30
0.0
 11
13.49495829191185
 21
3.752632317538302
 31
0.0
  0
TEXT
  5
55
330
24
100
AcDbEntity
  8
0
  6
BYBLOCK
 62
     0
100
AcDbText
 10
13.68245829191184
 20
5.106798984204969
 30
0.0
 40
0.125
  1
3 1/2
 50
90.0
 72
     1
 11
13.61995829191185
 21
5.377632317538302
 31
0.0
100
AcDbText
 73
     2
  0
POINT
  5
56
330
24
100
AcDbEntity
  8
DEFPOINTS
  6
BYBLOCK
 62
     0
100
AcDbPoint
 10
12.44889463697794
 20
7.127632317538302
 30
0.0
  0
POINT
  5
57
330
24
100
AcDbEntity
  8
DEFPOINTS
  6
BYBLOCK
 62
     0
100
AcDbPoint
 10
12.44889463697794
 20
3.627632317538302
 30
0.0
  0
POINT
  5
58
330
24
100
AcDbEntity
  8
DEFPOINTS
  6
BYBLOCK
 62
     0
100
AcDbPoint
 10
13.61995829191185
 20
3.627632317538302
 30
0.0
  0
ENDBLK
  5
59
330
24
100
AcDbEntity
  8
0
100
AcDbBlockEnd
  0
BLOCK
  5
5A
330
25
100
AcDbEntity
  8
0
100
AcDbBlockBegin
  2
*D3
 70
     1
 10
0.0
 20
0.0
 30
0.0
  3
*D3
  1

  0
LINE
  5
5B
330
25
100
AcDbEntity
  8
0
  6
BYBLOCK
 62
     0
100
AcDbLine
 10
10.47939463697794
 20
0.3776323175383025
 30
0.0
 11
8.414535117731276
 21
0.3776323175383027
 31
0.0
  0
LINE
  5
5C
330
25
100
AcDbEntity
  8
0
  6
BYBLOCK
 62
     0
100
AcDbLine
 10
9.011394636977941
 20
2.377632317538302
 30
0.0
 11
8.414535117731276
 21
2.377632317538302
 31
0.0
  0
LINE
  5
5D
330
25
100
AcDbEntity
  8
0
  6
BYBLOCK
 62
     0
100
AcDbLine
 10
8.594535117731275
 20
0.3776323175383027
 30
0.0
 11
8.594535117731275
 21
1.210965650871635
 31
0.0
  0
LINE
  5
5E
330
25
100
AcDbEntity
  8
0
  6
BYBLOCK
 62
     0
100
AcDbLine
 10
8.594535117731275
 20
2.377632317538302
 30
0.0
 11
8.594535117731275
 21
1.544298984204969
 31
0.0
  0
LINE
  5
5F
330
25
100
AcDbEntity
  8
0
  6
BYBLOCK
 62
     0
100
AcDbLine
 10
8.719535117731275
 20
0.2526323175383026
 30
0.0
 11
8.469535117731275
 21
0.5026323175383026
 31
0.0
  0
LINE
  5
60
330
25
100
AcDbEntity
  8
0
  6
BYBLOCK
 62
     0
100
AcDbLine
 10
8.719535117731275
 20
2.252632317538302
 30
0.0
 11
8.469535117731275
 21
2.502632317538302
 31
0.0
  0
TEXT
  5
61
330
25
100
AcDbEntity
  8
0
  6
BYBLOCK
 62
     0
100
AcDbText
 10
8.657035117731275
 20
1.335965650871635
 30
0.0
 40
0.125
  1
2
 50
90.0
 72
     1
 11
8.594535117731275
 21
1.377632317538302
 31
0.0
100
AcDbText
 73
     2
  0
POINT
  5
62
330
25
100
AcDbEntity
  8
DEFPOINTS
  6
BYBLOCK
 62
     0
100
AcDbPoint
 10
10.54189463697794
 20
0.3776323175383025
 30
0.0
  0
POINT
  5
63
330
25
100
AcDbEntity
  8
DEFPOINTS
  6
BYBLOCK
 62
     0
100
AcDbPoint
 10
9.073894636977941
 20
2.377632317538302
 30
0.0
  0
POINT
  5
64
330
25
100
AcDbEntity
  8
DEFPOINTS
  6
BYBLOCK
 62
     0
100
AcDbPoint
 10
8.594535117731275
 20
2.377632317538302
 30
0.0
  0
ENDBLK
  5
65
330
25
100
AcDbEntity
  8
0
100
AcDbBlockEnd
  0
BLOCK
  5
66
330
26
100
AcDbEntity
  8
0
100
AcDbBlockBegin
  2
*D4
 70
     1
 10
0.0
 20
0.0
 30
0.0
  3
*D4
  1

  0
LINE
  5
67
330
26
100
AcDbEntity
  8
0
  6
BYBLOCK
 62
     0
100
AcDbLine
 10
13.07389463697794
 20
-1.278105722799649
 30
0.0
 11
13.07389463697794
 21
-0.6334171860899519
 31
0.0
  0
LINE
  5
68
330
26
100
AcDbEntity
  8
0
  6
BYBLOCK
 62
     0
100
AcDbLine
 10
9.073894636977941
 20
-1.278105722799649
 30
0.0
 11
9.073894636977941
 21
-0.6334171860899519
 31
0.0
  0
LINE
  5
69
330
26
100
AcDbEntity
  8
0
  6
BYBLOCK
 62
     0
100
AcDbLine
 10
13.07389463697794
 20
-0.8134171860899517
 30
0.0
 11
11.2405613036446
 21
-0.8134171860899517
 31
0.0
  0
LINE
  5
6A
330
26
100
AcDbEntity
  8
0
  6
BYBLOCK
 62
     0
100
AcDbLine
 10
9.073894636977941
 20
-0.8134171860899517
 30
0.0
 11
10.90722797031127
 21
-0.8134171860899517
 31
0.0
  0
LINE
  5
6B
330
26
100
AcDbEntity
  8
0
  6
BYBLOCK
 62
     0
100
AcDbLine
 10
12.94889463697794
 20
-0.9384171860899517
 30
0.0
 11
13.19889463697794
 21
-0.6884171860899518
 31
0.0
  0
LINE
  5
6C
330
26
100
AcDbEntity
  8
0
  6
BYBLOCK
 62
     0
100
AcDbLine
 10
8.948894636977941
 20
-0.9384171860899517
 30
0.0
 11
9.198894636977941
 21
-0.6884171860899518
 31
0.0
  0
TEXT
  5
6D
330
26
100
AcDbEntity
  8
0
  6
BYBLOCK
 62
     0
100
AcDbText
 10
11.03222797031127
 20
-0.8759171860899517
 30
0.0
 40
0.125
  1
4
 72
     1
 11
11.07389463697794
 21
-0.8134171860899517
 31
0.0
100
AcDbText
 73
     2
  0
POINT
  5
6E
330
26
100
AcDbEntity
  8
DEFPOINTS
  6
BYBLOCK
 62
     0
100
AcDbPoint
 10
13.07389463697794
 20
-1.340605722799649
 30
0.0
  0
POINT
  5
6F
330
26
100
AcDbEntity
  8
DEFPOINTS
  6
BYBLOCK
 62
     0
100
AcDbPoint
 10
9.073894636977941
 20
-1.340605722799649
 30
0.0
  0
POINT
  5
70
330
26
100
AcDbEntity
  8
DEFPOINTS
  6
BYBLOCK
 62
     0
100
AcDbPoint
 10
9.073894636977941
 20
-0.8134171860899517
 30
0.0
  0
ENDBLK
  5
71
330
26
100
AcDbEntity
  8
0
100
AcDbBlockEnd
  0
BLOCK
  5
72
330
27
100
AcDbEntity
  8
0
100
AcDbBlockBegin
  2
*D5
 70
     1
 10
0.0
 20
0.0
 30
0.0
  3
*D5
  1

  0
LINE
  5
73
330
27
100
AcDbEntity
  8
0
  6
BYBLOCK
 62
     0
100
AcDbLine
 10
9.762144636977939
 20
-1.274411330835872
 30
0.0
 11
9.762144636977939
 21
-0.9032169388720953
 31
0.0
  0
LINE
  5
74
330
27
100
AcDbEntity
  8
0
  6
BYBLOCK
 62
     0
100
AcDbLine
 10
12.51214463697793
 20
-1.274411330835872
 30
0.0
 11
12.51214463697793
 21
-0.9032169388720953
 31
0.0
  0
LINE
  5
75
330
27
100
AcDbEntity
  8
0
  6
BYBLOCK
 62
     0
100
AcDbLine
 10
9.762144636977939
 20
-1.083216938872095
 30
0.0
 11
10.72047797031127
 21
-1.083216938872095
 31
0.0
  0
LINE
  5
76
330
27
100
AcDbEntity
  8
0
  6
BYBLOCK
 62
     0
100
AcDbLine
 10
12.51214463697793
 20
-1.083216938872095
 30
0.0
 11
11.5538113036446
 21
-1.083216938872095
 31
0.0
  0
LINE
  5
77
330
27
100
AcDbEntity
  8
0
  6
BYBLOCK
 62
     0
100
AcDbLine
 10
9.637144636977939
 20
-1.208216938872095
 30
0.0
 11
9.887144636977939
 21
-0.9582169388720952
 31
0.0
  0
LINE
  5
78
330
27
100
AcDbEntity
  8
0
  6
BYBLOCK
 62
     0
100
AcDbLine
 10
12.38714463697794
 20
-1.208216938872095
 30
0.0
 11
12.63714463697794
 21
-0.9582169388720952
 31
0.0
  0
TEXT
  5
79
330
27
100
AcDbEntity
  8
0
  6
BYBLOCK
 62
     0
100
AcDbText
 10
10.84547797031127
 20
-1.145716938872095
 30
0.0
 40
0.125
  1
2 3/4
 72
     1
 11
11.13714463697794
 21
-1.083216938872095
 31
0.0
100
AcDbText
 73
     2
  0
POINT
  5
7A
330
27
100
AcDbEntity
  8
DEFPOINTS
  6
BYBLOCK
 62
     0
100
AcDbPoint
 10
9.762144636977939
 20
-1.336911330835872
 30
0.0
  0
POINT
  5
7B
330
27
100
AcDbEntity
  8
DEFPOINTS
  6
BYBLOCK
 62
     0
100
AcDbPoint
 10
12.51214463697793
 20
-1.336911330835872
 30
0.0
  0
POINT
  5
7C
330
27
100
AcDbEntity
  8
DEFPOINTS
  6
BYBLOCK
 62
     0
100
AcDbPoint
 10
12.51214463697793
 20
-1.083216938872095
 30
0.0
  0
ENDBLK
  5
7D
330
27
100
AcDbEntity
  8
0
100
AcDbBlockEnd
  0
BLOCK
  5
7E
330
28
100
AcDbEntity
  8
0
100
AcDbBlockBegin
  2
*D6
 70
     1
 10
0.0
 20
0.0
 30
0.0
  3
*D6
  1

  0
LINE
  5
7F
330
28
100
AcDbEntity
  8
0
  6
BYBLOCK
 62
     0
100
AcDbLine
 10
13.13639463697794
 20
8.377632317538303
 30
0.0
 11
13.79995829191185
 21
8.377632317538303
 31
0.0
  0
LINE
  5
80
330
28
100
AcDbEntity
  8
0
  6
BYBLOCK
 62
     0
100
AcDbLine
 10
12.51139463697794
 20
7.127632317538302
 30
0.0
 11
13.79995829191185
 21
7.127632317538302
 31
0.0
  0
LINE
  5
81
330
28
100
AcDbEntity
  8
0
  6
BYBLOCK
 62
     0
100
AcDbLine
 10
13.61995829191185
 20
8.377632317538303
 30
0.0
 11
13.61995829191185
 21
8.127632317538303
 31
0.0
  0
LINE
  5
82
330
28
100
AcDbEntity
  8
0
  6
BYBLOCK
 62
     0
100
AcDbLine
 10
13.61995829191185
 20
7.127632317538302
 30
0.0
 11
13.61995829191185
 21
7.377632317538302
 31
0.0
  0
LINE
  5
83
330
28
100
AcDbEntity
  8
0
  6
BYBLOCK
 62
     0
100
AcDbLine
 10
13.74495829191185
 20
8.252632317538303
 30
0.0
 11
13.49495829191185
 21
8.502632317538303
 31
0.0
  0
LINE
  5
84
330
28
100
AcDbEntity
  8
0
  6
BYBLOCK
 62
     0
100
AcDbLine
 10
13.74495829191185
 20
7.002632317538302
 30
0.0
 11
13.49495829191185
 21
7.252632317538302
 31
0.0
  0
TEXT
  5
85
330
28
100
AcDbEntity
  8
0
  6
BYBLOCK
 62
     0
100
AcDbText
 10
13.68245829191184
 20
7.502632317538302
 30
0.0
 40
0.125
  1
1 1/4
 50
90.0
 72
     1
 11
13.61995829191185
 21
7.752632317538302
 31
0.0
100
AcDbText
 73
     2
  0
POINT
  5
86
330
28
100
AcDbEntity
  8
DEFPOINTS
  6
BYBLOCK
 62
     0
100
AcDbPoint
 10
13.07389463697794
 20
8.377632317538303
 30
0.0
  0
POINT
  5
87
330
28
100
AcDbEntity
  8
DEFPOINTS
  6
BYBLOCK
 62
     0
100
AcDbPoint
 10
12.44889463697794
 20
7.127632317538302
 30
0.0
  0
POINT
  5
88
330
28
100
AcDbEntity
  8
DEFPOINTS
  6
BYBLOCK
 62
     0
100
AcDbPoint
 10
13.61995829191185
 20
7.127632317538302
 30
0.0
  0
ENDBLK
  5
89
330
28
100
AcDbEntity
  8
0
100
AcDbBlockEnd
  0
BLOCK
  5
8A
330
29
100
AcDbEntity
  8
0
100
AcDbBlockBegin
  2
*D7
 70
     1
 10
0.0
 20
0.0
 30
0.0
  3
*D7
  1

  0
LINE
  5
8B
330
29
100
AcDbEntity
  8
0
  6
BYBLOCK
 62
     0
100
AcDbLine
 10
13.13639463697794
 20
-1.340605722799649
 30
0.0
 11
13.45113867278589
 21
-1.340605722799649
 31
0.0
  0
LINE
  5
8C
330
29
100
AcDbEntity
  8
0
  6
BYBLOCK
 62
     0
100
AcDbLine
 10
11.66939463697794
 20
-4.297240947260519
 30
0.0
 11
13.45113867278589
 21
-4.297240947260519
 31
0.0
  0
LINE
  5
8D
330
29
100
AcDbEntity
  8
0
  6
BYBLOCK
 62
     0
100
AcDbLine
 10
13.27113867278589
 20
-1.340605722799649
 30
0.0
 11
13.27113867278589
 21
-2.318923335030084
 31
0.0
  0
LINE
  5
8E
330
29
100
AcDbEntity
  8
0
  6
BYBLOCK
 62
     0
100
AcDbLine
 10
13.27113867278589
 20
-4.297240947260519
 30
0.0
 11
13.27113867278589
 21
-3.318923335030084
 31
0.0
  0
LINE
  5
8F
330
29
100
AcDbEntity
  8
0
  6
BYBLOCK
 62
     0
100
AcDbLine
 10
13.39613867278589
 20
-1.465605722799649
 30
0.0
 11
13.14613867278589
 21
-1.215605722799649
 31
0.0
  0
LINE
  5
90
330
29
100
AcDbEntity
  8
0
  6
BYBLOCK
 62
     0
100
AcDbLine
 10
13.39613867278589
 20
-4.422240947260519
 30
0.0
 11
13.14613867278589
 21
-4.172240947260519
 31
0.0
  0
TEXT
  5
91
330
29
100
AcDbEntity
  8
0
  6
BYBLOCK
 62
     0
100
AcDbText
 10
13.33363867278589
 20
-3.193923335030084
 30
0.0
 40
0.125
  1
2 15/16
 50
90.0
 72
     1
 11
13.27113867278589
 21
-2.818923335030084
 31
0.0
100
AcDbText
 73
     2
  0
POINT
  5
92
330
29
100
AcDbEntity
  8
DEFPOINTS
  6
BYBLOCK
 62
     0
100
AcDbPoint
 10
13.07389463697794
 20
-1.340605722799649
 30
0.0
  0
POINT
  5
93
330
29
100
AcDbEntity
  8
DEFPOINTS
  6
BYBLOCK
 62
     0
100
AcDbPoint
 10
11.60689463697794
 20
-4.297240947260519
 30
0.0
  0
POINT
  5
94
330
29
100
AcDbEntity
  8
DEFPOINTS
  6
BYBLOCK
 62
     0
100
AcDbPoint
 10
13.27113867278589
 20
-4.297240947260519
 30
0.0
  0
ENDBLK
  5
95
330
29
100
AcDbEntity
  8
0
100
AcDbBlockEnd
  0
BLOCK
  5
96
330
2A
100
AcDbEntity
  8
0
100
AcDbBlockBegin
  2
*D8
 70
     1
 10
0.0
 20
0.0
 30
0.0
  3
*D8
  1

  0
LINE
  5
97
330
2A
100
AcDbEntity
  8
0
  6
BYBLOCK
 62
     0
100
AcDbLine
 10
9.011394636977941
 20
-1.340605722799648
 30
0.0
 11
8.600456965596864
 21
-1.340605722799648
 31
0.0
  0
LINE
  5
98
330
2A
100
AcDbEntity
  8
0
  6
BYBLOCK
 62
     0
100
AcDbLine
 10
10.47939463697794
 20
-2.859240947260519
 30
0.0
 11
8.600456965596864
 21
-2.859240947260519
 31
0.0
  0
LINE
  5
99
330
2A
100
AcDbEntity
  8
0
  6
BYBLOCK
 62
     0
100
AcDbLine
 10
8.780456965596863
 20
-1.340605722799648
 30
0.0
 11
8.780456965596863
 21
-1.724923335030084
 31
0.0
  0
LINE
  5
9A
330
2A
100
AcDbEntity
  8
0
  6
BYBLOCK
 62
     0
100
AcDbLine
 10
8.780456965596863
 20
-2.859240947260519
 30
0.0
 11
8.780456965596863
 21
-2.474923335030084
 31
0.0
  0
LINE
  5
9B
330
2A
100
AcDbEntity
  8
0
  6
BYBLOCK
 62
     0
100
AcDbLine
 10
8.905456965596863
 20
-1.465605722799648
 30
0.0
 11
8.655456965596863
 21
-1.215605722799648
 31
0.0
  0
LINE
  5
9C
330
2A
100
AcDbEntity
  8
0
  6
BYBLOCK
 62
     0
100
AcDbLine
 10
8.905456965596863
 20
-2.984240947260519
 30
0.0
 11
8.655456965596863
 21
-2.734240947260519
 31
0.0
  0
TEXT
  5
9D
330
2A
100
AcDbEntity
  8
0
  6
BYBLOCK
 62
     0
100
AcDbText
 10
8.842956965596863
 20
-2.349923335030084
 30
0.0
 40
0.125
  1
1 1/2
 50
90.0
 72
     1
 11
8.780456965596863
 21
-2.099923335030084
 31
0.0
100
AcDbText
 73
     2
  0
POINT
  5
9E
330
2A
100
AcDbEntity
  8
DEFPOINTS
  6
BYBLOCK
 62
     0
100
AcDbPoint
 10
9.073894636977941
 20
-1.340605722799649
 30
0.0
  0
POINT
  5
9F
330
2A
100
AcDbEntity
  8
DEFPOINTS
  6
BYBLOCK
 62
     0
100
AcDbPoint
 10
10.54189463697794
 20
-2.859240947260519
 30
0.0
  0
POINT
  5
A0
330
2A
100
AcDbEntity
  8
DEFPOINTS
  6
BYBLOCK
 62
     0
100
AcDbPoint
 10
8.780456965596863
 20
-2.859240947260519
 30
0.0
  0
ENDBLK
  5
A1
330
2A
100
AcDbEntity
  8
0
100
AcDbBlockEnd
  0
ENDSEC
  0
SECTION
  2
ENTITIES
  0
LINE
  5
A2
330
1E
100
AcDbEntity
  8
ADP1DETAIL
100
AcDbLine
 10
10.44889463697794
 20
0.4706323175383025
 30
0.0
 11
10.44889463697794
 21
2.377632317538302
 31
0.0
  0
LINE
  5
A3
330
1E
100
AcDbEntity
  8
ADP1DETAIL
100
AcDbLine
 10
11.69889463697794
 20
2.377632317538302
 30
0.0
 11
11.69889463697794
 21
0.4706323175383025
 31
0.0
  0
DIMENSION
  5
A4
330
1E
100
AcDbEntity
  8
ADPDIM
100
AcDbDimension
  2
*D3
 10
8.594535117731275
 20
2.377632317538302
 30
0.0
 11
8.594535117731275
 21
1.377632317538302
 31
0.0
100
AcDbAlignedDimension
 13
10.54189463697794
 23
0.3776323175383025
 33
0.0
 14
9.073894636977941
 24
2.377632317538302
 34
0.0
 50
90.0
100
AcDbRotatedDimension
  0
DIMENSION
  5
A5
330
1E
100
AcDbEntity
  8
ADPDIM
100
AcDbDimension
  2
*D0
 10
13.61995829191185
 20
0.3776323175383024
 30
0.0
 11
13.61995829191185
 21
2.002632317538302
 31
0.0
100
AcDbAlignedDimension
 13
12.44889463697794
 23
3.627632317538302
 33
0.0
 14
11.60589463697794
 24
0.3776323175383025
 34
0.0
 50
90.0
100
AcDbRotatedDimension
  0
DIMENSION
  5
A6
330
1E
100
AcDbEntity
  8
ADPDIM
100
AcDbDimension
  2
*D7
 10
13.27113867278589
 20
-4.297240947260519
 30
0.0
 11
13.27113867278589
 21
-2.818923335030084
 31
0.0
100
AcDbAlignedDimension
 13
13.07389463697794
 23
-1.340605722799649
 33
0.0
 14
11.60689463697794
 24
-4.297240947260519
 34
0.0
 50
270.0
100
AcDbRotatedDimension
  0
ARC
  5
A7
330
1E
100
AcDbEntity
  8
ADP1DETAIL
100
AcDbCircle
 10
11.69989463697794
 20
-2.859240947260519
 30
0.0
 40
0.187
100
AcDbArc
 50
0.0
 51
90.0
  0
LINE
  5
A8
330
1E
100
AcDbEntity
  8
ADP1DETAIL
100
AcDbLine
 10
12.94889463697794
 20
-1.590605722799649
 30
0.0
 11
11.63639463697794
 21
-1.590605722799649
 31
0.0
  0
ARC
  5
A9
330
1E
100
AcDbEntity
  8
ADP1DETAIL
100
AcDbCircle
 10
11.60689463697794
 20
-4.017240947260519
 30
0.0
 40
0.28
100
AcDbArc
 50
270.0
 51
0.0
  0
DIMENSION
  5
AA
330
1E
100
AcDbEntity
  8
ADPDIM
100
AcDbDimension
  2
*D5
 10
12.51214463697793
 20
-1.083216938872095
 30
0.0
 11
11.13714463697794
 21
-1.083216938872095
 31
0.0
100
AcDbAlignedDimension
 13
9.762144636977939
 23
-1.336911330835872
 33
0.0
 14
12.51214463697793
 24
-1.336911330835872
 34
0.0
100
AcDbRotatedDimension
  0
LINE
  5
AB
330
1E
100
AcDbEntity
  8
ADP1DETAIL
100
AcDbLine
 10
9.073894636977941
 20
-1.340605722799649
 30
0.0
 11
13.07389463697794
 21
-1.340605722799649
 31
0.0
  0
DIMENSION
  5
AC
330
1E
100
AcDbEntity
  8
ADPDIM
100
AcDbDimension
  2
*D4
 10
9.073894636977941
 20
-0.8134171860899517
 30
0.0
 11
11.07389463697794
 21
-0.8134171860899517
 31
0.0
100
AcDbAlignedDimension
 13
13.07389463697794
 23
-1.340605722799649
 33
0.0
 14
9.073894636977941
 24
-1.340605722799649
 34
0.0
100
AcDbRotatedDimension
  0
DIMENSION
  5
AD
330
1E
100
AcDbEntity
  8
ADPDIM
100
AcDbDimension
  2
*D8
 10
8.780456965596863
 20
-2.859240947260519
 30
0.0
 11
8.780456965596863
 21
-2.099923335030084
 31
0.0
100
AcDbAlignedDimension
 13
9.073894636977941
 23
-1.340605722799649
 33
0.0
 14
10.54189463697794
 24
-2.859240947260519
 34
0.0
 50
270.0
100
AcDbRotatedDimension
  0
LINE
  5
AE
330
1E
100
AcDbEntity
  8
ADP2DETAIL
  6
HIDDEN2
100
AcDbLine
 10
11.26139463697794
 20
-1.465605722799649
 30
0.0
 11
11.26139463697794
 21
-2.859240947260519
 31
0.0
  0
LINE
  5
AF
330
1E
100
AcDbEntity
  8
ADP2DETAIL
  6
HIDDEN2
100
AcDbLine
 10
10.88639463697794
 20
-1.465605722799649
 30
0.0
 11
10.88639463697794
 21
-2.859240947260519
 31
0.0
  0
LINE
  5
B0
330
1E
100
AcDbEntity
  8
ADP1DETAIL
100
AcDbLine
 10
11.38639463697794
 20
-1.840605722799649
 30
0.0
 11
11.38639463697794
 21
-2.422240947260519
 31
0.0
  0
LINE
  5
B1
330
1E
100
AcDbEntity
  8
ADP1DETAIL
100
AcDbLine
 10
10.76139463697794
 20
-1.840605722799649
 30
0.0
 11
10.76139463697794
 21
-2.422240947260519
 31
0.0
  0
ARC
  5
B2
330
1E
100
AcDbEntity
  8
ADP1DETAIL
100
AcDbCircle
 10
10.44789463697794
 20
-2.859240947260519
 30
0.0
 40
0.187
100
AcDbArc
 50
90.0
 51
180.0
  0
ARC
  5
B3
330
1E
100
AcDbEntity
  8
ADP1DETAIL
100
AcDbCircle
 10
10.54089463697793
 20
-4.017240947260519
 30
0.0
 40
0.28
100
AcDbArc
 50
180.0
 51
270.0
  0
LINE
  5
B4
330
1E
100
AcDbEntity
  8
ADP1DETAIL
100
AcDbLine
 10
10.26089463697794
 20
-4.017240947260519
 30
0.0
 11
10.26089463697794
 21
-2.859240947260519
 31
0.0
  0
LINE
  5
B5
330
1E
100
AcDbEntity
  8
ADP1DETAIL
100
AcDbLine
 10
11.69889463697794
 20
-2.952240947260519
 30
0.0
 11
11.69889463697794
 21
-4.016240947260519
 31
0.0
  0
LINE
  5
B6
330
1E
100
AcDbEntity
  8
ADP1DETAIL
100
AcDbLine
 10
10.44889463697794
 20
-4.016240947260519
 30
0.0
 11
10.44889463697794
 21
-2.952240947260519
 31
0.0
  0
LINE
  5
B7
330
1E
100
AcDbEntity
  8
ADP1DETAIL
100
AcDbLine
 10
11.60589463697794
 20
-4.109240947260519
 30
0.0
 11
10.54189463697794
 21
-4.109240947260519
 31
0.0
  0
LINE
  5
B8
330
1E
100
AcDbEntity
  8
ADP1DETAIL
100
AcDbLine
 10
11.60689463697794
 20
-4.297240947260519
 30
0.0
 11
10.54089463697794
 21
-4.297240947260518
 31
0.0
  0
ARC
  5
B9
330
1E
100
AcDbEntity
  8
ADP1DETAIL
100
AcDbCircle
 10
10.54189463697794
 20
-4.016240947260519
 30
0.0
 40
0.093
100
AcDbArc
 50
180.0
 51
270.0
  0
ARC
  5
BA
330
1E
100
AcDbEntity
  8
ADP1DETAIL
100
AcDbCircle
 10
11.60589463697794
 20
-4.016240947260519
 30
0.0
 40
0.093
100
AcDbArc
 50
270.0
 51
0.0
  0
LINE
  5
BB
330
1E
100
AcDbEntity
  8
ADP1DETAIL
100
AcDbLine
 10
11.26139463697794
 20
-2.903605722799649
 30
0.0
 11
10.88639463697794
 21
-2.903605722799649
 31
0.0
  0
LINE
  5
BC
330
1E
100
AcDbEntity
  8
ADP1DETAIL
100
AcDbLine
 10
11.23139463697794
 20
-2.934605722799648
 30
0.0
 11
10.91639463697794
 21
-2.934605722799649
 31
0.0
  0
LINE
  5
BD
330
1E
100
AcDbEntity
  8
ADP1DETAIL
100
AcDbLine
 10
11.26139463697794
 20
-2.968605722799648
 30
0.0
 11
10.88639463697794
 21
-2.968605722799649
 31
0.0
  0
LINE
  5
BE
330
1E
100
AcDbEntity
  8
ADP1DETAIL
100
AcDbLine
 10
11.23139463697794
 20
-2.999605722799649
 30
0.0
 11
10.91639463697794
 21
-2.999605722799649
 31
0.0
  0
LINE
  5
BF
330
1E
100
AcDbEntity
  8
ADP1DETAIL
100
AcDbLine
 10
11.26139463697794
 20
-3.028605722799649
 30
0.0
 11
10.88639463697794
 21
-3.028605722799649
 31
0.0
  0
LINE
  5
C0
330
1E
100
AcDbEntity
  8
ADP1DETAIL
100
AcDbLine
 10
11.23139463697794
 20
-3.059605722799648
 30
0.0
 11
10.91639463697794
 21
-3.059605722799649
 31
0.0
  0
LINE
  5
C1
330
1E
100
AcDbEntity
  8
ADP1DETAIL
100
AcDbLine
 10
11.26139463697794
 20
-3.090605722799648
 30
0.0
 11
10.88639463697794
 21
-3.090605722799649
 31
0.0
  0
LINE
  5
C2
330
1E
100
AcDbEntity
  8
ADP1DETAIL
100
AcDbLine
 10
11.23139463697794
 20
-3.121605722799649
 30
0.0
 11
10.91639463697794
 21
-3.121605722799649
 31
0.0
  0
LINE
  5
C3
330
1E
100
AcDbEntity
  8
ADP1DETAIL
100
AcDbLine
 10
11.26139463697794
 20
-3.153605722799649
 30
0.0
 11
10.88639463697794
 21
-3.153605722799649
 31
0.0
  0
LINE
  5
C4
330
1E
100
AcDbEntity
  8
ADP1DETAIL
100
AcDbLine
 10
11.23139463697794
 20
-3.184605722799648
 30
0.0
 11
10.91639463697794
 21
-3.184605722799649
 31
0.0
  0
LINE
  5
C5
330
1E
100
AcDbEntity
  8
ADP1DETAIL
100
AcDbLine
 10
11.26139463697794
 20
-3.216605722799649
 30
0.0
 11
10.88639463697794
 21
-3.216605722799649
 31
0.0
  0
LINE
  5
C6
330
1E
100
AcDbEntity
  8
ADP1DETAIL
100
AcDbLine
 10
10.54189463697794
 20
-2.859240947260519
 30
0.0
 11
11.60589463697794
 21
-2.859240947260519
 31
0.0
  0
LINE
  5
C7
330
1E
100
AcDbEntity
  8
ADP1DETAIL
100
AcDbLine
 10
11.23139463697794
 20
-3.247605722799648
 30
0.0
 11
10.91639463697794
 21
-3.247605722799649
 31
0.0
  0
LINE
  5
C8
330
1E
100
AcDbEntity
  8
ADP1DETAIL
100
AcDbLine
 10
11.26139463697794
 20
-3.278605722799649
 30
0.0
 11
10.88639463697794
 21
-3.278605722799649
 31
0.0
  0
LINE
  5
C9
330
1E
100
AcDbEntity
  8
ADP1DETAIL
100
AcDbLine
 10
11.23139463697794
 20
-3.309605722799648
 30
0.0
 11
10.91639463697794
 21
-3.309605722799649
 31
0.0
  0
LINE
  5
CA
330
1E
100
AcDbEntity
  8
ADP1DETAIL
100
AcDbLine
 10
11.23139463697794
 20
-3.340605722799648
 30
0.0
 11
10.91639463697794
 21
-3.340605722799649
 31
0.0
  0
LINE
  5
CB
330
1E
100
AcDbEntity
  8
ADP1DETAIL
100
AcDbLine
 10
10.88639463697794
 20
-3.310605722799649
 30
0.0
 11
10.88639463697794
 21
-2.859240947260519
 31
0.0
  0
ARC
  5
CC
330
1E
100
AcDbEntity
  8
ADP1DETAIL
100
AcDbCircle
 10
10.91639463697794
 20
-3.310605722799649
 30
0.0
 40
0.03
100
AcDbArc
 50
180.0
 51
270.0000000000001
  0
ARC
  5
CD
330
1E
100
AcDbEntity
  8
ADP1DETAIL
100
AcDbCircle
 10
10.51139463697794
 20
-2.422240947260519
 30
0.0
 40
0.25
100
AcDbArc
 50
270.0
 51
0.0000000000001018
  0
LINE
  5
CE
330
1E
100
AcDbEntity
  8
ADP1DETAIL
100
AcDbLine
 10
10.44789463697794
 20
-2.672240947260519
 30
0.0
 11
10.51139463697794
 21
-2.672240947260519
 31
0.0
  0
ARC
  5
CF
330
1E
100
AcDbEntity
  8
ADP1DETAIL
100
AcDbCircle
 10
10.54189463697794
 20
-2.952240947260519
 30
0.0
 40
0.093
100
AcDbArc
 50
89.99999999999998
 51
180.0
  0
LINE
  5
D0
330
1E
100
AcDbEntity
  8
ADP1DETAIL
100
AcDbLine
 10
11.26139463697794
 20
-3.310605722799649
 30
0.0
 11
11.26139463697794
 21
-2.859240947260519
 31
0.0
  0
ARC
  5
D1
330
1E
100
AcDbEntity
  8
ADP1DETAIL
100
AcDbCircle
 10
11.23139463697794
 20
-3.310605722799649
 30
0.0
 40
0.03
100
AcDbArc
 50
270.0
 51
0.0
  0
ARC
  5
D2
330
1E
100
AcDbEntity
  8
ADP1DETAIL
100
AcDbCircle
 10
11.63639463697794
 20
-2.422240947260519
 30
0.0
 40
0.25
100
AcDbArc
 50
179.9999999999998
 51
270.0
  0
LINE
  5
D3
330
1E
100
AcDbEntity
  8
ADP1DETAIL
100
AcDbLine
 10
11.63639463697794
 20
-2.672240947260519
 30
0.0
 11
11.69989463697794
 21
-2.672240947260519
 31
0.0
  0
ARC
  5
D4
330
1E
100
AcDbEntity
  8
ADP1DETAIL
100
AcDbCircle
 10
11.60589463697794
 20
-2.952240947260519
 30
0.0
 40
0.093
100
AcDbArc
 50
0.0
 51
89.99999999999998
  0
LINE
  5
D5
330
1E
100
AcDbEntity
  8
ADP1DETAIL
100
AcDbLine
 10
9.198894636977941
 20
-1.590605722799649
 30
0.0
 11
10.51139463697793
 21
-1.590605722799649
 31
0.0
  0
LINE
  5
D6
330
1E
100
AcDbEntity
  8
ADP2DETAIL
  6
HIDDEN2
100
AcDbLine
 10
9.543394636977941
 20
-1.590605722799649
 30
0.0
 11
9.543394636977941
 21
-1.340605722799649
 31
0.0
  0
LINE
  5
D7
330
1E
100
AcDbEntity
  8
ADP1DETAIL
100
AcDbLine
 10
9.073894636977941
 20
-1.340605722799649
 30
0.0
 11
9.073894636977941
 21
-1.465605722799649
 31
0.0
  0
LINE
  5
D8
330
1E
100
AcDbEntity
  8
ADP1DETAIL
100
AcDbLine
 10
9.073894636977941
 20
-1.465605722799649
 30
0.0
 11
9.198894636977941
 21
-1.590605722799649
 31
0.0
  0
LINE
  5
D9
330
1E
100
AcDbEntity
  8
ADP2DETAIL
  6
HIDDEN2
100
AcDbLine
 10
9.980894636977941
 20
-1.340605722799649
 30
0.0
 11
9.980894636977941
 21
-1.590605722799649
 31
0.0
  0
LINE
  5
DA
330
1E
100
AcDbEntity
  8
ADP2DETAIL
  6
HIDDEN2
100
AcDbLine
 10
10.88639463697794
 20
-1.465605722799649
 30
0.0
 11
10.76139463697794
 21
-1.340605722799649
 31
0.0
  0
ARC
  5
DB
330
1E
100
AcDbEntity
  8
ADP1DETAIL
100
AcDbCircle
 10
10.51139463697793
 20
-1.840605722799649
 30
0.0
 40
0.25
100
AcDbArc
 50
0.0
 51
89.99999999999998
  0
LINE
  5
DC
330
1E
100
AcDbEntity
  8
ADP2DETAIL
  6
HIDDEN2
100
AcDbLine
 10
11.38639463697794
 20
-1.340605722799649
 30
0.0
 11
11.26139463697794
 21
-1.465605722799649
 31
0.0
  0
ARC
  5
DD
330
1E
100
AcDbEntity
  8
ADP1DETAIL
100
AcDbCircle
 10
11.63639463697794
 20
-1.840605722799649
 30
0.0
 40
0.25
100
AcDbArc
 50
90.0
 51
180.0
  0
LINE
  5
DE
330
1E
100
AcDbEntity
  8
ADP1DETAIL
100
AcDbLine
 10
11.60589463697794
 20
0.3776323175383025
 30
0.0
 11
10.54189463697794
 21
0.3776323175383025
 31
0.0
  0
ARC
  5
DF
330
1E
100
AcDbEntity
  8
ADP1DETAIL
100
AcDbCircle
 10
10.54189463697794
 20
0.4706323175383025
 30
0.0
 40
0.093
100
AcDbArc
 50
180.0
 51
270.0
  0
ARC
  5
E0
330
1E
100
AcDbEntity
  8
ADP1DETAIL
100
AcDbCircle
 10
11.60589463697794
 20
0.4706323175383021
 30
0.0
 40
0.093
100
AcDbArc
 50
270.0
 51
0.0
  0
LINE
  5
E1
330
1E
100
AcDbEntity
  8
ADP1DETAIL
100
AcDbLine
 10
11.88689463697794
 20
-2.859240947260519
 30
0.0
 11
11.88689463697794
 21
-4.017240947260519
 31
0.0
  0
LINE
  5
E2
330
1E
100
AcDbEntity
  8
ADP2DETAIL
  6
HIDDEN2
100
AcDbLine
 10
12.29339463697794
 20
-1.590605722799649
 30
0.0
 11
12.29339463697794
 21
-1.340605722799649
 31
0.0
  0
LINE
  5
E3
330
1E
100
AcDbEntity
  8
ADP1DETAIL
100
AcDbLine
 10
13.07389463697794
 20
-1.340605722799649
 30
0.0
 11
13.07389463697794
 21
-1.465605722799649
 31
0.0
  0
LINE
  5
E4
330
1E
100
AcDbEntity
  8
ADP2DETAIL
  6
HIDDEN2
100
AcDbLine
 10
12.73089463697794
 20
-1.340605722799649
 30
0.0
 11
12.73089463697794
 21
-1.590605722799649
 31
0.0
  0
LINE
  5
E5
330
1E
100
AcDbEntity
  8
ADP1DETAIL
100
AcDbLine
 10
13.07389463697794
 20
-1.465605722799649
 30
0.0
 11
12.94889463697794
 21
-1.590605722799649
 31
0.0
  0
LWPOLYLINE
  5
E6
330
1E
100
AcDbEntity
  8
ADP1DETAIL
100
AcDbPolyline
 90
        4
 70
     1
 43
0.0
 10
9.073894636977941
 20
2.377632317538302
 10
9.073894636977941
 20
8.377632317538303
 10
13.07389463697794
 20
8.377632317538303
 10
13.07389463697794
 20
2.377632317538302
  0
LINE
  5
EC
330
1E
100
AcDbEntity
  8
ADP2DETAIL
  6
HIDDEN2
100
AcDbLine
 10
11.69889463697794
 20
8.377632317538303
 30
0.0
 11
11.69889463697794
 21
3.627632317538302
 31
0.0
  0
LINE
  5
ED
330
1E
100
AcDbEntity
  8
ADP2DETAIL
  6
HIDDEN2
100
AcDbLine
 10
10.44889463697794
 20
3.627632317538302
 30
0.0
 11
10.44889463697794
 21
8.377632317538303
 31
0.0
  0
LINE
  5
EE
330
1E
100
AcDbEntity
  8
ADP1DETAIL
100
AcDbLine
 10
10.26089463697794
 20
2.377632317538302
 30
0.0
 11
10.26089463697794
 21
8.377632317538303
 31
0.0
  0
LINE
  5
EF
330
1E
100
AcDbEntity
  8
ADP1DETAIL
100
AcDbLine
 10
9.198894636977941
 20
2.377632317538302
 30
0.0
 11
9.198894636977941
 21
8.377632317538303
 31
0.0
  0
DIMENSION
  5
F0
330
1E
100
AcDbEntity
  8
ADPDIM
100
AcDbDimension
  2
*D1
 10
8.594535117731275
 20
8.377632317538303
 30
0.0
 11
8.594535117731275
 21
5.377632317538302
 31
0.0
100
AcDbAlignedDimension
 13
9.073894636977941
 23
2.377632317538302
 33
0.0
 14
9.073894636977941
 24
8.377632317538303
 34
0.0
 50
90.0
100
AcDbRotatedDimension
  0
CIRCLE
  5
F1
330
1E
100
AcDbEntity
  8
ADP1DETAIL
100
AcDbCircle
 10
9.698894636977941
 20
3.627632317538302
 30
0.0
 40
0.21875
  0
LINE
  5
F2
330
1E
100
AcDbEntity
  8
ADP2DETAIL
  6
HIDDEN2
100
AcDbLine
 10
11.69889463697794
 20
3.627632317538302
 30
0.0
 11
10.44889463697794
 21
3.627632317538302
 31
0.0
  0
CIRCLE
  5
F3
330
1E
100
AcDbEntity
  8
ADP1DETAIL
100
AcDbCircle
 10
9.698894636977941
 20
7.127632317538302
 30
0.0
 40
0.21875
  0
DIMENSION
  5
F4
330
1E
100
AcDbEntity
  8
ADPDIM
100
AcDbDimension
  2
*D6
 10
13.61995829191185
 20
7.127632317538302
 30
0.0
 11
13.61995829191185
 21
7.752632317538302
 31
0.0
100
AcDbAlignedDimension
 13
13.07389463697794
 23
8.377632317538303
 33
0.0
 14
12.44889463697794
 24
7.127632317538302
 34
0.0
 50
90.0
100
AcDbRotatedDimension
  0
LINE
  5
F5
330
1E
100
AcDbEntity
  8
ADP1DETAIL
100
AcDbLine
 10
11.88689463697794
 20
8.377632317538303
 30
0.0
 11
11.88689463697794
 21
2.377632317538302
 31
0.0
  0
LINE
  5
F6
330
1E
100
AcDbEntity
  8
ADP1DETAIL
100
AcDbLine
 10
12.94889463697794
 20
2.377632317538302
 30
0.0
 11
12.94889463697794
 21
8.377632317538303
 31
0.0
  0
DIMENSION
  5
F7
330
1E
100
AcDbEntity
  8
ADPDIM
100
AcDbDimension
  2
*D2
 10
13.61995829191185
 20
3.627632317538302
 30
0.0
 11
13.61995829191185
 21
5.377632317538302
 31
0.0
100
AcDbAlignedDimension
 13
12.44889463697794
 23
7.127632317538302
 33
0.0
 14
12.44889463697794
 24
3.627632317538302
 34
0.0
 50
90.0
100
AcDbRotatedDimension
  0
CIRCLE
  5
F8
330
1E
100
AcDbEntity
  8
ADP1DETAIL
100
AcDbCircle
 10
12.44889463697794
 20
3.627632317538302
 30
0.0
 40
0.21875
  0
CIRCLE
  5
F9
330
1E
100
AcDbEntity
  8
ADP1DETAIL
100
AcDbCircle
 10
12.44889463697794
 20
7.127632317538302
 30
0.0
 40
0.21875
  0
TEXT
  5
FD
330
1E
100
AcDbEntity
  8
ADPDIM
100
AcDbText
 10
-0.1868435536769031
 20
-5.021093879693842
 30
0.0
 40
0.21875
  1
J U L I U S  B L U M  &  C O . ,  I N C .      ( 8 0 0 )  5 2 6 - 6 2 9 3        W W W . J U L I U S B L U M . C O M        P A R T  N o .  4 2 2
 41
1.25
  7
ARIAL_WIDE
 72
     1
 11
11.07389463697794
 21
-4.802343879693842
 31
0.0
100
AcDbText
 73
     3
  0
ENDSEC
  0
SECTION
  2
OBJECTS
  0
DICTIONARY
  5
C
330
0
100
AcDbDictionary
  3
ACAD_GROUP
350
D
  3
ACAD_LAYOUT
350
19
  3
ACAD_MLINESTYLE
350
16
  3
ACAD_PLOTSETTINGS
350
18
  3
ACAD_PLOTSTYLENAME
350
E
  3
ACDBHEADERROUNDTRIPXREC
350
290
  3
ACDBVARIABLEDICTIONARY
350
16E
  0
DICTIONARY
  5
139
330
1E
100
AcDbDictionary
280
     1
  3
ACAD_LAYOUTSELFREF
360
2B2
  0
DICTIONARY
  5
13B
330
1A
100
AcDbDictionary
280
     1
  3
ACAD_LAYOUTSELFREF
360
2B1
  0
DICTIONARY
  5
D
102
{ACAD_REACTORS
330
C
102
}
330
C
100
AcDbDictionary
  0
DICTIONARY
  5
19
102
{ACAD_REACTORS
330
C
102
}
330
C
100
AcDbDictionary
  0
DICTIONARY
  5
16
102
{ACAD_REACTORS
330
C
102
}
330
C
100
AcDbDictionary
  3
STANDARD
350
17
  0
DICTIONARY
  5
18
102
{ACAD_REACTORS
330
C
102
}
330
C
100
AcDbDictionary
  0
ACDBDICTIONARYWDFLT
  5
E
102
{ACAD_REACTORS
330
C
102
}
330
C
100
AcDbDictionary
281
     1
  3
Normal
350
F
100
AcDbDictionaryWithDefault
340
F
  0
DICTIONARY
  5
290
102
{ACAD_REACTORS
330
C
102
}
330
C
100
AcDbDictionary
  3
CEPSNTYPE
350
29A
  3
DIMSTYLEDATA
350
29E
  3
FINGERPRINTGUID
350
29B
  3
HYPERLINKBASE
350
293
  3
INSUNITS
350
299
  3
LAYOUTDICT
350
295
  3
LWETCUNION
350
298
  3
PLOTSETDICT
350
296
  3
PLOTSTYLNAMDICT
350
297
  3
PSVPSCALE
350
29D
  3
PUCSBASE
350
2A1
  3
PUCSORGBACK
350
2A7
  3
PUCSORGBOTTOM
350
2A3
  3
PUCSORGFRONT
350
2A6
  3
PUCSORGLEFT
350
2A4
  3
PUCSORGRIGHT
350
2A5
  3
PUCSORGTOP
350
2A2
  3
PUCSORTHOREF
350
29F
  3
PUCSORTHOVIEW
350
2A0
  3
STYLESHEET
350
294
  3
TSTACKALIGN
350
291
  3
TSTACKSIZE
350
292
  3
UCSBASE
350
2AA
  3
UCSORGBACK
350
2B0
  3
UCSORGBOTTOM
350
2AC
  3
UCSORGFRONT
350
2AF
  3
UCSORGLEFT
350
2AD
  3
UCSORGRIGHT
350
2AE
  3
UCSORGTOP
350
2AB
  3
UCSORTHOREF
350
2A8
  3
UCSORTHOVIEW
350
2A9
  3
VERSIONGUID
350
29C
  0
DICTIONARY
  5
16E
102
{ACAD_REACTORS
330
C
102
}
330
C
100
AcDbDictionary
  3
DIMASSOC
350
170
  3
HIDETEXT
350
16F
  0
XRECORD
  5
2B2
102
{ACAD_REACTORS
330
139
102
}
330
139
100
AcDbXrecord
340
1E
  0
XRECORD
  5
2B1
102
{ACAD_REACTORS
330
13B
102
}
330
13B
100
AcDbXrecord
340
1A
  0
MLINESTYLE
  5
17
102
{ACAD_REACTORS
330
16
102
}
330
16
100
AcDbMlineStyle
  2
STANDARD
 70
     0
  3

 62
   256
 51
90.0
 52
90.0
 71
     2
 49
0.5
 62
   256
  6
BYLAYER
 49
-0.5
 62
   256
  6
BYLAYER
  0
ACDBPLACEHOLDER
  5
F
102
{ACAD_REACTORS
330
E
102
}
330
E
100
AcDbPlaceHolder
280
     0
  0
XRECORD
  5
29A
102
{ACAD_REACTORS
330
290
102
}
330
290
100
AcDbXrecord
 90
        0
  0
XRECORD
  5
29E
102
{ACAD_REACTORS
330
290
102
}
330
290
100
AcDbXrecord
1000
DSTYLE
1002
{
1070
   277
 70
     5
1070
   279
 70
     2
1002
}
  0
XRECORD
  5
29B
102
{ACAD_REACTORS
330
290
102
}
330
290
100
AcDbXrecord
  1
{C9DB262A-44AC-41DD-B646-8FD8A9A13C9E}
  0
XRECORD
  5
293
102
{ACAD_REACTORS
330
290
102
}
330
290
100
AcDbXrecord
  1

  0
XRECORD
  5
299
102
{ACAD_REACTORS
330
290
102
}
330
290
100
AcDbXrecord
 90
        0
  0
XRECORD
  5
295
102
{ACAD_REACTORS
330
290
102
}
330
290
100
AcDbXrecord
340
19
  0
XRECORD
  5
298
102
{ACAD_REACTORS
330
290
102
}
330
290
100
AcDbXrecord
 90
    14877
  0
XRECORD
  5
296
102
{ACAD_REACTORS
330
290
102
}
330
290
100
AcDbXrecord
340
18
  0
XRECORD
  5
297
102
{ACAD_REACTORS
330
290
102
}
330
290
100
AcDbXrecord
340
E
  0
XRECORD
  5
29D
102
{ACAD_REACTORS
330
290
102
}
330
290
100
AcDbXrecord
 40
0.0
  0
XRECORD
  5
2A1
102
{ACAD_REACTORS
330
290
102
}
330
290
100
AcDbXrecord
340
0
  0
XRECORD
  5
2A7
102
{ACAD_REACTORS
330
290
102
}
330
290
100
AcDbXrecord
 10
0.0
 20
0.0
 30
0.0
  0
XRECORD
  5
2A3
102
{ACAD_REACTORS
330
290
102
}
330
290
100
AcDbXrecord
 10
0.0
 20
0.0
 30
0.0
  0
XRECORD
  5
2A6
102
{ACAD_REACTORS
330
290
102
}
330
290
100
AcDbXrecord
 10
0.0
 20
0.0
 30
0.0
  0
XRECORD
  5
2A4
102
{ACAD_REACTORS
330
290
102
}
330
290
100
AcDbXrecord
 10
0.0
 20
0.0
 30
0.0
  0
XRECORD
  5
2A5
102
{ACAD_REACTORS
330
290
102
}
330
290
100
AcDbXrecord
 10
0.0
 20
0.0
 30
0.0
  0
XRECORD
  5
2A2
102
{ACAD_REACTORS
330
290
102
}
330
290
100
AcDbXrecord
 10
0.0
 20
0.0
 30
0.0
  0
XRECORD
  5
29F
102
{ACAD_REACTORS
330
290
102
}
330
290
100
AcDbXrecord
340
0
  0
XRECORD
  5
2A0
102
{ACAD_REACTORS
330
290
102
}
330
290
100
AcDbXrecord
 70
     0
  0
XRECORD
  5
294
102
{ACAD_REACTORS
330
290
102
}
330
290
100
AcDbXrecord
  1

  0
XRECORD
  5
291
102
{ACAD_REACTORS
330
290
102
}
330
290
100
AcDbXrecord
 90
        1
  0
XRECORD
  5
292
102
{ACAD_REACTORS
330
290
102
}
330
290
100
AcDbXrecord
 90
       70
  0
XRECORD
  5
2AA
102
{ACAD_REACTORS
330
290
102
}
330
290
100
AcDbXrecord
340
0
  0
XRECORD
  5
2B0
102
{ACAD_REACTORS
330
290
102
}
330
290
100
AcDbXrecord
 10
0.0
 20
0.0
 30
0.0
  0
XRECORD
  5
2AC
102
{ACAD_REACTORS
330
290
102
}
330
290
100
AcDbXrecord
 10
0.0
 20
0.0
 30
0.0
  0
XRECORD
  5
2AF
102
{ACAD_REACTORS
330
290
102
}
330
290
100
AcDbXrecord
 10
0.0
 20
0.0
 30
0.0
  0
XRECORD
  5
2AD
102
{ACAD_REACTORS
330
290
102
}
330
290
100
AcDbXrecord
 10
0.0
 20
0.0
 30
0.0
  0
XRECORD
  5
2AE
102
{ACAD_REACTORS
330
290
102
}
330
290
100
AcDbXrecord
 10
0.0
 20
0.0
 30
0.0
  0
XRECORD
  5
2AB
102
{ACAD_REACTORS
330
290
102
}
330
290
100
AcDbXrecord
 10
0.0
 20
0.0
 30
0.0
  0
XRECORD
  5
2A8
102
{ACAD_REACTORS
330
290
102
}
330
290
100
AcDbXrecord
340
0
  0
XRECORD
  5
2A9
102
{ACAD_REACTORS
330
290
102
}
330
290
100
AcDbXrecord
 70
     0
  0
XRECORD
  5
29C
102
{ACAD_REACTORS
330
290
102
}
330
290
100
AcDbXrecord
  1
{8AF41FDC-751B-4DF5-A03F-2D1D7C24C417}
  0
DICTIONARYVAR
  5
170
102
{ACAD_REACTORS
330
16E
102
}
330
16E
100
DictionaryVariables
280
     0
  1
2
  0
DICTIONARYVAR
  5
16F
102
{ACAD_REACTORS
330
16E
102
}
330
16E
100
DictionaryVariables
280
     0
  1
1
  0
ENDSEC
  0
EOF
