  0
SECTION
  2
HEADER
  9
$ACADVER
  1
AC1014
  9
$ACADMAINTVER
 70
     9
  9
$DWGCODEPAGE
  3
ANSI_1252
  9
$INSBASE
 10
33.43646700330306
 20
4.270257360772523
 30
0.0
  9
$EXTMIN
 10
31.32902824151456
 20
3.46200632474527
 30
0.0
  9
$EXTMAX
 10
44.19844331654867
 20
7.919015674601727
 30
0.0
  9
$LIMMIN
 10
0.0
 20
0.0
  9
$LIMMAX
 10
36.0
 20
36.0
  9
$ORTHOMODE
 70
     1
  9
$REGENMODE
 70
     1
  9
$FILLMODE
 70
     1
  9
$QTEXTMODE
 70
     0
  9
$MIRRTEXT
 70
     1
  9
$DRAGMODE
 70
     0
  9
$LTSCALE
 40
1.0
  9
$OSMODE
 70
    37
  9
$ATTMODE
 70
     1
  9
$TEXTSIZE
 40
0.2
  9
$TRACEWID
 40
0.05
  9
$TEXTSTYLE
  7
STANDARD
  9
$CLAYER
  8
0
  9
$CELTYPE
  6
BYLAYER
  9
$CECOLOR
 62
   256
  9
$CELTSCALE
 40
1.0
  9
$DELOBJ
 70
     1
  9
$DISPSILH
 70
     0
  9
$DIMSCALE
 40
1.0
  9
$DIMASZ
 40
0.125
  9
$DIMEXO
 40
0.0625
  9
$DIMDLI
 40
0.38
  9
$DIMRND
 40
0.0
  9
$DIMDLE
 40
0.0
  9
$DIMEXE
 40
0.18
  9
$DIMTP
 40
0.0
  9
$DIMTM
 40
0.0
  9
$DIMTXT
 40
0.125
  9
$DIMCEN
 40
0.1875
  9
$DIMTSZ
 40
0.125
  9
$DIMTOL
 70
     0
  9
$DIMLIM
 70
     0
  9
$DIMTIH
 70
     0
  9
$DIMTOH
 70
     0
  9
$DIMSE1
 70
     0
  9
$DIMSE2
 70
     0
  9
$DIMTAD
 70
     0
  9
$DIMZIN
 70
     3
  9
$DIMBLK
  1

  9
$DIMASO
 70
     1
  9
$DIMSHO
 70
     1
  9
$DIMPOST
  1

  9
$DIMAPOST
  1

  9
$DIMALT
 70
     0
  9
$DIMALTD
 70
     1
  9
$DIMALTF
 40
25.4
  9
$DIMLFAC
 40
1.0
  9
$DIMTOFL
 70
     0
  9
$DIMTVP
 40
0.0
  9
$DIMTIX
 70
     0
  9
$DIMSOXD
 70
     0
  9
$DIMSAH
 70
     0
  9
$DIMBLK1
  1

  9
$DIMBLK2
  1

  9
$DIMSTYLE
  2
STANDARD
  9
$DIMCLRD
 70
     0
  9
$DIMCLRE
 70
     0
  9
$DIMCLRT
 70
     0
  9
$DIMTFAC
 40
1.0
  9
$DIMGAP
 40
0.125
  9
$DIMJUST
 70
     0
  9
$DIMSD1
 70
     0
  9
$DIMSD2
 70
     0
  9
$DIMTOLJ
 70
     1
  9
$DIMTZIN
 70
     3
  9
$DIMALTZ
 70
     3
  9
$DIMALTTZ
 70
     3
  9
$DIMFIT
 70
     5
  9
$DIMUPT
 70
     0
  9
$DIMUNIT
 70
     5
  9
$DIMDEC
 70
     4
  9
$DIMTDEC
 70
     4
  9
$DIMALTU
 70
     5
  9
$DIMALTTD
 70
     1
  9
$DIMTXSTY
  7
STANDARD
  9
$DIMAUNIT
 70
     0
  9
$LUNITS
 70
     5
  9
$LUPREC
 70
     4
  9
$SKETCHINC
 40
0.1
  9
$FILLETRAD
 40
0.062
  9
$AUNITS
 70
     0
  9
$AUPREC
 70
     0
  9
$MENU
  1
acad
  9
$ELEVATION
 40
0.0
  9
$PELEVATION
 40
0.0
  9
$THICKNESS
 40
0.0
  9
$LIMCHECK
 70
     0
  9
$BLIPMODE
 70
     0
  9
$CHAMFERA
 40
0.0
  9
$CHAMFERB
 40
0.0
  9
$CHAMFERC
 40
0.0
  9
$CHAMFERD
 40
0.0
  9
$SKPOLY
 70
     0
  9
$TDCREATE
 40
2450382.687947719
  9
$TDUPDATE
 40
2452297.069975220
  9
$TDINDWG
 40
0.0417257523
  9
$TDUSRTIMER
 40
0.0417257523
  9
$USRTIMER
 70
     1
  9
$ANGBASE
 50
0.0
  9
$ANGDIR
 70
     0
  9
$PDMODE
 70
     0
  9
$PDSIZE
 40
0.0
  9
$PLINEWID
 40
0.0
  9
$COORDS
 70
     2
  9
$SPLFRAME
 70
     0
  9
$SPLINETYPE
 70
     6
  9
$SPLINESEGS
 70
     8
  9
$ATTDIA
 70
     0
  9
$ATTREQ
 70
     1
  9
$HANDLING
 70
 22529
  9
$HANDSEED
  5
28A
  9
$SURFTAB1
 70
     6
  9
$SURFTAB2
 70
     6
  9
$SURFTYPE
 70
     6
  9
$SURFU
 70
     6
  9
$SURFV
 70
     6
  9
$UCSNAME
  2

  9
$UCSORG
 10
0.0
 20
0.0
 30
0.0
  9
$UCSXDIR
 10
1.0
 20
0.0
 30
0.0
  9
$UCSYDIR
 10
0.0
 20
1.0
 30
0.0
  9
$PUCSNAME
  2

  9
$PUCSORG
 10
0.0
 20
0.0
 30
0.0
  9
$PUCSXDIR
 10
1.0
 20
0.0
 30
0.0
  9
$PUCSYDIR
 10
0.0
 20
1.0
 30
0.0
  9
$USERI1
 70
     0
  9
$USERI2
 70
     0
  9
$USERI3
 70
     0
  9
$USERI4
 70
     0
  9
$USERI5
 70
     0
  9
$USERR1
 40
0.0
  9
$USERR2
 40
0.0
  9
$USERR3
 40
0.0
  9
$USERR4
 40
0.0
  9
$USERR5
 40
0.0
  9
$WORLDVIEW
 70
     1
  9
$SHADEDGE
 70
     3
  9
$SHADEDIF
 70
    70
  9
$TILEMODE
 70
     1
  9
$MAXACTVP
 70
    15
  9
$PINSBASE
 10
0.0
 20
0.0
 30
0.0
  9
$PLIMCHECK
 70
     0
  9
$PEXTMIN
 10
1.000000000000000E+20
 20
1.000000000000000E+20
 30
1.000000000000000E+20
  9
$PEXTMAX
 10
-1.000000000000000E+20
 20
-1.000000000000000E+20
 30
-1.000000000000000E+20
  9
$PLIMMIN
 10
0.0
 20
0.0
  9
$PLIMMAX
 10
12.0
 20
9.0
  9
$UNITMODE
 70
     0
  9
$VISRETAIN
 70
     0
  9
$PLINEGEN
 70
     0
  9
$PSLTSCALE
 70
     1
  9
$TREEDEPTH
 70
  3020
  9
$PICKSTYLE
 70
     1
  9
$CMLSTYLE
  2
STANDARD
  9
$CMLJUST
 70
     0
  9
$CMLSCALE
 40
1.0
  9
$PROXYGRAPHICS
 70
     1
  9
$MEASUREMENT
 70
     0
  0
ENDSEC
  0
SECTION
  2
CLASSES
  0
CLASS
  1
ACDBDICTIONARYWDFLT
  2
AcDbDictionaryWithDefault
  3
AutoCAD 2000
 90
        0
280
     0
281
     0
  0
CLASS
  1
ACDBPLACEHOLDER
  2
AcDbPlaceHolder
  3
AutoCAD 2000
 90
        0
280
     0
281
     0
  0
CLASS
  1
LAYOUT
  2
AcDbLayout
  3
AutoCAD 2000
 90
        0
280
     0
281
     0
  0
CLASS
  1
DICTIONARYVAR
  2
AcDbDictionaryVar
  3
AutoCAD 2000
 90
        0
280
     0
281
     0
  0
CLASS
  1
LONG_TRANSACTION
  2
AcDbLongTransaction
  3
AutoCAD 2000
 90
        0
280
     0
281
     0
  0
CLASS
  1
LWPOLYLINE
  2
AcDbPolyline
  3
AutoCAD 2000
 90
        0
280
     0
281
     1
  0
CLASS
  1
HATCH
  2
AcDbHatch
  3
AutoCAD 2000
 90
        0
280
     0
281
     1
  0
CLASS
  1
XRECORD
  2
AcDbXrecord
  3
AutoCAD 2000
 90
        0
280
     0
281
     0
  0
CLASS
  1
LONG_TRANSACTION
  2
AcDbLongTransaction
  3
AutoCAD 2000
 90
        0
280
     0
281
     0
  0
CLASS
  1
LWPOLYLINE
  2
AcDbPolyline
  3
AutoCAD 2000
 90
        0
280
     0
281
     1
  0
CLASS
  1
HATCH
  2
AcDbHatch
  3
AutoCAD 2000
 90
        0
280
     0
281
     1
  0
CLASS
  1
XRECORD
  2
AcDbXrecord
  3
AutoCAD 2000
 90
        0
280
     0
281
     0
  0
CLASS
  1
LONG_TRANSACTION
  2
AcDbLongTransaction
  3
AutoCAD 2000
 90
        0
280
     0
281
     0
  0
CLASS
  1
LWPOLYLINE
  2
AcDbPolyline
  3
AutoCAD 2000
 90
        0
280
     0
281
     1
  0
CLASS
  1
HATCH
  2
AcDbHatch
  3
AutoCAD 2000
 90
        0
280
     0
281
     1
  0
CLASS
  1
XRECORD
  2
AcDbXrecord
  3
AutoCAD 2000
 90
        0
280
     0
281
     0
  0
CLASS
  1
LONG_TRANSACTION
  2
AcDbLongTransaction
  3
AutoCAD 2000
 90
        0
280
     0
281
     0
  0
CLASS
  1
LWPOLYLINE
  2
AcDbPolyline
  3
AutoCAD 2000
 90
        0
280
     0
281
     1
  0
CLASS
  1
HATCH
  2
AcDbHatch
  3
AutoCAD 2000
 90
        0
280
     0
281
     1
  0
CLASS
  1
XRECORD
  2
AcDbXrecord
  3
AutoCAD 2000
 90
        0
280
     0
281
     0
  0
CLASS
  1
LONG_TRANSACTION
  2
AcDbLongTransaction
  3
AutoCAD 2000
 90
        0
280
     0
281
     0
  0
CLASS
  1
LWPOLYLINE
  2
AcDbPolyline
  3
AutoCAD 2000
 90
        0
280
     0
281
     1
  0
CLASS
  1
HATCH
  2
AcDbHatch
  3
AutoCAD 2000
 90
        0
280
     0
281
     1
  0
CLASS
  1
XRECORD
  2
AcDbXrecord
  3
AutoCAD 2000
 90
        0
280
     0
281
     0
  0
ENDSEC
  0
SECTION
  2
TABLES
  0
TABLE
  2
VPORT
  5
8
330
0
100
AcDbSymbolTable
 70
     2
  0
VPORT
  5
266
330
8
100
AcDbSymbolTableRecord
100
AcDbViewportTableRecord
  2
*ACTIVE
 70
     0
 10
0.0
 20
0.0
 11
1.0
 21
1.0
 12
37.77330545335304
 22
5.689819405425598
 13
0.0
 23
0.0
 14
0.5740882589684922
 24
0.5740882589684922
 15
0.5
 25
0.5
 16
0.0
 26
0.0
 36
1.0
 17
0.0
 27
0.0
 37
0.0
 40
8.248592268484431
 41
1.570528967254408
 42
50.0
 43
0.0
 44
0.0
 50
0.0
 51
0.0
 71
     0
 72
   100
 73
     1
 74
     0
 75
     0
 76
     0
 77
     0
 78
     0
  0
ENDTAB
  0
TABLE
  2
LTYPE
  5
5
330
0
100
AcDbSymbolTable
 70
     2
  0
LTYPE
  5
13
330
5
100
AcDbSymbolTableRecord
100
AcDbLinetypeTableRecord
  2
BYBLOCK
 70
     0
  3

 72
    65
 73
     0
 40
0.0
  0
LTYPE
  5
14
330
5
100
AcDbSymbolTableRecord
100
AcDbLinetypeTableRecord
  2
BYLAYER
 70
     0
  3

 72
    65
 73
     0
 40
0.0
  0
LTYPE
  5
15
330
5
100
AcDbSymbolTableRecord
100
AcDbLinetypeTableRecord
  2
CONTINUOUS
 70
     0
  3
Solid line
 72
    65
 73
     0
 40
0.0
  0
LTYPE
  5
28
330
5
100
AcDbSymbolTableRecord
100
AcDbLinetypeTableRecord
  2
HIDDEN2
 70
     0
  3
_ _ _ _ _ _ _ _ _ _ _ _ _ _ _ _ _ _ _ _ _ _ _ _
 72
    65
 73
     2
 40
0.1875
 49
0.125
 74
     0
 49
-0.0625
 74
     0
  0
ENDTAB
  0
TABLE
  2
LAYER
  5
2
330
0
100
AcDbSymbolTable
 70
     4
  0
LAYER
  5
10
330
2
100
AcDbSymbolTableRecord
100
AcDbLayerTableRecord
  2
0
 70
     0
 62
     7
  6
CONTINUOUS
  0
LAYER
  5
2A
330
2
100
AcDbSymbolTableRecord
100
AcDbLayerTableRecord
  2
DEFPOINTS
 70
     0
 62
     7
  6
CONTINUOUS
  0
LAYER
  5
2B
330
2
100
AcDbSymbolTableRecord
100
AcDbLayerTableRecord
  2
ADPDIM
 70
     0
 62
     3
  6
CONTINUOUS
  0
LAYER
  5
2C
330
2
100
AcDbSymbolTableRecord
100
AcDbLayerTableRecord
  2
ADP2DETAIL
 70
     0
 62
     5
  6
CONTINUOUS
  0
ENDTAB
  0
TABLE
  2
STYLE
  5
3
330
0
100
AcDbSymbolTable
 70
     2
  0
STYLE
  5
11
330
3
100
AcDbSymbolTableRecord
100
AcDbTextStyleTableRecord
  2
STANDARD
 70
     0
 40
0.0
 41
1.0
 50
0.0
 71
     0
 42
0.2
  3
txt
  4

  0
STYLE
  5
D3
330
3
100
AcDbSymbolTableRecord
100
AcDbTextStyleTableRecord
  2
ARIAL_WIDE
 70
     0
 40
0.0
 41
1.25
 50
0.0
 71
     0
 42
0.2
  3
ARIAL.TTF
  4

1001
ACAD
1000
Arial
1071
       34
  0
ENDTAB
  0
TABLE
  2
VIEW
  5
6
330
0
100
AcDbSymbolTable
 70
     0
  0
ENDTAB
  0
TABLE
  2
UCS
  5
7
330
0
100
AcDbSymbolTable
 70
     0
  0
ENDTAB
  0
TABLE
  2
APPID
  5
9
330
0
100
AcDbSymbolTable
 70
     1
  0
APPID
  5
12
330
9
100
AcDbSymbolTableRecord
100
AcDbRegAppTableRecord
  2
ACAD
 70
     0
  0
ENDTAB
  0
TABLE
  2
DIMSTYLE
  5
A
330
0
100
AcDbSymbolTable
 70
     1
  0
DIMSTYLE
105
D1
330
A
100
AcDbSymbolTableRecord
100
AcDbDimStyleTableRecord
  2
STANDARD
 70
     0
  3

  4

  5

  6

  7

 40
1.0
 41
0.18
 42
0.0625
 43
0.38
 44
0.18
 45
0.0
 46
0.0
 47
0.0
 48
0.0
140
0.18
141
0.09
142
0.0
143
25.4
144
1.0
145
0.0
146
1.0
147
0.09
 71
     0
 72
     0
 73
     1
 74
     1
 75
     0
 76
     0
 77
     0
 78
     0
170
     0
171
     2
172
     0
173
     0
174
     0
175
     0
176
     0
177
     0
178
     0
270
     2
271
     4
272
     4
273
     2
274
     2
340
11
275
     0
280
     0
281
     0
282
     0
283
     1
284
     0
285
     0
286
     0
287
     3
288
     0
  0
ENDTAB
  0
TABLE
  2
BLOCK_RECORD
  5
1
330
0
100
AcDbSymbolTable
 70
     6
  0
BLOCK_RECORD
  5
1E
102
{ACAD_XDICTIONARY
360
110
102
}
330
1
100
AcDbSymbolTableRecord
100
AcDbBlockTableRecord
  2
*MODEL_SPACE
  0
BLOCK_RECORD
  5
1A
102
{ACAD_XDICTIONARY
360
112
102
}
330
1
100
AcDbSymbolTableRecord
100
AcDbBlockTableRecord
  2
*PAPER_SPACE
  0
BLOCK_RECORD
  5
22
330
1
100
AcDbSymbolTableRecord
100
AcDbBlockTableRecord
  2
*D0
  0
BLOCK_RECORD
  5
23
330
1
100
AcDbSymbolTableRecord
100
AcDbBlockTableRecord
  2
*D1
  0
BLOCK_RECORD
  5
24
330
1
100
AcDbSymbolTableRecord
100
AcDbBlockTableRecord
  2
*D2
  0
BLOCK_RECORD
  5
25
330
1
100
AcDbSymbolTableRecord
100
AcDbBlockTableRecord
  2
*D3
  0
BLOCK_RECORD
  5
26
330
1
100
AcDbSymbolTableRecord
100
AcDbBlockTableRecord
  2
*D4
  0
BLOCK_RECORD
  5
27
330
1
100
AcDbSymbolTableRecord
100
AcDbBlockTableRecord
  2
*D5
  0
ENDTAB
  0
ENDSEC
  0
SECTION
  2
BLOCKS
  0
BLOCK
  5
2F
330
1E
100
AcDbEntity
  8
0
100
AcDbBlockBegin
  2
*MODEL_SPACE
 70
     0
 10
0.0
 20
0.0
 30
0.0
  3
*MODEL_SPACE
  1

  0
ENDBLK
  5
30
330
1E
100
AcDbEntity
  8
0
100
AcDbBlockEnd
  0
BLOCK
  5
2D
330
1A
100
AcDbEntity
 67
     1
  8
0
100
AcDbBlockBegin
  2
*PAPER_SPACE
 70
     0
 10
0.0
 20
0.0
 30
0.0
  3
*PAPER_SPACE
  1

  0
ENDBLK
  5
2E
330
1A
100
AcDbEntity
 67
     1
  8
0
100
AcDbBlockEnd
  0
BLOCK
  5
31
330
22
100
AcDbEntity
  8
0
100
AcDbBlockBegin
  2
*D0
 70
     1
 10
0.0
 20
0.0
 30
0.0
  3
*D0
  1

  0
LINE
  5
32
330
22
100
AcDbEntity
  8
0
  6
BYBLOCK
 62
     0
100
AcDbLine
 10
33.43646700330306
 20
7.360406701111175
 30
0.0
 11
33.43646700330306
 21
7.676091238548247
 31
0.0
  0
LINE
  5
33
330
22
100
AcDbEntity
  8
0
  6
BYBLOCK
 62
     0
100
AcDbLine
 10
36.93654996658758
 20
6.935214465175217
 30
0.0
 11
36.93654996658758
 21
7.676091238548247
 31
0.0
  0
LINE
  5
34
330
22
100
AcDbEntity
  8
0
  6
BYBLOCK
 62
     0
100
AcDbLine
 10
33.43646700330306
 20
7.496091238548247
 30
0.0
 11
34.79067515161198
 21
7.496091238548247
 31
0.0
  0
LINE
  5
35
330
22
100
AcDbEntity
  8
0
  6
BYBLOCK
 62
     0
100
AcDbLine
 10
36.93654996658758
 20
7.496091238548247
 30
0.0
 11
35.58234181827865
 21
7.496091238548247
 31
0.0
  0
LINE
  5
36
330
22
100
AcDbEntity
  8
0
  6
BYBLOCK
 62
     0
100
AcDbLine
 10
33.31146700330306
 20
7.371091238548247
 30
0.0
 11
33.56146700330306
 21
7.621091238548247
 31
0.0
  0
LINE
  5
37
330
22
100
AcDbEntity
  8
0
  6
BYBLOCK
 62
     0
100
AcDbLine
 10
36.81154996658758
 20
7.371091238548247
 30
0.0
 11
37.06154996658758
 21
7.621091238548247
 31
0.0
  0
TEXT
  5
38
330
22
100
AcDbEntity
  8
0
  6
BYBLOCK
 62
     0
100
AcDbText
 10
34.91567515161198
 20
7.433591238548247
 30
0.0
 40
0.125
  1
3 1/2
 72
     1
 11
35.18650848494532
 21
7.496091238548247
 31
0.0
100
AcDbText
 73
     2
  0
POINT
  5
3A
330
22
100
AcDbEntity
  8
DEFPOINTS
  6
BYBLOCK
 62
     0
100
AcDbPoint
 10
33.43646700330306
 20
7.297906701111175
 30
0.0
  0
POINT
  5
3B
330
22
100
AcDbEntity
  8
DEFPOINTS
  6
BYBLOCK
 62
     0
100
AcDbPoint
 10
36.93654996658758
 20
6.872714465175217
 30
0.0
  0
POINT
  5
3C
330
22
100
AcDbEntity
  8
DEFPOINTS
  6
BYBLOCK
 62
     0
100
AcDbPoint
 10
36.93654996658758
 20
7.496091238548247
 30
0.0
  0
ENDBLK
  5
3D
330
22
100
AcDbEntity
  8
0
100
AcDbBlockEnd
  0
BLOCK
  5
3E
330
23
100
AcDbEntity
  8
0
100
AcDbBlockBegin
  2
*D1
 70
     1
 10
0.0
 20
0.0
 30
0.0
  3
*D1
  1

  0
LINE
  5
3F
330
23
100
AcDbEntity
  8
0
  6
BYBLOCK
 62
     0
100
AcDbLine
 10
36.99896700330306
 20
6.819449596708476
 30
0.0
 11
38.12609605328334
 21
6.819449596708476
 31
0.0
  0
LINE
  5
40
330
23
100
AcDbEntity
  8
0
  6
BYBLOCK
 62
     0
100
AcDbLine
 10
37.49896700330306
 20
5.757449596708477
 30
0.0
 11
38.12609605328334
 21
5.757449596708477
 31
0.0
  0
LINE
  5
41
330
23
100
AcDbEntity
  8
0
  6
BYBLOCK
 62
     0
100
AcDbLine
 10
37.94609605328334
 20
6.819449596708476
 30
0.0
 11
37.94609605328334
 21
7.069449596708476
 31
0.0
  0
LINE
  5
42
330
23
100
AcDbEntity
  8
0
  6
BYBLOCK
 62
     0
100
AcDbLine
 10
37.94609605328334
 20
5.757449596708477
 30
0.0
 11
37.94609605328334
 21
5.507449596708477
 31
0.0
  0
LINE
  5
43
330
23
100
AcDbEntity
  8
0
  6
BYBLOCK
 62
     0
100
AcDbLine
 10
38.07109605328334
 20
6.694449596708476
 30
0.0
 11
37.82109605328334
 21
6.944449596708476
 31
0.0
  0
LINE
  5
44
330
23
100
AcDbEntity
  8
0
  6
BYBLOCK
 62
     0
100
AcDbLine
 10
38.07109605328334
 20
5.632449596708477
 30
0.0
 11
37.82109605328334
 21
5.882449596708477
 31
0.0
  0
TEXT
  5
45
330
23
100
AcDbEntity
  8
0
  6
BYBLOCK
 62
     0
100
AcDbText
 10
38.00859605328334
 20
4.799116263375143
 30
0.0
 40
0.125
  1
1 1/16
 50
90.0
 72
     1
 11
37.94609605328334
 21
5.09078293004181
 31
0.0
100
AcDbText
 73
     2
  0
POINT
  5
46
330
23
100
AcDbEntity
  8
DEFPOINTS
  6
BYBLOCK
 62
     0
100
AcDbPoint
 10
36.93646700330306
 20
6.819449596708476
 30
0.0
  0
POINT
  5
47
330
23
100
AcDbEntity
  8
DEFPOINTS
  6
BYBLOCK
 62
     0
100
AcDbPoint
 10
37.43646700330306
 20
5.757449596708477
 30
0.0
  0
POINT
  5
48
330
23
100
AcDbEntity
  8
DEFPOINTS
  6
BYBLOCK
 62
     0
100
AcDbPoint
 10
37.94609605328334
 20
5.757449596708477
 30
0.0
  0
ENDBLK
  5
49
330
23
100
AcDbEntity
  8
0
100
AcDbBlockEnd
  0
BLOCK
  5
4A
330
24
100
AcDbEntity
  8
0
100
AcDbBlockBegin
  2
*D2
 70
     1
 10
0.0
 20
0.0
 30
0.0
  3
*D2
  1

  0
LINE
  5
4B
330
24
100
AcDbEntity
  8
0
  6
BYBLOCK
 62
     0
100
AcDbLine
 10
39.64096666188095
 20
6.866113859112928
 30
0.0
 11
39.64096666188095
 21
7.563562982873929
 31
0.0
  0
LINE
  5
4C
330
24
100
AcDbEntity
  8
0
  6
BYBLOCK
 62
     0
100
AcDbLine
 10
41.26596666188095
 20
6.866113859112928
 30
0.0
 11
41.26596666188095
 21
7.563562982873929
 31
0.0
  0
LINE
  5
4D
330
24
100
AcDbEntity
  8
0
  6
BYBLOCK
 62
     0
100
AcDbLine
 10
39.64096666188095
 20
7.383562982873929
 30
0.0
 11
40.05763332854761
 21
7.383562982873929
 31
0.0
  0
LINE
  5
4E
330
24
100
AcDbEntity
  8
0
  6
BYBLOCK
 62
     0
100
AcDbLine
 10
41.26596666188095
 20
7.383562982873929
 30
0.0
 11
40.84929999521428
 21
7.383562982873929
 31
0.0
  0
LINE
  5
4F
330
24
100
AcDbEntity
  8
0
  6
BYBLOCK
 62
     0
100
AcDbLine
 10
39.51596666188095
 20
7.258562982873929
 30
0.0
 11
39.76596666188095
 21
7.508562982873929
 31
0.0
  0
LINE
  5
50
330
24
100
AcDbEntity
  8
0
  6
BYBLOCK
 62
     0
100
AcDbLine
 10
41.14096666188095
 20
7.258562982873929
 30
0.0
 11
41.39096666188095
 21
7.508562982873929
 31
0.0
  0
TEXT
  5
51
330
24
100
AcDbEntity
  8
0
  6
BYBLOCK
 62
     0
100
AcDbText
 10
40.18263332854761
 20
7.321062982873929
 30
0.0
 40
0.125
  1
1 5/8
 72
     1
 11
40.45346666188095
 21
7.383562982873929
 31
0.0
100
AcDbText
 73
     2
  0
POINT
  5
52
330
24
100
AcDbEntity
  8
DEFPOINTS
  6
BYBLOCK
 62
     0
100
AcDbPoint
 10
39.64096666188095
 20
6.803613859112928
 30
0.0
  0
POINT
  5
53
330
24
100
AcDbEntity
  8
DEFPOINTS
  6
BYBLOCK
 62
     0
100
AcDbPoint
 10
41.26596666188095
 20
6.803613859112928
 30
0.0
  0
POINT
  5
54
330
24
100
AcDbEntity
  8
DEFPOINTS
  6
BYBLOCK
 62
     0
100
AcDbPoint
 10
41.26596666188095
 20
7.383562982873929
 30
0.0
  0
ENDBLK
  5
55
330
24
100
AcDbEntity
  8
0
100
AcDbBlockEnd
  0
BLOCK
  5
56
330
25
100
AcDbEntity
  8
0
100
AcDbBlockBegin
  2
*D3
 70
     1
 10
0.0
 20
0.0
 30
0.0
  3
*D3
  1

  0
LINE
  5
57
330
25
100
AcDbEntity
  8
0
  6
BYBLOCK
 62
     0
100
AcDbLine
 10
39.5011078848586
 20
4.569052288476393
 30
0.0
 11
39.34210721082917
 21
4.376130579852958
 31
0.0
  0
LINE
  5
58
330
25
100
AcDbEntity
  8
0
  6
BYBLOCK
 62
     0
100
AcDbLine
 10
39.5180684021556
 20
4.393091097149958
 30
0.0
 11
39.4841473675616
 21
4.745013479802827
 31
0.0
  0
LINE
  5
59
330
25
100
AcDbEntity
  8
0
  6
BYBLOCK
 62
     0
100
AcDbLine
 10
40.26761192903521
 20
5.726582540217006
 30
0.0
 11
40.64261192903521
 21
5.726582540217006
 31
0.0
  0
LINE
  5
5A
330
25
100
AcDbEntity
  8
0
  6
BYBLOCK
 62
     0
100
AcDbLine
 10
40.45511192903521
 20
5.539082540217006
 30
0.0
 11
40.45511192903521
 21
5.914082540217006
 31
0.0
  0
TEXT
  5
5B
330
25
100
AcDbEntity
  8
0
  6
BYBLOCK
 62
     0
100
AcDbText
 10
39.17833673927911
 20
4.079151466514352
 30
0.0
 40
0.125
  1
%%c3
 50
50.50560770246006
 72
     1
 11
39.19635659296885
 21
4.199285680281475
 31
0.0
100
AcDbText
 73
     2
  0
POINT
  5
5C
330
25
100
AcDbEntity
  8
DEFPOINTS
  6
BYBLOCK
 62
     0
100
AcDbPoint
 10
39.5011078848586
 20
4.569052288476393
 30
0.0
  0
POINT
  5
5D
330
25
100
AcDbEntity
  8
DEFPOINTS
  6
BYBLOCK
 62
     0
100
AcDbPoint
 10
41.40911597321181
 20
6.884112791957616
 30
0.0
  0
ENDBLK
  5
5E
330
25
100
AcDbEntity
  8
0
100
AcDbBlockEnd
  0
BLOCK
  5
5F
330
26
100
AcDbEntity
  8
0
100
AcDbBlockBegin
  2
*D4
 70
     1
 10
0.0
 20
0.0
 30
0.0
  3
*D4
  1

  0
LINE
  5
60
330
26
100
AcDbEntity
  8
0
  6
BYBLOCK
 62
     0
100
AcDbLine
 10
36.56146700330306
 20
5.319449596708478
 30
0.0
 11
36.56146700330306
 21
4.855666899591192
 31
0.0
  0
LINE
  5
61
330
26
100
AcDbEntity
  8
0
  6
BYBLOCK
 62
     0
100
AcDbLine
 10
37.31146700330306
 20
5.319449596708478
 30
0.0
 11
37.31146700330306
 21
4.855666899591192
 31
0.0
  0
LINE
  5
62
330
26
100
AcDbEntity
  8
0
  6
BYBLOCK
 62
     0
100
AcDbLine
 10
36.56146700330306
 20
5.035666899591191
 30
0.0
 11
36.31146700330306
 21
5.035666899591191
 31
0.0
  0
LINE
  5
63
330
26
100
AcDbEntity
  8
0
  6
BYBLOCK
 62
     0
100
AcDbLine
 10
37.31146700330306
 20
5.035666899591191
 30
0.0
 11
37.56146700330306
 21
5.035666899591191
 31
0.0
  0
LINE
  5
64
330
26
100
AcDbEntity
  8
0
  6
BYBLOCK
 62
     0
100
AcDbLine
 10
36.43646700330306
 20
4.910666899591191
 30
0.0
 11
36.68646700330306
 21
5.160666899591191
 31
0.0
  0
LINE
  5
65
330
26
100
AcDbEntity
  8
0
  6
BYBLOCK
 62
     0
100
AcDbLine
 10
37.18646700330306
 20
4.910666899591191
 30
0.0
 11
37.43646700330306
 21
5.160666899591191
 31
0.0
  0
TEXT
  5
66
330
26
100
AcDbEntity
  8
0
  6
BYBLOCK
 62
     0
100
AcDbText
 10
37.68646700330306
 20
4.973166899591191
 30
0.0
 40
0.125
  1
3/4
 72
     1
 11
37.85313366996973
 21
5.035666899591191
 31
0.0
100
AcDbText
 73
     2
  0
POINT
  5
67
330
26
100
AcDbEntity
  8
DEFPOINTS
  6
BYBLOCK
 62
     0
100
AcDbPoint
 10
36.56146700330306
 20
5.381949596708478
 30
0.0
  0
POINT
  5
68
330
26
100
AcDbEntity
  8
DEFPOINTS
  6
BYBLOCK
 62
     0
100
AcDbPoint
 10
37.31146700330306
 20
5.381949596708478
 30
0.0
  0
POINT
  5
69
330
26
100
AcDbEntity
  8
DEFPOINTS
  6
BYBLOCK
 62
     0
100
AcDbPoint
 10
37.31146700330306
 20
5.035666899591191
 30
0.0
  0
ENDBLK
  5
6A
330
26
100
AcDbEntity
  8
0
100
AcDbBlockEnd
  0
BLOCK
  5
6B
330
27
100
AcDbEntity
  8
0
100
AcDbBlockBegin
  2
*D5
 70
     1
 10
0.0
 20
0.0
 30
0.0
  3
*D5
  1

  0
LINE
  5
6C
330
27
100
AcDbEntity
  8
0
  6
BYBLOCK
 62
     0
100
AcDbLine
 10
39.20461192903521
 20
6.97379531894415
 30
0.0
 11
39.20461192903521
 21
7.919015674601727
 31
0.0
  0
LINE
  5
6D
330
27
100
AcDbEntity
  8
0
  6
BYBLOCK
 62
     0
100
AcDbLine
 10
41.70461192903521
 20
6.917249917316032
 30
0.0
 11
41.70461192903521
 21
7.919015674601727
 31
0.0
  0
LINE
  5
6E
330
27
100
AcDbEntity
  8
0
  6
BYBLOCK
 62
     0
100
AcDbLine
 10
39.20461192903521
 20
7.739015674601727
 30
0.0
 11
40.05877859570187
 21
7.739015674601727
 31
0.0
  0
LINE
  5
6F
330
27
100
AcDbEntity
  8
0
  6
BYBLOCK
 62
     0
100
AcDbLine
 10
41.70461192903521
 20
7.739015674601727
 30
0.0
 11
40.85044526236854
 21
7.739015674601727
 31
0.0
  0
LINE
  5
70
330
27
100
AcDbEntity
  8
0
  6
BYBLOCK
 62
     0
100
AcDbLine
 10
39.0796119290352
 20
7.614015674601727
 30
0.0
 11
39.32961192903521
 21
7.864015674601727
 31
0.0
  0
LINE
  5
71
330
27
100
AcDbEntity
  8
0
  6
BYBLOCK
 62
     0
100
AcDbLine
 10
41.5796119290352
 20
7.614015674601727
 30
0.0
 11
41.82961192903521
 21
7.864015674601727
 31
0.0
  0
TEXT
  5
72
330
27
100
AcDbEntity
  8
0
  6
BYBLOCK
 62
     0
100
AcDbText
 10
40.18377859570187
 20
7.676515674601727
 30
0.0
 40
0.125
  1
2 1/2
 72
     1
 11
40.45461192903521
 21
7.739015674601727
 31
0.0
100
AcDbText
 73
     2
  0
POINT
  5
73
330
27
100
AcDbEntity
  8
DEFPOINTS
  6
BYBLOCK
 62
     0
100
AcDbPoint
 10
39.20461192903521
 20
6.91129531894415
 30
0.0
  0
POINT
  5
74
330
27
100
AcDbEntity
  8
DEFPOINTS
  6
BYBLOCK
 62
     0
100
AcDbPoint
 10
41.70461192903521
 20
6.854749917316032
 30
0.0
  0
POINT
  5
75
330
27
100
AcDbEntity
  8
DEFPOINTS
  6
BYBLOCK
 62
     0
100
AcDbPoint
 10
41.70461192903521
 20
7.739015674601727
 30
0.0
  0
ENDBLK
  5
76
330
27
100
AcDbEntity
  8
0
100
AcDbBlockEnd
  0
ENDSEC
  0
SECTION
  2
ENTITIES
  0
LINE
  5
77
330
1E
100
AcDbEntity
  8
0
100
AcDbLine
 10
34.17889235955342
 20
5.255555935771068
 30
0.0
 11
33.7334297945508
 21
5.144190294520418
 31
0.0
  0
LINE
  5
78
330
1E
100
AcDbEntity
  8
0
100
AcDbLine
 10
33.7334297945508
 20
6.370708898896539
 30
0.0
 11
34.17889235955342
 21
6.259343257645886
 31
0.0
  0
DIMENSION
  5
79
330
1E
100
AcDbEntity
  8
ADPDIM
100
AcDbDimension
  2
*D0
 10
36.93654996658758
 20
7.496091238548247
 30
0.0
 11
35.18650848494532
 21
7.496091238548247
 31
0.0
100
AcDbAlignedDimension
 13
33.43646700330306
 23
7.297906701111175
 33
0.0
 14
36.93654996658758
 24
6.872714465175217
 34
0.0
100
AcDbRotatedDimension
  0
LINE
  5
7A
330
1E
100
AcDbEntity
  8
0
100
AcDbLine
 10
33.68646700330306
 20
7.146541459511402
 30
0.0
 11
33.68646700330306
 21
5.056294635732173
 31
0.0
  0
LINE
  5
7B
330
1E
100
AcDbEntity
  8
0
100
AcDbLine
 10
33.43646700330306
 20
4.270257360772523
 30
0.0
 11
33.43646700330306
 21
7.244641832644434
 31
0.0
  0
LINE
  5
7C
330
1E
100
AcDbEntity
  8
0
100
AcDbLine
 10
33.63950421205531
 20
4.308208898896543
 30
0.0
 11
33.44889235955342
 21
4.260555935771071
 31
0.0
  0
ARC
  5
7D
330
1E
100
AcDbEntity
  8
0
100
AcDbCircle
 10
33.44646700330305
 20
4.270257360772523
 30
0.0
 40
0.01
100
AcDbArc
 50
180.0
 51
284.0362434679263
  0
ARC
  5
7E
330
1E
100
AcDbEntity
  8
0
100
AcDbCircle
 10
33.74846700330306
 20
5.084041459511405
 30
0.0
 40
0.062
100
AcDbArc
 50
104.0362434679264
 51
180.0
  0
ARC
  5
7F
330
1E
100
AcDbEntity
  8
0
100
AcDbCircle
 10
33.62446700330305
 20
4.368357733905552
 30
0.0
 40
0.062
100
AcDbArc
 50
284.0362434679264
 51
0.0
  0
LINE
  5
80
330
1E
100
AcDbEntity
  8
0
100
AcDbLine
 10
33.68646700330306
 20
5.084041459511405
 30
0.0
 11
33.68646700330306
 21
4.368357733905552
 31
0.0
  0
ARC
  5
81
330
1E
100
AcDbEntity
  8
0
100
AcDbCircle
 10
33.74846700330306
 20
6.430857733905552
 30
0.0
 40
0.062
100
AcDbArc
 50
180.0
 51
255.9637565320735
  0
ARC
  5
82
330
1E
100
AcDbEntity
  8
0
100
AcDbCircle
 10
33.44646700330305
 20
7.244641832644434
 30
0.0
 40
0.01
100
AcDbArc
 50
75.96375653207326
 51
180.0
  0
LINE
  5
83
330
1E
100
AcDbEntity
  8
0
100
AcDbLine
 10
33.44889235955342
 20
7.254343257645887
 30
0.0
 11
33.63950421205531
 21
7.206690294520415
 31
0.0
  0
ARC
  5
84
330
1E
100
AcDbEntity
  8
0
100
AcDbCircle
 10
33.62446700330305
 20
7.146541459511402
 30
0.0
 40
0.062
100
AcDbArc
 50
0.0
 51
75.96375653207352
  0
ARC
  5
85
330
1E
100
AcDbEntity
  8
0
100
AcDbCircle
 10
40.9546119290352
 20
6.479249917316034
 30
0.0
 40
0.125
100
AcDbArc
 50
90.0
 51
180.0
  0
ARC
  5
86
330
1E
100
AcDbEntity
  8
0
100
AcDbCircle
 10
39.95461192903521
 20
6.479249917316034
 30
0.0
 40
0.125
100
AcDbArc
 50
0.0
 51
90.0
  0
LINE
  5
87
330
1E
100
AcDbEntity
  8
0
100
AcDbLine
 10
40.64096666188095
 20
5.976206757792143
 30
0.0
 11
40.64096666188095
 21
6.93075425657569
 31
0.0
  0
LINE
  5
88
330
1E
100
AcDbEntity
  8
0
100
AcDbLine
 10
40.26711192903521
 20
5.976206757792143
 30
0.0
 11
40.26711192903521
 21
6.93075425657569
 31
0.0
  0
ARC
  5
89
330
1E
100
AcDbEntity
  8
0
100
AcDbCircle
 10
40.45511192903521
 20
5.726582540217004
 30
0.0
 40
1.4375
100
AcDbArc
 50
142.3706296439194
 51
37.62937035608057
  0
ARC
  5
8A
330
1E
100
AcDbEntity
  8
0
100
AcDbCircle
 10
40.45511192903521
 20
5.726582540217004
 30
0.0
 40
1.5
100
AcDbArc
 50
144.1891266479682
 51
35.81087335203176
  0
LINE
  5
8B
330
1E
100
AcDbEntity
  8
0
100
AcDbLine
 10
37.31146700330306
 20
6.911483720082019
 30
0.0
 11
37.31146700330306
 21
5.381949596708478
 31
0.0
  0
LINE
  5
8C
330
1E
100
AcDbEntity
  8
0
100
AcDbLine
 10
36.56146700330306
 20
5.381949596708478
 30
0.0
 11
36.56146700330306
 21
6.911483720082019
 31
0.0
  0
DIMENSION
  5
8D
330
1E
100
AcDbEntity
  8
ADPDIM
100
AcDbDimension
  2
*D3
 10
41.40911597321181
 20
6.884112791957616
 30
0.0
 11
39.19635659296885
 21
4.199285680281475
 31
0.0
 70
     3
100
AcDbDiametricDimension
 15
39.5011078848586
 25
4.569052288476393
 35
0.0
 40
0.0
  0
DIMENSION
  5
8E
330
1E
100
AcDbEntity
  8
ADPDIM
100
AcDbDimension
  2
*D1
 10
37.94609605328334
 20
5.757449596708477
 30
0.0
 11
37.94609605328334
 21
5.09078293004181
 31
0.0
100
AcDbAlignedDimension
 13
36.93646700330306
 23
6.819449596708476
 33
0.0
 14
37.43646700330306
 24
5.757449596708477
 34
0.0
 50
90.0
100
AcDbRotatedDimension
  0
LINE
  5
8F
330
1E
100
AcDbEntity
  8
0
100
AcDbLine
 10
36.56146700330306
 20
5.444949596708477
 30
0.0
 11
35.81146700330306
 21
5.507449596708477
 31
0.0
  0
LINE
  5
90
330
1E
100
AcDbEntity
  8
0
100
AcDbLine
 10
35.81146700330306
 20
6.007449596708477
 30
0.0
 11
36.56146700330306
 21
6.069949596708477
 31
0.0
  0
DIMENSION
  5
91
330
1E
100
AcDbEntity
  8
ADPDIM
100
AcDbDimension
  2
*D4
 10
37.31146700330306
 20
5.035666899591191
 30
0.0
 11
37.85313366996973
 21
5.035666899591191
 31
0.0
100
AcDbAlignedDimension
 13
36.56146700330306
 23
5.381949596708478
 33
0.0
 14
37.31146700330306
 24
5.381949596708478
 34
0.0
100
AcDbRotatedDimension
  0
LINE
  5
92
330
1E
100
AcDbEntity
  8
0
100
AcDbLine
 10
35.81146700330306
 20
5.507449596708477
 30
0.0
 11
34.31146700330306
 21
5.382449596708477
 31
0.0
  0
LINE
  5
93
330
1E
100
AcDbEntity
  8
0
100
AcDbLine
 10
34.31146700330306
 20
6.132449596708477
 30
0.0
 11
35.81146700330306
 21
6.007449596708477
 31
0.0
  0
LINE
  5
94
330
1E
100
AcDbEntity
  8
0
100
AcDbLine
 10
34.18646700330306
 20
5.757449596708477
 30
0.0
 11
34.18646700330306
 21
5.319949596708477
 31
0.0
  0
LINE
  5
95
330
1E
100
AcDbEntity
  8
0
100
AcDbLine
 10
34.31136740934968
 20
5.353952053920904
 30
0.0
 11
34.31146700330306
 21
5.757449596708477
 31
0.0
  0
LINE
  5
96
330
1E
100
AcDbEntity
  8
0
100
AcDbLine
 10
34.18646700330306
 20
6.249641832644433
 30
0.0
 11
34.18646700330306
 21
5.265257360772521
 31
0.0
  0
LINE
  5
97
330
1E
100
AcDbEntity
  8
0
100
AcDbLine
 10
34.18646700330306
 20
5.319949596708477
 30
0.0
 11
34.31136740934968
 21
5.353952053920904
 31
0.0
  0
ARC
  5
98
330
1E
100
AcDbEntity
  8
0
100
AcDbCircle
 10
34.17646700330306
 20
5.265257360772521
 30
0.0
 40
0.01
100
AcDbArc
 50
284.0362434679261
 51
0.0
  0
LINE
  5
99
330
1E
100
AcDbEntity
  8
0
100
AcDbLine
 10
34.18646700330306
 20
6.194949596708477
 30
0.0
 11
34.31136740934968
 21
6.160947139496053
 31
0.0
  0
ARC
  5
9A
330
1E
100
AcDbEntity
  8
0
100
AcDbCircle
 10
34.17646700330306
 20
6.249641832644433
 30
0.0
 40
0.01
100
AcDbArc
 50
0.0
 51
75.96375653207362
  0
LINE
  5
9B
330
1E
100
AcDbEntity
  8
0
100
AcDbLine
 10
34.18646700330306
 20
5.757449596708477
 30
0.0
 11
34.18646700330306
 21
6.194949596708477
 31
0.0
  0
LINE
  5
9C
330
1E
100
AcDbEntity
  8
0
100
AcDbLine
 10
34.31136740934968
 20
6.160947139496053
 30
0.0
 11
34.31146700330306
 21
5.757449596708477
 31
0.0
  0
LINE
  5
9D
330
1E
100
AcDbEntity
  8
0
100
AcDbLine
 10
35.80742923616479
 20
5.508282413269943
 30
0.0
 11
35.80742923616479
 21
6.006616780147011
 31
0.0
  0
LINE
  5
9E
330
1E
100
AcDbEntity
  8
0
100
AcDbLine
 10
37.31146700330306
 20
5.381949596708478
 30
0.0
 11
36.56146700330306
 21
5.381949596708478
 31
0.0
  0
LINE
  5
9F
330
1E
100
AcDbEntity
  8
0
100
AcDbLine
 10
36.56146700330306
 20
5.569949596708477
 30
0.0
 11
36.56146700330306
 21
5.944949596708477
 31
0.0
  0
LINE
  5
A0
330
1E
100
AcDbEntity
  8
0
100
AcDbLine
 10
36.56146700330306
 20
6.069949596708477
 30
0.0
 11
36.56146700330306
 21
5.444949596708477
 31
0.0
  0
ARC
  5
A1
330
1E
100
AcDbEntity
  8
ADP2DETAIL
  6
HIDDEN2
100
AcDbCircle
 10
38.13292746148082
 20
5.757449596708477
 30
0.0
 40
0.75
100
AcDbArc
 50
180.0
 51
201.7802251253252
  0
ARC
  5
A2
330
1E
100
AcDbEntity
  8
ADP2DETAIL
  6
HIDDEN2
100
AcDbCircle
 10
38.13292746148082
 20
5.757449596708477
 30
0.0
 40
0.75
100
AcDbArc
 50
158.2197748746747
 51
180.0
  0
LINE
  5
A3
330
1E
100
AcDbEntity
  8
0
100
AcDbLine
 10
37.31146700330306
 20
6.069949596708477
 30
0.0
 11
37.43220773158919
 21
6.037597216070663
 31
0.0
  0
LINE
  5
A4
330
1E
100
AcDbEntity
  8
0
100
AcDbLine
 10
37.43220773158919
 20
6.037597216070663
 30
0.0
 11
37.43220773158919
 21
6.037597216070663
 31
0.0
  0
LINE
  5
A5
330
1E
100
AcDbEntity
  8
0
100
AcDbLine
 10
37.43646700330306
 20
6.035735115905632
 30
0.0
 11
37.43646700330306
 21
5.757449596708477
 31
0.0
  0
LINE
  5
A6
330
1E
100
AcDbEntity
  8
0
100
AcDbLine
 10
37.31146700330306
 20
5.944949596708477
 30
0.0
 11
37.31146700330306
 21
6.069949596708477
 31
0.0
  0
LINE
  5
A7
330
1E
100
AcDbEntity
  8
0
100
AcDbLine
 10
37.31146700330306
 20
5.569949596708477
 30
0.0
 11
37.31146700330306
 21
5.444949596708477
 31
0.0
  0
LINE
  5
A8
330
1E
100
AcDbEntity
  8
0
100
AcDbLine
 10
37.31146700330306
 20
5.444949596708477
 30
0.0
 11
37.43220773158919
 21
5.477301977346291
 31
0.0
  0
LINE
  5
A9
330
1E
100
AcDbEntity
  8
0
100
AcDbLine
 10
37.43220773158919
 20
5.477301977346291
 30
0.0
 11
37.43220773158919
 21
5.477301977346291
 31
0.0
  0
LINE
  5
AA
330
1E
100
AcDbEntity
  8
0
100
AcDbLine
 10
37.31146700330306
 20
5.944949596708477
 30
0.0
 11
37.31146700330306
 21
5.569949596708477
 31
0.0
  0
LINE
  5
AB
330
1E
100
AcDbEntity
  8
0
100
AcDbLine
 10
37.43646700330306
 20
5.479164077511326
 30
0.0
 11
37.43646700330306
 21
5.757449596708477
 31
0.0
  0
CIRCLE
  5
AC
330
1E
100
AcDbEntity
  8
0
100
AcDbCircle
 10
40.45511192903521
 20
5.726582540217004
 30
0.0
 40
0.2859512779740925
  0
ARC
  5
AD
330
1E
100
AcDbEntity
  8
0
100
AcDbCircle
 10
40.45411192903521
 20
5.729749917316032
 30
0.0
 40
0.3745
100
AcDbArc
 50
180.0
 51
270.0
  0
ARC
  5
AE
330
1E
100
AcDbEntity
  8
0
100
AcDbCircle
 10
40.45511192903521
 20
5.726582540217004
 30
0.0
 40
0.5
100
AcDbArc
 50
138.677075376201
 51
41.49617109724033
  0
ARC
  5
AF
330
1E
100
AcDbEntity
  8
0
100
AcDbCircle
 10
40.45511192903521
 20
5.726582540217004
 30
0.0
 40
0.625
100
AcDbArc
 50
126.9272149369694
 51
53.18737667338435
  0
CIRCLE
  5
B0
330
1E
100
AcDbEntity
  8
0
100
AcDbCircle
 10
40.45511192903521
 20
5.726582540217004
 30
0.0
 40
0.3125
  0
LINE
  5
B1
330
1E
100
AcDbEntity
  8
0
100
AcDbLine
 10
40.07961192903521
 20
5.729749917316032
 30
0.0
 11
40.07961192903521
 21
6.479249917316034
 31
0.0
  0
ARC
  5
B2
330
1E
100
AcDbEntity
  8
0
100
AcDbCircle
 10
40.45511192903521
 20
5.729749917316032
 30
0.0
 40
0.3745
100
AcDbArc
 50
270.0
 51
0.0
  0
LINE
  5
B3
330
1E
100
AcDbEntity
  8
0
100
AcDbLine
 10
40.45511192903521
 20
5.355249917316031
 30
0.0
 11
40.45411192903521
 21
5.355249917316031
 31
0.0
  0
LINE
  5
B4
330
1E
100
AcDbEntity
  8
0
100
AcDbLine
 10
40.8296119290352
 20
6.479249917316034
 30
0.0
 11
40.8296119290352
 21
5.729749917316032
 31
0.0
  0
LINE
  5
B5
330
1E
100
AcDbEntity
  8
ADP2DETAIL
  6
HIDDEN2
100
AcDbLine
 10
37.03046700330306
 20
6.692446195645304
 30
0.0
 11
37.09246700330306
 21
6.630446195645307
 31
0.0
  0
LINE
  5
B6
330
1E
100
AcDbEntity
  8
0
100
AcDbLine
 10
37.31146700330306
 20
6.631449596708479
 30
0.0
 11
36.56146700330306
 21
6.631449596708479
 31
0.0
  0
ARC
  5
B7
330
1E
100
AcDbEntity
  8
0
100
AcDbCircle
 10
36.93646700330306
 20
7.629449596708477
 30
0.0
 40
0.8100000000000001
100
AcDbArc
 50
242.4215320218768
 51
297.5784679781231
  0
LINE
  5
B8
330
1E
100
AcDbEntity
  8
ADP2DETAIL
  6
HIDDEN2
100
AcDbLine
 10
36.84246700330305
 20
6.692446195645304
 30
0.0
 11
36.78046700330305
 21
6.630446195645307
 31
0.0
  0
LINE
  5
B9
330
1E
100
AcDbEntity
  8
ADP2DETAIL
  6
HIDDEN2
100
AcDbLine
 10
36.84246700330305
 20
6.817446195645304
 30
0.0
 11
36.84246700330305
 21
6.692446195645304
 31
0.0
  0
LINE
  5
BA
330
1E
100
AcDbEntity
  8
ADP2DETAIL
  6
HIDDEN2
100
AcDbLine
 10
37.03046700330306
 20
6.817446195645304
 30
0.0
 11
37.03046700330306
 21
6.692446195645304
 31
0.0
  0
LINE
  5
BB
330
1E
100
AcDbEntity
  8
ADP2DETAIL
  6
HIDDEN2
100
AcDbLine
 10
41.70461192903521
 20
6.792249917316032
 30
0.0
 11
40.72979408953893
 21
6.79333660772116
 31
0.0
  0
LINE
  5
BC
330
1E
100
AcDbEntity
  8
0
100
AcDbLine
 10
41.70461192903521
 20
6.604249917316034
 30
0.0
 11
40.9546119290352
 21
6.604249917316034
 31
0.0
  0
LINE
  5
BD
330
1E
100
AcDbEntity
  8
0
100
AcDbLine
 10
41.70461192903521
 20
6.91129531894415
 30
0.0
 11
40.6423600486341
 21
6.912382009349277
 31
0.0
  0
DIMENSION
  5
BE
330
1E
100
AcDbEntity
  8
ADPDIM
100
AcDbDimension
  2
*D5
 10
41.70461192903521
 20
7.739015674601727
 30
0.0
 11
40.45461192903521
 21
7.739015674601727
 31
0.0
100
AcDbAlignedDimension
 13
39.20461192903521
 23
6.91129531894415
 33
0.0
 14
41.70461192903521
 24
6.854749917316032
 34
0.0
100
AcDbRotatedDimension
  0
LINE
  5
BF
330
1E
100
AcDbEntity
  8
ADP2DETAIL
  6
HIDDEN2
100
AcDbLine
 10
40.26596666188095
 20
6.811231788179844
 30
0.0
 11
40.64096666188095
 21
6.811231788179844
 31
0.0
  0
ARC
  5
C0
330
1E
100
AcDbEntity
  8
0
100
AcDbCircle
 10
40.45511192903521
 20
5.726582540217004
 30
0.0
 40
1.4375
100
AcDbArc
 50
55.54674402322689
 51
124.4977915497679
  0
ARC
  5
C1
330
1E
100
AcDbEntity
  8
0
100
AcDbCircle
 10
40.45511192903521
 20
5.726582540217004
 30
0.0
 40
1.5
100
AcDbArc
 50
52.19743356407072
 51
127.8323790877274
  0
LINE
  5
C2
330
1E
100
AcDbEntity
  8
0
100
AcDbLine
 10
40.26596666188095
 20
6.930277189807961
 30
0.0
 11
40.64096666188095
 21
6.930277189807961
 31
0.0
  0
DIMENSION
  5
C3
330
1E
100
AcDbEntity
  8
ADPDIM
100
AcDbDimension
  2
*D2
 10
41.26596666188095
 20
7.383562982873929
 30
0.0
 11
40.45346666188095
 21
7.383562982873929
 31
0.0
100
AcDbAlignedDimension
 13
39.64096666188095
 23
6.803613859112928
 33
0.0
 14
41.26596666188095
 24
6.803613859112928
 34
0.0
100
AcDbRotatedDimension
  0
LINE
  5
C4
330
1E
100
AcDbEntity
  8
ADP2DETAIL
  6
HIDDEN2
100
AcDbLine
 10
39.20461192903521
 20
6.792249917316032
 30
0.0
 11
40.20572757261428
 21
6.792249917316032
 31
0.0
  0
LINE
  5
C5
330
1E
100
AcDbEntity
  8
0
100
AcDbLine
 10
39.95461192903521
 20
6.604249917316034
 30
0.0
 11
39.20461192903521
 21
6.604249917316034
 31
0.0
  0
LINE
  5
C6
330
1E
100
AcDbEntity
  8
0
100
AcDbLine
 10
39.20461192903521
 20
6.91129531894415
 30
0.0
 11
40.27113887429796
 21
6.91129531894415
 31
0.0
  0
LINE
  5
C7
330
1E
100
AcDbEntity
  8
ADP2DETAIL
  6
HIDDEN2
100
AcDbLine
 10
39.54738043025041
 20
6.790856051535785
 30
0.0
 11
39.54738043025041
 21
6.665856051535785
 31
0.0
  0
LINE
  5
C8
330
1E
100
AcDbEntity
  8
ADP2DETAIL
  6
HIDDEN2
100
AcDbLine
 10
39.54738043025041
 20
6.665856051535785
 30
0.0
 11
39.48538043025041
 21
6.603856051535787
 31
0.0
  0
LINE
  5
C9
330
1E
100
AcDbEntity
  8
0
100
AcDbLine
 10
39.20461192903521
 20
6.604249917316034
 30
0.0
 11
39.20461192903521
 21
6.91129531894415
 31
0.0
  0
LINE
  5
CA
330
1E
100
AcDbEntity
  8
ADP2DETAIL
  6
HIDDEN2
100
AcDbLine
 10
39.73538043025041
 20
6.790856051535785
 30
0.0
 11
39.73538043025041
 21
6.665856051535785
 31
0.0
  0
LINE
  5
CB
330
1E
100
AcDbEntity
  8
ADP2DETAIL
  6
HIDDEN2
100
AcDbLine
 10
39.73538043025041
 20
6.665856051535785
 30
0.0
 11
39.79738043025041
 21
6.603856051535787
 31
0.0
  0
LINE
  5
CC
330
1E
100
AcDbEntity
  8
ADP2DETAIL
  6
HIDDEN2
100
AcDbLine
 10
41.17238043025041
 20
6.790856051535785
 30
0.0
 11
41.17238043025041
 21
6.665856051535785
 31
0.0
  0
LINE
  5
CD
330
1E
100
AcDbEntity
  8
ADP2DETAIL
  6
HIDDEN2
100
AcDbLine
 10
41.36038043025041
 20
6.790856051535785
 30
0.0
 11
41.36038043025041
 21
6.665856051535785
 31
0.0
  0
LINE
  5
CE
330
1E
100
AcDbEntity
  8
ADP2DETAIL
  6
HIDDEN2
100
AcDbLine
 10
41.17238043025041
 20
6.665856051535785
 30
0.0
 11
41.11038043025041
 21
6.603856051535787
 31
0.0
  0
LINE
  5
CF
330
1E
100
AcDbEntity
  8
ADP2DETAIL
  6
HIDDEN2
100
AcDbLine
 10
41.36038043025041
 20
6.665856051535785
 30
0.0
 11
41.42238043025041
 21
6.603856051535787
 31
0.0
  0
LINE
  5
D0
330
1E
100
AcDbEntity
  8
0
100
AcDbLine
 10
41.70461192903521
 20
6.91129531894415
 30
0.0
 11
41.70461192903521
 21
6.604249917316034
 31
0.0
  0
TEXT
  5
D4
330
1E
100
AcDbEntity
  8
ADPDIM
100
AcDbText
 10
31.32902824151456
 20
3.499011781771191
 30
0.0
 40
0.125
  1
J U L I U S  B L U M  &  C O . ,  I N C .      ( 8 0 0 )  5 2 6 - 6 2 9 3        W W W . J U L I U S B L U M . C O M        P A R T  N o .  4 0 5
 41
1.25
  7
ARIAL_WIDE
 72
     1
 11
37.76373577903162
 21
3.624011781771191
 31
0.0
100
AcDbText
 73
     3
  0
ENDSEC
  0
SECTION
  2
OBJECTS
  0
DICTIONARY
  5
C
330
0
100
AcDbDictionary
  3
ACAD_GROUP
350
D
  3
ACAD_LAYOUT
350
19
  3
ACAD_MLINESTYLE
350
16
  3
ACAD_PLOTSETTINGS
350
18
  3
ACAD_PLOTSTYLENAME
350
E
  3
ACDBHEADERROUNDTRIPXREC
350
267
  3
ACDBVARIABLEDICTIONARY
350
145
  0
DICTIONARY
  5
110
330
1E
100
AcDbDictionary
280
     1
  3
ACAD_LAYOUTSELFREF
360
289
  0
DICTIONARY
  5
112
330
1A
100
AcDbDictionary
280
     1
  3
ACAD_LAYOUTSELFREF
360
288
  0
DICTIONARY
  5
D
102
{ACAD_REACTORS
330
C
102
}
330
C
100
AcDbDictionary
  0
DICTIONARY
  5
19
102
{ACAD_REACTORS
330
C
102
}
330
C
100
AcDbDictionary
  0
DICTIONARY
  5
16
102
{ACAD_REACTORS
330
C
102
}
330
C
100
AcDbDictionary
  3
STANDARD
350
17
  0
DICTIONARY
  5
18
102
{ACAD_REACTORS
330
C
102
}
330
C
100
AcDbDictionary
  0
ACDBDICTIONARYWDFLT
  5
E
102
{ACAD_REACTORS
330
C
102
}
330
C
100
AcDbDictionary
281
     1
  3
Normal
350
F
100
AcDbDictionaryWithDefault
340
F
  0
DICTIONARY
  5
267
102
{ACAD_REACTORS
330
C
102
}
330
C
100
AcDbDictionary
  3
CEPSNTYPE
350
271
  3
DIMSTYLEDATA
350
275
  3
FINGERPRINTGUID
350
272
  3
HYPERLINKBASE
350
26A
  3
INSUNITS
350
270
  3
LAYOUTDICT
350
26C
  3
LWETCUNION
350
26F
  3
PLOTSETDICT
350
26D
  3
PLOTSTYLNAMDICT
350
26E
  3
PSVPSCALE
350
274
  3
PUCSBASE
350
278
  3
PUCSORGBACK
350
27E
  3
PUCSORGBOTTOM
350
27A
  3
PUCSORGFRONT
350
27D
  3
PUCSORGLEFT
350
27B
  3
PUCSORGRIGHT
350
27C
  3
PUCSORGTOP
350
279
  3
PUCSORTHOREF
350
276
  3
PUCSORTHOVIEW
350
277
  3
STYLESHEET
350
26B
  3
TSTACKALIGN
350
268
  3
TSTACKSIZE
350
269
  3
UCSBASE
350
281
  3
UCSORGBACK
350
287
  3
UCSORGBOTTOM
350
283
  3
UCSORGFRONT
350
286
  3
UCSORGLEFT
350
284
  3
UCSORGRIGHT
350
285
  3
UCSORGTOP
350
282
  3
UCSORTHOREF
350
27F
  3
UCSORTHOVIEW
350
280
  3
VERSIONGUID
350
273
  0
DICTIONARY
  5
145
102
{ACAD_REACTORS
330
C
102
}
330
C
100
AcDbDictionary
  3
DIMASSOC
350
147
  3
HIDETEXT
350
146
  0
XRECORD
  5
289
102
{ACAD_REACTORS
330
110
102
}
330
110
100
AcDbXrecord
340
1E
  0
XRECORD
  5
288
102
{ACAD_REACTORS
330
112
102
}
330
112
100
AcDbXrecord
340
1A
  0
MLINESTYLE
  5
17
102
{ACAD_REACTORS
330
16
102
}
330
16
100
AcDbMlineStyle
  2
STANDARD
 70
     0
  3

 62
   256
 51
90.0
 52
90.0
 71
     2
 49
0.5
 62
   256
  6
BYLAYER
 49
-0.5
 62
   256
  6
BYLAYER
  0
ACDBPLACEHOLDER
  5
F
102
{ACAD_REACTORS
330
E
102
}
330
E
100
AcDbPlaceHolder
280
     0
  0
XRECORD
  5
271
102
{ACAD_REACTORS
330
267
102
}
330
267
100
AcDbXrecord
 90
        0
  0
XRECORD
  5
275
102
{ACAD_REACTORS
330
267
102
}
330
267
100
AcDbXrecord
1000
DSTYLE
1002
{
1070
   277
 70
     5
1070
   279
 70
     2
1002
}
  0
XRECORD
  5
272
102
{ACAD_REACTORS
330
267
102
}
330
267
100
AcDbXrecord
  1
{8A5FE238-4823-4E10-88B4-9A38BFCF146C}
  0
XRECORD
  5
26A
102
{ACAD_REACTORS
330
267
102
}
330
267
100
AcDbXrecord
  1

  0
XRECORD
  5
270
102
{ACAD_REACTORS
330
267
102
}
330
267
100
AcDbXrecord
 90
        0
  0
XRECORD
  5
26C
102
{ACAD_REACTORS
330
267
102
}
330
267
100
AcDbXrecord
340
19
  0
XRECORD
  5
26F
102
{ACAD_REACTORS
330
267
102
}
330
267
100
AcDbXrecord
 90
    14877
  0
XRECORD
  5
26D
102
{ACAD_REACTORS
330
267
102
}
330
267
100
AcDbXrecord
340
18
  0
XRECORD
  5
26E
102
{ACAD_REACTORS
330
267
102
}
330
267
100
AcDbXrecord
340
E
  0
XRECORD
  5
274
102
{ACAD_REACTORS
330
267
102
}
330
267
100
AcDbXrecord
 40
0.0
  0
XRECORD
  5
278
102
{ACAD_REACTORS
330
267
102
}
330
267
100
AcDbXrecord
340
0
  0
XRECORD
  5
27E
102
{ACAD_REACTORS
330
267
102
}
330
267
100
AcDbXrecord
 10
0.0
 20
0.0
 30
0.0
  0
XRECORD
  5
27A
102
{ACAD_REACTORS
330
267
102
}
330
267
100
AcDbXrecord
 10
0.0
 20
0.0
 30
0.0
  0
XRECORD
  5
27D
102
{ACAD_REACTORS
330
267
102
}
330
267
100
AcDbXrecord
 10
0.0
 20
0.0
 30
0.0
  0
XRECORD
  5
27B
102
{ACAD_REACTORS
330
267
102
}
330
267
100
AcDbXrecord
 10
0.0
 20
0.0
 30
0.0
  0
XRECORD
  5
27C
102
{ACAD_REACTORS
330
267
102
}
330
267
100
AcDbXrecord
 10
0.0
 20
0.0
 30
0.0
  0
XRECORD
  5
279
102
{ACAD_REACTORS
330
267
102
}
330
267
100
AcDbXrecord
 10
0.0
 20
0.0
 30
0.0
  0
XRECORD
  5
276
102
{ACAD_REACTORS
330
267
102
}
330
267
100
AcDbXrecord
340
0
  0
XRECORD
  5
277
102
{ACAD_REACTORS
330
267
102
}
330
267
100
AcDbXrecord
 70
     0
  0
XRECORD
  5
26B
102
{ACAD_REACTORS
330
267
102
}
330
267
100
AcDbXrecord
  1

  0
XRECORD
  5
268
102
{ACAD_REACTORS
330
267
102
}
330
267
100
AcDbXrecord
 90
        1
  0
XRECORD
  5
269
102
{ACAD_REACTORS
330
267
102
}
330
267
100
AcDbXrecord
 90
       70
  0
XRECORD
  5
281
102
{ACAD_REACTORS
330
267
102
}
330
267
100
AcDbXrecord
340
0
  0
XRECORD
  5
287
102
{ACAD_REACTORS
330
267
102
}
330
267
100
AcDbXrecord
 10
0.0
 20
0.0
 30
0.0
  0
XRECORD
  5
283
102
{ACAD_REACTORS
330
267
102
}
330
267
100
AcDbXrecord
 10
0.0
 20
0.0
 30
0.0
  0
XRECORD
  5
286
102
{ACAD_REACTORS
330
267
102
}
330
267
100
AcDbXrecord
 10
0.0
 20
0.0
 30
0.0
  0
XRECORD
  5
284
102
{ACAD_REACTORS
330
267
102
}
330
267
100
AcDbXrecord
 10
0.0
 20
0.0
 30
0.0
  0
XRECORD
  5
285
102
{ACAD_REACTORS
330
267
102
}
330
267
100
AcDbXrecord
 10
0.0
 20
0.0
 30
0.0
  0
XRECORD
  5
282
102
{ACAD_REACTORS
330
267
102
}
330
267
100
AcDbXrecord
 10
0.0
 20
0.0
 30
0.0
  0
XRECORD
  5
27F
102
{ACAD_REACTORS
330
267
102
}
330
267
100
AcDbXrecord
340
0
  0
XRECORD
  5
280
102
{ACAD_REACTORS
330
267
102
}
330
267
100
AcDbXrecord
 70
     0
  0
XRECORD
  5
273
102
{ACAD_REACTORS
330
267
102
}
330
267
100
AcDbXrecord
  1
{247160F0-DF95-4E4D-9835-DE5A93E2B600}
  0
DICTIONARYVAR
  5
147
102
{ACAD_REACTORS
330
145
102
}
330
145
100
DictionaryVariables
280
     0
  1
2
  0
DICTIONARYVAR
  5
146
102
{ACAD_REACTORS
330
145
102
}
330
145
100
DictionaryVariables
280
     0
  1
1
  0
ENDSEC
  0
EOF
