  0
SECTION
  2
HEADER
  9
$ACADVER
  1
AC1014
  9
$ACADMAINTVER
 70
     9
  9
$DWGCODEPAGE
  3
ANSI_1252
  9
$INSBASE
 10
17.83453558678237
 20
-14.29882422677914
 30
0.0
  9
$EXTMIN
 10
14.5194249335679
 20
-15.53994398797177
 30
0.0
  9
$EXTMAX
 10
27.38884000860201
 20
-11.93628691601719
 30
0.0
  9
$LIMMIN
 10
0.0
 20
0.0
  9
$LIMMAX
 10
36.0
 20
36.0
  9
$ORTHOMODE
 70
     1
  9
$REGENMODE
 70
     1
  9
$FILLMODE
 70
     1
  9
$QTEXTMODE
 70
     0
  9
$MIRRTEXT
 70
     1
  9
$DRAGMODE
 70
     0
  9
$LTSCALE
 40
1.0
  9
$OSMODE
 70
    37
  9
$ATTMODE
 70
     1
  9
$TEXTSIZE
 40
0.2
  9
$TRACEWID
 40
0.05
  9
$TEXTSTYLE
  7
STANDARD
  9
$CLAYER
  8
0
  9
$CELTYPE
  6
BYLAYER
  9
$CECOLOR
 62
   256
  9
$CELTSCALE
 40
1.0
  9
$DELOBJ
 70
     1
  9
$DISPSILH
 70
     0
  9
$DIMSCALE
 40
1.0
  9
$DIMASZ
 40
0.125
  9
$DIMEXO
 40
0.0625
  9
$DIMDLI
 40
0.38
  9
$DIMRND
 40
0.0
  9
$DIMDLE
 40
0.0
  9
$DIMEXE
 40
0.18
  9
$DIMTP
 40
0.0
  9
$DIMTM
 40
0.0
  9
$DIMTXT
 40
0.125
  9
$DIMCEN
 40
0.1875
  9
$DIMTSZ
 40
0.125
  9
$DIMTOL
 70
     0
  9
$DIMLIM
 70
     0
  9
$DIMTIH
 70
     0
  9
$DIMTOH
 70
     0
  9
$DIMSE1
 70
     0
  9
$DIMSE2
 70
     0
  9
$DIMTAD
 70
     0
  9
$DIMZIN
 70
     2
  9
$DIMBLK
  1

  9
$DIMASO
 70
     1
  9
$DIMSHO
 70
     1
  9
$DIMPOST
  1

  9
$DIMAPOST
  1

  9
$DIMALT
 70
     0
  9
$DIMALTD
 70
     1
  9
$DIMALTF
 40
25.4
  9
$DIMLFAC
 40
1.0
  9
$DIMTOFL
 70
     0
  9
$DIMTVP
 40
0.0
  9
$DIMTIX
 70
     0
  9
$DIMSOXD
 70
     0
  9
$DIMSAH
 70
     0
  9
$DIMBLK1
  1

  9
$DIMBLK2
  1

  9
$DIMSTYLE
  2
STANDARD
  9
$DIMCLRD
 70
     0
  9
$DIMCLRE
 70
     0
  9
$DIMCLRT
 70
     0
  9
$DIMTFAC
 40
1.0
  9
$DIMGAP
 40
0.125
  9
$DIMJUST
 70
     0
  9
$DIMSD1
 70
     0
  9
$DIMSD2
 70
     0
  9
$DIMTOLJ
 70
     1
  9
$DIMTZIN
 70
     0
  9
$DIMALTZ
 70
     0
  9
$DIMALTTZ
 70
     0
  9
$DIMFIT
 70
     3
  9
$DIMUPT
 70
     0
  9
$DIMUNIT
 70
     7
  9
$DIMDEC
 70
     4
  9
$DIMTDEC
 70
     4
  9
$DIMALTU
 70
     2
  9
$DIMALTTD
 70
     2
  9
$DIMTXSTY
  7
STANDARD
  9
$DIMAUNIT
 70
     0
  9
$LUNITS
 70
     5
  9
$LUPREC
 70
     4
  9
$SKETCHINC
 40
0.1
  9
$FILLETRAD
 40
0.062
  9
$AUNITS
 70
     0
  9
$AUPREC
 70
     0
  9
$MENU
  1
acad
  9
$ELEVATION
 40
0.0
  9
$PELEVATION
 40
0.0
  9
$THICKNESS
 40
0.0
  9
$LIMCHECK
 70
     0
  9
$BLIPMODE
 70
     0
  9
$CHAMFERA
 40
0.0
  9
$CHAMFERB
 40
0.0
  9
$CHAMFERC
 40
0.0
  9
$CHAMFERD
 40
0.0
  9
$SKPOLY
 70
     0
  9
$TDCREATE
 40
2450386.504063460
  9
$TDUPDATE
 40
2452297.069888958
  9
$TDINDWG
 40
0.0371891088
  9
$TDUSRTIMER
 40
0.0371891088
  9
$USRTIMER
 70
     1
  9
$ANGBASE
 50
0.0
  9
$ANGDIR
 70
     0
  9
$PDMODE
 70
     0
  9
$PDSIZE
 40
0.0
  9
$PLINEWID
 40
0.0
  9
$COORDS
 70
     2
  9
$SPLFRAME
 70
     0
  9
$SPLINETYPE
 70
     6
  9
$SPLINESEGS
 70
     8
  9
$ATTDIA
 70
     0
  9
$ATTREQ
 70
     1
  9
$HANDLING
 70
 22529
  9
$HANDSEED
  5
403
  9
$SURFTAB1
 70
     6
  9
$SURFTAB2
 70
     6
  9
$SURFTYPE
 70
     6
  9
$SURFU
 70
     6
  9
$SURFV
 70
     6
  9
$UCSNAME
  2

  9
$UCSORG
 10
0.0
 20
0.0
 30
0.0
  9
$UCSXDIR
 10
1.0
 20
0.0
 30
0.0
  9
$UCSYDIR
 10
0.0
 20
1.0
 30
0.0
  9
$PUCSNAME
  2

  9
$PUCSORG
 10
0.0
 20
0.0
 30
0.0
  9
$PUCSXDIR
 10
1.0
 20
0.0
 30
0.0
  9
$PUCSYDIR
 10
0.0
 20
1.0
 30
0.0
  9
$USERI1
 70
     0
  9
$USERI2
 70
     0
  9
$USERI3
 70
     0
  9
$USERI4
 70
     0
  9
$USERI5
 70
     0
  9
$USERR1
 40
0.0
  9
$USERR2
 40
0.0
  9
$USERR3
 40
0.0
  9
$USERR4
 40
0.0
  9
$USERR5
 40
0.0
  9
$WORLDVIEW
 70
     1
  9
$SHADEDGE
 70
     3
  9
$SHADEDIF
 70
    70
  9
$TILEMODE
 70
     1
  9
$MAXACTVP
 70
    15
  9
$PINSBASE
 10
4.403525741743744E+99
 20
7.061986388769092E+99
 30
0.0
  9
$PLIMCHECK
 70
     0
  9
$PEXTMIN
 10
1.000000000000000E+20
 20
1.000000000000000E+20
 30
1.000000000000000E+20
  9
$PEXTMAX
 10
-1.000000000000000E+20
 20
-1.000000000000000E+20
 30
-1.000000000000000E+20
  9
$PLIMMIN
 10
0.0
 20
0.0
  9
$PLIMMAX
 10
12.0
 20
9.0
  9
$UNITMODE
 70
     0
  9
$VISRETAIN
 70
     0
  9
$PLINEGEN
 70
     0
  9
$PSLTSCALE
 70
     1
  9
$TREEDEPTH
 70
  3020
  9
$PICKSTYLE
 70
     1
  9
$CMLSTYLE
  2
STANDARD
  9
$CMLJUST
 70
     0
  9
$CMLSCALE
 40
1.0
  9
$PROXYGRAPHICS
 70
     1
  9
$MEASUREMENT
 70
     0
  0
ENDSEC
  0
SECTION
  2
CLASSES
  0
CLASS
  1
ACDBDICTIONARYWDFLT
  2
AcDbDictionaryWithDefault
  3
AutoCAD 2000
 90
        0
280
     0
281
     0
  0
CLASS
  1
ACDBPLACEHOLDER
  2
AcDbPlaceHolder
  3
AutoCAD 2000
 90
        0
280
     0
281
     0
  0
CLASS
  1
LAYOUT
  2
AcDbLayout
  3
AutoCAD 2000
 90
        0
280
     0
281
     0
  0
CLASS
  1
DICTIONARYVAR
  2
AcDbDictionaryVar
  3
AutoCAD 2000
 90
        0
280
     0
281
     0
  0
CLASS
  1
LONG_TRANSACTION
  2
AcDbLongTransaction
  3
AutoCAD 2000
 90
        0
280
     0
281
     0
  0
CLASS
  1
LWPOLYLINE
  2
AcDbPolyline
  3
AutoCAD 2000
 90
        0
280
     0
281
     1
  0
CLASS
  1
HATCH
  2
AcDbHatch
  3
AutoCAD 2000
 90
        0
280
     0
281
     1
  0
CLASS
  1
XRECORD
  2
AcDbXrecord
  3
AutoCAD 2000
 90
        0
280
     0
281
     0
  0
CLASS
  1
LONG_TRANSACTION
  2
AcDbLongTransaction
  3
AutoCAD 2000
 90
        0
280
     0
281
     0
  0
CLASS
  1
LWPOLYLINE
  2
AcDbPolyline
  3
AutoCAD 2000
 90
        0
280
     0
281
     1
  0
CLASS
  1
HATCH
  2
AcDbHatch
  3
AutoCAD 2000
 90
        0
280
     0
281
     1
  0
CLASS
  1
XRECORD
  2
AcDbXrecord
  3
AutoCAD 2000
 90
        0
280
     0
281
     0
  0
CLASS
  1
LONG_TRANSACTION
  2
AcDbLongTransaction
  3
AutoCAD 2000
 90
        0
280
     0
281
     0
  0
CLASS
  1
LWPOLYLINE
  2
AcDbPolyline
  3
AutoCAD 2000
 90
        0
280
     0
281
     1
  0
CLASS
  1
HATCH
  2
AcDbHatch
  3
AutoCAD 2000
 90
        0
280
     0
281
     1
  0
CLASS
  1
XRECORD
  2
AcDbXrecord
  3
AutoCAD 2000
 90
        0
280
     0
281
     0
  0
CLASS
  1
LONG_TRANSACTION
  2
AcDbLongTransaction
  3
AutoCAD 2000
 90
        0
280
     0
281
     0
  0
CLASS
  1
LWPOLYLINE
  2
AcDbPolyline
  3
AutoCAD 2000
 90
        0
280
     0
281
     1
  0
CLASS
  1
HATCH
  2
AcDbHatch
  3
AutoCAD 2000
 90
        0
280
     0
281
     1
  0
CLASS
  1
XRECORD
  2
AcDbXrecord
  3
AutoCAD 2000
 90
        0
280
     0
281
     0
  0
CLASS
  1
LONG_TRANSACTION
  2
AcDbLongTransaction
  3
AutoCAD 2000
 90
        0
280
     0
281
     0
  0
CLASS
  1
LWPOLYLINE
  2
AcDbPolyline
  3
AutoCAD 2000
 90
        0
280
     0
281
     1
  0
CLASS
  1
HATCH
  2
AcDbHatch
  3
AutoCAD 2000
 90
        0
280
     0
281
     1
  0
CLASS
  1
XRECORD
  2
AcDbXrecord
  3
AutoCAD 2000
 90
        0
280
     0
281
     0
  0
ENDSEC
  0
SECTION
  2
TABLES
  0
TABLE
  2
VPORT
  5
12
330
0
100
AcDbSymbolTable
 70
     2
  0
VPORT
  5
3AD
330
12
100
AcDbSymbolTableRecord
100
AcDbViewportTableRecord
  2
*ACTIVE
 70
     0
 10
0.0
 20
0.0
 11
1.0
 21
1.0
 12
20.96433877397863
 22
-13.73789924624232
 13
0.0
 23
0.0
 14
0.5740882589684922
 24
0.5740882589684922
 15
0.5
 25
0.5
 16
0.0
 26
0.0
 36
1.0
 17
0.0
 27
0.0
 37
0.0
 40
8.249431416431285
 41
1.570528967254408
 42
50.0
 43
0.0
 44
0.0
 50
0.0
 51
0.0
 71
     0
 72
   100
 73
     1
 74
     0
 75
     0
 76
     0
 77
     0
 78
     0
  0
ENDTAB
  0
TABLE
  2
LTYPE
  5
E
330
0
100
AcDbSymbolTable
 70
     2
  0
LTYPE
  5
F
330
E
100
AcDbSymbolTableRecord
100
AcDbLinetypeTableRecord
  2
BYBLOCK
 70
     0
  3

 72
    65
 73
     0
 40
0.0
  0
LTYPE
  5
6
330
E
100
AcDbSymbolTableRecord
100
AcDbLinetypeTableRecord
  2
BYLAYER
 70
     0
  3

 72
    65
 73
     0
 40
0.0
  0
LTYPE
  5
5
330
E
100
AcDbSymbolTableRecord
100
AcDbLinetypeTableRecord
  2
CONTINUOUS
 70
     0
  3
Solid line
 72
    65
 73
     0
 40
0.0
  0
LTYPE
  5
1F
330
E
100
AcDbSymbolTableRecord
100
AcDbLinetypeTableRecord
  2
HIDDEN2
 70
     0
  3
_ _ _ _ _ _ _ _ _ _ _ _ _ _ _ _ _ _ _ _ _ _ _ _
 72
    65
 73
     2
 40
0.1875
 49
0.125
 74
     0
 49
-0.0625
 74
     0
  0
ENDTAB
  0
TABLE
  2
LAYER
  5
B
330
0
100
AcDbSymbolTable
 70
     5
  0
LAYER
  5
4
330
B
100
AcDbSymbolTableRecord
100
AcDbLayerTableRecord
  2
0
 70
     0
 62
     7
  6
CONTINUOUS
  0
LAYER
  5
22
330
B
100
AcDbSymbolTableRecord
100
AcDbLayerTableRecord
  2
ADP1DETAIL
 70
     0
 62
     7
  6
CONTINUOUS
  0
LAYER
  5
44
330
B
100
AcDbSymbolTableRecord
100
AcDbLayerTableRecord
  2
DEFPOINTS
 70
     0
 62
     7
  6
CONTINUOUS
  0
LAYER
  5
3A
330
B
100
AcDbSymbolTableRecord
100
AcDbLayerTableRecord
  2
ADPDIM
 70
     0
 62
     3
  6
CONTINUOUS
  0
LAYER
  5
1E
330
B
100
AcDbSymbolTableRecord
100
AcDbLayerTableRecord
  2
ADP2DETAIL
 70
     0
 62
     5
  6
CONTINUOUS
  0
ENDTAB
  0
TABLE
  2
STYLE
  5
C
330
0
100
AcDbSymbolTable
 70
     2
  0
STYLE
  5
D
330
C
100
AcDbSymbolTableRecord
100
AcDbTextStyleTableRecord
  2
STANDARD
 70
     0
 40
0.0
 41
1.0
 50
0.0
 71
     0
 42
0.2
  3
txt
  4

  0
STYLE
  5
E6
330
C
100
AcDbSymbolTableRecord
100
AcDbTextStyleTableRecord
  2
ARIAL_WIDE
 70
     0
 40
0.0
 41
1.25
 50
0.0
 71
     0
 42
0.2
  3
ARIAL.TTF
  4

1001
ACAD
1000
Arial
1071
       34
  0
ENDTAB
  0
TABLE
  2
VIEW
  5
10
330
0
100
AcDbSymbolTable
 70
     0
  0
ENDTAB
  0
TABLE
  2
UCS
  5
11
330
0
100
AcDbSymbolTable
 70
     0
  0
ENDTAB
  0
TABLE
  2
APPID
  5
14
330
0
100
AcDbSymbolTable
 70
     1
  0
APPID
  5
15
330
14
100
AcDbSymbolTableRecord
100
AcDbRegAppTableRecord
  2
ACAD
 70
     0
  0
ENDTAB
  0
TABLE
  2
DIMSTYLE
  5
16
330
0
100
AcDbSymbolTable
 70
     1
  0
DIMSTYLE
105
1C
102
{ACAD_REACTORS
330
39
330
49
330
6B
330
C1
330
CF
102
}
330
16
100
AcDbSymbolTableRecord
100
AcDbDimStyleTableRecord
  2
STANDARD
 70
     0
  3

  4

  5

  6

  7

 40
1.0
 41
0.18
 42
0.0625
 43
0.38
 44
0.18
 45
0.0
 46
0.0
 47
0.0
 48
0.0
140
0.18
141
0.09
142
0.0
143
25.4
144
1.0
145
0.0
146
1.0
147
0.09
 71
     0
 72
     0
 73
     1
 74
     1
 75
     0
 76
     0
 77
     0
 78
     0
170
     0
171
     2
172
     0
173
     0
174
     0
175
     0
176
     0
177
     0
178
     0
270
     2
271
     4
272
     4
273
     2
274
     2
340
D
275
     0
280
     0
281
     0
282
     0
283
     1
284
     0
285
     0
286
     0
287
     3
288
     0
  0
ENDTAB
  0
TABLE
  2
BLOCK_RECORD
  5
1
330
0
100
AcDbSymbolTable
 70
     6
  0
BLOCK_RECORD
  5
2
102
{ACAD_XDICTIONARY
360
17C
102
}
330
1
100
AcDbSymbolTableRecord
100
AcDbBlockTableRecord
  2
*MODEL_SPACE
  0
BLOCK_RECORD
  5
8
102
{ACAD_XDICTIONARY
360
17E
102
}
330
1
100
AcDbSymbolTableRecord
100
AcDbBlockTableRecord
  2
*PAPER_SPACE
  0
BLOCK_RECORD
  5
83
330
1
100
AcDbSymbolTableRecord
100
AcDbBlockTableRecord
  2
STUD
  0
BLOCK_RECORD
  5
180
330
1
100
AcDbSymbolTableRecord
100
AcDbBlockTableRecord
  2
*D1
  0
BLOCK_RECORD
  5
18F
330
1
100
AcDbSymbolTableRecord
100
AcDbBlockTableRecord
  2
*D2
  0
BLOCK_RECORD
  5
19C
330
1
100
AcDbSymbolTableRecord
100
AcDbBlockTableRecord
  2
*D3
  0
BLOCK_RECORD
  5
1A9
330
1
100
AcDbSymbolTableRecord
100
AcDbBlockTableRecord
  2
*D4
  0
BLOCK_RECORD
  5
1B6
330
1
100
AcDbSymbolTableRecord
100
AcDbBlockTableRecord
  2
*D5
  0
ENDTAB
  0
ENDSEC
  0
SECTION
  2
BLOCKS
  0
BLOCK
  5
3
330
2
100
AcDbEntity
  8
0
100
AcDbBlockBegin
  2
*MODEL_SPACE
 70
     0
 10
0.0
 20
0.0
 30
0.0
  3
*MODEL_SPACE
  1

  0
ENDBLK
  5
7
330
2
100
AcDbEntity
  8
0
100
AcDbBlockEnd
  0
BLOCK
  5
9
330
8
100
AcDbEntity
 67
     1
  8
0
100
AcDbBlockBegin
  2
*PAPER_SPACE
 70
     0
 10
0.0
 20
0.0
 30
0.0
  3
*PAPER_SPACE
  1

  0
ENDBLK
  5
A
330
8
100
AcDbEntity
 67
     1
  8
0
100
AcDbBlockEnd
  0
BLOCK
  5
B7
330
83
100
AcDbEntity
  8
0
100
AcDbBlockBegin
  2
STUD
 70
     0
 10
0.0
 20
0.0
 30
0.0
  3
STUD
  1

  0
LINE
  5
84
330
83
100
AcDbEntity
  8
0
100
AcDbLine
 10
-0.2106546533272015
 20
0.4345838899572075
 30
0.0
 11
-0.2416546533272015
 21
0.4965838899572073
 31
0.0
  0
LINE
  5
85
330
83
100
AcDbEntity
  8
0
100
AcDbLine
 10
-0.2128857855944517
 20
-0.0034161100427927
 30
0.0
 11
-0.2438857855944517
 21
0.0585838899572071
 31
0.0
  0
LINE
  5
86
330
83
100
AcDbEntity
  8
0
100
AcDbLine
 10
-0.6191843435445581
 20
0.4965838899572073
 30
0.0
 11
-0.6191843435445581
 21
0.0575739754449174
 31
0.0
  0
LINE
  5
87
330
83
100
AcDbEntity
  8
0
100
AcDbLine
 10
-0.274160893627193
 20
0.4345838899572075
 30
0.0
 11
-0.2438857855944517
 21
0.0585838899572071
 31
0.0
  0
LINE
  5
88
330
83
100
AcDbEntity
  8
0
100
AcDbLine
 10
-0.3376671339271846
 20
0.4345838899572075
 30
0.0
 11
-0.3073920258944432
 21
0.0585838899572071
 31
0.0
  0
LINE
  5
89
330
83
100
AcDbEntity
  8
0
100
AcDbLine
 10
-0.401173374227176
 20
0.4345838899572075
 30
0.0
 11
-0.3708982661944346
 21
0.0585838899572071
 31
0.0
  0
LINE
  5
8A
330
83
100
AcDbEntity
  8
0
100
AcDbLine
 10
-0.4646796613424146
 20
0.4345838899572075
 30
0.0
 11
-0.4344045533096732
 21
0.0585838899572071
 31
0.0
  0
LINE
  5
8B
330
83
100
AcDbEntity
  8
0
100
AcDbLine
 10
-0.5224125985578164
 20
0.4345838899572075
 30
0.0
 11
-0.492137490525075
 21
0.0585838899572071
 31
0.0
  0
LINE
  5
8C
330
83
100
AcDbEntity
  8
0
100
AcDbLine
 10
-0.585918838857808
 20
0.4345838899572075
 30
0.0
 11
-0.5556437308250666
 21
0.0585838899572071
 31
0.0
  0
LINE
  5
8D
330
83
100
AcDbEntity
  8
0
100
AcDbLine
 10
-0.4654045533096733
 20
-0.0034161100427927
 30
0.0
 11
-0.492137490525075
 21
0.0585838899572071
 31
0.0
  0
LINE
  5
8E
330
83
100
AcDbEntity
  8
0
100
AcDbLine
 10
-0.6191843435445581
 20
0.0575739754449174
 30
0.0
 11
-0.5866437308250667
 21
-0.0034161100427927
 31
0.0
  0
LINE
  5
8F
330
83
100
AcDbEntity
  8
0
100
AcDbLine
 10
-0.5246437308250666
 20
-0.0034161100427927
 30
0.0
 11
-0.5556437308250666
 21
0.0585838899572071
 31
0.0
  0
LINE
  5
90
330
83
100
AcDbEntity
  8
0
100
AcDbLine
 10
-0.5556437308250666
 20
0.0585838899572071
 30
0.0
 11
-0.5866437308250667
 21
-0.0034161100427927
 31
0.0
  0
LINE
  5
91
330
83
100
AcDbEntity
  8
0
100
AcDbLine
 10
-0.492137490525075
 20
0.0585838899572071
 30
0.0
 11
-0.5231374905250751
 21
-0.0034161100427927
 31
0.0
  0
LINE
  5
92
330
83
100
AcDbEntity
  8
0
100
AcDbLine
 10
-0.3398982661944347
 20
-0.0034161100427927
 30
0.0
 11
-0.3708982661944346
 21
0.0585838899572071
 31
0.0
  0
LINE
  5
93
330
83
100
AcDbEntity
  8
0
100
AcDbLine
 10
-0.4034045533096732
 20
-0.0034161100427927
 30
0.0
 11
-0.4344045533096732
 21
0.0585838899572071
 31
0.0
  0
LINE
  5
94
330
83
100
AcDbEntity
  8
0
100
AcDbLine
 10
-0.4344045533096732
 20
0.0585838899572071
 30
0.0
 11
-0.4654045533096733
 21
-0.0034161100427927
 31
0.0
  0
LINE
  5
95
330
83
100
AcDbEntity
  8
0
100
AcDbLine
 10
-0.3708982661944346
 20
0.0585838899572071
 30
0.0
 11
-0.4018982661944348
 21
-0.0034161100427927
 31
0.0
  0
LINE
  5
96
330
83
100
AcDbEntity
  8
0
100
AcDbLine
 10
-0.2763920258944432
 20
-0.0034161100427927
 30
0.0
 11
-0.3073920258944432
 21
0.0585838899572071
 31
0.0
  0
LINE
  5
97
330
83
100
AcDbEntity
  8
0
100
AcDbLine
 10
-0.3073920258944432
 20
0.0585838899572071
 30
0.0
 11
-0.3383920258944432
 21
-0.0034161100427927
 31
0.0
  0
LINE
  5
98
330
83
100
AcDbEntity
  8
0
100
AcDbLine
 10
-0.2438857855944517
 20
0.0585838899572071
 30
0.0
 11
-0.2748857855944518
 21
-0.0034161100427927
 31
0.0
  0
LINE
  5
99
330
83
100
AcDbEntity
  8
0
100
AcDbLine
 10
-0.4646796613424146
 20
0.4345838899572075
 30
0.0
 11
-0.4956796613424145
 21
0.4965838899572073
 31
0.0
  0
LINE
  5
9A
330
83
100
AcDbEntity
  8
0
100
AcDbLine
 10
-0.585918838857808
 20
0.4345838899572075
 30
0.0
 11
-0.616918838857808
 21
0.4965838899572073
 31
0.0
  0
LINE
  5
9B
330
83
100
AcDbEntity
  8
0
100
AcDbLine
 10
-0.5224125985578164
 20
0.4345838899572075
 30
0.0
 11
-0.5534125985578165
 21
0.4965838899572073
 31
0.0
  0
LINE
  5
9C
330
83
100
AcDbEntity
  8
0
100
AcDbLine
 10
-0.4956796613424145
 20
0.4965838899572073
 30
0.0
 11
-0.5224125985578164
 21
0.4345838899572075
 31
0.0
  0
LINE
  5
9D
330
83
100
AcDbEntity
  8
0
100
AcDbLine
 10
-0.5549188388578079
 20
0.4965838899572073
 30
0.0
 11
-0.585918838857808
 21
0.4345838899572075
 31
0.0
  0
LINE
  5
9E
330
83
100
AcDbEntity
  8
0
100
AcDbLine
 10
-0.3376671339271846
 20
0.4345838899572075
 30
0.0
 11
-0.3686671339271845
 21
0.4965838899572073
 31
0.0
  0
LINE
  5
9F
330
83
100
AcDbEntity
  8
0
100
AcDbLine
 10
-0.401173374227176
 20
0.4345838899572075
 30
0.0
 11
-0.432173374227176
 21
0.4965838899572073
 31
0.0
  0
LINE
  5
A0
330
83
100
AcDbEntity
  8
0
100
AcDbLine
 10
-0.3701733742271759
 20
0.4965838899572073
 30
0.0
 11
-0.401173374227176
 21
0.4345838899572075
 31
0.0
  0
LINE
  5
A1
330
83
100
AcDbEntity
  8
0
100
AcDbLine
 10
-0.4336796613424145
 20
0.4965838899572073
 30
0.0
 11
-0.4646796613424146
 21
0.4345838899572075
 31
0.0
  0
LINE
  5
A2
330
83
100
AcDbEntity
  8
0
100
AcDbLine
 10
-0.274160893627193
 20
0.4345838899572075
 30
0.0
 11
-0.305160893627193
 21
0.4965838899572073
 31
0.0
  0
LINE
  5
A3
330
83
100
AcDbEntity
  8
0
100
AcDbLine
 10
-0.243160893627193
 20
0.4965838899572073
 30
0.0
 11
-0.274160893627193
 21
0.4345838899572075
 31
0.0
  0
LINE
  5
A4
330
83
100
AcDbEntity
  8
0
100
AcDbLine
 10
-0.3066671339271845
 20
0.4965838899572073
 30
0.0
 11
-0.3376671339271846
 21
0.4345838899572075
 31
0.0
  0
LINE
  5
A5
330
83
100
AcDbEntity
  8
0
100
AcDbLine
 10
-0.0251843435445581
 20
0.4345838899572075
 30
0.0
 11
0.0050907644881833
 21
0.0585838899572071
 31
0.0
  0
LINE
  5
A6
330
83
100
AcDbEntity
  8
0
100
AcDbLine
 10
-0.0871843435445581
 20
0.4345838899572075
 30
0.0
 11
-0.0569092355118167
 21
0.0585838899572071
 31
0.0
  0
LINE
  5
A7
330
83
100
AcDbEntity
  8
0
100
AcDbLine
 10
-0.1491843435445581
 20
0.4345838899572075
 30
0.0
 11
-0.1189092355118167
 21
0.0585838899572071
 31
0.0
  0
LINE
  5
A8
330
83
100
AcDbEntity
  8
0
100
AcDbLine
 10
-0.2106546533272015
 20
0.4345838899572075
 30
0.0
 11
-0.1803795452944603
 21
0.0585838899572071
 31
0.0
  0
LINE
  5
A9
330
83
100
AcDbEntity
  8
0
100
AcDbLine
 10
-0.0879092355118168
 20
-0.0034161100427927
 30
0.0
 11
-0.1189092355118167
 21
0.0585838899572071
 31
0.0
  0
LINE
  5
AA
330
83
100
AcDbEntity
  8
0
100
AcDbLine
 10
-0.1493795452944602
 20
-0.0034161100427927
 30
0.0
 11
-0.1803795452944603
 21
0.0585838899572071
 31
0.0
  0
LINE
  5
AB
330
83
100
AcDbEntity
  8
0
100
AcDbLine
 10
-0.1803795452944603
 20
0.0585838899572071
 30
0.0
 11
-0.2113795452944602
 21
-0.0034161100427927
 31
0.0
  0
LINE
  5
AC
330
83
100
AcDbEntity
  8
0
100
AcDbLine
 10
-0.1189092355118167
 20
0.0585838899572071
 30
0.0
 11
-0.1499092355118167
 21
-0.0034161100427927
 31
0.0
  0
LINE
  5
AD
330
83
100
AcDbEntity
  8
0
100
AcDbLine
 10
-0.0569092355118167
 20
0.0585838899572071
 30
0.0
 11
-0.0879092355118168
 21
-0.0034161100427927
 31
0.0
  0
LINE
  5
AE
330
83
100
AcDbEntity
  8
0
100
AcDbLine
 10
-0.0259092355118167
 20
-0.0034161100427927
 30
0.0
 11
-0.0569092355118167
 21
0.0585838899572071
 31
0.0
  0
LINE
  5
AF
330
83
100
AcDbEntity
  8
0
100
AcDbLine
 10
0.0050907644881833
 20
0.0585838899572071
 30
0.0
 11
-0.0259092355118167
 21
-0.0034161100427927
 31
0.0
  0
LINE
  5
B0
330
83
100
AcDbEntity
  8
0
100
AcDbLine
 10
-0.0871843435445581
 20
0.4345838899572075
 30
0.0
 11
-0.118184343544558
 21
0.4965838899572073
 31
0.0
  0
LINE
  5
B1
330
83
100
AcDbEntity
  8
0
100
AcDbLine
 10
-0.1491843435445581
 20
0.4345838899572075
 30
0.0
 11
-0.180184343544558
 21
0.4965838899572073
 31
0.0
  0
LINE
  5
B2
330
83
100
AcDbEntity
  8
0
100
AcDbLine
 10
-0.118184343544558
 20
0.4965838899572073
 30
0.0
 11
-0.1491843435445581
 21
0.4345838899572075
 31
0.0
  0
LINE
  5
B3
330
83
100
AcDbEntity
  8
0
100
AcDbLine
 10
-0.1796546533272015
 20
0.4965838899572073
 30
0.0
 11
-0.2106546533272015
 21
0.4345838899572075
 31
0.0
  0
LINE
  5
B4
330
83
100
AcDbEntity
  8
0
100
AcDbLine
 10
0.005815656455442
 20
0.4965838899572073
 30
0.0
 11
-0.0251843435445581
 21
0.4345838899572075
 31
0.0
  0
LINE
  5
B5
330
83
100
AcDbEntity
  8
0
100
AcDbLine
 10
-0.0251843435445581
 20
0.4345838899572075
 30
0.0
 11
-0.0561843435445581
 21
0.4965838899572073
 31
0.0
  0
LINE
  5
B6
330
83
100
AcDbEntity
  8
0
100
AcDbLine
 10
-0.0561843435445581
 20
0.4965838899572073
 30
0.0
 11
-0.0871843435445581
 21
0.4345838899572075
 31
0.0
  0
ENDBLK
  5
B8
330
83
100
AcDbEntity
  8
0
100
AcDbBlockEnd
  0
BLOCK
  5
18B
330
180
100
AcDbEntity
  8
0
100
AcDbBlockBegin
  2
*D1
 70
     1
 10
0.0
 20
0.0
 30
0.0
  3
*D1
  1

  0
LINE
  5
3D1
330
180
100
AcDbEntity
  8
ADPDIM
 62
     0
100
AcDbLine
 10
22.60255847539978
 20
-12.55378691601719
 30
0.0
 11
22.60255847539978
 21
-12.31128691601719
 31
0.0
  0
LINE
  5
3D2
330
180
100
AcDbEntity
  8
ADPDIM
 62
     0
100
AcDbLine
 10
24.22755847539978
 20
-12.55378691601719
 30
0.0
 11
24.22755847539978
 21
-12.31128691601719
 31
0.0
  0
LINE
  5
3D3
330
180
100
AcDbEntity
  8
ADPDIM
 62
     0
100
AcDbLine
 10
22.60255847539978
 20
-12.49128691601719
 30
0.0
 11
23.01922514206645
 21
-12.49128691601719
 31
0.0
  0
LINE
  5
3D4
330
180
100
AcDbEntity
  8
ADPDIM
 62
     0
100
AcDbLine
 10
24.22755847539978
 20
-12.49128691601719
 30
0.0
 11
23.81089180873311
 21
-12.49128691601719
 31
0.0
  0
LINE
  5
3D5
330
180
100
AcDbEntity
  8
ADPDIM
 62
     0
100
AcDbLine
 10
24.10255847539978
 20
-12.61628691601719
 30
0.0
 11
24.35255847539978
 21
-12.36628691601719
 31
0.0
  0
LINE
  5
3D6
330
180
100
AcDbEntity
  8
ADPDIM
 62
     0
100
AcDbLine
 10
22.47755847539978
 20
-12.61628691601719
 30
0.0
 11
22.72755847539978
 21
-12.36628691601719
 31
0.0
  0
MTEXT
  5
3D7
330
180
100
AcDbEntity
  8
ADPDIM
 62
     0
100
AcDbMText
 10
23.41505847539978
 20
-12.49128691601719
 30
0.0
 40
0.125
 41
0.0
 71
     5
 72
     1
  1
\A1;1 5/8
  0
POINT
  5
3D8
330
180
100
AcDbEntity
  8
DEFPOINTS
 62
     0
100
AcDbPoint
 10
22.60255847539978
 20
-12.61628691601719
 30
0.0
  0
POINT
  5
3D9
330
180
100
AcDbEntity
  8
DEFPOINTS
 62
     0
100
AcDbPoint
 10
24.22755847539978
 20
-12.61628691601719
 30
0.0
  0
POINT
  5
3DA
330
180
100
AcDbEntity
  8
DEFPOINTS
 62
     0
100
AcDbPoint
 10
24.22755847539978
 20
-12.49128691601719
 30
0.0
  0
ENDBLK
  5
18C
330
180
100
AcDbEntity
  8
0
100
AcDbBlockEnd
  0
BLOCK
  5
19A
330
18F
100
AcDbEntity
  8
0
100
AcDbBlockBegin
  2
*D2
 70
     1
 10
0.0
 20
0.0
 30
0.0
  3
*D2
  1

  0
LINE
  5
3DB
330
18F
100
AcDbEntity
  8
ADPDIM
 62
     0
100
AcDbLine
 10
22.19655847539978
 20
-12.67878691601719
 30
0.0
 11
22.19655847539978
 21
-11.93628691601719
 31
0.0
  0
LINE
  5
3DC
330
18F
100
AcDbEntity
  8
ADPDIM
 62
     0
100
AcDbLine
 10
24.69655847539978
 20
-12.67878691601719
 30
0.0
 11
24.69655847539978
 21
-11.93628691601719
 31
0.0
  0
LINE
  5
3DD
330
18F
100
AcDbEntity
  8
ADPDIM
 62
     0
100
AcDbLine
 10
22.19655847539978
 20
-12.11628691601719
 30
0.0
 11
23.05072514206645
 21
-12.11628691601719
 31
0.0
  0
LINE
  5
3DE
330
18F
100
AcDbEntity
  8
ADPDIM
 62
     0
100
AcDbLine
 10
24.69655847539978
 20
-12.11628691601719
 30
0.0
 11
23.84239180873311
 21
-12.11628691601719
 31
0.0
  0
LINE
  5
3DF
330
18F
100
AcDbEntity
  8
ADPDIM
 62
     0
100
AcDbLine
 10
24.57155847539978
 20
-12.24128691601719
 30
0.0
 11
24.82155847539978
 21
-11.99128691601719
 31
0.0
  0
LINE
  5
3E0
330
18F
100
AcDbEntity
  8
ADPDIM
 62
     0
100
AcDbLine
 10
22.07155847539978
 20
-12.24128691601719
 30
0.0
 11
22.32155847539978
 21
-11.99128691601719
 31
0.0
  0
MTEXT
  5
3E1
330
18F
100
AcDbEntity
  8
ADPDIM
 62
     0
100
AcDbMText
 10
23.44655847539978
 20
-12.11628691601719
 30
0.0
 40
0.125
 41
0.0
 71
     5
 72
     1
  1
\A1;2 1/2
  0
POINT
  5
3E2
330
18F
100
AcDbEntity
  8
DEFPOINTS
 62
     0
100
AcDbPoint
 10
22.19655847539978
 20
-12.74128691601719
 30
0.0
  0
POINT
  5
3E3
330
18F
100
AcDbEntity
  8
DEFPOINTS
 62
     0
100
AcDbPoint
 10
24.69655847539978
 20
-12.74128691601719
 30
0.0
  0
POINT
  5
3E4
330
18F
100
AcDbEntity
  8
DEFPOINTS
 62
     0
100
AcDbPoint
 10
24.69655847539978
 20
-12.11628691601719
 30
0.0
  0
ENDBLK
  5
19B
330
18F
100
AcDbEntity
  8
0
100
AcDbBlockEnd
  0
BLOCK
  5
1A7
330
19C
100
AcDbEntity
  8
0
100
AcDbBlockBegin
  2
*D3
 70
     1
 10
0.0
 20
0.0
 30
0.0
  3
*D3
  1

  0
LINE
  5
3E5
330
19C
100
AcDbEntity
  8
ADPDIM
 62
     0
100
AcDbLine
 10
19.70953558678237
 20
-14.33332103939073
 30
0.0
 11
19.70953558678237
 21
-14.69074454986162
 31
0.0
  0
LINE
  5
3E6
330
19C
100
AcDbEntity
  8
ADPDIM
 62
     0
100
AcDbLine
 10
20.45953558678237
 20
-14.33332103939073
 30
0.0
 11
20.45953558678237
 21
-14.69074454986162
 31
0.0
  0
LINE
  5
3E7
330
19C
100
AcDbEntity
  8
ADPDIM
 62
     0
100
AcDbLine
 10
19.70953558678237
 20
-14.51074454986162
 30
0.0
 11
19.45953558678237
 21
-14.51074454986162
 31
0.0
  0
LINE
  5
3E8
330
19C
100
AcDbEntity
  8
ADPDIM
 62
     0
100
AcDbLine
 10
20.45953558678237
 20
-14.51074454986162
 30
0.0
 11
20.70953558678237
 21
-14.51074454986162
 31
0.0
  0
LINE
  5
3E9
330
19C
100
AcDbEntity
  8
ADPDIM
 62
     0
100
AcDbLine
 10
20.33453558678237
 20
-14.63574454986162
 30
0.0
 11
20.58453558678237
 21
-14.38574454986162
 31
0.0
  0
LINE
  5
3EA
330
19C
100
AcDbEntity
  8
ADPDIM
 62
     0
100
AcDbLine
 10
19.58453558678237
 20
-14.63574454986162
 30
0.0
 11
19.83453558678237
 21
-14.38574454986162
 31
0.0
  0
MTEXT
  5
3EB
330
19C
100
AcDbEntity
  8
ADPDIM
 62
     0
100
AcDbMText
 10
20.08453558678237
 20
-14.51074454986162
 30
0.0
 40
0.125
 41
0.0
 71
     5
 72
     1
  1
\A1;3/4
  0
POINT
  5
3EC
330
19C
100
AcDbEntity
  8
DEFPOINTS
 62
     0
100
AcDbPoint
 10
19.70953558678237
 20
-14.27082103939073
 30
0.0
  0
POINT
  5
3ED
330
19C
100
AcDbEntity
  8
DEFPOINTS
 62
     0
100
AcDbPoint
 10
20.45953558678237
 20
-14.27082103939073
 30
0.0
  0
POINT
  5
3EE
330
19C
100
AcDbEntity
  8
DEFPOINTS
 62
     0
100
AcDbPoint
 10
20.45953558678237
 20
-14.51074454986162
 30
0.0
  0
ENDBLK
  5
1A8
330
19C
100
AcDbEntity
  8
0
100
AcDbBlockEnd
  0
BLOCK
  5
1B4
330
1A9
100
AcDbEntity
  8
0
100
AcDbBlockBegin
  2
*D4
 70
     1
 10
0.0
 20
0.0
 30
0.0
  3
*D4
  1

  0
LINE
  5
3EF
330
1A9
100
AcDbEntity
  8
ADPDIM
 62
     0
100
AcDbLine
 10
17.83453558678237
 20
-13.36132422677914
 30
0.0
 11
17.83453558678237
 21
-12.26824454986162
 31
0.0
  0
LINE
  5
3F0
330
1A9
100
AcDbEntity
  8
ADPDIM
 62
     0
100
AcDbLine
 10
20.08453558678237
 20
-12.69824454986162
 30
0.0
 11
20.08453558678237
 21
-12.26824454986162
 31
0.0
  0
LINE
  5
3F1
330
1A9
100
AcDbEntity
  8
ADPDIM
 62
     0
100
AcDbLine
 10
17.83453558678237
 20
-12.44824454986162
 30
0.0
 11
18.56370225344904
 21
-12.44824454986162
 31
0.0
  0
LINE
  5
3F2
330
1A9
100
AcDbEntity
  8
ADPDIM
 62
     0
100
AcDbLine
 10
20.08453558678237
 20
-12.44824454986162
 30
0.0
 11
19.3553689201157
 21
-12.44824454986162
 31
0.0
  0
LINE
  5
3F3
330
1A9
100
AcDbEntity
  8
ADPDIM
 62
     0
100
AcDbLine
 10
19.95953558678237
 20
-12.57324454986162
 30
0.0
 11
20.20953558678237
 21
-12.32324454986162
 31
0.0
  0
LINE
  5
3F4
330
1A9
100
AcDbEntity
  8
ADPDIM
 62
     0
100
AcDbLine
 10
17.70953558678237
 20
-12.57324454986162
 30
0.0
 11
17.95953558678237
 21
-12.32324454986162
 31
0.0
  0
MTEXT
  5
3F5
330
1A9
100
AcDbEntity
  8
ADPDIM
 62
     0
100
AcDbMText
 10
18.95953558678237
 20
-12.44824454986162
 30
0.0
 40
0.125
 41
0.0
 71
     5
 72
     1
  1
\A1;2 1/4
  0
POINT
  5
3F6
330
1A9
100
AcDbEntity
  8
DEFPOINTS
 62
     0
100
AcDbPoint
 10
17.83453558678237
 20
-13.42382422677914
 30
0.0
  0
POINT
  5
3F7
330
1A9
100
AcDbEntity
  8
DEFPOINTS
 62
     0
100
AcDbPoint
 10
20.08453558678237
 20
-12.76074454986162
 30
0.0
  0
POINT
  5
3F8
330
1A9
100
AcDbEntity
  8
DEFPOINTS
 62
     0
100
AcDbPoint
 10
20.08453558678237
 20
-12.44824454986162
 30
0.0
  0
ENDBLK
  5
1B5
330
1A9
100
AcDbEntity
  8
0
100
AcDbBlockEnd
  0
BLOCK
  5
1C1
330
1B6
100
AcDbEntity
  8
0
100
AcDbBlockBegin
  2
*D5
 70
     1
 10
0.0
 20
0.0
 30
0.0
  3
*D5
  1

  0
LINE
  5
3F9
330
1B6
100
AcDbEntity
  8
ADPDIM
 62
     0
100
AcDbLine
 10
22.13405847539978
 20
-12.79783231764531
 30
0.0
 11
21.64155847539978
 21
-12.79783231764531
 31
0.0
  0
LINE
  5
3FA
330
1B6
100
AcDbEntity
  8
ADPDIM
 62
     0
100
AcDbLine
 10
23.3245278895921
 20
-13.86033231764531
 30
0.0
 11
21.64155847539978
 21
-13.86033231764531
 31
0.0
  0
LINE
  5
3FB
330
1B6
100
AcDbEntity
  8
ADPDIM
 62
     0
100
AcDbLine
 10
21.82155847539978
 20
-12.79783231764531
 30
0.0
 11
21.82155847539978
 21
-12.54783231764531
 31
0.0
  0
LINE
  5
3FC
330
1B6
100
AcDbEntity
  8
ADPDIM
 62
     0
100
AcDbLine
 10
21.82155847539978
 20
-13.86033231764531
 30
0.0
 11
21.82155847539978
 21
-14.11033231764531
 31
0.0
  0
LINE
  5
3FD
330
1B6
100
AcDbEntity
  8
ADPDIM
 62
     0
100
AcDbLine
 10
21.94655847539978
 20
-13.98533231764531
 30
0.0
 11
21.69655847539978
 21
-13.73533231764531
 31
0.0
  0
LINE
  5
3FE
330
1B6
100
AcDbEntity
  8
ADPDIM
 62
     0
100
AcDbLine
 10
21.94655847539978
 20
-12.92283231764531
 30
0.0
 11
21.69655847539978
 21
-12.67283231764531
 31
0.0
  0
MTEXT
  5
3FF
330
1B6
100
AcDbEntity
  8
ADPDIM
 62
     0
100
AcDbMText
 10
21.82155847539978
 20
-13.3290823176453
 30
0.0
 40
0.125
 41
0.0
 71
     5
 72
     1
  1
\A1;1 1/16
 11
0.0000000000000001
 21
1.0
 31
0.0
  0
POINT
  5
400
330
1B6
100
AcDbEntity
  8
DEFPOINTS
 62
     0
100
AcDbPoint
 10
22.19655847539978
 20
-12.79783231764531
 30
0.0
  0
POINT
  5
401
330
1B6
100
AcDbEntity
  8
DEFPOINTS
 62
     0
100
AcDbPoint
 10
23.3870278895921
 20
-13.86033231764531
 30
0.0
  0
POINT
  5
402
330
1B6
100
AcDbEntity
  8
DEFPOINTS
 62
     0
100
AcDbPoint
 10
21.82155847539978
 20
-13.86033231764531
 30
0.0
  0
ENDBLK
  5
1C2
330
1B6
100
AcDbEntity
  8
0
100
AcDbBlockEnd
  0
ENDSEC
  0
SECTION
  2
ENTITIES
  0
LINE
  5
1D
330
2
100
AcDbEntity
  8
ADP2DETAIL
  6
HIDDEN2
100
AcDbLine
 10
24.33503558678237
 20
-12.79882422677914
 30
0.0
 11
24.33503558678237
 21
-12.92382422677914
 31
0.0
  0
LINE
  5
20
330
2
100
AcDbEntity
  8
ADP2DETAIL
  6
HIDDEN2
100
AcDbLine
 10
24.33503558678237
 20
-12.92382422677914
 30
0.0
 11
24.39703558678237
 21
-12.98582422677914
 31
0.0
  0
LINE
  5
21
330
2
100
AcDbEntity
  8
ADP1DETAIL
100
AcDbLine
 10
24.69655847539979
 20
-12.67878691601719
 30
0.0
 11
24.69655847539979
 21
-12.9858323176453
 31
0.0
  0
LINE
  5
23
330
2
100
AcDbEntity
  8
ADP2DETAIL
  6
HIDDEN2
100
AcDbLine
 10
24.14703558678237
 20
-12.92382422677914
 30
0.0
 11
24.08503558678237
 21
-12.98582422677914
 31
0.0
  0
ARC
  5
24
330
2
100
AcDbEntity
  8
ADP1DETAIL
100
AcDbCircle
 10
23.94655847539978
 20
-13.11083231764531
 30
0.0
 40
0.125
100
AcDbArc
 50
90.0
 51
180.0
  0
LINE
  5
25
330
2
100
AcDbEntity
  8
ADP2DETAIL
  6
HIDDEN2
100
AcDbLine
 10
24.14703558678237
 20
-12.79882422677914
 30
0.0
 11
24.14703558678237
 21
-12.92382422677914
 31
0.0
  0
LINE
  5
26
330
2
100
AcDbEntity
  8
ADP1DETAIL
100
AcDbLine
 10
24.69655847539979
 20
-12.9858323176453
 30
0.0
 11
23.94655847539978
 21
-12.9858323176453
 31
0.0
  0
LINE
  5
27
330
2
100
AcDbEntity
  8
ADP1DETAIL
100
AcDbLine
 10
23.63003153013703
 20
-12.67878691601719
 30
0.0
 11
24.69655847539978
 21
-12.67878691601719
 31
0.0
  0
LINE
  5
28
330
2
100
AcDbEntity
  8
ADP2DETAIL
  6
HIDDEN2
100
AcDbLine
 10
24.69655847539979
 20
-12.79783231764531
 30
0.0
 11
23.7217406359035
 21
-12.79674562724018
 31
0.0
  0
LINE
  5
29
330
2
100
AcDbEntity
  8
ADP2DETAIL
  6
HIDDEN2
100
AcDbLine
 10
22.71003558678237
 20
-12.79882422677914
 30
0.0
 11
22.71003558678237
 21
-12.92382422677914
 31
0.0
  0
LINE
  5
2A
330
2
100
AcDbEntity
  8
ADP2DETAIL
  6
HIDDEN2
100
AcDbLine
 10
22.71003558678237
 20
-12.92382422677914
 30
0.0
 11
22.77203558678237
 21
-12.98582422677914
 31
0.0
  0
LINE
  5
2B
330
2
100
AcDbEntity
  8
ADP2DETAIL
  6
HIDDEN2
100
AcDbLine
 10
22.52203558678237
 20
-12.79882422677914
 30
0.0
 11
22.52203558678237
 21
-12.92382422677914
 31
0.0
  0
LINE
  5
2C
330
2
100
AcDbEntity
  8
ADP2DETAIL
  6
HIDDEN2
100
AcDbLine
 10
22.52203558678237
 20
-12.92382422677914
 30
0.0
 11
22.46003558678237
 21
-12.98582422677914
 31
0.0
  0
ARC
  5
2D
330
2
100
AcDbEntity
  8
ADP1DETAIL
100
AcDbCircle
 10
22.94655847539978
 20
-13.11083231764531
 30
0.0
 40
0.125
100
AcDbArc
 50
0.0
 51
90.0
  0
LINE
  5
2E
330
2
100
AcDbEntity
  8
ADP1DETAIL
100
AcDbLine
 10
22.19655847539978
 20
-12.9858323176453
 30
0.0
 11
22.19655847539978
 21
-12.67878691601719
 31
0.0
  0
LINE
  5
2F
330
2
100
AcDbEntity
  8
ADP1DETAIL
100
AcDbLine
 10
22.94655847539978
 20
-12.9858323176453
 30
0.0
 11
22.19655847539978
 21
-12.9858323176453
 31
0.0
  0
LINE
  5
30
330
2
100
AcDbEntity
  8
ADP1DETAIL
100
AcDbLine
 10
22.19655847539978
 20
-12.67878691601719
 30
0.0
 11
23.26308542066253
 21
-12.67878691601719
 31
0.0
  0
LINE
  5
31
330
2
100
AcDbEntity
  8
ADP2DETAIL
  6
HIDDEN2
100
AcDbLine
 10
22.19655847539978
 20
-12.79783231764531
 30
0.0
 11
23.19767411897884
 21
-12.79783231764531
 31
0.0
  0
LINE
  5
32
330
2
100
AcDbEntity
  8
ADP2DETAIL
  6
HIDDEN2
100
AcDbLine
 10
20.17853558678237
 20
-12.89582103939073
 30
0.0
 11
20.24053558678237
 21
-12.95782103939073
 31
0.0
  0
LINE
  5
33
330
2
100
AcDbEntity
  8
ADP2DETAIL
  6
HIDDEN2
100
AcDbLine
 10
20.17853558678237
 20
-12.77082103939073
 30
0.0
 11
20.17853558678237
 21
-12.89582103939073
 31
0.0
  0
LINE
  5
34
330
2
100
AcDbEntity
  8
ADP2DETAIL
  6
HIDDEN2
100
AcDbLine
 10
19.99053558678237
 20
-12.89582103939073
 30
0.0
 11
19.92853558678237
 21
-12.95782103939073
 31
0.0
  0
LINE
  5
35
330
2
100
AcDbEntity
  8
ADP2DETAIL
  6
HIDDEN2
100
AcDbLine
 10
19.99053558678237
 20
-12.77082103939073
 30
0.0
 11
19.99053558678237
 21
-12.89582103939073
 31
0.0
  0
LINE
  5
36
330
2
100
AcDbEntity
  8
ADP1DETAIL
100
AcDbLine
 10
19.70953558678237
 20
-12.95782103939073
 30
0.0
 11
20.45953558678237
 21
-12.95782103939073
 31
0.0
  0
ARC
  5
37
330
2
100
AcDbEntity
  8
ADP1DETAIL
100
AcDbCircle
 10
20.08453558678237
 20
-11.96082103939073
 30
0.0
 40
0.8100000000000001
100
AcDbArc
 50
242.4215320218769
 51
297.5784679781231
  0
LINE
  5
38
330
2
100
AcDbEntity
  8
ADP1DETAIL
100
AcDbLine
 10
23.25791320824551
 20
-12.65980504515338
 30
0.0
 11
23.63291320824551
 21
-12.65980504515338
 31
0.0
  0
DIMENSION
  5
39
330
2
100
AcDbEntity
  8
ADPDIM
100
AcDbDimension
  2
*D1
 10
24.22755847539978
 20
-12.49128691601719
 30
0.0
 11
23.41505847539978
 21
-12.49128691601719
 31
0.0
 70
    32
  3
STANDARD
100
AcDbAlignedDimension
 13
22.60255847539978
 23
-12.61628691601719
 33
0.0
 14
24.22755847539978
 24
-12.61628691601719
 34
0.0
100
AcDbRotatedDimension
1001
ACAD
1000
DSTYLE
1002
{
1070
   270
1070
     7
1070
   270
1070
     7
1070
   270
1070
     7
1070
   270
1070
     7
1070
   270
1070
     7
1070
    41
1040
0.125
1070
    73
1070
     0
1070
    74
1070
     0
1070
    78
1070
     2
1070
   140
1040
0.125
1070
   141
1040
0.1875
1070
   142
1040
0.125
1070
   147
1040
0.125
1070
   171
1070
     1
1070
   276
1070
     2
1070
   277
1070
     5
1002
}
  0
DIMENSION
  5
49
330
2
100
AcDbEntity
  8
ADPDIM
100
AcDbDimension
  2
*D2
 10
24.69655847539978
 20
-12.11628691601719
 30
0.0
 11
23.44655847539978
 21
-12.11628691601719
 31
0.0
 70
    32
  3
STANDARD
100
AcDbAlignedDimension
 13
22.19655847539978
 23
-12.74128691601719
 33
0.0
 14
24.69655847539978
 24
-12.74128691601719
 34
0.0
100
AcDbRotatedDimension
1001
ACAD
1000
DSTYLE
1002
{
1070
   270
1070
     7
1070
   270
1070
     7
1070
   270
1070
     7
1070
   270
1070
     7
1070
   270
1070
     7
1070
    41
1040
0.125
1070
    73
1070
     0
1070
    74
1070
     0
1070
    78
1070
     2
1070
   140
1040
0.125
1070
   141
1040
0.1875
1070
   142
1040
0.125
1070
   147
1040
0.125
1070
   171
1070
     1
1070
   276
1070
     2
1070
   277
1070
     5
1002
}
  0
LINE
  5
57
330
2
100
AcDbEntity
  8
ADP2DETAIL
  6
HIDDEN2
100
AcDbLine
 10
23.25791320824551
 20
-12.7788504467815
 30
0.0
 11
23.63291320824551
 21
-12.7788504467815
 31
0.0
  0
LINE
  5
58
330
2
100
AcDbEntity
  8
ADP1DETAIL
100
AcDbLine
 10
23.44705847539977
 20
-14.23483231764531
 30
0.0
 11
23.44605847539978
 21
-14.23483231764531
 31
0.0
  0
ARC
  5
59
330
2
100
AcDbEntity
  8
ADP1DETAIL
100
AcDbCircle
 10
23.44605847539978
 20
-13.86033231764531
 30
0.0
 40
0.3745
100
AcDbArc
 50
180.0
 51
270.0
  0
LINE
  5
5A
330
2
100
AcDbEntity
  8
ADP1DETAIL
100
AcDbLine
 10
20.58453558678237
 20
-13.58303870758199
 30
0.0
 11
20.58453558678237
 21
-13.86132422677914
 31
0.0
  0
LINE
  5
5B
330
2
100
AcDbEntity
  8
ADP1DETAIL
100
AcDbLine
 10
20.5802763150685
 20
-13.58117660741696
 30
0.0
 11
20.5802763150685
 21
-13.58117660741696
 31
0.0
  0
LINE
  5
5C
330
2
100
AcDbEntity
  8
ADP1DETAIL
100
AcDbLine
 10
20.45953558678237
 20
-13.67382422677914
 30
0.0
 11
20.45953558678237
 21
-13.54882422677914
 31
0.0
  0
ARC
  5
5D
330
2
100
AcDbEntity
  8
ADP2DETAIL
  6
HIDDEN2
100
AcDbCircle
 10
21.28099604496012
 20
-13.86132422677914
 30
0.0
 40
0.75
100
AcDbArc
 50
158.2197748746747
 51
180.0
  0
LINE
  5
5E
330
2
100
AcDbEntity
  8
ADP1DETAIL
100
AcDbLine
 10
20.45953558678237
 20
-13.54882422677914
 30
0.0
 11
20.5802763150685
 21
-13.58117660741696
 31
0.0
  0
LINE
  5
5F
330
2
100
AcDbEntity
  8
ADP1DETAIL
100
AcDbLine
 10
20.5802763150685
 20
-14.14147184614133
 30
0.0
 11
20.5802763150685
 21
-14.14147184614133
 31
0.0
  0
LINE
  5
60
330
2
100
AcDbEntity
  8
ADP1DETAIL
100
AcDbLine
 10
20.45953558678237
 20
-14.04882422677914
 30
0.0
 11
20.45953558678237
 21
-14.17382422677914
 31
0.0
  0
LINE
  5
61
330
2
100
AcDbEntity
  8
ADP1DETAIL
100
AcDbLine
 10
20.45953558678237
 20
-14.17382422677914
 30
0.0
 11
20.5802763150685
 21
-14.14147184614133
 31
0.0
  0
LINE
  5
62
330
2
100
AcDbEntity
  8
ADP1DETAIL
100
AcDbLine
 10
20.58453558678237
 20
-14.1396097459763
 30
0.0
 11
20.58453558678237
 21
-13.86132422677914
 31
0.0
  0
LINE
  5
63
330
2
100
AcDbEntity
  8
ADP1DETAIL
100
AcDbLine
 10
20.45953558678237
 20
-13.67382422677914
 30
0.0
 11
20.45953558678237
 21
-14.04882422677914
 31
0.0
  0
ARC
  5
64
330
2
100
AcDbEntity
  8
ADP2DETAIL
  6
HIDDEN2
100
AcDbCircle
 10
21.28099604496012
 20
-13.86132422677914
 30
0.0
 40
0.75
100
AcDbArc
 50
180.0
 51
201.7802251253252
  0
LINE
  5
65
330
2
100
AcDbEntity
  8
ADP1DETAIL
100
AcDbLine
 10
19.70953558678237
 20
-13.54882422677914
 30
0.0
 11
19.70953558678237
 21
-14.17382422677914
 31
0.0
  0
LINE
  5
66
330
2
100
AcDbEntity
  8
ADP1DETAIL
100
AcDbLine
 10
19.70953558678237
 20
-14.04882422677914
 30
0.0
 11
19.70953558678237
 21
-13.67382422677914
 31
0.0
  0
LINE
  5
67
330
2
100
AcDbEntity
  8
ADP1DETAIL
100
AcDbLine
 10
19.20549781964411
 20
-14.11049141021767
 30
0.0
 11
19.20549781964411
 21
-13.61215704334061
 31
0.0
  0
LINE
  5
68
330
2
100
AcDbEntity
  8
ADP1DETAIL
100
AcDbLine
 10
19.20953558678237
 20
-13.61132422677914
 30
0.0
 11
19.70953558678237
 21
-13.54882422677914
 31
0.0
  0
LINE
  5
69
330
2
100
AcDbEntity
  8
ADP1DETAIL
100
AcDbLine
 10
19.70953558678237
 20
-14.17382422677914
 30
0.0
 11
19.20953558678237
 21
-14.11132422677914
 31
0.0
  0
LINE
  5
6A
330
2
100
AcDbEntity
  8
ADP1DETAIL
100
AcDbLine
 10
19.70953558678237
 20
-14.27082103939073
 30
0.0
 11
20.45953558678237
 21
-14.27082103939073
 31
0.0
  0
DIMENSION
  5
6B
330
2
100
AcDbEntity
  8
ADPDIM
100
AcDbDimension
  2
*D3
 10
20.45953558678237
 20
-14.51074454986162
 30
0.0
 11
20.08453558678237
 21
-14.51074454986162
 31
0.0
 70
    32
  3
STANDARD
100
AcDbAlignedDimension
 13
19.70953558678237
 23
-14.27082103939073
 33
0.0
 14
20.45953558678237
 24
-14.27082103939073
 34
0.0
100
AcDbRotatedDimension
1001
ACAD
1000
DSTYLE
1002
{
1070
   270
1070
     7
1070
   270
1070
     7
1070
   270
1070
     7
1070
   270
1070
     7
1070
   270
1070
     7
1070
    41
1040
0.125
1070
    73
1070
     0
1070
    74
1070
     0
1070
    78
1070
     2
1070
   140
1040
0.125
1070
   141
1040
0.1875
1070
   142
1040
0.125
1070
   147
1040
0.125
1070
   171
1070
     1
1070
   276
1070
     2
1070
   277
1070
     5
1002
}
  0
CIRCLE
  5
79
330
2
100
AcDbEntity
  8
ADP1DETAIL
100
AcDbCircle
 10
23.44705847539977
 20
-13.86349969474434
 30
0.0
 40
0.2859512779740925
  0
CIRCLE
  5
7A
330
2
100
AcDbEntity
  8
ADP1DETAIL
100
AcDbCircle
 10
23.44705847539977
 20
-13.86349969474434
 30
0.0
 40
0.3125
  0
ARC
  5
7B
330
2
100
AcDbEntity
  8
ADP1DETAIL
100
AcDbCircle
 10
23.44705847539977
 20
-13.86033231764531
 30
0.0
 40
0.3745
100
AcDbArc
 50
270.0
 51
0.0
  0
LINE
  5
7C
330
2
100
AcDbEntity
  8
ADP1DETAIL
100
AcDbLine
 10
17.959435992829
 20
-13.45782668399157
 30
0.0
 11
17.95953558678237
 21
-13.86132422677914
 31
0.0
  0
LINE
  5
7D
330
2
100
AcDbEntity
  8
ADP1DETAIL
100
AcDbLine
 10
17.959435992829
 20
-14.26482176956672
 30
0.0
 11
17.95953558678237
 21
-13.86132422677914
 31
0.0
  0
LINE
  5
7E
330
2
100
AcDbEntity
  8
ADP1DETAIL
100
AcDbLine
 10
17.83453558678237
 20
-13.86132422677914
 30
0.0
 11
17.83453558678237
 21
-13.42382422677914
 31
0.0
  0
LINE
  5
7F
330
2
100
AcDbEntity
  8
ADP1DETAIL
100
AcDbLine
 10
17.83453558678237
 20
-13.86132422677914
 30
0.0
 11
17.83453558678237
 21
-14.29882422677914
 31
0.0
  0
LINE
  5
80
330
2
100
AcDbEntity
  8
ADP1DETAIL
100
AcDbLine
 10
17.83453558678237
 20
-13.42382422677914
 30
0.0
 11
17.959435992829
 21
-13.45782668399157
 31
0.0
  0
LINE
  5
81
330
2
100
AcDbEntity
  8
ADP1DETAIL
100
AcDbLine
 10
17.83453558678237
 20
-14.29882422677914
 30
0.0
 11
17.959435992829
 21
-14.26482176956672
 31
0.0
  0
INSERT
  5
82
330
2
100
AcDbEntity
  8
ADP1DETAIL
100
AcDbBlockReference
  2
STUD
 10
17.82871993032693
 20
-14.10790811673635
 30
0.0
  0
LINE
  5
B9
330
2
100
AcDbEntity
  8
ADP1DETAIL
100
AcDbLine
 10
17.95953558678237
 20
-13.48632422677914
 30
0.0
 11
19.20953558678237
 21
-13.61132422677914
 31
0.0
  0
LINE
  5
BA
330
2
100
AcDbEntity
  8
ADP1DETAIL
100
AcDbLine
 10
19.20953558678237
 20
-14.11132422677914
 30
0.0
 11
17.95953558678237
 21
-14.23632422677914
 31
0.0
  0
LINE
  5
BB
330
2
100
AcDbEntity
  8
ADP1DETAIL
100
AcDbLine
 10
23.82155847539978
 20
-13.11083231764531
 30
0.0
 11
23.82155847539978
 21
-13.86033231764531
 31
0.0
  0
LINE
  5
BC
330
2
100
AcDbEntity
  8
ADP1DETAIL
100
AcDbLine
 10
23.25905847539978
 20
-13.6138754771692
 30
0.0
 11
23.25905847539978
 21
-12.65932797838565
 31
0.0
  0
LINE
  5
BD
330
2
100
AcDbEntity
  8
ADP1DETAIL
100
AcDbLine
 10
23.07155847539978
 20
-13.86033231764531
 30
0.0
 11
23.07155847539978
 21
-13.11083231764531
 31
0.0
  0
LINE
  5
BE
330
2
100
AcDbEntity
  8
ADP1DETAIL
100
AcDbLine
 10
23.63291320824551
 20
-13.6138754771692
 30
0.0
 11
23.63291320824551
 21
-12.65932797838565
 31
0.0
  0
LINE
  5
BF
330
2
100
AcDbEntity
  8
ADP1DETAIL
100
AcDbLine
 10
19.70953558678237
 20
-12.67878691601719
 30
0.0
 11
19.70953558678237
 21
-14.27082103939073
 31
0.0
  0
LINE
  5
C0
330
2
100
AcDbEntity
  8
ADP1DETAIL
100
AcDbLine
 10
20.45953558678237
 20
-14.27082103939073
 30
0.0
 11
20.45953558678237
 21
-12.67878691601719
 31
0.0
  0
DIMENSION
  5
C1
330
2
100
AcDbEntity
  8
ADPDIM
100
AcDbDimension
  2
*D4
 10
20.08453558678237
 20
-12.44824454986162
 30
0.0
 11
18.95953558678237
 21
-12.44824454986162
 31
0.0
 70
    32
  3
STANDARD
100
AcDbAlignedDimension
 13
17.83453558678237
 23
-13.42382422677914
 33
0.0
 14
20.08453558678237
 24
-12.76074454986162
 34
0.0
100
AcDbRotatedDimension
1001
ACAD
1000
DSTYLE
1002
{
1070
   270
1070
     7
1070
   270
1070
     7
1070
   270
1070
     7
1070
   270
1070
     7
1070
   270
1070
     7
1070
    41
1040
0.125
1070
    73
1070
     0
1070
    74
1070
     0
1070
    78
1070
     2
1070
   140
1040
0.125
1070
   141
1040
0.1875
1070
   142
1040
0.125
1070
   147
1040
0.125
1070
   171
1070
     1
1070
   276
1070
     2
1070
   277
1070
     5
1002
}
  0
DIMENSION
  5
CF
330
2
100
AcDbEntity
  8
ADPDIM
100
AcDbDimension
  2
*D5
 10
21.82155847539978
 20
-13.86033231764531
 30
0.0
 11
21.82155847539978
 21
-13.3290823176453
 31
0.0
 70
    32
  3
STANDARD
100
AcDbAlignedDimension
 13
22.19655847539978
 23
-12.79783231764531
 33
0.0
 14
23.3870278895921
 24
-13.86033231764531
 34
0.0
 50
90.0
100
AcDbRotatedDimension
1001
ACAD
1000
DSTYLE
1002
{
1070
   270
1070
     7
1070
   270
1070
     7
1070
   270
1070
     7
1070
   270
1070
     7
1070
   270
1070
     7
1070
    41
1040
0.125
1070
    73
1070
     0
1070
    74
1070
     0
1070
    78
1070
     2
1070
   140
1040
0.125
1070
   141
1040
0.1875
1070
   142
1040
0.125
1070
   147
1040
0.125
1070
   171
1070
     1
1070
   276
1070
     2
1070
   277
1070
     5
1002
}
  0
TEXT
  5
E7
330
2
100
AcDbEntity
  8
ADPDIM
100
AcDbText
 10
14.5194249335679
 20
-15.50293853094585
 30
0.0
 40
0.125
  1
J U L I U S  B L U M  &  C O . ,  I N C .      ( 8 0 0 )  5 2 6 - 6 2 9 3        W W W . J U L I U S B L U M . C O M        P A R T  N o .  4 0 2
 41
1.25
  7
ARIAL_WIDE
 72
     1
 11
20.95413247108496
 21
-15.37793853094584
 31
0.0
100
AcDbText
 73
     3
  0
ENDSEC
  0
SECTION
  2
OBJECTS
  0
DICTIONARY
  5
1A
330
0
100
AcDbDictionary
  3
ACAD_GROUP
350
18
  3
ACAD_LAYOUT
350
E0
  3
ACAD_MLINESTYLE
350
19
  3
ACAD_PLOTSETTINGS
350
E1
  3
ACAD_PLOTSTYLENAME
350
DE
  3
ACDBHEADERROUNDTRIPXREC
350
3AE
  3
ACDBVARIABLEDICTIONARY
350
1C5
  0
DICTIONARY
  5
17C
330
2
100
AcDbDictionary
280
     1
  3
ACAD_LAYOUTSELFREF
360
3CF
  0
DICTIONARY
  5
17E
330
8
100
AcDbDictionary
280
     1
  3
ACAD_LAYOUTSELFREF
360
3D0
  0
DICTIONARY
  5
18
102
{ACAD_REACTORS
330
1A
102
}
330
1A
100
AcDbDictionary
  0
DICTIONARY
  5
E0
102
{ACAD_REACTORS
330
1A
102
}
330
1A
100
AcDbDictionary
  0
DICTIONARY
  5
19
102
{ACAD_REACTORS
330
1A
102
}
330
1A
100
AcDbDictionary
  3
STANDARD
350
1B
  0
DICTIONARY
  5
E1
102
{ACAD_REACTORS
330
1A
102
}
330
1A
100
AcDbDictionary
  0
ACDBDICTIONARYWDFLT
  5
DE
102
{ACAD_REACTORS
330
1A
102
}
330
1A
100
AcDbDictionary
281
     1
  3
Normal
350
DF
100
AcDbDictionaryWithDefault
340
DF
  0
DICTIONARY
  5
3AE
102
{ACAD_REACTORS
330
1A
102
}
330
1A
100
AcDbDictionary
  3
CEPSNTYPE
350
3B8
  3
DIMSTYLEDATA
350
3BC
  3
FINGERPRINTGUID
350
3B9
  3
HYPERLINKBASE
350
3B1
  3
INSUNITS
350
3B7
  3
LAYOUTDICT
350
3B3
  3
LWETCUNION
350
3B6
  3
PLOTSETDICT
350
3B4
  3
PLOTSTYLNAMDICT
350
3B5
  3
PSVPSCALE
350
3BB
  3
PUCSBASE
350
3BF
  3
PUCSORGBACK
350
3C5
  3
PUCSORGBOTTOM
350
3C1
  3
PUCSORGFRONT
350
3C4
  3
PUCSORGLEFT
350
3C2
  3
PUCSORGRIGHT
350
3C3
  3
PUCSORGTOP
350
3C0
  3
PUCSORTHOREF
350
3BD
  3
PUCSORTHOVIEW
350
3BE
  3
STYLESHEET
350
3B2
  3
TSTACKALIGN
350
3AF
  3
TSTACKSIZE
350
3B0
  3
UCSBASE
350
3C8
  3
UCSORGBACK
350
3CE
  3
UCSORGBOTTOM
350
3CA
  3
UCSORGFRONT
350
3CD
  3
UCSORGLEFT
350
3CB
  3
UCSORGRIGHT
350
3CC
  3
UCSORGTOP
350
3C9
  3
UCSORTHOREF
350
3C6
  3
UCSORTHOVIEW
350
3C7
  3
VERSIONGUID
350
3BA
  0
DICTIONARY
  5
1C5
102
{ACAD_REACTORS
330
1A
102
}
330
1A
100
AcDbDictionary
  3
DIMASSOC
350
1C6
  0
XRECORD
  5
3CF
102
{ACAD_REACTORS
330
17C
102
}
330
17C
100
AcDbXrecord
340
2
  0
XRECORD
  5
3D0
102
{ACAD_REACTORS
330
17E
102
}
330
17E
100
AcDbXrecord
340
8
  0
MLINESTYLE
  5
1B
102
{ACAD_REACTORS
330
19
102
}
330
19
100
AcDbMlineStyle
  2
STANDARD
 70
     0
  3

 62
     0
 51
90.0
 52
90.0
 71
     2
 49
0.5
 62
   256
  6
BYLAYER
 49
-0.5
 62
   256
  6
BYLAYER
  0
ACDBPLACEHOLDER
  5
DF
102
{ACAD_REACTORS
330
DE
102
}
330
DE
100
AcDbPlaceHolder
280
     0
  0
XRECORD
  5
3B8
102
{ACAD_REACTORS
330
3AE
102
}
330
3AE
100
AcDbXrecord
 90
        0
  0
XRECORD
  5
3BC
102
{ACAD_REACTORS
330
3AE
102
}
330
3AE
100
AcDbXrecord
1000
DSTYLE
1002
{
1070
   276
 70
     2
1070
   277
 70
     5
1002
}
  0
XRECORD
  5
3B9
102
{ACAD_REACTORS
330
3AE
102
}
330
3AE
100
AcDbXrecord
  1
{6BD5CDB8-CC83-4DA2-AAD1-D83FC366D4AD}
  0
XRECORD
  5
3B1
102
{ACAD_REACTORS
330
3AE
102
}
330
3AE
100
AcDbXrecord
  1

  0
XRECORD
  5
3B7
102
{ACAD_REACTORS
330
3AE
102
}
330
3AE
100
AcDbXrecord
 90
        0
  0
XRECORD
  5
3B3
102
{ACAD_REACTORS
330
3AE
102
}
330
3AE
100
AcDbXrecord
340
E0
  0
XRECORD
  5
3B6
102
{ACAD_REACTORS
330
3AE
102
}
330
3AE
100
AcDbXrecord
 90
    14877
  0
XRECORD
  5
3B4
102
{ACAD_REACTORS
330
3AE
102
}
330
3AE
100
AcDbXrecord
340
E1
  0
XRECORD
  5
3B5
102
{ACAD_REACTORS
330
3AE
102
}
330
3AE
100
AcDbXrecord
340
DE
  0
XRECORD
  5
3BB
102
{ACAD_REACTORS
330
3AE
102
}
330
3AE
100
AcDbXrecord
 40
0.0
  0
XRECORD
  5
3BF
102
{ACAD_REACTORS
330
3AE
102
}
330
3AE
100
AcDbXrecord
340
0
  0
XRECORD
  5
3C5
102
{ACAD_REACTORS
330
3AE
102
}
330
3AE
100
AcDbXrecord
 10
0.0
 20
0.0
 30
0.0
  0
XRECORD
  5
3C1
102
{ACAD_REACTORS
330
3AE
102
}
330
3AE
100
AcDbXrecord
 10
0.0
 20
0.0
 30
0.0
  0
XRECORD
  5
3C4
102
{ACAD_REACTORS
330
3AE
102
}
330
3AE
100
AcDbXrecord
 10
0.0
 20
0.0
 30
0.0
  0
XRECORD
  5
3C2
102
{ACAD_REACTORS
330
3AE
102
}
330
3AE
100
AcDbXrecord
 10
0.0
 20
0.0
 30
0.0
  0
XRECORD
  5
3C3
102
{ACAD_REACTORS
330
3AE
102
}
330
3AE
100
AcDbXrecord
 10
0.0
 20
0.0
 30
0.0
  0
XRECORD
  5
3C0
102
{ACAD_REACTORS
330
3AE
102
}
330
3AE
100
AcDbXrecord
 10
0.0
 20
0.0
 30
0.0
  0
XRECORD
  5
3BD
102
{ACAD_REACTORS
330
3AE
102
}
330
3AE
100
AcDbXrecord
340
0
  0
XRECORD
  5
3BE
102
{ACAD_REACTORS
330
3AE
102
}
330
3AE
100
AcDbXrecord
 70
     0
  0
XRECORD
  5
3B2
102
{ACAD_REACTORS
330
3AE
102
}
330
3AE
100
AcDbXrecord
  1

  0
XRECORD
  5
3AF
102
{ACAD_REACTORS
330
3AE
102
}
330
3AE
100
AcDbXrecord
 90
        1
  0
XRECORD
  5
3B0
102
{ACAD_REACTORS
330
3AE
102
}
330
3AE
100
AcDbXrecord
 90
       70
  0
XRECORD
  5
3C8
102
{ACAD_REACTORS
330
3AE
102
}
330
3AE
100
AcDbXrecord
340
0
  0
XRECORD
  5
3CE
102
{ACAD_REACTORS
330
3AE
102
}
330
3AE
100
AcDbXrecord
 10
0.0
 20
0.0
 30
0.0
  0
XRECORD
  5
3CA
102
{ACAD_REACTORS
330
3AE
102
}
330
3AE
100
AcDbXrecord
 10
0.0
 20
0.0
 30
0.0
  0
XRECORD
  5
3CD
102
{ACAD_REACTORS
330
3AE
102
}
330
3AE
100
AcDbXrecord
 10
0.0
 20
0.0
 30
0.0
  0
XRECORD
  5
3CB
102
{ACAD_REACTORS
330
3AE
102
}
330
3AE
100
AcDbXrecord
 10
0.0
 20
0.0
 30
0.0
  0
XRECORD
  5
3CC
102
{ACAD_REACTORS
330
3AE
102
}
330
3AE
100
AcDbXrecord
 10
0.0
 20
0.0
 30
0.0
  0
XRECORD
  5
3C9
102
{ACAD_REACTORS
330
3AE
102
}
330
3AE
100
AcDbXrecord
 10
0.0
 20
0.0
 30
0.0
  0
XRECORD
  5
3C6
102
{ACAD_REACTORS
330
3AE
102
}
330
3AE
100
AcDbXrecord
340
0
  0
XRECORD
  5
3C7
102
{ACAD_REACTORS
330
3AE
102
}
330
3AE
100
AcDbXrecord
 70
     0
  0
XRECORD
  5
3BA
102
{ACAD_REACTORS
330
3AE
102
}
330
3AE
100
AcDbXrecord
  1
{6159B6A6-697A-4882-8713-AE7663CA4339}
  0
DICTIONARYVAR
  5
1C6
102
{ACAD_REACTORS
330
1C5
102
}
330
1C5
100
DictionaryVariables
280
     0
  1
1
  0
ENDSEC
  0
EOF
