  0
SECTION
  2
HEADER
  9
$ACADVER
  1
AC1015
  9
$ACADMAINTVER
 70
    20
  9
$DWGCODEPAGE
  3
ANSI_1252
  9
$INSBASE
 10
22.12486529568542
 20
-12.30328996303499
 30
0.0
  9
$EXTMIN
 10
16.43938454530291
 20
-13.66326203028233
 30
0.0
  9
$EXTMAX
 10
26.09144585157848
 20
-8.719162743987036
 30
0.0
  9
$LIMMIN
 10
0.0
 20
0.0
  9
$LIMMAX
 10
36.0
 20
36.0
  9
$ORTHOMODE
 70
     0
  9
$REGENMODE
 70
     1
  9
$FILLMODE
 70
     1
  9
$QTEXTMODE
 70
     0
  9
$MIRRTEXT
 70
     1
  9
$LTSCALE
 40
1.0
  9
$ATTMODE
 70
     1
  9
$TEXTSIZE
 40
0.2
  9
$TRACEWID
 40
0.05
  9
$TEXTSTYLE
  7
STANDARD
  9
$CLAYER
  8
ADP1DETAIL
  9
$CELTYPE
  6
BYLAYER
  9
$CECOLOR
 62
   256
  9
$CELTSCALE
 40
1.0
  9
$DISPSILH
 70
     0
  9
$DIMSCALE
 40
1.0
  9
$DIMASZ
 40
0.125
  9
$DIMEXO
 40
0.0625
  9
$DIMDLI
 40
0.38
  9
$DIMRND
 40
0.0
  9
$DIMDLE
 40
0.0
  9
$DIMEXE
 40
0.18
  9
$DIMTP
 40
0.0
  9
$DIMTM
 40
0.0
  9
$DIMTXT
 40
0.125
  9
$DIMCEN
 40
0.1875
  9
$DIMTSZ
 40
0.125
  9
$DIMTOL
 70
     0
  9
$DIMLIM
 70
     0
  9
$DIMTIH
 70
     0
  9
$DIMTOH
 70
     0
  9
$DIMSE1
 70
     0
  9
$DIMSE2
 70
     0
  9
$DIMTAD
 70
     0
  9
$DIMZIN
 70
     3
  9
$DIMBLK
  1

  9
$DIMASO
 70
     1
  9
$DIMSHO
 70
     1
  9
$DIMPOST
  1

  9
$DIMAPOST
  1

  9
$DIMALT
 70
     0
  9
$DIMALTD
 70
     1
  9
$DIMALTF
 40
25.4
  9
$DIMLFAC
 40
1.0
  9
$DIMTOFL
 70
     0
  9
$DIMTVP
 40
0.0
  9
$DIMTIX
 70
     0
  9
$DIMSOXD
 70
     0
  9
$DIMSAH
 70
     0
  9
$DIMBLK1
  1

  9
$DIMBLK2
  1

  9
$DIMSTYLE
  2
STANDARD
  9
$DIMCLRD
 70
     0
  9
$DIMCLRE
 70
     0
  9
$DIMCLRT
 70
     0
  9
$DIMTFAC
 40
1.0
  9
$DIMGAP
 40
0.125
  9
$DIMJUST
 70
     0
  9
$DIMSD1
 70
     0
  9
$DIMSD2
 70
     0
  9
$DIMTOLJ
 70
     1
  9
$DIMTZIN
 70
     0
  9
$DIMALTZ
 70
     0
  9
$DIMALTTZ
 70
     0
  9
$DIMUPT
 70
     0
  9
$DIMDEC
 70
     4
  9
$DIMTDEC
 70
     4
  9
$DIMALTU
 70
     2
  9
$DIMALTTD
 70
     2
  9
$DIMTXSTY
  7
STANDARD
  9
$DIMAUNIT
 70
     0
  9
$DIMADEC
 70
     0
  9
$DIMALTRND
 40
0.0
  9
$DIMAZIN
 70
     0
  9
$DIMDSEP
 70
    46
  9
$DIMATFIT
 70
     3
  9
$DIMFRAC
 70
     0
  9
$DIMLDRBLK
  1

  9
$DIMLUNIT
 70
     2
  9
$DIMLWD
 70
    -2
  9
$DIMLWE
 70
    -2
  9
$DIMTMOVE
 70
     0
  9
$LUNITS
 70
     5
  9
$LUPREC
 70
     4
  9
$SKETCHINC
 40
0.1
  9
$FILLETRAD
 40
0.0
  9
$AUNITS
 70
     0
  9
$AUPREC
 70
     0
  9
$MENU
  1
acad
  9
$ELEVATION
 40
0.0
  9
$PELEVATION
 40
0.0
  9
$THICKNESS
 40
0.0
  9
$LIMCHECK
 70
     0
  9
$CHAMFERA
 40
0.0
  9
$CHAMFERB
 40
0.0
  9
$CHAMFERC
 40
0.0
  9
$CHAMFERD
 40
0.0
  9
$SKPOLY
 70
     0
  9
$TDCREATE
 40
2450374.618085834
  9
$TDUCREATE
 40
2450374.784752500
  9
$TDUPDATE
 40
2453954.793600000
  9
$TDUUPDATE
 40
2453954.960266667
  9
$TDINDWG
 40
0.0142812384
  9
$TDUSRTIMER
 40
0.0142812384
  9
$USRTIMER
 70
     1
  9
$ANGBASE
 50
0.0
  9
$ANGDIR
 70
     0
  9
$PDMODE
 70
     0
  9
$PDSIZE
 40
0.0
  9
$PLINEWID
 40
0.0
  9
$SPLFRAME
 70
     0
  9
$SPLINETYPE
 70
     6
  9
$SPLINESEGS
 70
     8
  9
$HANDSEED
  5
48A
  9
$SURFTAB1
 70
     6
  9
$SURFTAB2
 70
     6
  9
$SURFTYPE
 70
     6
  9
$SURFU
 70
     6
  9
$SURFV
 70
     6
  9
$UCSBASE
  2

  9
$UCSNAME
  2

  9
$UCSORG
 10
0.0
 20
0.0
 30
0.0
  9
$UCSXDIR
 10
1.0
 20
0.0
 30
0.0
  9
$UCSYDIR
 10
0.0
 20
1.0
 30
0.0
  9
$UCSORTHOREF
  2

  9
$UCSORTHOVIEW
 70
     0
  9
$UCSORGTOP
 10
0.0
 20
0.0
 30
0.0
  9
$UCSORGBOTTOM
 10
0.0
 20
0.0
 30
0.0
  9
$UCSORGLEFT
 10
0.0
 20
0.0
 30
0.0
  9
$UCSORGRIGHT
 10
0.0
 20
0.0
 30
0.0
  9
$UCSORGFRONT
 10
0.0
 20
0.0
 30
0.0
  9
$UCSORGBACK
 10
0.0
 20
0.0
 30
0.0
  9
$PUCSBASE
  2

  9
$PUCSNAME
  2

  9
$PUCSORG
 10
0.0
 20
0.0
 30
0.0
  9
$PUCSXDIR
 10
1.0
 20
0.0
 30
0.0
  9
$PUCSYDIR
 10
0.0
 20
1.0
 30
0.0
  9
$PUCSORTHOREF
  2

  9
$PUCSORTHOVIEW
 70
     0
  9
$PUCSORGTOP
 10
0.0
 20
0.0
 30
0.0
  9
$PUCSORGBOTTOM
 10
0.0
 20
0.0
 30
0.0
  9
$PUCSORGLEFT
 10
0.0
 20
0.0
 30
0.0
  9
$PUCSORGRIGHT
 10
0.0
 20
0.0
 30
0.0
  9
$PUCSORGFRONT
 10
0.0
 20
0.0
 30
0.0
  9
$PUCSORGBACK
 10
0.0
 20
0.0
 30
0.0
  9
$USERI1
 70
     0
  9
$USERI2
 70
     0
  9
$USERI3
 70
     0
  9
$USERI4
 70
     0
  9
$USERI5
 70
     0
  9
$USERR1
 40
0.0
  9
$USERR2
 40
0.0
  9
$USERR3
 40
0.0
  9
$USERR4
 40
0.0
  9
$USERR5
 40
0.0
  9
$WORLDVIEW
 70
     1
  9
$SHADEDGE
 70
     3
  9
$SHADEDIF
 70
    70
  9
$TILEMODE
 70
     1
  9
$MAXACTVP
 70
    15
  9
$PINSBASE
 10
0.0
 20
0.0
 30
0.0
  9
$PLIMCHECK
 70
     0
  9
$PEXTMIN
 10
1.000000000000000E+20
 20
1.000000000000000E+20
 30
1.000000000000000E+20
  9
$PEXTMAX
 10
-1.000000000000000E+20
 20
-1.000000000000000E+20
 30
-1.000000000000000E+20
  9
$PLIMMIN
 10
0.0
 20
0.0
  9
$PLIMMAX
 10
12.0
 20
9.0
  9
$UNITMODE
 70
     0
  9
$VISRETAIN
 70
     0
  9
$PLINEGEN
 70
     0
  9
$PSLTSCALE
 70
     1
  9
$TREEDEPTH
 70
  3020
  9
$CMLSTYLE
  2
STANDARD
  9
$CMLJUST
 70
     0
  9
$CMLSCALE
 40
1.0
  9
$PROXYGRAPHICS
 70
     1
  9
$MEASUREMENT
 70
     0
  9
$CELWEIGHT
370
    -1
  9
$ENDCAPS
280
     0
  9
$JOINSTYLE
280
     0
  9
$LWDISPLAY
290
     0
  9
$INSUNITS
 70
     0
  9
$HYPERLINKBASE
  1

  9
$STYLESHEET
  1

  9
$XEDIT
290
     1
  9
$CEPSNTYPE
380
     0
  9
$PSTYLEMODE
290
     1
  9
$FINGERPRINTGUID
  2
{D1AB2636-D457-4161-9AE0-11B733F24F2A}
  9
$VERSIONGUID
  2
{DCE7313A-4373-4917-B804-ACE602DB1711}
  9
$EXTNAMES
290
     1
  9
$PSVPSCALE
 40
0.0
  9
$OLESTARTUP
290
     0
  0
ENDSEC
  0
SECTION
  2
CLASSES
  0
CLASS
  1
ACDBDICTIONARYWDFLT
  2
AcDbDictionaryWithDefault
  3
ObjectDBX Classes
 90
        0
280
     0
281
     0
  0
CLASS
  1
ACDBPLACEHOLDER
  2
AcDbPlaceHolder
  3
ObjectDBX Classes
 90
        0
280
     0
281
     0
  0
CLASS
  1
LAYOUT
  2
AcDbLayout
  3
ObjectDBX Classes
 90
        0
280
     0
281
     0
  0
CLASS
  1
DICTIONARYVAR
  2
AcDbDictionaryVar
  3
ObjectDBX Classes
 90
        0
280
     0
281
     0
  0
CLASS
  1
MATERIAL
  2
AcDbMaterial
  3
ObjectDBX Classes
 90
     1024
280
     0
281
     0
  0
CLASS
  1
VISUALSTYLE
  2
AcDbVisualStyle
  3
ObjectDBX Classes
 90
     4095
280
     0
281
     0
  0
CLASS
  1
TABLESTYLE
  2
AcDbTableStyle
  3
ObjectDBX Classes
 90
     4095
280
     0
281
     0
  0
ENDSEC
  0
SECTION
  2
TABLES
  0
TABLE
  2
VPORT
  5
8
330
0
100
AcDbSymbolTable
 70
     1
  0
VPORT
  5
3B5
330
8
100
AcDbSymbolTableRecord
100
AcDbViewportTableRecord
  2
*Active
 70
     0
 10
0.0
 20
0.0
 11
1.0
 21
1.0
 12
21.13228970930435
 22
-10.98039710538084
 13
0.0
 23
0.0
 14
0.5740882589684922
 24
0.5740882589684922
 15
0.5
 25
0.5
 16
0.0
 26
0.0
 36
1.0
 17
0.0
 27
0.0
 37
0.0
 40
4.26090907771
 41
1.774011299435028
 42
50.0
 43
0.0
 44
0.0
 50
0.0
 51
0.0
 71
     0
 72
   100
 73
     1
 74
     0
 75
     0
 76
     0
 77
     0
 78
     0
281
     0
 65
     1
110
0.0
120
0.0
130
0.0
111
1.0
121
0.0
131
0.0
112
0.0
122
1.0
132
0.0
 79
     0
146
0.0
  0
ENDTAB
  0
TABLE
  2
LTYPE
  5
5
330
0
100
AcDbSymbolTable
 70
     3
  0
LTYPE
  5
12
330
5
100
AcDbSymbolTableRecord
100
AcDbLinetypeTableRecord
  2
BYBLOCK
 70
     0
  3

 72
    65
 73
     0
 40
0.0
  0
LTYPE
  5
13
330
5
100
AcDbSymbolTableRecord
100
AcDbLinetypeTableRecord
  2
BYLAYER
 70
     0
  3

 72
    65
 73
     0
 40
0.0
  0
LTYPE
  5
14
330
5
100
AcDbSymbolTableRecord
100
AcDbLinetypeTableRecord
  2
CONTINUOUS
 70
     0
  3
Solid line
 72
    65
 73
     0
 40
0.0
  0
LTYPE
  5
1BA
330
5
100
AcDbSymbolTableRecord
100
AcDbLinetypeTableRecord
  2
HIDDEN2
 70
     0
  3
_ _ _ _ _ _ _ _ _ _ _ _ _ _ _ _ _ _ _ _ _ _ _ _
 72
    65
 73
     2
 40
0.1875
 49
0.125
 74
     0
 49
-0.0625
 74
     0
  0
ENDTAB
  0
TABLE
  2
LAYER
  5
2
330
0
100
AcDbSymbolTable
 70
     5
  0
LAYER
  5
F
330
2
100
AcDbSymbolTableRecord
100
AcDbLayerTableRecord
  2
0
 70
     0
 62
     7
  6
CONTINUOUS
370
    -3
390
26A
  0
LAYER
  5
1BE
330
2
100
AcDbSymbolTableRecord
100
AcDbLayerTableRecord
  2
ADP1DETAIL
 70
     0
 62
     7
  6
CONTINUOUS
370
    -3
390
26A
  0
LAYER
  5
1C0
330
2
100
AcDbSymbolTableRecord
100
AcDbLayerTableRecord
  2
DEFPOINTS
 70
     0
 62
     7
  6
CONTINUOUS
290
     0
370
    -3
390
26A
  0
LAYER
  5
1C1
330
2
100
AcDbSymbolTableRecord
100
AcDbLayerTableRecord
  2
ADPDIM
 70
     0
 62
     3
  6
CONTINUOUS
370
    -3
390
26A
  0
LAYER
  5
1C2
330
2
100
AcDbSymbolTableRecord
100
AcDbLayerTableRecord
  2
ADP2DETAIL
 70
     0
 62
     5
  6
CONTINUOUS
370
    -3
390
26A
  0
ENDTAB
  0
TABLE
  2
STYLE
  5
3
330
0
100
AcDbSymbolTable
 70
     2
  0
STYLE
  5
10
330
3
100
AcDbSymbolTableRecord
100
AcDbTextStyleTableRecord
  2
STANDARD
 70
     0
 40
0.0
 41
1.0
 50
0.0
 71
     0
 42
0.2
  3
txt
  4

  0
STYLE
  5
271
330
3
100
AcDbSymbolTableRecord
100
AcDbTextStyleTableRecord
  2
ARIAL_WIDE
 70
     0
 40
0.0
 41
1.25
 50
0.0
 71
     0
 42
0.2
  3
ARIAL.TTF
  4

1001
ACAD
1000
Arial
1071
       34
  0
ENDTAB
  0
TABLE
  2
VIEW
  5
6
330
0
100
AcDbSymbolTable
 70
     0
  0
ENDTAB
  0
TABLE
  2
UCS
  5
7
330
0
100
AcDbSymbolTable
 70
     0
  0
ENDTAB
  0
TABLE
  2
APPID
  5
9
330
0
100
AcDbSymbolTable
 70
     2
  0
APPID
  5
11
330
9
100
AcDbSymbolTableRecord
100
AcDbRegAppTableRecord
  2
ACAD
 70
     0
  0
APPID
  5
41F
330
9
100
AcDbSymbolTableRecord
100
AcDbRegAppTableRecord
  2
ACAD_EXEMPT_FROM_CAD_STANDARDS
 70
     0
  0
ENDTAB
  0
TABLE
  2
DIMSTYLE
  5
A
330
0
100
AcDbSymbolTable
 70
     2
100
AcDbDimStyleTable
 71
     1
340
265
  0
DIMSTYLE
105
265
102
{ACAD_REACTORS
330
3FC
102
}
330
A
100
AcDbSymbolTableRecord
100
AcDbDimStyleTableRecord
  2
STANDARD
 70
     0
340
10
  0
ENDTAB
  0
TABLE
  2
BLOCK_RECORD
  5
1
330
0
100
AcDbSymbolTable
 70
     8
  0
BLOCK_RECORD
  5
18
102
{ACAD_XDICTIONARY
360
2C6
102
}
330
1
100
AcDbSymbolTableRecord
100
AcDbBlockTableRecord
  2
*MODEL_SPACE
340
26D
  0
BLOCK_RECORD
  5
15
102
{ACAD_XDICTIONARY
360
2C4
102
}
330
1
100
AcDbSymbolTableRecord
100
AcDbBlockTableRecord
  2
*PAPER_SPACE
340
26E
  0
BLOCK_RECORD
  5
11B
330
1
100
AcDbSymbolTableRecord
100
AcDbBlockTableRecord
  2
*D0
340
0
  0
BLOCK_RECORD
  5
11C
330
1
100
AcDbSymbolTableRecord
100
AcDbBlockTableRecord
  2
*D1
340
0
  0
BLOCK_RECORD
  5
11D
330
1
100
AcDbSymbolTableRecord
100
AcDbBlockTableRecord
  2
*D2
340
0
  0
BLOCK_RECORD
  5
11F
330
1
100
AcDbSymbolTableRecord
100
AcDbBlockTableRecord
  2
*D3
340
0
  0
BLOCK_RECORD
  5
1B8
330
1
100
AcDbSymbolTableRecord
100
AcDbBlockTableRecord
  2
*D4
340
0
  0
BLOCK_RECORD
  5
3FD
330
1
100
AcDbSymbolTableRecord
100
AcDbBlockTableRecord
  2
*D5
340
0
  0
ENDTAB
  0
ENDSEC
  0
SECTION
  2
BLOCKS
  0
BLOCK
  5
1C5
330
18
100
AcDbEntity
  8
0
100
AcDbBlockBegin
  2
*MODEL_SPACE
 70
     0
 10
0.0
 20
0.0
 30
0.0
  3
*MODEL_SPACE
  1

  0
ENDBLK
  5
1C6
330
18
100
AcDbEntity
  8
0
100
AcDbBlockEnd
  0
BLOCK
  5
1C3
330
15
100
AcDbEntity
 67
     1
  8
0
100
AcDbBlockBegin
  2
*PAPER_SPACE
 70
     0
 10
0.0
 20
0.0
 30
0.0
  3
*PAPER_SPACE
  1

  0
ENDBLK
  5
1C4
330
15
100
AcDbEntity
 67
     1
  8
0
100
AcDbBlockEnd
  0
BLOCK
  5
1C8
330
11B
100
AcDbEntity
  8
0
100
AcDbBlockBegin
  2
*D0
 70
     1
 10
0.0
 20
0.0
 30
0.0
  3
*D0
  1

  0
LINE
  5
1C9
330
11B
100
AcDbEntity
  8
0
  6
ByBlock
 62
     0
100
AcDbLine
 10
20.4082644043229
 20
-8.958584062295344
 30
0.0
 11
20.4082644043229
 21
-8.719162743987036
 31
0.0
  0
LINE
  5
1CA
330
11B
100
AcDbEntity
  8
0
  6
ByBlock
 62
     0
100
AcDbLine
 10
19.7832644043229
 20
-9.692959062295344
 30
0.0
 11
19.7832644043229
 21
-8.719162743987036
 31
0.0
  0
LINE
  5
1CB
330
11B
100
AcDbEntity
  8
0
  6
ByBlock
 62
     0
100
AcDbLine
 10
20.4082644043229
 20
-8.899162743987035
 30
0.0
 11
20.6582644043229
 21
-8.899162743987035
 31
0.0
  0
LINE
  5
1CC
330
11B
100
AcDbEntity
  8
0
  6
ByBlock
 62
     0
100
AcDbLine
 10
19.7832644043229
 20
-8.899162743987035
 30
0.0
 11
19.5332644043229
 21
-8.899162743987035
 31
0.0
  0
LINE
  5
1CD
330
11B
100
AcDbEntity
  8
0
  6
ByBlock
 62
     0
100
AcDbLine
 10
20.2832644043229
 20
-9.024162743987035
 30
0.0
 11
20.5332644043229
 21
-8.774162743987035
 31
0.0
  0
LINE
  5
1CE
330
11B
100
AcDbEntity
  8
0
  6
ByBlock
 62
     0
100
AcDbLine
 10
19.6582644043229
 20
-9.024162743987035
 30
0.0
 11
19.9082644043229
 21
-8.774162743987035
 31
0.0
  0
TEXT
  5
1CF
330
11B
100
AcDbEntity
  8
0
  6
ByBlock
 62
     0
100
AcDbText
 10
19.07493107098956
 20
-8.961662743987035
 30
0.0
 40
0.125
  1
5/8
 72
     1
 11
19.24159773765623
 21
-8.899162743987035
 31
0.0
100
AcDbText
 73
     2
  0
POINT
  5
1D0
330
11B
100
AcDbEntity
  8
DEFPOINTS
  6
ByBlock
 62
     0
100
AcDbPoint
 10
20.4082644043229
 20
-9.021084062295344
 30
0.0
  0
POINT
  5
1D1
330
11B
100
AcDbEntity
  8
DEFPOINTS
  6
ByBlock
 62
     0
100
AcDbPoint
 10
19.7832644043229
 20
-9.755459062295344
 30
0.0
  0
POINT
  5
1D2
330
11B
100
AcDbEntity
  8
DEFPOINTS
  6
ByBlock
 62
     0
100
AcDbPoint
 10
19.7832644043229
 20
-8.899162743987035
 30
0.0
  0
ENDBLK
  5
1D3
330
11B
100
AcDbEntity
  8
0
100
AcDbBlockEnd
  0
BLOCK
  5
1D4
330
11C
100
AcDbEntity
  8
0
100
AcDbBlockBegin
  2
*D1
 70
     1
 10
0.0
 20
0.0
 30
0.0
  3
*D1
  1

  0
LINE
  5
1D5
330
11C
100
AcDbEntity
  8
0
  6
ByBlock
 62
     0
100
AcDbLine
 10
20.59185917161804
 20
-11.2063843219845
 30
0.0
 11
19.44740691572175
 21
-11.2063843219845
 31
0.0
  0
LINE
  5
1D6
330
11C
100
AcDbEntity
  8
0
  6
ByBlock
 62
     0
100
AcDbLine
 10
19.72010724517564
 20
-12.30328996303499
 30
0.0
 11
19.44740691572175
 21
-12.30328996303499
 31
0.0
  0
LINE
  5
1D7
330
11C
100
AcDbEntity
  8
0
  6
ByBlock
 62
     0
100
AcDbLine
 10
19.62740691572175
 20
-11.2063843219845
 30
0.0
 11
19.62740691572175
 21
-10.9563843219845
 31
0.0
  0
LINE
  5
1D8
330
11C
100
AcDbEntity
  8
0
  6
ByBlock
 62
     0
100
AcDbLine
 10
19.62740691572175
 20
-12.30328996303499
 30
0.0
 11
19.62740691572175
 21
-12.55328996303499
 31
0.0
  0
LINE
  5
1D9
330
11C
100
AcDbEntity
  8
0
  6
ByBlock
 62
     0
100
AcDbLine
 10
19.75240691572175
 20
-11.3313843219845
 30
0.0
 11
19.50240691572175
 21
-11.0813843219845
 31
0.0
  0
LINE
  5
1DA
330
11C
100
AcDbEntity
  8
0
  6
ByBlock
 62
     0
100
AcDbLine
 10
19.75240691572175
 20
-12.42828996303499
 30
0.0
 11
19.50240691572175
 21
-12.17828996303499
 31
0.0
  0
TEXT
  5
1DB
330
11C
100
AcDbEntity
  8
0
  6
ByBlock
 62
     0
100
AcDbText
 10
19.68990691572175
 20
-13.17828996303499
 30
0.0
 40
0.125
  1
1 1/8
 50
90.0
 72
     1
 11
19.62740691572175
 21
-12.92828996303499
 31
0.0
100
AcDbText
 73
     2
  0
POINT
  5
1DC
330
11C
100
AcDbEntity
  8
DEFPOINTS
  6
ByBlock
 62
     0
100
AcDbPoint
 10
20.65435917161805
 20
-11.2063843219845
 30
0.0
  0
POINT
  5
1DD
330
11C
100
AcDbEntity
  8
DEFPOINTS
  6
ByBlock
 62
     0
100
AcDbPoint
 10
19.78260724517564
 20
-12.30328996303499
 30
0.0
  0
POINT
  5
1DE
330
11C
100
AcDbEntity
  8
DEFPOINTS
  6
ByBlock
 62
     0
100
AcDbPoint
 10
19.62740691572175
 20
-12.30328996303499
 30
0.0
  0
ENDBLK
  5
1DF
330
11C
100
AcDbEntity
  8
0
100
AcDbBlockEnd
  0
BLOCK
  5
1E0
330
11D
100
AcDbEntity
  8
0
100
AcDbBlockBegin
  2
*D2
 70
     1
 10
0.0
 20
0.0
 30
0.0
  3
*D2
  1

  0
LINE
  5
1E1
330
11D
100
AcDbEntity
  8
0
  6
ByBlock
 62
     0
100
AcDbLine
 10
22.68480353050387
 20
-9.505459062295344
 30
0.0
 11
23.18390581973844
 21
-9.505459062295344
 31
0.0
  0
LINE
  5
1E2
330
11D
100
AcDbEntity
  8
0
  6
ByBlock
 62
     0
100
AcDbLine
 10
22.68480353050387
 20
-10.25545906229534
 30
0.0
 11
23.18390581973844
 21
-10.25545906229534
 31
0.0
  0
LINE
  5
1E3
330
11D
100
AcDbEntity
  8
0
  6
ByBlock
 62
     0
100
AcDbLine
 10
23.00390581973843
 20
-9.505459062295344
 30
0.0
 11
23.00390581973843
 21
-9.255459062295344
 31
0.0
  0
LINE
  5
1E4
330
11D
100
AcDbEntity
  8
0
  6
ByBlock
 62
     0
100
AcDbLine
 10
23.00390581973843
 20
-10.25545906229534
 30
0.0
 11
23.00390581973843
 21
-10.50545906229534
 31
0.0
  0
LINE
  5
1E5
330
11D
100
AcDbEntity
  8
0
  6
ByBlock
 62
     0
100
AcDbLine
 10
23.12890581973844
 20
-9.630459062295344
 30
0.0
 11
22.87890581973844
 21
-9.380459062295344
 31
0.0
  0
LINE
  5
1E6
330
11D
100
AcDbEntity
  8
0
  6
ByBlock
 62
     0
100
AcDbLine
 10
23.12890581973844
 20
-10.38045906229534
 30
0.0
 11
22.87890581973844
 21
-10.13045906229534
 31
0.0
  0
TEXT
  5
1E7
330
11D
100
AcDbEntity
  8
0
  6
ByBlock
 62
     0
100
AcDbText
 10
23.06640581973844
 20
-10.96379239562867
 30
0.0
 40
0.125
  1
3/4
 50
90.0
 72
     1
 11
23.00390581973843
 21
-10.79712572896201
 31
0.0
100
AcDbText
 73
     2
  0
POINT
  5
1E8
330
11D
100
AcDbEntity
  8
DEFPOINTS
  6
ByBlock
 62
     0
100
AcDbPoint
 10
22.62230353050387
 20
-9.505459062295344
 30
0.0
  0
POINT
  5
1E9
330
11D
100
AcDbEntity
  8
DEFPOINTS
  6
ByBlock
 62
     0
100
AcDbPoint
 10
22.62230353050387
 20
-10.25545906229534
 30
0.0
  0
POINT
  5
1EA
330
11D
100
AcDbEntity
  8
DEFPOINTS
  6
ByBlock
 62
     0
100
AcDbPoint
 10
23.00390581973843
 20
-10.25545906229534
 30
0.0
  0
ENDBLK
  5
1EB
330
11D
100
AcDbEntity
  8
0
100
AcDbBlockEnd
  0
BLOCK
  5
1EC
330
11F
100
AcDbEntity
  8
0
100
AcDbBlockBegin
  2
*D3
 70
     1
 10
0.0
 20
0.0
 30
0.0
  3
*D3
  1

  0
LINE
  5
1ED
330
11F
100
AcDbEntity
  8
0
  6
ByBlock
 62
     0
100
AcDbLine
 10
20.40596510119597
 20
-12.36578996303499
 30
0.0
 11
20.40596510119597
 21
-12.69098813130956
 31
0.0
  0
LINE
  5
1EE
330
11F
100
AcDbEntity
  8
0
  6
ByBlock
 62
     0
100
AcDbLine
 10
22.12486529568542
 20
-12.36578996303499
 30
0.0
 11
22.12486529568542
 21
-12.69098813130956
 31
0.0
  0
LINE
  5
1EF
330
11F
100
AcDbEntity
  8
0
  6
ByBlock
 62
     0
100
AcDbLine
 10
20.40596510119597
 20
-12.51098813130956
 30
0.0
 11
20.86958186510736
 21
-12.51098813130956
 31
0.0
  0
LINE
  5
1F0
330
11F
100
AcDbEntity
  8
0
  6
ByBlock
 62
     0
100
AcDbLine
 10
22.12486529568542
 20
-12.51098813130956
 30
0.0
 11
21.66124853177402
 21
-12.51098813130956
 31
0.0
  0
LINE
  5
1F1
330
11F
100
AcDbEntity
  8
0
  6
ByBlock
 62
     0
100
AcDbLine
 10
20.28096510119597
 20
-12.63598813130956
 30
0.0
 11
20.53096510119597
 21
-12.38598813130956
 31
0.0
  0
LINE
  5
1F2
330
11F
100
AcDbEntity
  8
0
  6
ByBlock
 62
     0
100
AcDbLine
 10
21.99986529568542
 20
-12.63598813130956
 30
0.0
 11
22.24986529568542
 21
-12.38598813130956
 31
0.0
  0
TEXT
  5
1F3
330
11F
100
AcDbEntity
  8
0
  6
ByBlock
 62
     0
100
AcDbText
 10
20.99458186510736
 20
-12.57348813130956
 30
0.0
 40
0.125
  1
1 3/4
 72
     1
 11
21.26541519844069
 21
-12.51098813130956
 31
0.0
100
AcDbText
 73
     2
  0
POINT
  5
1F4
330
11F
100
AcDbEntity
  8
DEFPOINTS
  6
ByBlock
 62
     0
100
AcDbPoint
 10
20.40596510119597
 20
-12.30328996303499
 30
0.0
  0
POINT
  5
1F5
330
11F
100
AcDbEntity
  8
DEFPOINTS
  6
ByBlock
 62
     0
100
AcDbPoint
 10
22.12486529568542
 20
-12.30328996303499
 30
0.0
  0
POINT
  5
1F6
330
11F
100
AcDbEntity
  8
DEFPOINTS
  6
ByBlock
 62
     0
100
AcDbPoint
 10
22.12486529568542
 20
-12.51098813130956
 30
0.0
  0
ENDBLK
  5
1F7
330
11F
100
AcDbEntity
  8
0
100
AcDbBlockEnd
  0
BLOCK
  5
1F8
330
1B8
100
AcDbEntity
  8
0
100
AcDbBlockBegin
  2
*D4
 70
     1
 10
0.0
 20
0.0
 30
0.0
  3
*D4
  1

  0
LINE
  5
1F9
330
1B8
100
AcDbEntity
  8
0
  6
ByBlock
 62
     0
100
AcDbLine
 10
20.74858228905908
 20
-11.1438843219845
 30
0.0
 11
20.74858228905908
 21
-10.88315212575432
 31
0.0
  0
LINE
  5
1FA
330
1B8
100
AcDbEntity
  8
0
  6
ByBlock
 62
     0
100
AcDbLine
 10
21.78224810782231
 20
-11.1438843219845
 30
0.0
 11
21.78224810782231
 21
-10.88315212575432
 31
0.0
  0
LINE
  5
1FB
330
1B8
100
AcDbEntity
  8
0
  6
ByBlock
 62
     0
100
AcDbLine
 10
20.74858228905908
 20
-11.06315212575432
 30
0.0
 11
21.11958186510736
 21
-11.06315212575432
 31
0.0
  0
LINE
  5
1FC
330
1B8
100
AcDbEntity
  8
0
  6
ByBlock
 62
     0
100
AcDbLine
 10
21.78224810782231
 20
-11.06315212575432
 30
0.0
 11
21.41124853177402
 21
-11.06315212575432
 31
0.0
  0
LINE
  5
1FD
330
1B8
100
AcDbEntity
  8
0
  6
ByBlock
 62
     0
100
AcDbLine
 10
20.62358228905908
 20
-11.18815212575432
 30
0.0
 11
20.87358228905908
 21
-10.93815212575432
 31
0.0
  0
LINE
  5
1FE
330
1B8
100
AcDbEntity
  8
0
  6
ByBlock
 62
     0
100
AcDbLine
 10
21.65724810782231
 20
-11.18815212575432
 30
0.0
 11
21.90724810782231
 21
-10.93815212575432
 31
0.0
  0
TEXT
  5
1FF
330
1B8
100
AcDbEntity
  8
0
  6
ByBlock
 62
     0
100
AcDbText
 10
21.24458186510736
 20
-11.12565212575431
 30
0.0
 40
0.125
  1
1
 72
     1
 11
21.26541519844069
 21
-11.06315212575432
 31
0.0
100
AcDbText
 73
     2
  0
POINT
  5
200
330
1B8
100
AcDbEntity
  8
DEFPOINTS
  6
ByBlock
 62
     0
100
AcDbPoint
 10
20.74858228905908
 20
-11.2063843219845
 30
0.0
  0
POINT
  5
201
330
1B8
100
AcDbEntity
  8
DEFPOINTS
  6
ByBlock
 62
     0
100
AcDbPoint
 10
21.78224810782231
 20
-11.2063843219845
 30
0.0
  0
POINT
  5
202
330
1B8
100
AcDbEntity
  8
DEFPOINTS
  6
ByBlock
 62
     0
100
AcDbPoint
 10
21.78224810782231
 20
-11.06315212575432
 30
0.0
  0
ENDBLK
  5
203
330
1B8
100
AcDbEntity
  8
0
100
AcDbBlockEnd
  0
BLOCK
  5
408
330
3FD
100
AcDbEntity
  8
0
 62
     3
100
AcDbBlockBegin
  2
*D5
 70
     1
 10
0.0
 20
0.0
 30
0.0
  3
*D5
  1

  0
LINE
  5
454
330
3FD
100
AcDbEntity
  8
ADPDIM
 62
     0
370
    -2
100
AcDbLine
 10
22.68480353050387
 20
-9.505459062295345
 30
0.0
 11
23.29965207695911
 21
-9.505459062295345
 31
0.0
  0
LINE
  5
455
330
3FD
100
AcDbEntity
  8
ADPDIM
 62
     0
370
    -2
100
AcDbLine
 10
22.68480353050388
 20
-10.38045906229534
 30
0.0
 11
23.29965207695911
 21
-10.38045906229534
 31
0.0
  0
LINE
  5
456
330
3FD
100
AcDbEntity
  8
ADPDIM
 62
     0
370
    -2
100
AcDbLine
 10
23.1196520769591
 20
-9.505459062295345
 30
0.0
 11
23.1196520769591
 21
-9.651292395628679
 31
0.0
  0
LINE
  5
457
330
3FD
100
AcDbEntity
  8
ADPDIM
 62
     0
370
    -2
100
AcDbLine
 10
23.1196520769591
 20
-10.38045906229534
 30
0.0
 11
23.1196520769591
 21
-10.23462572896201
 31
0.0
  0
LINE
  5
458
330
3FD
100
AcDbEntity
  8
ADPDIM
 62
     0
370
    -2
100
AcDbLine
 10
23.24465207695911
 20
-10.50545906229534
 30
0.0
 11
22.99465207695911
 21
-10.25545906229534
 31
0.0
  0
LINE
  5
459
330
3FD
100
AcDbEntity
  8
ADPDIM
 62
     0
370
    -2
100
AcDbLine
 10
23.24465207695911
 20
-9.630459062295345
 30
0.0
 11
22.99465207695911
 21
-9.380459062295345
 31
0.0
  0
MTEXT
  5
45A
330
3FD
100
AcDbEntity
  8
ADPDIM
 62
     0
100
AcDbMText
 10
23.11965207695911
 20
-9.942959062295342
 30
0.0
 40
0.125
 41
0.0
 71
     5
 72
     1
  1
\A1;7/8
 11
0.0000000000000001
 21
1.0
 31
0.0
 73
     1
 44
1.0
1001
ACAD
1000
MTEXTBEGIN
1070
    73
1070
     1
1070
    44
1040
1.0
1070
    74
1070
     0
1000
MTEXTEND
  0
POINT
  5
45B
330
3FD
100
AcDbEntity
  8
DEFPOINTS
 62
     0
100
AcDbPoint
 10
22.62230353050387
 20
-9.505459062295345
 30
0.0
  0
POINT
  5
45C
330
3FD
100
AcDbEntity
  8
DEFPOINTS
 62
     0
100
AcDbPoint
 10
22.62230353050388
 20
-10.38045906229534
 30
0.0
  0
POINT
  5
45D
330
3FD
100
AcDbEntity
  8
DEFPOINTS
 62
     0
100
AcDbPoint
 10
23.1196520769591
 20
-10.38045906229534
 30
0.0
  0
ENDBLK
  5
409
330
3FD
100
AcDbEntity
  8
0
 62
     3
100
AcDbBlockEnd
  0
ENDSEC
  0
SECTION
  2
ENTITIES
  0
DIMENSION
  5
204
330
18
100
AcDbEntity
  8
ADPDIM
100
AcDbDimension
  2
*D3
 10
22.12486529568542
 20
-12.51098813130956
 30
0.0
 11
21.26541519844069
 21
-12.51098813130956
 31
0.0
 71
     5
 42
-1.0
100
AcDbAlignedDimension
 13
20.40596510119597
 23
-12.30328996303499
 33
0.0
 14
22.12486529568542
 24
-12.30328996303499
 34
0.0
100
AcDbRotatedDimension
  0
LINE
  5
205
330
18
100
AcDbEntity
  8
ADP1DETAIL
100
AcDbLine
 10
19.81385724517564
 20
-12.17828996303499
 30
0.0
 11
20.40596510119597
 21
-12.17828996303499
 31
0.0
  0
LINE
  5
206
330
18
100
AcDbEntity
  8
ADP1DETAIL
100
AcDbLine
 10
21.2654151984407
 20
-12.30328996303499
 30
0.0
 11
19.78260724517564
 21
-12.30328996303499
 31
0.0
  0
DIMENSION
  5
20B
330
18
100
AcDbEntity
  8
ADPDIM
100
AcDbDimension
  2
*D0
 10
19.7832644043229
 20
-8.899162743987035
 30
0.0
 11
19.24159773765623
 21
-8.899162743987035
 31
0.0
 71
     5
 42
-1.0
100
AcDbAlignedDimension
 13
20.4082644043229
 23
-9.021084062295344
 33
0.0
 14
19.7832644043229
 24
-9.755459062295344
 34
0.0
100
AcDbRotatedDimension
  0
DIMENSION
  5
20C
330
18
100
AcDbEntity
  8
ADPDIM
100
AcDbDimension
  2
*D1
 10
19.62740691572175
 20
-12.30328996303499
 30
0.0
 11
19.62740691572175
 21
-12.92828996303499
 31
0.0
 71
     5
 42
-1.0
100
AcDbAlignedDimension
 13
20.65435917161805
 23
-11.2063843219845
 33
0.0
 14
19.78260724517564
 24
-12.30328996303499
 34
0.0
 50
90.0
100
AcDbRotatedDimension
  0
LINE
  5
20D
330
18
100
AcDbEntity
  8
ADP2DETAIL
  6
HIDDEN2
100
AcDbLine
 10
19.96865157126834
 20
-12.17675295723606
 30
0.0
 11
20.05961281236036
 21
-12.30264260256107
 31
0.0
  0
LINE
  5
20E
330
18
100
AcDbEntity
  8
ADP1DETAIL
100
AcDbLine
 10
19.78260724517564
 20
-12.30328996303499
 30
0.0
 11
19.81385724517564
 21
-12.17828996303499
 31
0.0
  0
LINE
  5
20F
330
18
100
AcDbEntity
  8
ADP2DETAIL
  6
HIDDEN2
100
AcDbLine
 10
20.33949344150295
 20
-12.17675295723606
 30
0.0
 11
20.24853220041094
 21
-12.30264260256107
 31
0.0
  0
LINE
  5
21E
330
18
100
AcDbEntity
  8
ADP2DETAIL
  6
HIDDEN2
100
AcDbLine
 10
21.78224810782231
 20
-11.2063843219845
 30
0.0
 11
21.78224810782231
 21
-12.30328996303499
 31
0.0
  0
LINE
  5
21F
330
18
100
AcDbEntity
  8
ADP2DETAIL
  6
HIDDEN2
100
AcDbLine
 10
20.74858228905908
 20
-11.2063843219845
 30
0.0
 11
20.74858228905908
 21
-12.30328996303499
 31
0.0
  0
LINE
  5
220
330
18
100
AcDbEntity
  8
ADP1DETAIL
100
AcDbLine
 10
21.97093093715238
 20
-11.98922058299799
 30
0.0
 11
21.97093093715238
 21
-11.30086328670525
 31
0.0
  0
LINE
  5
221
330
18
100
AcDbEntity
  8
ADP1DETAIL
100
AcDbLine
 10
20.55989945972902
 20
-11.98922058299799
 30
0.0
 11
20.55989945972902
 21
-11.30086328670525
 31
0.0
  0
LINE
  5
222
330
18
100
AcDbEntity
  8
ADP1DETAIL
100
AcDbLine
 10
22.07871895352048
 20
-12.05148625238134
 30
0.0
 11
20.40596510119597
 21
-12.05121954752663
 31
0.0
  0
ARC
  5
223
330
18
100
AcDbEntity
  8
ADP1DETAIL
100
AcDbCircle
 10
22.03293093715238
 20
-11.98922058299799
 30
0.0
 40
0.062
100
AcDbArc
 50
180.0
 51
269.6688601589567
  0
LINE
  5
224
330
18
100
AcDbEntity
  8
ADP1DETAIL
100
AcDbLine
 10
21.2654151984407
 20
-12.30328996303499
 30
0.0
 11
22.74822315170574
 21
-12.30328996303499
 31
0.0
  0
LINE
  5
225
330
18
100
AcDbEntity
  8
ADP1DETAIL
100
AcDbLine
 10
20.40596510119597
 20
-12.30328996303499
 30
0.0
 11
20.40596510119597
 21
-12.05175295723606
 31
0.0
  0
ARC
  5
226
330
18
100
AcDbEntity
  8
ADP1DETAIL
100
AcDbCircle
 10
20.49789945972901
 20
-11.98922058299799
 30
0.0
 40
0.062
100
AcDbArc
 50
270.3311398410434
 51
0.0
  0
LINE
  5
227
330
18
100
AcDbEntity
  8
ADP1DETAIL
100
AcDbLine
 10
22.71697315170575
 20
-12.17828996303499
 30
0.0
 11
22.12486529568542
 21
-12.17828996303499
 31
0.0
  0
LINE
  5
228
330
18
100
AcDbEntity
  8
ADP2DETAIL
  6
HIDDEN2
100
AcDbLine
 10
22.19133695537844
 20
-12.17675295723606
 30
0.0
 11
22.28229819647045
 21
-12.30264260256107
 31
0.0
  0
LINE
  5
229
330
18
100
AcDbEntity
  8
ADP1DETAIL
100
AcDbLine
 10
22.12486529568542
 20
-12.30328996303499
 30
0.0
 11
22.12486529568542
 21
-12.05175295723606
 31
0.0
  0
LINE
  5
22A
330
18
100
AcDbEntity
  8
ADP1DETAIL
100
AcDbLine
 10
22.12486529568542
 20
-12.05175295723606
 30
0.0
 11
22.03257261135554
 21
-12.05121954752663
 31
0.0
  0
LINE
  5
22B
330
18
100
AcDbEntity
  8
ADP2DETAIL
  6
HIDDEN2
100
AcDbLine
 10
22.56217882561305
 20
-12.17675295723606
 30
0.0
 11
22.47121758452103
 21
-12.30264260256107
 31
0.0
  0
LINE
  5
22C
330
18
100
AcDbEntity
  8
ADP1DETAIL
100
AcDbLine
 10
22.74822315170574
 20
-12.30328996303499
 30
0.0
 11
22.71697315170575
 21
-12.17828996303499
 31
0.0
  0
LINE
  5
22D
330
18
100
AcDbEntity
  8
ADP1DETAIL
100
AcDbLine
 10
21.26386400410931
 20
-9.021084062295344
 30
0.0
 11
22.12230353050387
 21
-9.021084062295344
 31
0.0
  0
LINE
  5
22E
330
18
100
AcDbEntity
  8
ADP1DETAIL
100
AcDbLine
 10
21.26386400410931
 20
-10.73983406229534
 30
0.0
 11
22.12230353050387
 21
-10.73983406229534
 31
0.0
  0
LINE
  5
22F
330
18
100
AcDbEntity
  8
ADP1DETAIL
100
AcDbLine
 10
21.96605353050387
 20
-9.177334062295344
 30
0.0
 11
21.96605353050387
 21
-9.880459062295344
 31
0.0
  0
LINE
  5
230
330
18
100
AcDbEntity
  8
ADP1DETAIL
100
AcDbLine
 10
21.87230353050387
 20
-9.271084062295344
 30
0.0
 11
21.87230353050387
 21
-9.880459062295344
 31
0.0
  0
LINE
  5
231
330
18
100
AcDbEntity
  8
ADP1DETAIL
100
AcDbLine
 10
21.78440978800445
 20
-9.358977804794768
 30
0.0
 11
21.78440978800445
 21
-9.877530933545056
 31
0.0
  0
LINE
  5
232
330
18
100
AcDbEntity
  8
ADP1DETAIL
100
AcDbLine
 10
20.5645144043229
 20
-9.177334062295344
 30
0.0
 11
20.5645144043229
 21
-9.880459062295344
 31
0.0
  0
LINE
  5
233
330
18
100
AcDbEntity
  8
ADP1DETAIL
100
AcDbLine
 10
20.6582644043229
 20
-9.271084062295344
 30
0.0
 11
20.6582644043229
 21
-9.880459062295344
 31
0.0
  0
LINE
  5
234
330
18
100
AcDbEntity
  8
ADP1DETAIL
100
AcDbLine
 10
20.7520144043229
 20
-9.358977804794768
 30
0.0
 11
20.7520144043229
 21
-9.877530933545056
 31
0.0
  0
LINE
  5
235
330
18
100
AcDbEntity
  8
ADP1DETAIL
100
AcDbLine
 10
20.4082644043229
 20
-9.021084062295344
 30
0.0
 11
20.4082644043229
 21
-9.880459062295344
 31
0.0
  0
DIMENSION
  5
236
330
18
100
AcDbEntity
  8
ADPDIM
100
AcDbDimension
  2
*D4
 10
21.78224810782231
 20
-11.06315212575432
 30
0.0
 11
21.26541519844069
 21
-11.06315212575432
 31
0.0
  1
1
 71
     5
 42
-1.0
100
AcDbAlignedDimension
 13
20.74858228905908
 23
-11.2063843219845
 33
0.0
 14
21.78224810782231
 24
-11.2063843219845
 34
0.0
100
AcDbRotatedDimension
  0
LINE
  5
237
330
18
100
AcDbEntity
  8
ADP1DETAIL
100
AcDbLine
 10
20.65435917161805
 20
-11.2063843219845
 30
0.0
 11
21.82318348493825
 21
-11.2063843219845
 31
0.0
  0
LINE
  5
238
330
18
100
AcDbEntity
  8
ADP1DETAIL
100
AcDbLine
 10
20.55989945972902
 20
-11.30086328670525
 30
0.0
 11
21.97093093715238
 21
-11.30086328670525
 31
0.0
  0
LINE
  5
239
330
18
100
AcDbEntity
  8
ADP1DETAIL
100
AcDbLine
 10
21.26386400410931
 20
-10.48983406229534
 30
0.0
 11
20.6582644043229
 21
-10.48983406229534
 31
0.0
  0
LINE
  5
23A
330
18
100
AcDbEntity
  8
ADP1DETAIL
100
AcDbLine
 10
21.2667921328596
 20
-10.39608406229534
 30
0.0
 11
20.7520144043229
 21
-10.39608406229534
 31
0.0
  0
LINE
  5
23B
330
18
100
AcDbEntity
  8
ADP1DETAIL
100
AcDbLine
 10
21.26386400410931
 20
-10.58358406229534
 30
0.0
 11
20.5645144043229
 21
-10.58358406229534
 31
0.0
  0
LINE
  5
23C
330
18
100
AcDbEntity
  8
ADP1DETAIL
100
AcDbLine
 10
21.26386400410931
 20
-10.73983406229534
 30
0.0
 11
20.4082644043229
 21
-10.73983406229534
 31
0.0
  0
LINE
  5
23D
330
18
100
AcDbEntity
  8
ADP1DETAIL
100
AcDbLine
 10
20.4082644043229
 20
-10.73983406229534
 30
0.0
 11
20.4082644043229
 21
-9.880459062295344
 31
0.0
  0
LINE
  5
23E
330
18
100
AcDbEntity
  8
ADP1DETAIL
100
AcDbLine
 10
20.55989945972902
 20
-11.30086328670525
 30
0.0
 11
20.65435917161805
 21
-11.2063843219845
 31
0.0
  0
LINE
  5
23F
330
18
100
AcDbEntity
  8
ADP1DETAIL
100
AcDbLine
 10
20.6582644043229
 20
-10.48983406229534
 30
0.0
 11
20.6582644043229
 21
-9.880459062295344
 31
0.0
  0
LINE
  5
240
330
18
100
AcDbEntity
  8
ADP1DETAIL
100
AcDbLine
 10
20.7520144043229
 20
-10.39608406229534
 30
0.0
 11
20.7520144043229
 21
-9.877530933545056
 31
0.0
  0
LINE
  5
241
330
18
100
AcDbEntity
  8
ADP1DETAIL
100
AcDbLine
 10
20.5645144043229
 20
-10.58358406229534
 30
0.0
 11
20.5645144043229
 21
-9.880459062295344
 31
0.0
  0
LINE
  5
242
330
18
100
AcDbEntity
  8
ADP1DETAIL
100
AcDbLine
 10
21.97093093715238
 20
-11.30086328670525
 30
0.0
 11
21.87647122526334
 21
-11.2063843219845
 31
0.0
  0
LINE
  5
243
330
18
100
AcDbEntity
  8
ADP1DETAIL
100
AcDbLine
 10
21.26386400410931
 20
-10.48983406229534
 30
0.0
 11
21.87230353050387
 21
-10.48983406229534
 31
0.0
  0
LINE
  5
244
330
18
100
AcDbEntity
  8
ADP1DETAIL
100
AcDbLine
 10
21.2667921328596
 20
-10.39608406229534
 30
0.0
 11
21.78440978800445
 21
-10.39608406229534
 31
0.0
  0
LINE
  5
245
330
18
100
AcDbEntity
  8
ADP1DETAIL
100
AcDbLine
 10
21.26386400410931
 20
-10.58358406229534
 30
0.0
 11
21.96605353050387
 21
-10.58358406229534
 31
0.0
  0
LINE
  5
246
330
18
100
AcDbEntity
  8
ADP1DETAIL
100
AcDbLine
 10
21.87230353050387
 20
-10.48983406229534
 30
0.0
 11
21.87230353050387
 21
-9.880459062295344
 31
0.0
  0
LINE
  5
247
330
18
100
AcDbEntity
  8
ADP1DETAIL
100
AcDbLine
 10
21.78440978800445
 20
-10.39608406229534
 30
0.0
 11
21.78440978800445
 21
-9.877530933545056
 31
0.0
  0
LINE
  5
248
330
18
100
AcDbEntity
  8
ADP1DETAIL
100
AcDbLine
 10
21.96605353050387
 20
-10.58358406229534
 30
0.0
 11
21.96605353050387
 21
-9.880459062295344
 31
0.0
  0
LINE
  5
249
330
18
100
AcDbEntity
  8
ADP1DETAIL
100
AcDbLine
 10
21.26386400410931
 20
-9.021084062295344
 30
0.0
 11
20.4082644043229
 21
-9.021084062295344
 31
0.0
  0
LINE
  5
24A
330
18
100
AcDbEntity
  8
ADP1DETAIL
100
AcDbLine
 10
21.26386400410931
 20
-9.177334062295344
 30
0.0
 11
20.5645144043229
 21
-9.177334062295344
 31
0.0
  0
LINE
  5
24B
330
18
100
AcDbEntity
  8
ADP1DETAIL
100
AcDbLine
 10
21.26386400410931
 20
-9.271084062295344
 30
0.0
 11
20.6582644043229
 21
-9.271084062295344
 31
0.0
  0
LINE
  5
24C
330
18
100
AcDbEntity
  8
ADP1DETAIL
100
AcDbLine
 10
21.2667921328596
 20
-9.358977804794768
 30
0.0
 11
20.7520144043229
 21
-9.358977804794768
 31
0.0
  0
LINE
  5
24D
330
18
100
AcDbEntity
  8
ADP1DETAIL
100
AcDbLine
 10
21.26386400410931
 20
-9.177334062295344
 30
0.0
 11
21.96605353050387
 21
-9.177334062295344
 31
0.0
  0
LINE
  5
24E
330
18
100
AcDbEntity
  8
ADP1DETAIL
100
AcDbLine
 10
21.26386400410931
 20
-9.271084062295344
 30
0.0
 11
21.87230353050387
 21
-9.271084062295344
 31
0.0
  0
LINE
  5
24F
330
18
100
AcDbEntity
  8
ADP1DETAIL
100
AcDbLine
 10
21.2667921328596
 20
-9.358977804794768
 30
0.0
 11
21.78440978800445
 21
-9.358977804794768
 31
0.0
  0
LINE
  5
250
330
18
100
AcDbEntity
  8
ADP1DETAIL
100
AcDbLine
 10
22.62230353050387
 20
-9.505459062295344
 30
0.0
 11
22.74730353050387
 21
-9.755459062295344
 31
0.0
  0
LINE
  5
251
330
18
100
AcDbEntity
  8
ADP1DETAIL
100
AcDbLine
 10
22.55235265156868
 20
-9.599209062295344
 30
0.0
 11
22.65355353050387
 21
-9.801610820165729
 31
0.0
  0
CIRCLE
  5
252
330
18
100
AcDbEntity
  8
ADP1DETAIL
100
AcDbCircle
 10
22.37230353050387
 20
-9.939530250633133
 30
0.0
 40
0.1875
  0
LINE
  5
253
330
18
100
AcDbEntity
  8
ADP1DETAIL
100
AcDbLine
 10
22.12230353050387
 20
-9.021084062295344
 30
0.0
 11
22.12230353050387
 21
-9.880459062295344
 31
0.0
  0
LINE
  5
255
330
18
100
AcDbEntity
  8
ADP1DETAIL
100
AcDbLine
 10
22.12230353050387
 20
-10.73983406229534
 30
0.0
 11
22.12230353050387
 21
-9.880459062295344
 31
0.0
  0
LINE
  5
256
330
18
100
AcDbEntity
  8
ADP1DETAIL
100
AcDbLine
 10
22.12074124557879
 20
-10.28502708186469
 30
0.0
 11
22.5507903666436
 21
-10.28502708186469
 31
0.0
  0
LINE
  5
257
330
18
100
AcDbEntity
  8
ADP1DETAIL
100
AcDbLine
 10
22.12074124557879
 20
-10.37877708186469
 30
0.0
 11
22.62074124557879
 21
-10.37877708186469
 31
0.0
  0
CIRCLE
  5
258
330
18
100
AcDbEntity
  8
ADP1DETAIL
100
AcDbCircle
 10
22.37230353050387
 20
-9.939530250633133
 30
0.0
 40
0.0939999999999994
  0
LINE
  5
259
330
18
100
AcDbEntity
  8
ADP1DETAIL
100
AcDbLine
 10
22.65355353050387
 20
-9.801610820165729
 30
0.0
 11
22.74730353050387
 21
-9.755459062295344
 31
0.0
  0
LINE
  5
25A
330
18
100
AcDbEntity
  8
ADP1DETAIL
100
AcDbLine
 10
22.74574124557879
 20
-10.12877708186469
 30
0.0
 11
22.74574124557879
 21
-9.756228152381602
 31
0.0
  0
LINE
  5
25B
330
18
100
AcDbEntity
  8
ADP1DETAIL
100
AcDbLine
 10
22.65199124557879
 20
-10.0826253239943
 30
0.0
 11
22.65355353050387
 21
-9.801610820165729
 31
0.0
  0
LINE
  5
25C
330
18
100
AcDbEntity
  8
ADP1DETAIL
100
AcDbLine
 10
22.65199124557879
 20
-10.0826253239943
 30
0.0
 11
22.74574124557879
 21
-10.12877708186469
 31
0.0
  0
LINE
  5
25D
330
18
100
AcDbEntity
  8
ADP1DETAIL
100
AcDbLine
 10
22.62074124557879
 20
-10.37877708186469
 30
0.0
 11
22.74574124557879
 21
-10.12877708186469
 31
0.0
  0
LINE
  5
25E
330
18
100
AcDbEntity
  8
ADP1DETAIL
100
AcDbLine
 10
22.5507903666436
 20
-10.28502708186469
 30
0.0
 11
22.62074124557879
 21
-10.37877708186469
 31
0.0
  0
LINE
  5
25F
330
18
100
AcDbEntity
  8
ADP1DETAIL
100
AcDbLine
 10
22.5507903666436
 20
-10.28502708186469
 30
0.0
 11
22.65199124557879
 21
-10.0826253239943
 31
0.0
  0
LINE
  5
262
330
18
100
AcDbEntity
  8
ADP1DETAIL
100
AcDbLine
 10
22.12230353050387
 20
-9.505459062295344
 30
0.0
 11
22.62230353050387
 21
-9.505459062295344
 31
0.0
  0
LINE
  5
263
330
18
100
AcDbEntity
  8
ADP1DETAIL
100
AcDbLine
 10
22.12230353050387
 20
-9.599209062295344
 30
0.0
 11
22.55235265156868
 21
-9.599209062295344
 31
0.0
  0
LINE
  5
264
330
18
100
AcDbEntity
  8
ADP1DETAIL
100
AcDbLine
 10
22.55235265156868
 20
-9.599209062295344
 30
0.0
 11
22.62230353050387
 21
-9.505459062295344
 31
0.0
  0
TEXT
  5
272
330
18
100
AcDbEntity
  8
ADPDIM
100
AcDbText
 10
16.43938454530291
 20
-13.63550793751289
 30
0.0
 40
0.09375
  1
J U L I U S  B L U M  &  C O . ,  I N C .      ( 8 0 0 )  5 2 6 - 6 2 9 3        W W W . J U L I U S B L U M . C O M        P A R T  N o .  3 9 9
 41
1.25
  7
ARIAL_WIDE
 72
     1
 11
21.2654151984407
 21
-13.54175793751289
 31
0.0
100
AcDbText
 73
     3
  0
DIMENSION
  5
3FC
330
18
100
AcDbEntity
  8
ADPDIM
 62
     3
100
AcDbDimension
  2
*D5
 10
23.1196520769591
 20
-10.38045906229534
 30
0.0
 11
23.11965207695911
 21
-9.942959062295342
 31
0.0
 70
    32
 71
     5
 42
0.8749999999999982
  3
STANDARD
100
AcDbAlignedDimension
 13
22.62230353050387
 23
-9.505459062295345
 33
0.0
 14
22.62230353050388
 24
-10.38045906229534
 34
0.0
 50
90.0
100
AcDbRotatedDimension
1001
ACAD
1000
DSTYLE
1002
{
1070
   276
1070
     2
1070
   277
1070
     5
1070
    41
1040
0.125
1070
    73
1070
     0
1070
    74
1070
     0
1070
    78
1070
     3
1070
   140
1040
0.125
1070
   141
1040
0.1875
1070
   142
1040
0.125
1070
   147
1040
0.125
1070
   171
1070
     1
1002
}
  0
LINE
  5
43A
330
18
100
AcDbEntity
  8
ADP1DETAIL
100
AcDbLine
 10
19.90830266635626
 20
-10.37873512006962
 30
0.0
 11
19.78330266635626
 21
-10.12873512006962
 31
0.0
  0
LINE
  5
43B
330
18
100
AcDbEntity
  8
ADP1DETAIL
100
AcDbLine
 10
19.97825354529145
 20
-10.28498512006962
 30
0.0
 11
19.87705266635626
 21
-10.08258336219924
 31
0.0
  0
CIRCLE
  5
43C
330
18
100
AcDbEntity
  8
ADP1DETAIL
100
AcDbCircle
 10
20.15830266635626
 20
-9.944663931731836
 30
0.0
 40
0.1875
  0
LINE
  5
43D
330
18
100
AcDbEntity
  8
ADP1DETAIL
100
AcDbLine
 10
20.40986495128134
 20
-9.599167100500279
 30
0.0
 11
19.97981583021653
 21
-9.599167100500279
 31
0.0
  0
LINE
  5
43E
330
18
100
AcDbEntity
  8
ADP1DETAIL
100
AcDbLine
 10
20.40986495128134
 20
-9.505417100500279
 30
0.0
 11
19.90986495128134
 21
-9.505417100500279
 31
0.0
  0
CIRCLE
  5
43F
330
18
100
AcDbEntity
  8
ADP1DETAIL
100
AcDbCircle
 10
20.15830266635626
 20
-9.944663931731836
 30
0.0
 40
0.0939999999999994
  0
LINE
  5
440
330
18
100
AcDbEntity
  8
ADP1DETAIL
100
AcDbLine
 10
19.87705266635626
 20
-10.08258336219924
 30
0.0
 11
19.78330266635626
 21
-10.12873512006962
 31
0.0
  0
LINE
  5
441
330
18
100
AcDbEntity
  8
ADP1DETAIL
100
AcDbLine
 10
19.78486495128134
 20
-9.755417100500279
 30
0.0
 11
19.78486495128134
 21
-10.12796602998337
 31
0.0
  0
LINE
  5
442
330
18
100
AcDbEntity
  8
ADP1DETAIL
100
AcDbLine
 10
19.87861495128134
 20
-9.801568858370664
 30
0.0
 11
19.87705266635626
 21
-10.08258336219924
 31
0.0
  0
LINE
  5
443
330
18
100
AcDbEntity
  8
ADP1DETAIL
100
AcDbLine
 10
19.87861495128134
 20
-9.801568858370664
 30
0.0
 11
19.78486495128134
 21
-9.755417100500279
 31
0.0
  0
LINE
  5
444
330
18
100
AcDbEntity
  8
ADP1DETAIL
100
AcDbLine
 10
19.90986495128134
 20
-9.505417100500279
 30
0.0
 11
19.78486495128134
 21
-9.755417100500279
 31
0.0
  0
LINE
  5
445
330
18
100
AcDbEntity
  8
ADP1DETAIL
100
AcDbLine
 10
19.97981583021653
 20
-9.599167100500279
 30
0.0
 11
19.90986495128134
 21
-9.505417100500279
 31
0.0
  0
LINE
  5
446
330
18
100
AcDbEntity
  8
ADP1DETAIL
100
AcDbLine
 10
19.97981583021653
 20
-9.599167100500279
 30
0.0
 11
19.87861495128134
 21
-9.801568858370664
 31
0.0
  0
LINE
  5
447
330
18
100
AcDbEntity
  8
ADP1DETAIL
100
AcDbLine
 10
20.40830266635627
 20
-10.37873512006962
 30
0.0
 11
19.90830266635626
 21
-10.37873512006962
 31
0.0
  0
LINE
  5
448
330
18
100
AcDbEntity
  8
ADP1DETAIL
100
AcDbLine
 10
20.40830266635627
 20
-10.28498512006962
 30
0.0
 11
19.97825354529145
 21
-10.28498512006962
 31
0.0
  0
LINE
  5
449
330
18
100
AcDbEntity
  8
ADP1DETAIL
100
AcDbLine
 10
19.97825354529145
 20
-10.28498512006962
 30
0.0
 11
19.90830266635626
 21
-10.37873512006962
 31
0.0
  0
ENDSEC
  0
SECTION
  2
OBJECTS
  0
DICTIONARY
  5
C
330
0
100
AcDbDictionary
281
     1
  3
ACAD_COLOR
350
3F6
  3
ACAD_GROUP
350
D
  3
ACAD_LAYOUT
350
26B
  3
ACAD_MATERIAL
350
3E1
  3
ACAD_MLINESTYLE
350
E
  3
ACAD_PLOTSETTINGS
350
26C
  3
ACAD_PLOTSTYLENAME
350
269
  3
ACAD_TABLESTYLE
350
3F7
  3
ACAD_VISUALSTYLE
350
3E5
  3
AcDbVariableDictionary
350
2CC
  3
DWGPROPS
350
47D
  0
DICTIONARY
  5
2C6
330
18
100
AcDbDictionary
280
     1
281
     1
  3
ACAD_LAYOUTSELFREF
360
3DB
  0
DICTIONARY
  5
2C4
330
15
100
AcDbDictionary
280
     1
281
     1
  3
ACAD_LAYOUTSELFREF
360
3DA
  0
DICTIONARY
  5
3F6
102
{ACAD_REACTORS
330
C
102
}
330
C
100
AcDbDictionary
281
     1
  0
DICTIONARY
  5
D
102
{ACAD_REACTORS
330
C
102
}
330
C
100
AcDbDictionary
281
     1
  0
DICTIONARY
  5
26B
102
{ACAD_REACTORS
330
C
102
}
330
C
100
AcDbDictionary
281
     1
  3
Layout1
350
26E
  3
Model
350
26D
  0
DICTIONARY
  5
3E1
102
{ACAD_REACTORS
330
C
102
}
330
C
100
AcDbDictionary
281
     1
  3
ByBlock
350
3E3
  3
ByLayer
350
3E2
  3
Global
350
3E4
  0
DICTIONARY
  5
E
102
{ACAD_REACTORS
330
C
102
}
330
C
100
AcDbDictionary
281
     1
  3
STANDARD
350
1B
  0
DICTIONARY
  5
26C
102
{ACAD_REACTORS
330
C
102
}
330
C
100
AcDbDictionary
281
     1
  0
ACDBDICTIONARYWDFLT
  5
269
102
{ACAD_REACTORS
330
C
102
}
330
C
100
AcDbDictionary
281
     1
  3
Normal
350
26A
100
AcDbDictionaryWithDefault
340
26A
  0
DICTIONARY
  5
3F7
102
{ACAD_REACTORS
330
C
102
}
330
C
100
AcDbDictionary
281
     1
  3
Standard
350
3F8
  0
DICTIONARY
  5
3E5
102
{ACAD_REACTORS
330
C
102
}
330
C
100
AcDbDictionary
281
     1
  3
2dWireframe
350
3EB
  3
3D Hidden
350
3ED
  3
3dWireframe
350
3EC
  3
Basic
350
3EA
  3
Brighten
350
3F1
  3
ColorChange
350
3F5
  3
Conceptual
350
3EE
  3
Dim
350
3F0
  3
Facepattern
350
3F4
  3
Flat
350
3E6
  3
FlatWithEdges
350
3E7
  3
Gouraud
350
3E8
  3
GouraudWithEdges
350
3E9
  3
Linepattern
350
3F3
  3
Realistic
350
3EF
  3
Thicken
350
3F2
  0
DICTIONARY
  5
2CC
102
{ACAD_REACTORS
330
C
102
}
330
C
100
AcDbDictionary
281
     1
  3
CTABLESTYLE
350
47A
  3
DIMASSOC
350
2CD
  3
INDEXCTL
350
47C
  3
SORTENTS
350
47B
  0
XRECORD
  5
47D
102
{ACAD_REACTORS
330
C
102
}
330
C
100
AcDbXrecord
280
     1
  1
DWGPROPS COOKIE
  2

  3

  4

  6

  7

  8
Yu Hu
  9

300
=
301
=
302
=
303
=
304
=
305
=
306
=
307
=
308
=
309
=
 40
0.0142812384259259
 41
2450374.618085834
 42
2453954.7936
  1

 90
        0
  0
XRECORD
  5
3DB
102
{ACAD_REACTORS
330
2C6
102
}
330
2C6
100
AcDbXrecord
280
     1
340
18
  0
XRECORD
  5
3DA
102
{ACAD_REACTORS
330
2C4
102
}
330
2C4
100
AcDbXrecord
280
     1
340
15
  0
LAYOUT
  5
26E
102
{ACAD_XDICTIONARY
360
480
102
}
102
{ACAD_REACTORS
330
26B
102
}
330
26B
100
AcDbPlotSettings
  1

  2
Fax
  4

  6

 40
0.0
 41
0.0
 42
0.0
 43
0.0
 44
0.0
 45
0.0
 46
0.0
 47
0.0
 48
0.0
 49
0.0
140
0.0
141
0.0
142
1.0
143
1.0
 70
   688
 72
     0
 73
     0
 74
     5
  7
Default R14 pen assignments.ctb
 75
    16
147
1.0
148
0.0
149
0.0
100
AcDbLayout
  1
Layout1
 70
     1
 71
     1
 10
0.0
 20
0.0
 11
12.0
 21
9.0
 12
0.0
 22
0.0
 32
0.0
 14
1.000000000000000E+20
 24
1.000000000000000E+20
 34
1.000000000000000E+20
 15
-1.000000000000000E+20
 25
-1.000000000000000E+20
 35
-1.000000000000000E+20
146
0.0
 13
0.0
 23
0.0
 33
0.0
 16
1.0
 26
0.0
 36
0.0
 17
0.0
 27
1.0
 37
0.0
 76
     0
330
15
  0
LAYOUT
  5
26D
102
{ACAD_XDICTIONARY
360
47E
102
}
102
{ACAD_REACTORS
330
26B
102
}
330
26B
100
AcDbPlotSettings
  1

  2
Fax
  4

  6

 40
0.0
 41
0.0
 42
0.0
 43
0.0
 44
0.0
 45
0.0
 46
0.0
 47
0.0
 48
0.0
 49
0.0
140
0.0
141
0.0
142
1.0
143
1.0
 70
  1712
 72
     0
 73
     0
 74
     0
  7
Default R14 pen assignments.ctb
 75
     0
147
1.0
148
0.0
149
0.0
100
AcDbLayout
  1
Model
 70
     1
 71
     0
 10
0.0
 20
0.0
 11
12.0
 21
9.0
 12
0.0
 22
0.0
 32
0.0
 14
0.0
 24
0.0
 34
0.0
 15
0.0
 25
0.0
 35
0.0
146
0.0
 13
0.0
 23
0.0
 33
0.0
 16
1.0
 26
0.0
 36
0.0
 17
0.0
 27
1.0
 37
0.0
 76
     0
330
18
331
3B5
  0
MATERIAL
  5
3E3
102
{ACAD_XDICTIONARY
360
484
102
}
102
{ACAD_REACTORS
330
3E1
102
}
330
3E1
100
AcDbMaterial
  1
ByBlock
  0
MATERIAL
  5
3E2
102
{ACAD_XDICTIONARY
360
482
102
}
102
{ACAD_REACTORS
330
3E1
102
}
330
3E1
100
AcDbMaterial
  1
ByLayer
  0
MATERIAL
  5
3E4
102
{ACAD_XDICTIONARY
360
486
102
}
102
{ACAD_REACTORS
330
3E1
102
}
330
3E1
100
AcDbMaterial
  1
Global
  0
MLINESTYLE
  5
1B
102
{ACAD_REACTORS
330
E
102
}
330
E
100
AcDbMlineStyle
  2
STANDARD
 70
     0
  3

 62
     0
 51
90.0
 52
90.0
 71
     2
 49
0.5
 62
   256
  6
BYLAYER
 49
-0.5
 62
   256
  6
BYLAYER
  0
ACDBPLACEHOLDER
  5
26A
102
{ACAD_REACTORS
330
269
102
}
330
269
  0
TABLESTYLE
  5
3F8
102
{ACAD_XDICTIONARY
360
488
102
}
102
{ACAD_REACTORS
330
3F7
102
}
330
3F7
100
AcDbTableStyle
  3
Standard
 70
     0
 71
     0
 40
0.06
 41
0.06
280
     0
281
     0
  7
STANDARD
140
0.18
170
     2
 62
     0
 63
     7
283
     0
274
    -2
284
     1
 64
     0
275
    -2
285
     1
 65
     0
276
    -2
286
     1
 66
     0
277
    -2
287
     1
 67
     0
278
    -2
288
     1
 68
     0
279
    -2
289
     1
 69
     0
  7
STANDARD
140
0.25
170
     5
 62
     0
 63
     7
283
     0
274
    -2
284
     1
 64
     0
275
    -2
285
     1
 65
     0
276
    -2
286
     1
 66
     0
277
    -2
287
     1
 67
     0
278
    -2
288
     1
 68
     0
279
    -2
289
     1
 69
     0
  7
STANDARD
140
0.18
170
     5
 62
     0
 63
     7
283
     0
274
    -2
284
     1
 64
     0
275
    -2
285
     1
 65
     0
276
    -2
286
     1
 66
     0
277
    -2
287
     1
 67
     0
278
    -2
288
     1
 68
     0
279
    -2
289
     1
 69
     0
  0
VISUALSTYLE
  5
3EB
102
{ACAD_REACTORS
330
3E5
102
}
330
3E5
100
AcDbVisualStyle
  2
2dWireframe
 70
     4
 71
     0
 72
     2
 73
     0
 90
        0
 40
-0.6
 41
-30.0
 62
     5
 63
     7
 74
     1
 91
        4
 64
     7
 65
   257
 75
     1
175
     1
 42
1.0
 92
        0
 66
   257
 43
1.0
 76
     1
 77
     6
 78
     2
 67
     7
 79
     5
170
     0
171
     0
290
     0
174
     0
 93
        1
 44
0.0
173
     0
291
     0
 45
0.0
1001
ACAD
1000
AcDbSavedByObjectVersion
1070
     0
  0
VISUALSTYLE
  5
3ED
102
{ACAD_REACTORS
330
3E5
102
}
330
3E5
100
AcDbVisualStyle
  2
3D Hidden
 70
     6
 71
     1
 72
     2
 73
     2
 90
        0
 40
-0.6
 41
-30.0
 62
     5
 63
     7
 74
     2
 91
        2
 64
     7
 65
   257
 75
     2
175
     1
 42
40.0
 92
        0
 66
   257
 43
1.0
 76
     1
 77
     6
 78
     2
 67
     7
 79
     3
170
     0
171
     0
290
     0
174
     0
 93
        1
 44
0.0
173
     0
291
     0
 45
0.0
1001
ACAD
1000
AcDbSavedByObjectVersion
1070
     0
  0
VISUALSTYLE
  5
3EC
102
{ACAD_REACTORS
330
3E5
102
}
330
3E5
100
AcDbVisualStyle
  2
3dWireframe
 70
     5
 71
     0
 72
     2
 73
     0
 90
        0
 40
-0.6
 41
-30.0
 62
     5
 63
     7
 74
     1
 91
        4
 64
     7
 65
   257
 75
     1
175
     1
 42
1.0
 92
        0
 66
   257
 43
1.0
 76
     1
 77
     6
 78
     2
 67
     7
 79
     5
170
     0
171
     0
290
     0
174
     0
 93
        1
 44
0.0
173
     0
291
     0
 45
0.0
1001
ACAD
1000
AcDbSavedByObjectVersion
1070
     0
  0
VISUALSTYLE
  5
3EA
102
{ACAD_REACTORS
330
3E5
102
}
330
3E5
100
AcDbVisualStyle
  2
Basic
 70
     7
 71
     1
 72
     0
 73
     1
 90
        0
 40
-0.6
 41
-30.0
 62
     5
 63
     7
 74
     0
 91
        4
 64
     7
 65
   257
 75
     1
175
     1
 42
1.0
 92
        8
 66
     7
 43
1.0
 76
     1
 77
     6
 78
     2
 67
     7
 79
     5
170
     0
171
     0
290
     0
174
     0
 93
        1
 44
0.0
173
     0
291
     1
 45
0.0
1001
ACAD
1000
AcDbSavedByObjectVersion
1070
     0
  0
VISUALSTYLE
  5
3F1
102
{ACAD_REACTORS
330
3E5
102
}
330
3E5
100
AcDbVisualStyle
  2
Brighten
 70
    12
 71
     2
 72
     2
 73
     0
 90
        0
 40
-0.6
 41
-30.0
 62
     5
 63
     7
 74
     1
 91
        4
 64
     7
 65
   257
 75
     1
175
     1
 42
1.0
 92
        8
 66
     7
 43
1.0
 76
     1
 77
     6
 78
     2
 67
     7
 79
     5
170
     0
171
     0
290
     0
174
     0
 93
        1
 44
50.0
173
     0
291
     1
 45
0.0
1001
ACAD
1000
AcDbSavedByObjectVersion
1070
     0
  0
VISUALSTYLE
  5
3F5
102
{ACAD_REACTORS
330
3E5
102
}
330
3E5
100
AcDbVisualStyle
  2
ColorChange
 70
    16
 71
     2
 72
     2
 73
     3
 90
        0
 40
-0.6
 41
-30.0
 62
     5
 63
     8
 74
     1
 91
        4
 64
     7
 65
   257
 75
     1
175
     1
 42
1.0
 92
        8
 66
     8
 43
1.0
 76
     1
 77
     6
 78
     2
 67
     7
 79
     5
170
     0
171
     0
290
     0
174
     0
 93
        1
 44
0.0
173
     0
291
     1
 45
0.0
1001
ACAD
1000
AcDbSavedByObjectVersion
1070
     0
  0
VISUALSTYLE
  5
3EE
102
{ACAD_REACTORS
330
3E5
102
}
330
3E5
100
AcDbVisualStyle
  2
Conceptual
 70
     9
 71
     3
 72
     2
 73
     0
 90
        0
 40
-0.6
 41
-30.0
 62
     5
 63
     7
 74
     2
 91
        2
 64
     7
 65
   257
 75
     1
175
     1
 42
40.0
 92
        8
 66
     7
 43
1.0
 76
     1
 77
     6
 78
     2
 67
     7
 79
     3
170
     0
171
     0
290
     0
174
     0
 93
        1
 44
0.0
173
     0
291
     0
 45
0.0
1001
ACAD
1000
AcDbSavedByObjectVersion
1070
     0
  0
VISUALSTYLE
  5
3F0
102
{ACAD_REACTORS
330
3E5
102
}
330
3E5
100
AcDbVisualStyle
  2
Dim
 70
    11
 71
     2
 72
     2
 73
     0
 90
        0
 40
-0.6
 41
-30.0
 62
     5
 63
     7
 74
     1
 91
        4
 64
     7
 65
   257
 75
     1
175
     1
 42
1.0
 92
        8
 66
     7
 43
1.0
 76
     1
 77
     6
 78
     2
 67
     7
 79
     5
170
     0
171
     0
290
     0
174
     0
 93
        1
 44
-50.0
173
     0
291
     1
 45
0.0
1001
ACAD
1000
AcDbSavedByObjectVersion
1070
     0
  0
VISUALSTYLE
  5
3F4
102
{ACAD_REACTORS
330
3E5
102
}
330
3E5
100
AcDbVisualStyle
  2
Facepattern
 70
    15
 71
     2
 72
     2
 73
     0
 90
        0
 40
-0.6
 41
-30.0
 62
     5
 63
     7
 74
     1
 91
        4
 64
     7
 65
   257
 75
     1
175
     1
 42
1.0
 92
        8
 66
     7
 43
1.0
 76
     1
 77
     6
 78
     2
 67
     7
 79
     5
170
     0
171
     0
290
     0
174
     0
 93
        1
 44
0.0
173
     0
291
     1
 45
0.0
1001
ACAD
1000
AcDbSavedByObjectVersion
1070
     0
  0
VISUALSTYLE
  5
3E6
102
{ACAD_REACTORS
330
3E5
102
}
330
3E5
100
AcDbVisualStyle
  2
Flat
 70
     0
 71
     2
 72
     1
 73
     1
 90
        2
 40
-0.6
 41
30.0
 62
     5
 63
     7
 74
     0
 91
        4
 64
     7
 65
   257
 75
     1
175
     1
 42
1.0
 92
        8
 66
     7
 43
1.0
 76
     1
 77
     6
 78
     2
 67
     7
 79
     5
170
     0
171
     0
290
     0
174
     0
 93
       13
 44
0.0
173
     0
291
     1
 45
0.0
1001
ACAD
1000
AcDbSavedByObjectVersion
1070
     0
  0
VISUALSTYLE
  5
3E7
102
{ACAD_REACTORS
330
3E5
102
}
330
3E5
100
AcDbVisualStyle
  2
FlatWithEdges
 70
     1
 71
     2
 72
     1
 73
     1
 90
        2
 40
-0.6
 41
30.0
 62
     5
 63
     7
 74
     1
 91
        4
 64
     7
 65
   257
 75
     1
175
     1
 42
1.0
 92
        0
 66
   257
 43
1.0
 76
     1
 77
     6
 78
     2
 67
     7
 79
     5
170
     0
171
     0
290
     0
174
     0
 93
       13
 44
0.0
173
     0
291
     1
 45
0.0
1001
ACAD
1000
AcDbSavedByObjectVersion
1070
     0
  0
VISUALSTYLE
  5
3E8
102
{ACAD_REACTORS
330
3E5
102
}
330
3E5
100
AcDbVisualStyle
  2
Gouraud
 70
     2
 71
     2
 72
     2
 73
     1
 90
        2
 40
-0.6
 41
30.0
 62
     5
 63
     7
 74
     0
 91
        4
 64
     7
 65
   257
 75
     1
175
     1
 42
1.0
 92
        0
 66
     7
 43
1.0
 76
     1
 77
     6
 78
     2
 67
     7
 79
     5
170
     0
171
     0
290
     0
174
     0
 93
       13
 44
0.0
173
     0
291
     1
 45
0.0
1001
ACAD
1000
AcDbSavedByObjectVersion
1070
     0
  0
VISUALSTYLE
  5
3E9
102
{ACAD_REACTORS
330
3E5
102
}
330
3E5
100
AcDbVisualStyle
  2
GouraudWithEdges
 70
     3
 71
     2
 72
     2
 73
     1
 90
        2
 40
-0.6
 41
30.0
 62
     5
 63
     7
 74
     1
 91
        4
 64
     7
 65
   257
 75
     1
175
     1
 42
1.0
 92
        0
 66
   257
 43
1.0
 76
     1
 77
     6
 78
     2
 67
     7
 79
     5
170
     0
171
     0
290
     0
174
     0
 93
       13
 44
0.0
173
     0
291
     1
 45
0.0
1001
ACAD
1000
AcDbSavedByObjectVersion
1070
     0
  0
VISUALSTYLE
  5
3F3
102
{ACAD_REACTORS
330
3E5
102
}
330
3E5
100
AcDbVisualStyle
  2
Linepattern
 70
    14
 71
     2
 72
     2
 73
     0
 90
        0
 40
-0.6
 41
-30.0
 62
     5
 63
     7
 74
     1
 91
        4
 64
     7
 65
   257
 75
     7
175
     7
 42
1.0
 92
        8
 66
     7
 43
1.0
 76
     1
 77
     6
 78
     2
 67
     7
 79
     5
170
     0
171
     0
290
     0
174
     0
 93
        1
 44
0.0
173
     0
291
     1
 45
0.0
1001
ACAD
1000
AcDbSavedByObjectVersion
1070
     0
  0
VISUALSTYLE
  5
3EF
102
{ACAD_REACTORS
330
3E5
102
}
330
3E5
100
AcDbVisualStyle
  2
Realistic
 70
     8
 71
     2
 72
     2
 73
     0
 90
        0
 40
-0.6
 41
-30.0
 62
     5
 63
     7
 74
     1
 91
        0
 64
     7
 65
   257
 75
     1
175
     1
 42
1.0
 92
        8
 66
     8
 43
1.0
 76
     1
 77
     6
 78
     2
 67
     7
 79
     5
170
     0
171
     0
290
     0
174
     0
 93
       13
 44
0.0
173
     0
291
     0
 45
0.0
1001
ACAD
1000
AcDbSavedByObjectVersion
1070
     0
  0
VISUALSTYLE
  5
3F2
102
{ACAD_REACTORS
330
3E5
102
}
330
3E5
100
AcDbVisualStyle
  2
Thicken
 70
    13
 71
     2
 72
     2
 73
     0
 90
        0
 40
-0.6
 41
-30.0
 62
     5
 63
     7
 74
     1
 91
        4
 64
     7
 65
   257
 75
     1
175
     1
 42
1.0
 92
       12
 66
     7
 43
1.0
 76
     1
 77
     6
 78
     2
 67
     7
 79
     5
170
     0
171
     0
290
     0
174
     0
 93
        1
 44
0.0
173
     0
291
     1
 45
0.0
1001
ACAD
1000
AcDbSavedByObjectVersion
1070
     0
  0
DICTIONARYVAR
  5
47A
102
{ACAD_REACTORS
330
2CC
102
}
330
2CC
100
DictionaryVariables
280
     0
  1
STANDARD
  0
DICTIONARYVAR
  5
2CD
102
{ACAD_REACTORS
330
2CC
102
}
330
2CC
100
DictionaryVariables
280
     0
  1
1
  0
DICTIONARYVAR
  5
47C
102
{ACAD_REACTORS
330
2CC
102
}
330
2CC
100
DictionaryVariables
280
     0
  1
0
  0
DICTIONARYVAR
  5
47B
102
{ACAD_REACTORS
330
2CC
102
}
330
2CC
100
DictionaryVariables
280
     0
  1
127
  0
DICTIONARY
  5
480
330
26E
100
AcDbDictionary
280
     1
281
     1
  3
ACAD_XREC_ROUNDTRIP
360
481
  0
DICTIONARY
  5
47E
330
26D
100
AcDbDictionary
280
     1
281
     1
  3
ACAD_XREC_ROUNDTRIP
360
47F
  0
DICTIONARY
  5
484
330
3E3
100
AcDbDictionary
280
     1
281
     1
  3
ACAD_XREC_ROUNDTRIP
360
485
  0
DICTIONARY
  5
482
330
3E2
100
AcDbDictionary
280
     1
281
     1
  3
ACAD_XREC_ROUNDTRIP
360
483
  0
DICTIONARY
  5
486
330
3E4
100
AcDbDictionary
280
     1
281
     1
  3
ACAD_XREC_ROUNDTRIP
360
487
  0
DICTIONARY
  5
488
330
3F8
100
AcDbDictionary
280
     1
281
     1
  3
ACAD_XREC_ROUNDTRIP
360
489
  0
XRECORD
  5
481
102
{ACAD_REACTORS
330
480
102
}
330
480
100
AcDbXrecord
280
     1
102
SHADEPLOT
 70
     0
102
SHADEPLOTRESLEVEL
 70
     2
102
SHADEPLOTCUSTOMDPI
 70
   300
  0
XRECORD
  5
47F
102
{ACAD_REACTORS
330
47E
102
}
330
47E
100
AcDbXrecord
280
     1
102
SHADEPLOT
 70
     0
102
SHADEPLOTRESLEVEL
 70
     2
102
SHADEPLOTCUSTOMDPI
 70
   300
  0
XRECORD
  5
485
102
{ACAD_REACTORS
330
484
102
}
330
484
100
AcDbXrecord
280
     1
102
MATERIAL
148
0.0
149
0.0
149
0.0
 93
        0
 94
       63
282
     0
 72
     1
 77
     1
171
     1
175
     1
179
     1
273
     0
  0
XRECORD
  5
483
102
{ACAD_REACTORS
330
482
102
}
330
482
100
AcDbXrecord
280
     1
102
MATERIAL
148
0.0
149
0.0
149
0.0
 93
        0
 94
       63
282
     0
 72
     1
 77
     1
171
     1
175
     1
179
     1
273
     0
  0
XRECORD
  5
487
102
{ACAD_REACTORS
330
486
102
}
330
486
100
AcDbXrecord
280
     1
102
MATERIAL
148
0.0
149
0.0
149
0.0
 93
        0
 94
       63
282
     0
 72
     1
 77
     1
171
     1
175
     1
179
     1
273
     0
  0
XRECORD
  5
489
102
{ACAD_REACTORS
330
488
102
}
330
488
100
AcDbXrecord
280
     1
102
ACAD_ROUNDTRIP_PRE2007_TABLESTYLE
 90
      512
 91
        0
  1

 92
      512
 93
        0
  2

 94
      512
 95
        0
  3

  0
ENDSEC
  0
EOF
