  0
SECTION
  2
HEADER
  9
$ACADVER
  1
AC1014
  9
$ACADMAINTVER
 70
     9
  9
$DWGCODEPAGE
  3
ANSI_1252
  9
$INSBASE
 10
9.625888500834385
 20
-12.66941802116746
 30
0.0
  9
$EXTMIN
 10
3.504343661576353
 20
-13.58943412906676
 30
0.0
  9
$EXTMAX
 10
13.15640496785193
 20
-9.584971077434818
 30
0.0
  9
$LIMMIN
 10
0.0
 20
0.0
  9
$LIMMAX
 10
36.0
 20
36.0
  9
$ORTHOMODE
 70
     1
  9
$REGENMODE
 70
     1
  9
$FILLMODE
 70
     1
  9
$QTEXTMODE
 70
     0
  9
$MIRRTEXT
 70
     1
  9
$DRAGMODE
 70
     0
  9
$LTSCALE
 40
1.0
  9
$OSMODE
 70
    37
  9
$ATTMODE
 70
     1
  9
$TEXTSIZE
 40
0.2
  9
$TRACEWID
 40
0.05
  9
$TEXTSTYLE
  7
STANDARD
  9
$CLAYER
  8
ADP1DETAIL
  9
$CELTYPE
  6
BYLAYER
  9
$CECOLOR
 62
   256
  9
$CELTSCALE
 40
1.0
  9
$DELOBJ
 70
     1
  9
$DISPSILH
 70
     0
  9
$DIMSCALE
 40
1.0
  9
$DIMASZ
 40
0.125
  9
$DIMEXO
 40
0.0625
  9
$DIMDLI
 40
0.38
  9
$DIMRND
 40
0.0
  9
$DIMDLE
 40
0.0
  9
$DIMEXE
 40
0.18
  9
$DIMTP
 40
0.0
  9
$DIMTM
 40
0.0
  9
$DIMTXT
 40
0.125
  9
$DIMCEN
 40
0.1875
  9
$DIMTSZ
 40
0.125
  9
$DIMTOL
 70
     0
  9
$DIMLIM
 70
     0
  9
$DIMTIH
 70
     0
  9
$DIMTOH
 70
     0
  9
$DIMSE1
 70
     0
  9
$DIMSE2
 70
     0
  9
$DIMTAD
 70
     0
  9
$DIMZIN
 70
     3
  9
$DIMBLK
  1

  9
$DIMASO
 70
     1
  9
$DIMSHO
 70
     1
  9
$DIMPOST
  1

  9
$DIMAPOST
  1

  9
$DIMALT
 70
     0
  9
$DIMALTD
 70
     1
  9
$DIMALTF
 40
25.4
  9
$DIMLFAC
 40
1.0
  9
$DIMTOFL
 70
     0
  9
$DIMTVP
 40
0.0
  9
$DIMTIX
 70
     0
  9
$DIMSOXD
 70
     0
  9
$DIMSAH
 70
     0
  9
$DIMBLK1
  1

  9
$DIMBLK2
  1

  9
$DIMSTYLE
  2
STANDARD
  9
$DIMCLRD
 70
     0
  9
$DIMCLRE
 70
     0
  9
$DIMCLRT
 70
     0
  9
$DIMTFAC
 40
1.0
  9
$DIMGAP
 40
0.125
  9
$DIMJUST
 70
     0
  9
$DIMSD1
 70
     0
  9
$DIMSD2
 70
     0
  9
$DIMTOLJ
 70
     1
  9
$DIMTZIN
 70
     0
  9
$DIMALTZ
 70
     0
  9
$DIMALTTZ
 70
     0
  9
$DIMFIT
 70
     3
  9
$DIMUPT
 70
     0
  9
$DIMUNIT
 70
     2
  9
$DIMDEC
 70
     4
  9
$DIMTDEC
 70
     4
  9
$DIMALTU
 70
     2
  9
$DIMALTTD
 70
     2
  9
$DIMTXSTY
  7
STANDARD
  9
$DIMAUNIT
 70
     0
  9
$LUNITS
 70
     5
  9
$LUPREC
 70
     4
  9
$SKETCHINC
 40
0.1
  9
$FILLETRAD
 40
0.0
  9
$AUNITS
 70
     0
  9
$AUPREC
 70
     0
  9
$MENU
  1
acad
  9
$ELEVATION
 40
0.0
  9
$PELEVATION
 40
0.0
  9
$THICKNESS
 40
0.0
  9
$LIMCHECK
 70
     0
  9
$BLIPMODE
 70
     0
  9
$CHAMFERA
 40
0.0
  9
$CHAMFERB
 40
0.0
  9
$CHAMFERC
 40
0.0
  9
$CHAMFERD
 40
0.0
  9
$SKPOLY
 70
     0
  9
$TDCREATE
 40
2450374.636585833
  9
$TDUPDATE
 40
2452297.069610995
  9
$TDINDWG
 40
0.0052923958
  9
$TDUSRTIMER
 40
0.0052923958
  9
$USRTIMER
 70
     1
  9
$ANGBASE
 50
0.0
  9
$ANGDIR
 70
     0
  9
$PDMODE
 70
     0
  9
$PDSIZE
 40
0.0
  9
$PLINEWID
 40
0.0
  9
$COORDS
 70
     2
  9
$SPLFRAME
 70
     0
  9
$SPLINETYPE
 70
     6
  9
$SPLINESEGS
 70
     8
  9
$ATTDIA
 70
     0
  9
$ATTREQ
 70
     1
  9
$HANDLING
 70
 22529
  9
$HANDSEED
  5
257
  9
$SURFTAB1
 70
     6
  9
$SURFTAB2
 70
     6
  9
$SURFTYPE
 70
     6
  9
$SURFU
 70
     6
  9
$SURFV
 70
     6
  9
$UCSNAME
  2

  9
$UCSORG
 10
0.0
 20
0.0
 30
0.0
  9
$UCSXDIR
 10
1.0
 20
0.0
 30
0.0
  9
$UCSYDIR
 10
0.0
 20
1.0
 30
0.0
  9
$PUCSNAME
  2

  9
$PUCSORG
 10
0.0
 20
0.0
 30
0.0
  9
$PUCSXDIR
 10
1.0
 20
0.0
 30
0.0
  9
$PUCSYDIR
 10
0.0
 20
1.0
 30
0.0
  9
$USERI1
 70
     0
  9
$USERI2
 70
     0
  9
$USERI3
 70
     0
  9
$USERI4
 70
     0
  9
$USERI5
 70
     0
  9
$USERR1
 40
0.0
  9
$USERR2
 40
0.0
  9
$USERR3
 40
0.0
  9
$USERR4
 40
0.0
  9
$USERR5
 40
0.0
  9
$WORLDVIEW
 70
     1
  9
$SHADEDGE
 70
     3
  9
$SHADEDIF
 70
    70
  9
$TILEMODE
 70
     1
  9
$MAXACTVP
 70
    15
  9
$PINSBASE
 10
0.0
 20
0.0
 30
0.0
  9
$PLIMCHECK
 70
     0
  9
$PEXTMIN
 10
1.000000000000000E+20
 20
1.000000000000000E+20
 30
1.000000000000000E+20
  9
$PEXTMAX
 10
-1.000000000000000E+20
 20
-1.000000000000000E+20
 30
-1.000000000000000E+20
  9
$PLIMMIN
 10
0.0
 20
0.0
  9
$PLIMMAX
 10
12.0
 20
9.0
  9
$UNITMODE
 70
     0
  9
$VISRETAIN
 70
     0
  9
$PLINEGEN
 70
     0
  9
$PSLTSCALE
 70
     1
  9
$TREEDEPTH
 70
  3020
  9
$PICKSTYLE
 70
     1
  9
$CMLSTYLE
  2
STANDARD
  9
$CMLJUST
 70
     0
  9
$CMLSCALE
 40
1.0
  9
$PROXYGRAPHICS
 70
     1
  9
$MEASUREMENT
 70
     0
  0
ENDSEC
  0
SECTION
  2
CLASSES
  0
CLASS
  1
ACDBDICTIONARYWDFLT
  2
AcDbDictionaryWithDefault
  3
AutoCAD 2000
 90
        0
280
     0
281
     0
  0
CLASS
  1
ACDBPLACEHOLDER
  2
AcDbPlaceHolder
  3
AutoCAD 2000
 90
        0
280
     0
281
     0
  0
CLASS
  1
LAYOUT
  2
AcDbLayout
  3
AutoCAD 2000
 90
        0
280
     0
281
     0
  0
CLASS
  1
DICTIONARYVAR
  2
AcDbDictionaryVar
  3
AutoCAD 2000
 90
        0
280
     0
281
     0
  0
CLASS
  1
LONG_TRANSACTION
  2
AcDbLongTransaction
  3
AutoCAD 2000
 90
        0
280
     0
281
     0
  0
CLASS
  1
LWPOLYLINE
  2
AcDbPolyline
  3
AutoCAD 2000
 90
        0
280
     0
281
     1
  0
CLASS
  1
HATCH
  2
AcDbHatch
  3
AutoCAD 2000
 90
        0
280
     0
281
     1
  0
CLASS
  1
XRECORD
  2
AcDbXrecord
  3
AutoCAD 2000
 90
        0
280
     0
281
     0
  0
CLASS
  1
LONG_TRANSACTION
  2
AcDbLongTransaction
  3
AutoCAD 2000
 90
        0
280
     0
281
     0
  0
CLASS
  1
LWPOLYLINE
  2
AcDbPolyline
  3
AutoCAD 2000
 90
        0
280
     0
281
     1
  0
CLASS
  1
HATCH
  2
AcDbHatch
  3
AutoCAD 2000
 90
        0
280
     0
281
     1
  0
CLASS
  1
XRECORD
  2
AcDbXrecord
  3
AutoCAD 2000
 90
        0
280
     0
281
     0
  0
CLASS
  1
LONG_TRANSACTION
  2
AcDbLongTransaction
  3
AutoCAD 2000
 90
        0
280
     0
281
     0
  0
CLASS
  1
LWPOLYLINE
  2
AcDbPolyline
  3
AutoCAD 2000
 90
        0
280
     0
281
     1
  0
CLASS
  1
HATCH
  2
AcDbHatch
  3
AutoCAD 2000
 90
        0
280
     0
281
     1
  0
CLASS
  1
XRECORD
  2
AcDbXrecord
  3
AutoCAD 2000
 90
        0
280
     0
281
     0
  0
CLASS
  1
LONG_TRANSACTION
  2
AcDbLongTransaction
  3
AutoCAD 2000
 90
        0
280
     0
281
     0
  0
CLASS
  1
LWPOLYLINE
  2
AcDbPolyline
  3
AutoCAD 2000
 90
        0
280
     0
281
     1
  0
CLASS
  1
HATCH
  2
AcDbHatch
  3
AutoCAD 2000
 90
        0
280
     0
281
     1
  0
CLASS
  1
XRECORD
  2
AcDbXrecord
  3
AutoCAD 2000
 90
        0
280
     0
281
     0
  0
CLASS
  1
LONG_TRANSACTION
  2
AcDbLongTransaction
  3
AutoCAD 2000
 90
        0
280
     0
281
     0
  0
CLASS
  1
LWPOLYLINE
  2
AcDbPolyline
  3
AutoCAD 2000
 90
        0
280
     0
281
     1
  0
CLASS
  1
HATCH
  2
AcDbHatch
  3
AutoCAD 2000
 90
        0
280
     0
281
     1
  0
CLASS
  1
XRECORD
  2
AcDbXrecord
  3
AutoCAD 2000
 90
        0
280
     0
281
     0
  0
CLASS
  1
LONG_TRANSACTION
  2
AcDbLongTransaction
  3
AutoCAD 2000
 90
        0
280
     0
281
     0
  0
CLASS
  1
LWPOLYLINE
  2
AcDbPolyline
  3
AutoCAD 2000
 90
        0
280
     0
281
     1
  0
CLASS
  1
HATCH
  2
AcDbHatch
  3
AutoCAD 2000
 90
        0
280
     0
281
     1
  0
CLASS
  1
XRECORD
  2
AcDbXrecord
  3
AutoCAD 2000
 90
        0
280
     0
281
     0
  0
ENDSEC
  0
SECTION
  2
TABLES
  0
TABLE
  2
VPORT
  5
8
330
0
100
AcDbSymbolTable
 70
     2
  0
VPORT
  5
234
330
8
100
AcDbSymbolTableRecord
100
AcDbViewportTableRecord
  2
*ACTIVE
 70
     0
 10
0.0
 20
0.0
 11
1.0
 21
1.0
 12
8.330658031546814
 22
-11.58565747088026
 13
0.0
 23
0.0
 14
0.5740882589684922
 24
0.5740882589684922
 15
0.5
 25
0.5
 16
0.0
 26
0.0
 36
1.0
 17
0.0
 27
0.0
 37
0.0
 40
6.17666365773394
 41
1.570528967254408
 42
50.0
 43
0.0
 44
0.0
 50
0.0
 51
0.0
 71
     0
 72
   100
 73
     1
 74
     0
 75
     0
 76
     0
 77
     0
 78
     0
  0
ENDTAB
  0
TABLE
  2
LTYPE
  5
5
330
0
100
AcDbSymbolTable
 70
     2
  0
LTYPE
  5
12
330
5
100
AcDbSymbolTableRecord
100
AcDbLinetypeTableRecord
  2
BYBLOCK
 70
     0
  3

 72
    65
 73
     0
 40
0.0
  0
LTYPE
  5
13
330
5
100
AcDbSymbolTableRecord
100
AcDbLinetypeTableRecord
  2
BYLAYER
 70
     0
  3

 72
    65
 73
     0
 40
0.0
  0
LTYPE
  5
14
330
5
100
AcDbSymbolTableRecord
100
AcDbLinetypeTableRecord
  2
CONTINUOUS
 70
     0
  3
Solid line
 72
    65
 73
     0
 40
0.0
  0
LTYPE
  5
1F
330
5
100
AcDbSymbolTableRecord
100
AcDbLinetypeTableRecord
  2
HIDDEN2
 70
     0
  3
_ _ _ _ _ _ _ _ _ _ _ _ _ _ _ _ _ _ _ _ _ _ _ _
 72
    65
 73
     2
 40
0.1875
 49
0.125
 74
     0
 49
-0.0625
 74
     0
  0
ENDTAB
  0
TABLE
  2
LAYER
  5
2
330
0
100
AcDbSymbolTable
 70
     6
  0
LAYER
  5
F
330
2
100
AcDbSymbolTableRecord
100
AcDbLayerTableRecord
  2
0
 70
     0
 62
     7
  6
CONTINUOUS
  0
LAYER
  5
21
330
2
100
AcDbSymbolTableRecord
100
AcDbLayerTableRecord
  2
ADP2DETAILX
 70
     0
 62
     5
  6
CONTINUOUS
  0
LAYER
  5
22
330
2
100
AcDbSymbolTableRecord
100
AcDbLayerTableRecord
  2
ADPDIM1
 70
     0
 62
     3
  6
CONTINUOUS
  0
LAYER
  5
23
330
2
100
AcDbSymbolTableRecord
100
AcDbLayerTableRecord
  2
ADP1DETAIL
 70
     0
 62
     7
  6
CONTINUOUS
  0
LAYER
  5
24
330
2
100
AcDbSymbolTableRecord
100
AcDbLayerTableRecord
  2
DEFPOINTS
 70
     0
 62
     7
  6
CONTINUOUS
  0
LAYER
  5
95
330
2
100
AcDbSymbolTableRecord
100
AcDbLayerTableRecord
  2
ADPDIM
 70
     0
 62
     3
  6
CONTINUOUS
  0
ENDTAB
  0
TABLE
  2
STYLE
  5
3
330
0
100
AcDbSymbolTable
 70
     2
  0
STYLE
  5
10
330
3
100
AcDbSymbolTableRecord
100
AcDbTextStyleTableRecord
  2
STANDARD
 70
     0
 40
0.0
 41
1.0
 50
0.0
 71
     0
 42
0.2
  3
txt
  4

  0
STYLE
  5
96
330
3
100
AcDbSymbolTableRecord
100
AcDbTextStyleTableRecord
  2
ARIAL_WIDE
 70
     0
 40
0.0
 41
1.25
 50
0.0
 71
     0
 42
0.2
  3
ARIAL.TTF
  4

1001
ACAD
1000
Arial
1071
       34
  0
ENDTAB
  0
TABLE
  2
VIEW
  5
6
330
0
100
AcDbSymbolTable
 70
     0
  0
ENDTAB
  0
TABLE
  2
UCS
  5
7
330
0
100
AcDbSymbolTable
 70
     0
  0
ENDTAB
  0
TABLE
  2
APPID
  5
9
330
0
100
AcDbSymbolTable
 70
     1
  0
APPID
  5
11
330
9
100
AcDbSymbolTableRecord
100
AcDbRegAppTableRecord
  2
ACAD
 70
     0
  0
ENDTAB
  0
TABLE
  2
DIMSTYLE
  5
A
330
0
100
AcDbSymbolTable
 70
     1
  0
DIMSTYLE
105
89
330
A
100
AcDbSymbolTableRecord
100
AcDbDimStyleTableRecord
  2
STANDARD
 70
     0
  3

  4

  5

  6

  7

 40
1.0
 41
0.18
 42
0.0625
 43
0.38
 44
0.18
 45
0.0
 46
0.0
 47
0.0
 48
0.0
140
0.18
141
0.09
142
0.0
143
25.4
144
1.0
145
0.0
146
1.0
147
0.09
 71
     0
 72
     0
 73
     1
 74
     1
 75
     0
 76
     0
 77
     0
 78
     0
170
     0
171
     2
172
     0
173
     0
174
     0
175
     0
176
     0
177
     0
178
     0
270
     2
271
     4
272
     4
273
     2
274
     2
340
10
275
     0
280
     0
281
     0
282
     0
283
     1
284
     0
285
     0
286
     0
287
     3
288
     0
  0
ENDTAB
  0
TABLE
  2
BLOCK_RECORD
  5
1
330
0
100
AcDbSymbolTable
 70
     3
  0
BLOCK_RECORD
  5
18
102
{ACAD_XDICTIONARY
360
EB
102
}
330
1
100
AcDbSymbolTableRecord
100
AcDbBlockTableRecord
  2
*MODEL_SPACE
  0
BLOCK_RECORD
  5
15
102
{ACAD_XDICTIONARY
360
E9
102
}
330
1
100
AcDbSymbolTableRecord
100
AcDbBlockTableRecord
  2
*PAPER_SPACE
  0
BLOCK_RECORD
  5
1C
330
1
100
AcDbSymbolTableRecord
100
AcDbBlockTableRecord
  2
*D0
  0
BLOCK_RECORD
  5
1D
330
1
100
AcDbSymbolTableRecord
100
AcDbBlockTableRecord
  2
*D1
  0
BLOCK_RECORD
  5
1E
330
1
100
AcDbSymbolTableRecord
100
AcDbBlockTableRecord
  2
*D2
  0
ENDTAB
  0
ENDSEC
  0
SECTION
  2
BLOCKS
  0
BLOCK
  5
27
330
18
100
AcDbEntity
  8
0
100
AcDbBlockBegin
  2
*MODEL_SPACE
 70
     0
 10
0.0
 20
0.0
 30
0.0
  3
*MODEL_SPACE
  1

  0
ENDBLK
  5
28
330
18
100
AcDbEntity
  8
0
100
AcDbBlockEnd
  0
BLOCK
  5
25
330
15
100
AcDbEntity
 67
     1
  8
0
100
AcDbBlockBegin
  2
*PAPER_SPACE
 70
     0
 10
0.0
 20
0.0
 30
0.0
  3
*PAPER_SPACE
  1

  0
ENDBLK
  5
26
330
15
100
AcDbEntity
 67
     1
  8
0
100
AcDbBlockEnd
  0
BLOCK
  5
29
330
1C
100
AcDbEntity
  8
0
100
AcDbBlockBegin
  2
*D0
 70
     1
 10
0.0
 20
0.0
 30
0.0
  3
*D0
  1

  0
LINE
  5
2A
330
1C
100
AcDbEntity
  8
0
  6
BYBLOCK
 62
     0
100
AcDbLine
 10
9.677444133159362
 20
-12.66941802116746
 30
0.0
 11
10.07356478674503
 21
-12.66941802116746
 31
0.0
  0
LINE
  5
2B
330
1C
100
AcDbEntity
  8
0
  6
BYBLOCK
 62
     0
100
AcDbLine
 10
8.680275379084573
 20
-11.67887256662201
 30
0.0
 11
10.07356478674503
 21
-11.67887256662201
 31
0.0
  0
LINE
  5
2C
330
1C
100
AcDbEntity
  8
0
  6
BYBLOCK
 62
     0
100
AcDbLine
 10
9.893564786745038
 20
-12.66941802116746
 30
0.0
 11
9.893564786745038
 21
-12.31997862722807
 31
0.0
  0
LINE
  5
2D
330
1C
100
AcDbEntity
  8
0
  6
BYBLOCK
 62
     0
100
AcDbLine
 10
9.893564786745038
 20
-11.67887256662201
 30
0.0
 11
9.893564786745038
 21
-12.0283119605614
 31
0.0
  0
LINE
  5
2E
330
1C
100
AcDbEntity
  8
0
  6
BYBLOCK
 62
     0
100
AcDbLine
 10
10.01856478674503
 20
-12.79441802116746
 30
0.0
 11
9.768564786745038
 21
-12.54441802116746
 31
0.0
  0
LINE
  5
2F
330
1C
100
AcDbEntity
  8
0
  6
BYBLOCK
 62
     0
100
AcDbLine
 10
10.01856478674503
 20
-11.80387256662201
 30
0.0
 11
9.768564786745038
 21
-11.55387256662201
 31
0.0
  0
TEXT
  5
30
330
1C
100
AcDbEntity
  8
0
  6
BYBLOCK
 62
     0
100
AcDbText
 10
9.956064786745038
 20
-12.19497862722807
 30
0.0
 40
0.125
  1
1
 50
90.0
 72
     1
 11
9.893564786745038
 21
-12.17414529389474
 31
0.0
100
AcDbText
 73
     2
  0
POINT
  5
31
330
1C
100
AcDbEntity
  8
DEFPOINTS
  6
BYBLOCK
 62
     0
100
AcDbPoint
 10
9.614944133159362
 20
-12.66941802116746
 30
0.0
  0
POINT
  5
32
330
1C
100
AcDbEntity
  8
DEFPOINTS
  6
BYBLOCK
 62
     0
100
AcDbPoint
 10
8.617775379084573
 20
-11.67887256662201
 30
0.0
  0
POINT
  5
33
330
1C
100
AcDbEntity
  8
DEFPOINTS
  6
BYBLOCK
 62
     0
100
AcDbPoint
 10
9.893564786745038
 20
-11.67887256662201
 30
0.0
  0
ENDBLK
  5
34
330
1C
100
AcDbEntity
  8
0
100
AcDbBlockEnd
  0
BLOCK
  5
35
330
1D
100
AcDbEntity
  8
0
100
AcDbBlockBegin
  2
*D1
 70
     1
 10
0.0
 20
0.0
 30
0.0
  3
*D1
  1

  0
LINE
  5
36
330
1D
100
AcDbEntity
  8
0
  6
BYBLOCK
 62
     0
100
AcDbLine
 10
7.677856038710808
 20
-9.882531015441188
 30
0.0
 11
7.677856038710808
 21
-9.584971077434818
 31
0.0
  0
LINE
  5
37
330
1D
100
AcDbEntity
  8
0
  6
BYBLOCK
 62
     0
100
AcDbLine
 10
8.969717273820823
 20
-9.886232976858188
 30
0.0
 11
8.969717273820823
 21
-9.584971077434818
 31
0.0
  0
LINE
  5
38
330
1D
100
AcDbEntity
  8
0
  6
BYBLOCK
 62
     0
100
AcDbLine
 10
7.677856038710808
 20
-9.764971077434818
 30
0.0
 11
7.427856038710808
 21
-9.764971077434818
 31
0.0
  0
LINE
  5
39
330
1D
100
AcDbEntity
  8
0
  6
BYBLOCK
 62
     0
100
AcDbLine
 10
8.969717273820823
 20
-9.764971077434818
 30
0.0
 11
9.219717273820823
 21
-9.764971077434818
 31
0.0
  0
LINE
  5
3A
330
1D
100
AcDbEntity
  8
0
  6
BYBLOCK
 62
     0
100
AcDbLine
 10
7.552856038710808
 20
-9.889971077434818
 30
0.0
 11
7.802856038710808
 21
-9.639971077434818
 31
0.0
  0
LINE
  5
3B
330
1D
100
AcDbEntity
  8
0
  6
BYBLOCK
 62
     0
100
AcDbLine
 10
8.844717273820823
 20
-9.889971077434818
 30
0.0
 11
9.094717273820823
 21
-9.639971077434818
 31
0.0
  0
TEXT
  5
3C
330
1D
100
AcDbEntity
  8
0
  6
BYBLOCK
 62
     0
100
AcDbText
 10
9.344717273820823
 20
-9.827471077434818
 30
0.0
 40
0.125
  1
1 5/16
 72
     1
 11
9.657217273820823
 21
-9.764971077434818
 31
0.0
100
AcDbText
 73
     2
  0
POINT
  5
3D
330
1D
100
AcDbEntity
  8
DEFPOINTS
  6
BYBLOCK
 62
     0
100
AcDbPoint
 10
7.677856038710808
 20
-9.945031015441188
 30
0.0
  0
POINT
  5
3E
330
1D
100
AcDbEntity
  8
DEFPOINTS
  6
BYBLOCK
 62
     0
100
AcDbPoint
 10
8.969717273820823
 20
-9.948732976858188
 30
0.0
  0
POINT
  5
3F
330
1D
100
AcDbEntity
  8
DEFPOINTS
  6
BYBLOCK
 62
     0
100
AcDbPoint
 10
8.969717273820823
 20
-9.764971077434818
 30
0.0
  0
ENDBLK
  5
40
330
1D
100
AcDbEntity
  8
0
100
AcDbBlockEnd
  0
BLOCK
  5
41
330
1E
100
AcDbEntity
  8
0
100
AcDbBlockBegin
  2
*D2
 70
     1
 10
0.0
 20
0.0
 30
0.0
  3
*D2
  1

  0
LINE
  5
42
330
1E
100
AcDbEntity
  8
0
  6
BYBLOCK
 62
     0
100
AcDbLine
 10
8.142874314714141
 20
-11.61688631330858
 30
0.0
 11
8.142874314714141
 21
-11.34402084530202
 31
0.0
  0
LINE
  5
43
330
1E
100
AcDbEntity
  8
0
  6
BYBLOCK
 62
     0
100
AcDbLine
 10
8.517874314714141
 20
-11.61688631330858
 30
0.0
 11
8.517874314714141
 21
-11.34402084530202
 31
0.0
  0
LINE
  5
44
330
1E
100
AcDbEntity
  8
0
  6
BYBLOCK
 62
     0
100
AcDbLine
 10
8.142874314714141
 20
-11.52402084530202
 30
0.0
 11
7.892874314714141
 21
-11.52402084530202
 31
0.0
  0
LINE
  5
45
330
1E
100
AcDbEntity
  8
0
  6
BYBLOCK
 62
     0
100
AcDbLine
 10
8.517874314714141
 20
-11.52402084530202
 30
0.0
 11
8.767874314714141
 21
-11.52402084530202
 31
0.0
  0
LINE
  5
46
330
1E
100
AcDbEntity
  8
0
  6
BYBLOCK
 62
     0
100
AcDbLine
 10
8.017874314714141
 20
-11.64902084530202
 30
0.0
 11
8.267874314714141
 21
-11.39902084530203
 31
0.0
  0
LINE
  5
47
330
1E
100
AcDbEntity
  8
0
  6
BYBLOCK
 62
     0
100
AcDbLine
 10
8.392874314714141
 20
-11.64902084530202
 30
0.0
 11
8.642874314714141
 21
-11.39902084530203
 31
0.0
  0
TEXT
  5
48
330
1E
100
AcDbEntity
  8
0
  6
BYBLOCK
 62
     0
100
AcDbText
 10
8.892874314714141
 20
-11.58652084530203
 30
0.0
 40
0.125
  1
3/8
 72
     1
 11
9.059540981380807
 21
-11.52402084530202
 31
0.0
100
AcDbText
 73
     2
  0
POINT
  5
49
330
1E
100
AcDbEntity
  8
DEFPOINTS
  6
BYBLOCK
 62
     0
100
AcDbPoint
 10
8.142874314714141
 20
-11.67938631330858
 30
0.0
  0
POINT
  5
4A
330
1E
100
AcDbEntity
  8
DEFPOINTS
  6
BYBLOCK
 62
     0
100
AcDbPoint
 10
8.517874314714141
 20
-11.67938631330858
 30
0.0
  0
POINT
  5
4B
330
1E
100
AcDbEntity
  8
DEFPOINTS
  6
BYBLOCK
 62
     0
100
AcDbPoint
 10
8.517874314714141
 20
-11.52402084530202
 30
0.0
  0
ENDBLK
  5
4C
330
1E
100
AcDbEntity
  8
0
100
AcDbBlockEnd
  0
ENDSEC
  0
SECTION
  2
ENTITIES
  0
LWPOLYLINE
  5
4D
330
18
100
AcDbEntity
  8
ADP1DETAIL
 62
     7
100
AcDbPolyline
 90
        5
 70
     0
 43
0.0
 10
8.021034604991534
 20
-11.73875978515491
 42
0.3726747040441371
 10
7.841234759704952
 20
-11.86251373738065
 42
-0.2828226809680348
 10
7.985074677569683
 20
-12.09405340300423
 42
-0.400724899005989
 10
7.825252500347242
 20
-12.3415613524822
 42
-0.1080091317452124
 10
7.677417034991194
 20
-12.36551373323727
 42
0.0272864376584543
  0
LWPOLYLINE
  5
54
330
18
100
AcDbEntity
  8
ADP1DETAIL
 62
     7
100
AcDbPolyline
 90
        5
 70
     0
 43
0.0
 10
8.644340915738702
 20
-11.73875978515491
 42
-0.3726747040441371
 10
8.824140761025287
 20
-11.86251373738065
 42
0.2828226809680348
 10
8.680300843160555
 20
-12.09405340300423
 42
0.400724899005989
 10
8.840123020382996
 20
-12.3415613524822
 42
0.1080091317452124
 10
8.987958485739042
 20
-12.36551373323727
 42
-0.0272864376584543
  0
LINE
  5
5B
330
18
100
AcDbEntity
  8
ADP2DETAILX
  6
HIDDEN2
100
AcDbLine
 10
8.142874314714141
 20
-11.67938631330858
 30
0.0
 11
8.142874314714141
 21
-12.66941802116746
 31
0.0
  0
LINE
  5
5C
330
18
100
AcDbEntity
  8
ADP2DETAILX
  6
HIDDEN2
100
AcDbLine
 10
8.517874314714141
 20
-11.67938631330858
 30
0.0
 11
8.517874314714141
 21
-12.66941802116746
 31
0.0
  0
DIMENSION
  5
5D
330
18
100
AcDbEntity
  8
ADPDIM1
100
AcDbDimension
  2
*D0
 10
9.893564786745038
 20
-11.67887256662201
 30
0.0
 11
9.893564786745038
 21
-12.17414529389474
 31
0.0
100
AcDbAlignedDimension
 13
9.614944133159362
 23
-12.66941802116746
 33
0.0
 14
8.617775379084573
 24
-11.67887256662201
 34
0.0
 50
90.0
100
AcDbRotatedDimension
  0
LINE
  5
5E
330
18
100
AcDbEntity
  8
ADP1DETAIL
 62
     7
100
AcDbLine
 10
7.025297704051074
 20
-12.66941802116746
 30
0.0
 11
9.625888500834385
 21
-12.66941802116746
 31
0.0
  0
LINE
  5
5F
330
18
100
AcDbEntity
  8
ADP1DETAIL
 62
     7
100
AcDbLine
 10
9.625888500834385
 20
-12.54723620298564
 30
0.0
 11
8.986010678350506
 21
-12.54723620298564
 31
0.0
  0
LINE
  5
60
330
18
100
AcDbEntity
  8
ADP1DETAIL
 62
     7
100
AcDbLine
 10
7.674737951077779
 20
-12.36396347571292
 30
0.0
 11
8.986010678350506
 21
-12.36396347571292
 31
0.0
  0
LINE
  5
61
330
18
100
AcDbEntity
  8
ADP1DETAIL
 62
     7
100
AcDbLine
 10
8.986010678350506
 20
-12.66941802116746
 30
0.0
 11
7.674737951077779
 21
-12.66941802116746
 31
0.0
  0
LINE
  5
62
330
18
100
AcDbEntity
  8
ADP1DETAIL
 62
     7
100
AcDbLine
 10
7.025297704051074
 20
-12.54723620298564
 30
0.0
 11
7.025297704051074
 21
-12.66941802116746
 31
0.0
  0
LINE
  5
63
330
18
100
AcDbEntity
  8
ADP2DETAILX
  6
HIDDEN2
100
AcDbLine
 10
7.235018988630041
 20
-12.54617128515702
 30
0.0
 11
7.316202916601061
 21
-12.66628297380686
 31
0.0
  0
LINE
  5
64
330
18
100
AcDbEntity
  8
ADP1DETAIL
 62
     7
100
AcDbLine
 10
7.674737951077778
 20
-12.66941802116746
 30
0.0
 11
7.674737951077779
 21
-12.36396347571292
 31
0.0
  0
LINE
  5
65
330
18
100
AcDbEntity
  8
ADP2DETAILX
  6
HIDDEN2
100
AcDbLine
 10
7.588143738425638
 20
-12.54617128515702
 30
0.0
 11
7.506959810454618
 21
-12.66628297380686
 31
0.0
  0
LINE
  5
66
330
18
100
AcDbEntity
  8
ADP1DETAIL
 62
     7
100
AcDbLine
 10
8.986010678350506
 20
-12.36396347571292
 30
0.0
 11
8.986010678350506
 21
-12.66941802116746
 31
0.0
  0
LINE
  5
67
330
18
100
AcDbEntity
  8
ADP2DETAILX
  6
HIDDEN2
100
AcDbLine
 10
9.048701296645756
 20
-12.54617128515702
 30
0.0
 11
9.129885224616774
 21
-12.66628297380686
 31
0.0
  0
LINE
  5
68
330
18
100
AcDbEntity
  8
ADP2DETAILX
  6
HIDDEN2
100
AcDbLine
 10
9.401826046441353
 20
-12.54617128515702
 30
0.0
 11
9.320642118470331
 21
-12.66628297380686
 31
0.0
  0
LINE
  5
69
330
18
100
AcDbEntity
  8
ADP1DETAIL
 62
     7
100
AcDbLine
 10
9.625888500834385
 20
-12.66941802116746
 30
0.0
 11
9.625888500834385
 21
-12.54723620298564
 31
0.0
  0
LINE
  5
6A
330
18
100
AcDbEntity
  8
ADP1DETAIL
 62
     7
100
AcDbLine
 10
9.625888500834385
 20
-12.66941802116746
 30
0.0
 11
9.625888500834385
 21
-12.66941802116746
 31
0.0
  0
ARC
  5
6B
330
18
100
AcDbEntity
  8
ADP1DETAIL
100
AcDbCircle
 10
9.226642590717474
 20
-10.60125125286152
 30
0.0
 40
0.40625
100
AcDbArc
 50
270.5456823399789
 51
89.45431766002101
  0
DIMENSION
  5
6C
330
18
100
AcDbEntity
  8
ADPDIM1
100
AcDbDimension
  2
*D1
 10
8.969717273820823
 20
-9.764971077434818
 30
0.0
 11
9.657217273820823
 21
-9.764971077434818
 31
0.0
100
AcDbAlignedDimension
 13
7.677856038710808
 23
-9.945031015441188
 33
0.0
 14
8.969717273820823
 24
-9.948732976858188
 34
0.0
100
AcDbRotatedDimension
  0
CIRCLE
  5
6D
330
18
100
AcDbEntity
  8
ADP1DETAIL
100
AcDbCircle
 10
8.332556132895961
 20
-10.60269517301843
 30
0.0
 40
0.48859063813459
  0
CIRCLE
  5
6E
330
18
100
AcDbEntity
  8
ADP1DETAIL
100
AcDbCircle
 10
8.332556132895961
 20
-10.60269517301843
 30
0.0
 40
0.1896825139131669
  0
CIRCLE
  5
6F
330
18
100
AcDbEntity
  8
ADP1DETAIL
100
AcDbCircle
 10
8.332556132895961
 20
-10.60269517301843
 30
0.0
 40
0.3109090909090906
  0
LINE
  5
70
330
18
100
AcDbEntity
  8
ADP1DETAIL
 62
     7
100
AcDbLine
 10
8.820192496532325
 20
-11.86432711207655
 30
0.0
 11
7.849283405623233
 21
-11.86432711207655
 31
0.0
  0
LINE
  5
71
330
18
100
AcDbEntity
  8
ADP1DETAIL
 62
     7
100
AcDbLine
 10
8.02164704198687
 20
-11.73996347571292
 30
0.0
 11
8.643465223805051
 21
-11.73996347571292
 31
0.0
  0
LINE
  5
72
330
18
100
AcDbEntity
  8
ADP1DETAIL
 62
     7
100
AcDbLine
 10
8.643465223805051
 20
-11.67887256662201
 30
0.0
 11
8.02164704198687
 21
-11.67887256662201
 31
0.0
  0
LINE
  5
73
330
18
100
AcDbEntity
  8
ADP1DETAIL
 62
     7
100
AcDbLine
 10
8.643465223805051
 20
-11.73996347571292
 30
0.0
 11
8.02164704198687
 21
-11.73996347571292
 31
0.0
  0
DIMENSION
  5
74
330
18
100
AcDbEntity
  8
ADPDIM1
100
AcDbDimension
  2
*D2
 10
8.517874314714141
 20
-11.52402084530202
 30
0.0
 11
9.059540981380807
 21
-11.52402084530202
 31
0.0
100
AcDbAlignedDimension
 13
8.142874314714141
 23
-11.67938631330858
 33
0.0
 14
8.517874314714141
 24
-11.67938631330858
 34
0.0
100
AcDbRotatedDimension
  0
LINE
  5
75
330
18
100
AcDbEntity
  8
ADP1DETAIL
100
AcDbLine
 10
8.982892590717476
 20
-11.25376952886485
 30
0.0
 11
7.677856038710808
 21
-11.25376952886485
 31
0.0
  0
LINE
  5
76
330
18
100
AcDbEntity
  8
ADP1DETAIL
100
AcDbLine
 10
7.677856038710808
 20
-9.948732976858188
 30
0.0
 11
8.982892590717476
 21
-9.948732976858188
 31
0.0
  0
ARC
  5
77
330
18
100
AcDbEntity
  8
ADP1DETAIL
100
AcDbCircle
 10
7.434106038710807
 20
-10.60125125286152
 30
0.0
 40
0.40625
100
AcDbArc
 50
90.54568233997899
 51
269.4543176600209
  0
LINE
  5
78
330
18
100
AcDbEntity
  8
ADP1DETAIL
100
AcDbLine
 10
7.677856038710808
 20
-9.95058395756669
 30
0.0
 11
7.677856038710808
 21
-11.25562050957336
 31
0.0
  0
CIRCLE
  5
79
330
18
100
AcDbEntity
  8
ADP1DETAIL
100
AcDbCircle
 10
7.434106038710807
 20
-10.60125125286152
 30
0.0
 40
0.175
  0
CIRCLE
  5
7A
330
18
100
AcDbEntity
  8
ADP1DETAIL
100
AcDbCircle
 10
7.434106038710807
 20
-10.60125125286152
 30
0.0
 40
0.094
  0
ARC
  5
7B
330
18
100
AcDbEntity
  8
ADP1DETAIL
100
AcDbCircle
 10
7.427856038710808
 20
-11.25747149028186
 30
0.0
 40
0.25
100
AcDbArc
 50
0.0
 51
89.45431766002128
  0
LINE
  5
7C
330
18
100
AcDbEntity
  8
ADP1DETAIL
 62
     7
100
AcDbLine
 10
8.02164704198687
 20
-11.67887256662201
 30
0.0
 11
8.02164704198687
 21
-11.73996347571292
 31
0.0
  0
LINE
  5
7D
330
18
100
AcDbEntity
  8
ADP1DETAIL
100
AcDbLine
 10
7.677856038710808
 20
-11.25810858118744
 30
0.0
 11
7.677856038710808
 21
-11.25376952886485
 31
0.0
  0
LINE
  5
7E
330
18
100
AcDbEntity
  8
ADP1DETAIL
100
AcDbLine
 10
7.677856038710808
 20
-11.25747149028186
 30
0.0
 11
7.677856038710808
 21
-11.25376952886485
 31
0.0
  0
ARC
  5
7F
330
18
100
AcDbEntity
  8
ADP1DETAIL
100
AcDbCircle
 10
7.427856038710808
 20
-9.945031015441188
 30
0.0
 40
0.25
100
AcDbArc
 50
270.5456823399786
 51
0.0
  0
LINE
  5
80
330
18
100
AcDbEntity
  8
ADP1DETAIL
100
AcDbLine
 10
7.677856038710808
 20
-10.60125125286152
 30
0.0
 11
7.677856038710808
 21
-10.59754929144452
 31
0.0
  0
LINE
  5
81
330
18
100
AcDbEntity
  8
ADP1DETAIL
100
AcDbLine
 10
7.677856038710808
 20
-10.59691220053893
 30
0.0
 11
7.677856038710808
 21
-10.60125125286152
 31
0.0
  0
LINE
  5
82
330
18
100
AcDbEntity
  8
ADP1DETAIL
100
AcDbLine
 10
8.982892590717476
 20
-9.948732976858188
 30
0.0
 11
8.982892590717476
 21
-11.25376952886485
 31
0.0
  0
CIRCLE
  5
83
330
18
100
AcDbEntity
  8
ADP1DETAIL
100
AcDbCircle
 10
9.226642590717474
 20
-10.60125125286152
 30
0.0
 40
0.175
  0
CIRCLE
  5
84
330
18
100
AcDbEntity
  8
ADP1DETAIL
100
AcDbCircle
 10
9.226642590717474
 20
-10.60125125286152
 30
0.0
 40
0.094
  0
LINE
  5
85
330
18
100
AcDbEntity
  8
ADP1DETAIL
 62
     7
100
AcDbLine
 10
8.643465223805051
 20
-11.73996347571292
 30
0.0
 11
8.643465223805051
 21
-11.67887256662201
 31
0.0
  0
ARC
  5
86
330
18
100
AcDbEntity
  8
ADP1DETAIL
100
AcDbCircle
 10
9.232892590717472
 20
-11.25747149028186
 30
0.0
 40
0.25
100
AcDbArc
 50
90.54568233997871
 51
180.0
  0
ARC
  5
87
330
18
100
AcDbEntity
  8
ADP1DETAIL
100
AcDbCircle
 10
9.232892590717472
 20
-9.945031015441188
 30
0.0
 40
0.25
100
AcDbArc
 50
180.0
 51
269.4543176600213
  0
LINE
  5
88
330
18
100
AcDbEntity
  8
ADP1DETAIL
 62
     7
100
AcDbLine
 10
7.674737951077779
 20
-12.54723620298564
 30
0.0
 11
7.025297704051074
 21
-12.54723620298564
 31
0.0
  0
TEXT
  5
97
330
18
100
AcDbEntity
  8
ADPDIM
100
AcDbText
 10
3.504343661576353
 20
-13.56168003629732
 30
0.0
 40
0.09375
  1
J U L I U S  B L U M  &  C O . ,  I N C .      ( 8 0 0 )  5 2 6 - 6 2 9 3        W W W . J U L I U S B L U M . C O M        P A R T  N o .  3 9 5
 41
1.25
  7
ARIAL_WIDE
 72
     1
 11
8.330374314714143
 21
-13.46793003629732
 31
0.0
100
AcDbText
 73
     3
  0
ENDSEC
  0
SECTION
  2
OBJECTS
  0
DICTIONARY
  5
C
330
0
100
AcDbDictionary
  3
ACAD_GROUP
350
D
  3
ACAD_LAYOUT
350
8F
  3
ACAD_MLINESTYLE
350
E
  3
ACAD_PLOTSETTINGS
350
90
  3
ACAD_PLOTSTYLENAME
350
8D
  3
ACDBHEADERROUNDTRIPXREC
350
235
  3
ACDBVARIABLEDICTIONARY
350
F1
  0
DICTIONARY
  5
EB
330
18
100
AcDbDictionary
280
     1
  3
ACAD_LAYOUTSELFREF
360
256
  0
DICTIONARY
  5
E9
330
15
100
AcDbDictionary
280
     1
  3
ACAD_LAYOUTSELFREF
360
255
  0
DICTIONARY
  5
D
102
{ACAD_REACTORS
330
C
102
}
330
C
100
AcDbDictionary
  0
DICTIONARY
  5
8F
102
{ACAD_REACTORS
330
C
102
}
330
C
100
AcDbDictionary
  0
DICTIONARY
  5
E
102
{ACAD_REACTORS
330
C
102
}
330
C
100
AcDbDictionary
  3
STANDARD
350
1B
  0
DICTIONARY
  5
90
102
{ACAD_REACTORS
330
C
102
}
330
C
100
AcDbDictionary
  0
ACDBDICTIONARYWDFLT
  5
8D
102
{ACAD_REACTORS
330
C
102
}
330
C
100
AcDbDictionary
281
     1
  3
Normal
350
8E
100
AcDbDictionaryWithDefault
340
8E
  0
DICTIONARY
  5
235
102
{ACAD_REACTORS
330
C
102
}
330
C
100
AcDbDictionary
  3
CEPSNTYPE
350
23F
  3
FINGERPRINTGUID
350
240
  3
HYPERLINKBASE
350
238
  3
INSUNITS
350
23E
  3
LAYOUTDICT
350
23A
  3
LWETCUNION
350
23D
  3
PLOTSETDICT
350
23B
  3
PLOTSTYLNAMDICT
350
23C
  3
PSVPSCALE
350
242
  3
PUCSBASE
350
245
  3
PUCSORGBACK
350
24B
  3
PUCSORGBOTTOM
350
247
  3
PUCSORGFRONT
350
24A
  3
PUCSORGLEFT
350
248
  3
PUCSORGRIGHT
350
249
  3
PUCSORGTOP
350
246
  3
PUCSORTHOREF
350
243
  3
PUCSORTHOVIEW
350
244
  3
STYLESHEET
350
239
  3
TSTACKALIGN
350
236
  3
TSTACKSIZE
350
237
  3
UCSBASE
350
24E
  3
UCSORGBACK
350
254
  3
UCSORGBOTTOM
350
250
  3
UCSORGFRONT
350
253
  3
UCSORGLEFT
350
251
  3
UCSORGRIGHT
350
252
  3
UCSORGTOP
350
24F
  3
UCSORTHOREF
350
24C
  3
UCSORTHOVIEW
350
24D
  3
VERSIONGUID
350
241
  0
DICTIONARY
  5
F1
102
{ACAD_REACTORS
330
C
102
}
330
C
100
AcDbDictionary
  3
DIMASSOC
350
F2
  0
XRECORD
  5
256
102
{ACAD_REACTORS
330
EB
102
}
330
EB
100
AcDbXrecord
340
18
  0
XRECORD
  5
255
102
{ACAD_REACTORS
330
E9
102
}
330
E9
100
AcDbXrecord
340
15
  0
MLINESTYLE
  5
1B
102
{ACAD_REACTORS
330
E
102
}
330
E
100
AcDbMlineStyle
  2
STANDARD
 70
     0
  3

 62
     0
 51
90.0
 52
90.0
 71
     2
 49
0.5
 62
   256
  6
BYLAYER
 49
-0.5
 62
   256
  6
BYLAYER
  0
ACDBPLACEHOLDER
  5
8E
102
{ACAD_REACTORS
330
8D
102
}
330
8D
100
AcDbPlaceHolder
280
     0
  0
XRECORD
  5
23F
102
{ACAD_REACTORS
330
235
102
}
330
235
100
AcDbXrecord
 90
        0
  0
XRECORD
  5
240
102
{ACAD_REACTORS
330
235
102
}
330
235
100
AcDbXrecord
  1
{2BD1972A-837B-4FCB-AF8A-AEE01547A619}
  0
XRECORD
  5
238
102
{ACAD_REACTORS
330
235
102
}
330
235
100
AcDbXrecord
  1

  0
XRECORD
  5
23E
102
{ACAD_REACTORS
330
235
102
}
330
235
100
AcDbXrecord
 90
        0
  0
XRECORD
  5
23A
102
{ACAD_REACTORS
330
235
102
}
330
235
100
AcDbXrecord
340
8F
  0
XRECORD
  5
23D
102
{ACAD_REACTORS
330
235
102
}
330
235
100
AcDbXrecord
 90
    14877
  0
XRECORD
  5
23B
102
{ACAD_REACTORS
330
235
102
}
330
235
100
AcDbXrecord
340
90
  0
XRECORD
  5
23C
102
{ACAD_REACTORS
330
235
102
}
330
235
100
AcDbXrecord
340
8D
  0
XRECORD
  5
242
102
{ACAD_REACTORS
330
235
102
}
330
235
100
AcDbXrecord
 40
0.0
  0
XRECORD
  5
245
102
{ACAD_REACTORS
330
235
102
}
330
235
100
AcDbXrecord
340
0
  0
XRECORD
  5
24B
102
{ACAD_REACTORS
330
235
102
}
330
235
100
AcDbXrecord
 10
0.0
 20
0.0
 30
0.0
  0
XRECORD
  5
247
102
{ACAD_REACTORS
330
235
102
}
330
235
100
AcDbXrecord
 10
0.0
 20
0.0
 30
0.0
  0
XRECORD
  5
24A
102
{ACAD_REACTORS
330
235
102
}
330
235
100
AcDbXrecord
 10
0.0
 20
0.0
 30
0.0
  0
XRECORD
  5
248
102
{ACAD_REACTORS
330
235
102
}
330
235
100
AcDbXrecord
 10
0.0
 20
0.0
 30
0.0
  0
XRECORD
  5
249
102
{ACAD_REACTORS
330
235
102
}
330
235
100
AcDbXrecord
 10
0.0
 20
0.0
 30
0.0
  0
XRECORD
  5
246
102
{ACAD_REACTORS
330
235
102
}
330
235
100
AcDbXrecord
 10
0.0
 20
0.0
 30
0.0
  0
XRECORD
  5
243
102
{ACAD_REACTORS
330
235
102
}
330
235
100
AcDbXrecord
340
0
  0
XRECORD
  5
244
102
{ACAD_REACTORS
330
235
102
}
330
235
100
AcDbXrecord
 70
     0
  0
XRECORD
  5
239
102
{ACAD_REACTORS
330
235
102
}
330
235
100
AcDbXrecord
  1

  0
XRECORD
  5
236
102
{ACAD_REACTORS
330
235
102
}
330
235
100
AcDbXrecord
 90
        1
  0
XRECORD
  5
237
102
{ACAD_REACTORS
330
235
102
}
330
235
100
AcDbXrecord
 90
       70
  0
XRECORD
  5
24E
102
{ACAD_REACTORS
330
235
102
}
330
235
100
AcDbXrecord
340
0
  0
XRECORD
  5
254
102
{ACAD_REACTORS
330
235
102
}
330
235
100
AcDbXrecord
 10
0.0
 20
0.0
 30
0.0
  0
XRECORD
  5
250
102
{ACAD_REACTORS
330
235
102
}
330
235
100
AcDbXrecord
 10
0.0
 20
0.0
 30
0.0
  0
XRECORD
  5
253
102
{ACAD_REACTORS
330
235
102
}
330
235
100
AcDbXrecord
 10
0.0
 20
0.0
 30
0.0
  0
XRECORD
  5
251
102
{ACAD_REACTORS
330
235
102
}
330
235
100
AcDbXrecord
 10
0.0
 20
0.0
 30
0.0
  0
XRECORD
  5
252
102
{ACAD_REACTORS
330
235
102
}
330
235
100
AcDbXrecord
 10
0.0
 20
0.0
 30
0.0
  0
XRECORD
  5
24F
102
{ACAD_REACTORS
330
235
102
}
330
235
100
AcDbXrecord
 10
0.0
 20
0.0
 30
0.0
  0
XRECORD
  5
24C
102
{ACAD_REACTORS
330
235
102
}
330
235
100
AcDbXrecord
340
0
  0
XRECORD
  5
24D
102
{ACAD_REACTORS
330
235
102
}
330
235
100
AcDbXrecord
 70
     0
  0
XRECORD
  5
241
102
{ACAD_REACTORS
330
235
102
}
330
235
100
AcDbXrecord
  1
{1940107C-43F4-49F9-9D28-52BBE29FB3EC}
  0
DICTIONARYVAR
  5
F2
102
{ACAD_REACTORS
330
F1
102
}
330
F1
100
DictionaryVariables
280
     0
  1
1
  0
ENDSEC
  0
EOF
