  0
SECTION
  2
HEADER
  9
$ACADVER
  1
AC1015
  9
$ACADMAINTVER
 70
    20
  9
$DWGCODEPAGE
  3
ANSI_1252
  9
$INSBASE
 10
27.56558684847276
 20
-6.974004054168289
 30
0.0
  9
$EXTMIN
 10
20.23890393080553
 20
-8.603140435378236
 30
0.0
  9
$EXTMAX
 10
33.10831900583964
 20
-2.920316032665953
 30
0.0
  9
$LIMMIN
 10
0.0
 20
0.0
  9
$LIMMAX
 10
36.0
 20
36.0
  9
$ORTHOMODE
 70
     0
  9
$REGENMODE
 70
     1
  9
$FILLMODE
 70
     1
  9
$QTEXTMODE
 70
     0
  9
$MIRRTEXT
 70
     1
  9
$LTSCALE
 40
1.0
  9
$ATTMODE
 70
     1
  9
$TEXTSIZE
 40
0.2
  9
$TRACEWID
 40
0.05
  9
$TEXTSTYLE
  7
STANDARD
  9
$CLAYER
  8
ADP1DETAIL
  9
$CELTYPE
  6
BYLAYER
  9
$CECOLOR
 62
   256
  9
$CELTSCALE
 40
1.0
  9
$DISPSILH
 70
     0
  9
$DIMSCALE
 40
1.0
  9
$DIMASZ
 40
0.125
  9
$DIMEXO
 40
0.0625
  9
$DIMDLI
 40
0.38
  9
$DIMRND
 40
0.0
  9
$DIMDLE
 40
0.0
  9
$DIMEXE
 40
0.18
  9
$DIMTP
 40
0.0
  9
$DIMTM
 40
0.0
  9
$DIMTXT
 40
0.125
  9
$DIMCEN
 40
0.1875
  9
$DIMTSZ
 40
0.125
  9
$DIMTOL
 70
     0
  9
$DIMLIM
 70
     0
  9
$DIMTIH
 70
     0
  9
$DIMTOH
 70
     0
  9
$DIMSE1
 70
     0
  9
$DIMSE2
 70
     0
  9
$DIMTAD
 70
     0
  9
$DIMZIN
 70
     3
  9
$DIMBLK
  1

  9
$DIMASO
 70
     1
  9
$DIMSHO
 70
     1
  9
$DIMPOST
  1

  9
$DIMAPOST
  1

  9
$DIMALT
 70
     0
  9
$DIMALTD
 70
     1
  9
$DIMALTF
 40
25.4
  9
$DIMLFAC
 40
1.0
  9
$DIMTOFL
 70
     0
  9
$DIMTVP
 40
0.0
  9
$DIMTIX
 70
     0
  9
$DIMSOXD
 70
     0
  9
$DIMSAH
 70
     0
  9
$DIMBLK1
  1

  9
$DIMBLK2
  1

  9
$DIMSTYLE
  2
STANDARD
  9
$DIMCLRD
 70
     0
  9
$DIMCLRE
 70
     0
  9
$DIMCLRT
 70
     0
  9
$DIMTFAC
 40
1.0
  9
$DIMGAP
 40
0.125
  9
$DIMJUST
 70
     0
  9
$DIMSD1
 70
     0
  9
$DIMSD2
 70
     0
  9
$DIMTOLJ
 70
     1
  9
$DIMTZIN
 70
     0
  9
$DIMALTZ
 70
     0
  9
$DIMALTTZ
 70
     0
  9
$DIMUPT
 70
     0
  9
$DIMDEC
 70
     4
  9
$DIMTDEC
 70
     4
  9
$DIMALTU
 70
     2
  9
$DIMALTTD
 70
     2
  9
$DIMTXSTY
  7
STANDARD
  9
$DIMAUNIT
 70
     0
  9
$DIMADEC
 70
     0
  9
$DIMALTRND
 40
0.0
  9
$DIMAZIN
 70
     0
  9
$DIMDSEP
 70
    46
  9
$DIMATFIT
 70
     3
  9
$DIMFRAC
 70
     0
  9
$DIMLDRBLK
  1

  9
$DIMLUNIT
 70
     2
  9
$DIMLWD
 70
    -2
  9
$DIMLWE
 70
    -2
  9
$DIMTMOVE
 70
     0
  9
$LUNITS
 70
     5
  9
$LUPREC
 70
     4
  9
$SKETCHINC
 40
0.1
  9
$FILLETRAD
 40
0.0
  9
$AUNITS
 70
     0
  9
$AUPREC
 70
     0
  9
$MENU
  1
acad
  9
$ELEVATION
 40
0.0
  9
$PELEVATION
 40
0.0
  9
$THICKNESS
 40
0.0
  9
$LIMCHECK
 70
     0
  9
$CHAMFERA
 40
0.0
  9
$CHAMFERB
 40
0.0
  9
$CHAMFERC
 40
0.0
  9
$CHAMFERD
 40
0.0
  9
$SKPOLY
 70
     0
  9
$TDCREATE
 40
2450374.624095672
  9
$TDUCREATE
 40
2450374.790762338
  9
$TDUPDATE
 40
2453954.785903171
  9
$TDUUPDATE
 40
2453954.952569838
  9
$TDINDWG
 40
0.0062424769
  9
$TDUSRTIMER
 40
0.0062424769
  9
$USRTIMER
 70
     1
  9
$ANGBASE
 50
0.0
  9
$ANGDIR
 70
     0
  9
$PDMODE
 70
     0
  9
$PDSIZE
 40
0.0
  9
$PLINEWID
 40
0.0
  9
$SPLFRAME
 70
     0
  9
$SPLINETYPE
 70
     6
  9
$SPLINESEGS
 70
     8
  9
$HANDSEED
  5
436
  9
$SURFTAB1
 70
     6
  9
$SURFTAB2
 70
     6
  9
$SURFTYPE
 70
     6
  9
$SURFU
 70
     6
  9
$SURFV
 70
     6
  9
$UCSBASE
  2

  9
$UCSNAME
  2

  9
$UCSORG
 10
0.0
 20
0.0
 30
0.0
  9
$UCSXDIR
 10
1.0
 20
0.0
 30
0.0
  9
$UCSYDIR
 10
0.0
 20
1.0
 30
0.0
  9
$UCSORTHOREF
  2

  9
$UCSORTHOVIEW
 70
     0
  9
$UCSORGTOP
 10
0.0
 20
0.0
 30
0.0
  9
$UCSORGBOTTOM
 10
0.0
 20
0.0
 30
0.0
  9
$UCSORGLEFT
 10
0.0
 20
0.0
 30
0.0
  9
$UCSORGRIGHT
 10
0.0
 20
0.0
 30
0.0
  9
$UCSORGFRONT
 10
0.0
 20
0.0
 30
0.0
  9
$UCSORGBACK
 10
0.0
 20
0.0
 30
0.0
  9
$PUCSBASE
  2

  9
$PUCSNAME
  2

  9
$PUCSORG
 10
0.0
 20
0.0
 30
0.0
  9
$PUCSXDIR
 10
1.0
 20
0.0
 30
0.0
  9
$PUCSYDIR
 10
0.0
 20
1.0
 30
0.0
  9
$PUCSORTHOREF
  2

  9
$PUCSORTHOVIEW
 70
     0
  9
$PUCSORGTOP
 10
0.0
 20
0.0
 30
0.0
  9
$PUCSORGBOTTOM
 10
0.0
 20
0.0
 30
0.0
  9
$PUCSORGLEFT
 10
0.0
 20
0.0
 30
0.0
  9
$PUCSORGRIGHT
 10
0.0
 20
0.0
 30
0.0
  9
$PUCSORGFRONT
 10
0.0
 20
0.0
 30
0.0
  9
$PUCSORGBACK
 10
0.0
 20
0.0
 30
0.0
  9
$USERI1
 70
     0
  9
$USERI2
 70
     0
  9
$USERI3
 70
     0
  9
$USERI4
 70
     0
  9
$USERI5
 70
     0
  9
$USERR1
 40
0.0
  9
$USERR2
 40
0.0
  9
$USERR3
 40
0.0
  9
$USERR4
 40
0.0
  9
$USERR5
 40
0.0
  9
$WORLDVIEW
 70
     1
  9
$SHADEDGE
 70
     3
  9
$SHADEDIF
 70
    70
  9
$TILEMODE
 70
     1
  9
$MAXACTVP
 70
    15
  9
$PINSBASE
 10
0.0
 20
0.0
 30
0.0
  9
$PLIMCHECK
 70
     0
  9
$PEXTMIN
 10
1.000000000000000E+20
 20
1.000000000000000E+20
 30
1.000000000000000E+20
  9
$PEXTMAX
 10
-1.000000000000000E+20
 20
-1.000000000000000E+20
 30
-1.000000000000000E+20
  9
$PLIMMIN
 10
0.0
 20
0.0
  9
$PLIMMAX
 10
12.0
 20
9.0
  9
$UNITMODE
 70
     0
  9
$VISRETAIN
 70
     0
  9
$PLINEGEN
 70
     0
  9
$PSLTSCALE
 70
     1
  9
$TREEDEPTH
 70
  3020
  9
$CMLSTYLE
  2
STANDARD
  9
$CMLJUST
 70
     0
  9
$CMLSCALE
 40
1.0
  9
$PROXYGRAPHICS
 70
     1
  9
$MEASUREMENT
 70
     0
  9
$CELWEIGHT
370
    -1
  9
$ENDCAPS
280
     0
  9
$JOINSTYLE
280
     0
  9
$LWDISPLAY
290
     0
  9
$INSUNITS
 70
     0
  9
$HYPERLINKBASE
  1

  9
$STYLESHEET
  1

  9
$XEDIT
290
     1
  9
$CEPSNTYPE
380
     0
  9
$PSTYLEMODE
290
     1
  9
$FINGERPRINTGUID
  2
{8F8C3A4C-CE98-4642-80A2-2618E3BA51D7}
  9
$VERSIONGUID
  2
{656A5307-2D33-4260-BB27-2383F58CBA97}
  9
$EXTNAMES
290
     1
  9
$PSVPSCALE
 40
0.0
  9
$OLESTARTUP
290
     0
  0
ENDSEC
  0
SECTION
  2
CLASSES
  0
CLASS
  1
ACDBDICTIONARYWDFLT
  2
AcDbDictionaryWithDefault
  3
ObjectDBX Classes
 90
        0
280
     0
281
     0
  0
CLASS
  1
ACDBPLACEHOLDER
  2
AcDbPlaceHolder
  3
ObjectDBX Classes
 90
        0
280
     0
281
     0
  0
CLASS
  1
LAYOUT
  2
AcDbLayout
  3
ObjectDBX Classes
 90
        0
280
     0
281
     0
  0
CLASS
  1
DICTIONARYVAR
  2
AcDbDictionaryVar
  3
ObjectDBX Classes
 90
        0
280
     0
281
     0
  0
CLASS
  1
MATERIAL
  2
AcDbMaterial
  3
ObjectDBX Classes
 90
     1024
280
     0
281
     0
  0
CLASS
  1
VISUALSTYLE
  2
AcDbVisualStyle
  3
ObjectDBX Classes
 90
     4095
280
     0
281
     0
  0
CLASS
  1
TABLESTYLE
  2
AcDbTableStyle
  3
ObjectDBX Classes
 90
     4095
280
     0
281
     0
  0
ENDSEC
  0
SECTION
  2
TABLES
  0
TABLE
  2
VPORT
  5
8
330
0
100
AcDbSymbolTable
 70
     1
  0
VPORT
  5
38B
330
8
100
AcDbSymbolTableRecord
100
AcDbViewportTableRecord
  2
*Active
 70
     0
 10
0.0
 20
0.0
 11
1.0
 21
1.0
 12
26.75674051184801
 22
-5.861398377219027
 13
0.0
 23
0.0
 14
0.5740882589684922
 24
0.5740882589684922
 15
0.5
 25
0.5
 16
0.0
 26
0.0
 36
1.0
 17
0.0
 27
0.0
 37
0.0
 40
8.195668671607403
 41
1.774011299435028
 42
50.0
 43
0.0
 44
0.0
 50
0.0
 51
0.0
 71
     0
 72
   100
 73
     1
 74
     0
 75
     0
 76
     0
 77
     0
 78
     0
281
     0
 65
     1
110
0.0
120
0.0
130
0.0
111
1.0
121
0.0
131
0.0
112
0.0
122
1.0
132
0.0
 79
     0
146
0.0
  0
ENDTAB
  0
TABLE
  2
LTYPE
  5
5
330
0
100
AcDbSymbolTable
 70
     2
  0
LTYPE
  5
12
330
5
100
AcDbSymbolTableRecord
100
AcDbLinetypeTableRecord
  2
BYBLOCK
 70
     0
  3

 72
    65
 73
     0
 40
0.0
  0
LTYPE
  5
13
330
5
100
AcDbSymbolTableRecord
100
AcDbLinetypeTableRecord
  2
BYLAYER
 70
     0
  3

 72
    65
 73
     0
 40
0.0
  0
LTYPE
  5
14
330
5
100
AcDbSymbolTableRecord
100
AcDbLinetypeTableRecord
  2
CONTINUOUS
 70
     0
  3
Solid line
 72
    65
 73
     0
 40
0.0
  0
LTYPE
  5
1C6
330
5
100
AcDbSymbolTableRecord
100
AcDbLinetypeTableRecord
  2
HIDDEN2
 70
     0
  3
_ _ _ _ _ _ _ _ _ _ _ _ _ _ _ _ _ _ _ _ _ _ _ _
 72
    65
 73
     2
 40
0.1875
 49
0.125
 74
     0
 49
-0.0625
 74
     0
  0
ENDTAB
  0
TABLE
  2
LAYER
  5
2
330
0
100
AcDbSymbolTable
 70
     6
  0
LAYER
  5
F
330
2
100
AcDbSymbolTableRecord
100
AcDbLayerTableRecord
  2
0
 70
     0
 62
     7
  6
CONTINUOUS
370
    -3
390
23F
  0
LAYER
  5
1C7
330
2
100
AcDbSymbolTableRecord
100
AcDbLayerTableRecord
  2
ADP2DETAILX
 70
     0
 62
     5
  6
CONTINUOUS
370
    -3
390
23F
  0
LAYER
  5
1C8
330
2
100
AcDbSymbolTableRecord
100
AcDbLayerTableRecord
  2
ADPDIM1
 70
     0
 62
     3
  6
CONTINUOUS
370
    -3
390
23F
  0
LAYER
  5
1CA
330
2
100
AcDbSymbolTableRecord
100
AcDbLayerTableRecord
  2
ADP1DETAIL
 70
     0
 62
     7
  6
CONTINUOUS
370
    -3
390
23F
  0
LAYER
  5
1CC
330
2
100
AcDbSymbolTableRecord
100
AcDbLayerTableRecord
  2
DEFPOINTS
 70
     0
 62
     7
  6
CONTINUOUS
290
     0
370
    -3
390
23F
  0
LAYER
  5
246
330
2
100
AcDbSymbolTableRecord
100
AcDbLayerTableRecord
  2
ADPDIM
 70
     0
 62
     3
  6
CONTINUOUS
370
    -3
390
23F
  0
ENDTAB
  0
TABLE
  2
STYLE
  5
3
330
0
100
AcDbSymbolTable
 70
     2
  0
STYLE
  5
10
330
3
100
AcDbSymbolTableRecord
100
AcDbTextStyleTableRecord
  2
STANDARD
 70
     0
 40
0.0
 41
1.0
 50
0.0
 71
     0
 42
0.2
  3
txt
  4

  0
STYLE
  5
247
330
3
100
AcDbSymbolTableRecord
100
AcDbTextStyleTableRecord
  2
ARIAL_WIDE
 70
     0
 40
0.0
 41
1.25
 50
0.0
 71
     0
 42
0.2
  3
ARIAL.TTF
  4

1001
ACAD
1000
Arial
1071
       34
  0
ENDTAB
  0
TABLE
  2
VIEW
  5
6
330
0
100
AcDbSymbolTable
 70
     0
  0
ENDTAB
  0
TABLE
  2
UCS
  5
7
330
0
100
AcDbSymbolTable
 70
     0
  0
ENDTAB
  0
TABLE
  2
APPID
  5
9
330
0
100
AcDbSymbolTable
 70
     1
  0
APPID
  5
11
330
9
100
AcDbSymbolTableRecord
100
AcDbRegAppTableRecord
  2
ACAD
 70
     0
  0
ENDTAB
  0
TABLE
  2
DIMSTYLE
  5
A
330
0
100
AcDbSymbolTable
 70
     1
100
AcDbDimStyleTable
 71
     1
340
23A
  0
DIMSTYLE
105
23A
102
{ACAD_REACTORS
330
3D2
102
}
330
A
100
AcDbSymbolTableRecord
100
AcDbDimStyleTableRecord
  2
STANDARD
 70
     0
340
10
  0
ENDTAB
  0
TABLE
  2
BLOCK_RECORD
  5
1
330
0
100
AcDbSymbolTable
 70
     4
  0
BLOCK_RECORD
  5
18
102
{ACAD_XDICTIONARY
360
29C
102
}
330
1
100
AcDbSymbolTableRecord
100
AcDbBlockTableRecord
  2
*MODEL_SPACE
340
242
  0
BLOCK_RECORD
  5
15
102
{ACAD_XDICTIONARY
360
29A
102
}
330
1
100
AcDbSymbolTableRecord
100
AcDbBlockTableRecord
  2
*PAPER_SPACE
340
243
  0
BLOCK_RECORD
  5
1C2
330
1
100
AcDbSymbolTableRecord
100
AcDbBlockTableRecord
  2
*D0
340
0
  0
BLOCK_RECORD
  5
1C3
330
1
100
AcDbSymbolTableRecord
100
AcDbBlockTableRecord
  2
*D1
340
0
  0
BLOCK_RECORD
  5
1C4
330
1
100
AcDbSymbolTableRecord
100
AcDbBlockTableRecord
  2
*D2
340
0
  0
BLOCK_RECORD
  5
3D3
330
1
100
AcDbSymbolTableRecord
100
AcDbBlockTableRecord
  2
*D3
340
0
  0
ENDTAB
  0
ENDSEC
  0
SECTION
  2
BLOCKS
  0
BLOCK
  5
1CF
330
18
100
AcDbEntity
  8
0
100
AcDbBlockBegin
  2
*MODEL_SPACE
 70
     0
 10
0.0
 20
0.0
 30
0.0
  3
*MODEL_SPACE
  1

  0
ENDBLK
  5
1D0
330
18
100
AcDbEntity
  8
0
100
AcDbBlockEnd
  0
BLOCK
  5
1CD
330
15
100
AcDbEntity
 67
     1
  8
0
100
AcDbBlockBegin
  2
*PAPER_SPACE
 70
     0
 10
0.0
 20
0.0
 30
0.0
  3
*PAPER_SPACE
  1

  0
ENDBLK
  5
1CE
330
15
100
AcDbEntity
 67
     1
  8
0
100
AcDbBlockEnd
  0
BLOCK
  5
1D2
330
1C2
100
AcDbEntity
  8
0
100
AcDbBlockBegin
  2
*D0
 70
     1
 10
0.0
 20
0.0
 30
0.0
  3
*D0
  1

  0
LINE
  5
1D3
330
1C2
100
AcDbEntity
  8
0
  6
ByBlock
 62
     0
100
AcDbLine
 10
25.78558684847275
 20
-3.253644456273133
 30
0.0
 11
25.78558684847275
 21
-2.920316032665953
 31
0.0
  0
LINE
  5
1D4
330
1C2
100
AcDbEntity
  8
0
  6
ByBlock
 62
     0
100
AcDbLine
 10
27.56558684847275
 20
-3.253644456273133
 30
0.0
 11
27.56558684847275
 21
-2.920316032665953
 31
0.0
  0
LINE
  5
1D5
330
1C2
100
AcDbEntity
  8
0
  6
ByBlock
 62
     0
100
AcDbLine
 10
25.78558684847275
 20
-3.100316032665953
 30
0.0
 11
26.27975351513943
 21
-3.100316032665953
 31
0.0
  0
LINE
  5
1D6
330
1C2
100
AcDbEntity
  8
0
  6
ByBlock
 62
     0
100
AcDbLine
 10
27.56558684847275
 20
-3.100316032665953
 30
0.0
 11
27.07142018180609
 21
-3.100316032665953
 31
0.0
  0
LINE
  5
1D7
330
1C2
100
AcDbEntity
  8
0
  6
ByBlock
 62
     0
100
AcDbLine
 10
25.66058684847276
 20
-3.225316032665953
 30
0.0
 11
25.91058684847276
 21
-2.975316032665953
 31
0.0
  0
LINE
  5
1D8
330
1C2
100
AcDbEntity
  8
0
  6
ByBlock
 62
     0
100
AcDbLine
 10
27.44058684847275
 20
-3.225316032665953
 30
0.0
 11
27.69058684847275
 21
-2.975316032665953
 31
0.0
  0
TEXT
  5
1D9
330
1C2
100
AcDbEntity
  8
0
  6
ByBlock
 62
     0
100
AcDbText
 10
26.40475351513942
 20
-3.162816032665953
 30
0.0
 40
0.125
  1
1 3/4
 72
     1
 11
26.67558684847275
 21
-3.100316032665953
 31
0.0
100
AcDbText
 73
     2
  0
POINT
  5
1DA
330
1C2
100
AcDbEntity
  8
DEFPOINTS
  6
ByBlock
 62
     0
100
AcDbPoint
 10
25.78558684847275
 20
-3.316144456273133
 30
0.0
  0
POINT
  5
1DB
330
1C2
100
AcDbEntity
  8
DEFPOINTS
  6
ByBlock
 62
     0
100
AcDbPoint
 10
27.56558684847275
 20
-3.316144456273133
 30
0.0
  0
POINT
  5
1DC
330
1C2
100
AcDbEntity
  8
DEFPOINTS
  6
ByBlock
 62
     0
100
AcDbPoint
 10
27.56558684847275
 20
-3.100316032665953
 30
0.0
  0
ENDBLK
  5
1DD
330
1C2
100
AcDbEntity
  8
0
100
AcDbBlockEnd
  0
BLOCK
  5
1DE
330
1C3
100
AcDbEntity
  8
0
100
AcDbBlockBegin
  2
*D1
 70
     1
 10
0.0
 20
0.0
 30
0.0
  3
*D1
  1

  0
LINE
  5
1DF
330
1C3
100
AcDbEntity
  8
0
  6
ByBlock
 62
     0
100
AcDbLine
 10
26.15538864617402
 20
-5.723504054168289
 30
0.0
 11
26.15538864617402
 21
-5.374930220160837
 31
0.0
  0
LINE
  5
1E0
330
1C3
100
AcDbEntity
  8
0
  6
ByBlock
 62
     0
100
AcDbLine
 10
27.19183429047114
 20
-5.723504054168288
 30
0.0
 11
27.19183429047114
 21
-5.374930220160837
 31
0.0
  0
LINE
  5
1E1
330
1C3
100
AcDbEntity
  8
0
  6
ByBlock
 62
     0
100
AcDbLine
 10
26.15538864617402
 20
-5.554930220160836
 30
0.0
 11
25.90538864617403
 21
-5.554930220160836
 31
0.0
  0
LINE
  5
1E2
330
1C3
100
AcDbEntity
  8
0
  6
ByBlock
 62
     0
100
AcDbLine
 10
27.19183429047114
 20
-5.554930220160836
 30
0.0
 11
27.44183429047114
 21
-5.554930220160836
 31
0.0
  0
LINE
  5
1E3
330
1C3
100
AcDbEntity
  8
0
  6
ByBlock
 62
     0
100
AcDbLine
 10
26.03038864617403
 20
-5.679930220160836
 30
0.0
 11
26.28038864617403
 21
-5.429930220160836
 31
0.0
  0
LINE
  5
1E4
330
1C3
100
AcDbEntity
  8
0
  6
ByBlock
 62
     0
100
AcDbLine
 10
27.06683429047114
 20
-5.679930220160836
 30
0.0
 11
27.31683429047115
 21
-5.429930220160836
 31
0.0
  0
TEXT
  5
1E5
330
1C3
100
AcDbEntity
  8
0
  6
ByBlock
 62
     0
100
AcDbText
 10
27.56683429047114
 20
-5.617430220160836
 30
0.0
 40
0.125
  1
1 1/16
 72
     1
 11
27.85850095713781
 21
-5.554930220160836
 31
0.0
100
AcDbText
 73
     2
  0
POINT
  5
1E6
330
1C3
100
AcDbEntity
  8
DEFPOINTS
  6
ByBlock
 62
     0
100
AcDbPoint
 10
26.15538864617402
 20
-5.786004054168289
 30
0.0
  0
POINT
  5
1E7
330
1C3
100
AcDbEntity
  8
DEFPOINTS
  6
ByBlock
 62
     0
100
AcDbPoint
 10
27.19183429047114
 20
-5.786004054168288
 30
0.0
  0
POINT
  5
1E8
330
1C3
100
AcDbEntity
  8
DEFPOINTS
  6
ByBlock
 62
     0
100
AcDbPoint
 10
27.19183429047114
 20
-5.554930220160836
 30
0.0
  0
ENDBLK
  5
1E9
330
1C3
100
AcDbEntity
  8
0
100
AcDbBlockEnd
  0
BLOCK
  5
1EA
330
1C4
100
AcDbEntity
  8
0
100
AcDbBlockBegin
  2
*D2
 70
     1
 10
0.0
 20
0.0
 30
0.0
  3
*D2
  1

  0
LINE
  5
1EB
330
1C4
100
AcDbEntity
  8
0
  6
ByBlock
 62
     0
100
AcDbLine
 10
27.34785443509862
 20
-5.786004054168288
 30
0.0
 11
28.72817058905078
 21
-5.786004054168288
 31
0.0
  0
LINE
  5
1EC
330
1C4
100
AcDbEntity
  8
0
  6
ByBlock
 62
     0
100
AcDbLine
 10
28.40594058384637
 20
-6.974004054168288
 30
0.0
 11
28.72817058905078
 21
-6.974004054168288
 31
0.0
  0
LINE
  5
1ED
330
1C4
100
AcDbEntity
  8
0
  6
ByBlock
 62
     0
100
AcDbLine
 10
28.54817058905078
 20
-5.786004054168288
 30
0.0
 11
28.54817058905078
 21
-5.536004054168288
 31
0.0
  0
LINE
  5
1EE
330
1C4
100
AcDbEntity
  8
0
  6
ByBlock
 62
     0
100
AcDbLine
 10
28.54817058905078
 20
-6.974004054168288
 30
0.0
 11
28.54817058905078
 21
-7.224004054168288
 31
0.0
  0
LINE
  5
1EF
330
1C4
100
AcDbEntity
  8
0
  6
ByBlock
 62
     0
100
AcDbLine
 10
28.67317058905078
 20
-5.911004054168288
 30
0.0
 11
28.42317058905078
 21
-5.661004054168288
 31
0.0
  0
LINE
  5
1F0
330
1C4
100
AcDbEntity
  8
0
  6
ByBlock
 62
     0
100
AcDbLine
 10
28.67317058905078
 20
-7.099004054168288
 30
0.0
 11
28.42317058905078
 21
-6.849004054168288
 31
0.0
  0
TEXT
  5
1F1
330
1C4
100
AcDbEntity
  8
0
  6
ByBlock
 62
     0
100
AcDbText
 10
28.61067058905078
 20
-7.974004054168288
 30
0.0
 40
0.125
  1
1 3/16
 50
90.0
 72
     1
 11
28.54817058905078
 21
-7.661504054168288
 31
0.0
100
AcDbText
 73
     2
  0
POINT
  5
1F2
330
1C4
100
AcDbEntity
  8
DEFPOINTS
  6
ByBlock
 62
     0
100
AcDbPoint
 10
27.28535443509862
 20
-5.786004054168288
 30
0.0
  0
POINT
  5
1F3
330
1C4
100
AcDbEntity
  8
DEFPOINTS
  6
ByBlock
 62
     0
100
AcDbPoint
 10
28.34344058384637
 20
-6.974004054168288
 30
0.0
  0
POINT
  5
1F4
330
1C4
100
AcDbEntity
  8
DEFPOINTS
  6
ByBlock
 62
     0
100
AcDbPoint
 10
28.54817058905078
 20
-6.974004054168288
 30
0.0
  0
ENDBLK
  5
1F5
330
1C4
100
AcDbEntity
  8
0
100
AcDbBlockEnd
  0
BLOCK
  5
3DE
330
3D3
100
AcDbEntity
  8
0
 62
     3
100
AcDbBlockBegin
  2
*D3
 70
     1
 10
0.0
 20
0.0
 30
0.0
  3
*D3
  1

  0
LINE
  5
3FE
330
3D3
100
AcDbEntity
  8
ADPDIM
 62
     0
370
    -2
100
AcDbLine
 10
26.17190350266294
 20
-5.723504054168289
 30
0.0
 11
26.17190350266294
 21
-5.299664324841252
 31
0.0
  0
LINE
  5
3FF
330
3D3
100
AcDbEntity
  8
ADPDIM
 62
     0
370
    -2
100
AcDbLine
 10
27.17190350266294
 20
-5.723504054168289
 30
0.0
 11
27.17190350266294
 21
-5.299664324841252
 31
0.0
  0
LINE
  5
400
330
3D3
100
AcDbEntity
  8
ADPDIM
 62
     0
370
    -2
100
AcDbLine
 10
27.17190350266294
 20
-5.479664324841252
 30
0.0
 11
26.17190350266294
 21
-5.479664324841252
 31
0.0
  0
LINE
  5
401
330
3D3
100
AcDbEntity
  8
ADPDIM
 62
     0
370
    -2
100
AcDbLine
 10
26.17190350266294
 20
-5.479664324841252
 30
0.0
 11
25.63998510054275
 21
-5.479664324841252
 31
0.0
  0
LINE
  5
402
330
3D3
100
AcDbEntity
  8
ADPDIM
 62
     0
370
    -2
100
AcDbLine
 10
26.04690350266294
 20
-5.604664324841252
 30
0.0
 11
26.29690350266294
 21
-5.354664324841252
 31
0.0
  0
LINE
  5
403
330
3D3
100
AcDbEntity
  8
ADPDIM
 62
     0
370
    -2
100
AcDbLine
 10
27.04690350266294
 20
-5.604664324841252
 30
0.0
 11
27.29690350266294
 21
-5.354664324841252
 31
0.0
  0
MTEXT
  5
404
330
3D3
100
AcDbEntity
  8
ADPDIM
 62
     0
100
AcDbMText
 10
25.49415176720942
 20
-5.479664324841252
 30
0.0
 40
0.125
 41
0.0
 71
     5
 72
     1
  1
\A1;1
 73
     1
 44
1.0
1001
ACAD
1000
MTEXTBEGIN
1070
    73
1070
     1
1070
    44
1040
1.0
1070
    74
1070
     0
1000
MTEXTEND
  0
POINT
  5
405
330
3D3
100
AcDbEntity
  8
DEFPOINTS
 62
     0
100
AcDbPoint
 10
26.17190350266294
 20
-5.786004054168289
 30
0.0
  0
POINT
  5
406
330
3D3
100
AcDbEntity
  8
DEFPOINTS
 62
     0
100
AcDbPoint
 10
27.17190350266294
 20
-5.786004054168289
 30
0.0
  0
POINT
  5
407
330
3D3
100
AcDbEntity
  8
DEFPOINTS
 62
     0
100
AcDbPoint
 10
27.17190350266294
 20
-5.479664324841252
 30
0.0
  0
ENDBLK
  5
3DF
330
3D3
100
AcDbEntity
  8
0
 62
     3
100
AcDbBlockEnd
  0
ENDSEC
  0
SECTION
  2
ENTITIES
  0
LWPOLYLINE
  5
1F6
330
18
100
AcDbEntity
  8
ADP1DETAIL
100
AcDbPolyline
 90
        4
 70
     1
 43
0.0
 10
26.16058684847275
 20
-4.721144456273132
 10
26.16058684847275
 20
-3.691144456273132
 10
27.19058684847276
 20
-3.691144456273132
 10
27.19058684847276
 20
-4.721144456273132
  0
LWPOLYLINE
  5
1FC
330
18
100
AcDbEntity
  8
ADP1DETAIL
100
AcDbPolyline
 90
        4
 70
     1
 43
0.0
 10
26.06058684847276
 20
-4.821144456273132
 10
26.06058684847276
 20
-3.591144456273132
 10
27.29058684847275
 20
-3.591144456273132
 10
27.29058684847276
 20
-4.821144456273132
  0
LWPOLYLINE
  5
202
330
18
100
AcDbEntity
  8
ADP1DETAIL
100
AcDbPolyline
 90
        4
 70
     1
 43
0.0
 10
25.82258684847275
 20
-5.059144456273132
 10
25.82258684847276
 20
-3.353144456273132
 10
27.52858684847276
 20
-3.353144456273132
 10
27.52858684847276
 20
-5.059144456273132
  0
LINE
  5
208
330
18
100
AcDbEntity
  8
ADP1DETAIL
100
AcDbLine
 10
27.56558684847276
 20
-6.474004054168288
 30
0.0
 11
25.78558684847275
 21
-6.474004054168289
 31
0.0
  0
LINE
  5
209
330
18
100
AcDbEntity
  8
ADP1DETAIL
100
AcDbLine
 10
27.56558684847276
 20
-6.024004054168288
 30
0.0
 11
25.82270237361644
 21
-6.024004054168288
 31
0.0
  0
LINE
  5
20A
330
18
100
AcDbEntity
  8
ADP1DETAIL
100
AcDbLine
 10
27.28535443509862
 20
-5.786004054168288
 30
0.0
 11
26.06581926184689
 21
-5.786004054168289
 31
0.0
  0
LINE
  5
20B
330
18
100
AcDbEntity
  8
ADP1DETAIL
100
AcDbLine
 10
27.28535443509862
 20
-5.854004054168289
 30
0.0
 11
26.06581926184689
 21
-5.854004054168288
 31
0.0
  0
LINE
  5
20C
330
18
100
AcDbEntity
  8
ADP1DETAIL
100
AcDbLine
 10
27.56558684847276
 20
-5.096144456273132
 30
0.0
 11
25.78558684847275
 21
-5.096144456273133
 31
0.0
  0
LINE
  5
20E
330
18
100
AcDbEntity
  8
ADP1DETAIL
100
AcDbLine
 10
28.34344058384637
 20
-6.974004054168288
 30
0.0
 11
25.0037823527988
 21
-6.974004054168289
 31
0.0
  0
LINE
  5
20F
330
18
100
AcDbEntity
  8
ADP1DETAIL
100
AcDbLine
 10
25.78558684847275
 20
-3.316144456273133
 30
0.0
 11
27.56558684847275
 21
-3.316144456273133
 31
0.0
  0
DIMENSION
  5
210
330
18
100
AcDbEntity
  8
ADPDIM1
100
AcDbDimension
  2
*D0
 10
27.56558684847275
 20
-3.100316032665953
 30
0.0
 11
26.67558684847275
 21
-3.100316032665953
 31
0.0
 71
     5
 42
-1.0
100
AcDbAlignedDimension
 13
25.78558684847275
 23
-3.316144456273133
 33
0.0
 14
27.56558684847275
 24
-3.316144456273133
 34
0.0
100
AcDbRotatedDimension
  0
LINE
  5
211
330
18
100
AcDbEntity
  8
ADP2DETAILX
  6
HIDDEN2
100
AcDbLine
 10
26.17188533675748
 20
-5.786004054168289
 30
0.0
 11
26.17188533675748
 21
-6.974004054168288
 31
0.0
  0
LINE
  5
212
330
18
100
AcDbEntity
  8
ADP1DETAIL
100
AcDbLine
 10
25.78558684847275
 20
-6.974004054168289
 30
0.0
 11
25.78558684847275
 21
-6.474004054168289
 31
0.0
  0
LINE
  5
213
330
18
100
AcDbEntity
  8
ADP1DETAIL
100
AcDbLine
 10
25.78558684847275
 20
-6.694004054168288
 30
0.0
 11
25.0037823527988
 21
-6.694004054168289
 31
0.0
  0
LINE
  5
214
330
18
100
AcDbEntity
  8
ADP1DETAIL
100
AcDbLine
 10
25.0037823527988
 20
-6.694004054168289
 30
0.0
 11
25.0037823527988
 21
-6.974004054168289
 31
0.0
  0
LINE
  5
215
330
18
100
AcDbEntity
  8
ADP2DETAILX
  6
HIDDEN2
100
AcDbLine
 10
25.27764323689151
 20
-6.692746183092482
 30
0.0
 11
25.35882716486252
 21
-6.910081807414951
 31
0.0
  0
LINE
  5
216
330
18
100
AcDbEntity
  8
ADP2DETAILX
  6
HIDDEN2
100
AcDbLine
 10
25.6307679866871
 20
-6.692746183092482
 30
0.0
 11
25.54958405871608
 21
-6.910081807414951
 31
0.0
  0
ARC
  5
217
330
18
100
AcDbEntity
  8
ADP1DETAIL
100
AcDbCircle
 10
25.45878235279881
 20
-4.206144456273134
 30
0.0
 40
0.455
100
AcDbArc
 50
83.74563835993429
 51
276.195393465028
  0
LINE
  5
218
330
18
100
AcDbEntity
  8
ADP1DETAIL
100
AcDbLine
 10
25.78558684847275
 20
-3.316144456273133
 30
0.0
 11
25.78558684847275
 21
-5.096144456273133
 31
0.0
  0
ARC
  5
219
330
18
100
AcDbEntity
  8
ADP1DETAIL
100
AcDbCircle
 10
25.53486554841963
 20
-4.907027005167108
 30
0.0
 40
0.25
100
AcDbArc
 50
0.2179787638126548
 51
96.19539346502817
  0
LWPOLYLINE
  5
21A
330
18
100
AcDbEntity
  8
ADP1DETAIL
100
AcDbPolyline
 90
        3
 70
     0
 43
0.0
 10
26.06581926184689
 20
-5.854004054168288
 42
0.218411271561902
 10
25.82270237361644
 20
-6.024004054168288
 42
-0.8919252249134704
 10
25.78558684847275
 20
-6.474004054168289
 42
62.82502614846645
  0
LINE
  5
21F
330
18
100
AcDbEntity
  8
ADP1DETAIL
100
AcDbLine
 10
25.78558684847275
 20
-5.096144456273133
 30
0.0
 11
25.78486373919457
 21
-4.906075895679487
 31
0.0
  0
LINE
  5
220
330
18
100
AcDbEntity
  8
ADP1DETAIL
100
AcDbLine
 10
26.06581926184689
 20
-5.854004054168288
 30
0.0
 11
26.06581926184689
 21
-5.786004054168288
 31
0.0
  0
CIRCLE
  5
221
330
18
100
AcDbEntity
  8
ADP1DETAIL
100
AcDbCircle
 10
25.45878235279881
 20
-4.206144456273134
 30
0.0
 40
0.175
  0
CIRCLE
  5
222
330
18
100
AcDbEntity
  8
ADP1DETAIL
100
AcDbCircle
 10
25.45878235279881
 20
-4.206144456273134
 30
0.0
 40
0.094
  0
ARC
  5
223
330
18
100
AcDbEntity
  8
ADP1DETAIL
100
AcDbCircle
 10
25.53558684847275
 20
-3.505340582536507
 30
0.0
 40
0.25
100
AcDbArc
 50
263.7456383599345
 51
0.0
  0
LINE
  5
224
330
18
100
AcDbEntity
  8
ADP1DETAIL
100
AcDbLine
 10
25.78558684847275
 20
-3.505340582536507
 30
0.0
 11
25.78558684847275
 21
-3.316144456273133
 31
0.0
  0
DIMENSION
  5
225
330
18
100
AcDbEntity
  8
ADPDIM1
100
AcDbDimension
  2
*D2
 10
28.54817058905078
 20
-6.974004054168288
 30
0.0
 11
28.54817058905078
 21
-7.661504054168288
 31
0.0
 71
     5
 42
-1.0
100
AcDbAlignedDimension
 13
27.28535443509862
 23
-5.786004054168288
 33
0.0
 14
28.34344058384637
 24
-6.974004054168288
 34
0.0
 50
90.0
100
AcDbRotatedDimension
  0
LINE
  5
226
330
18
100
AcDbEntity
  8
ADP2DETAILX
  6
HIDDEN2
100
AcDbLine
 10
27.17929080031331
 20
-5.786004054168288
 30
0.0
 11
27.17929080031331
 21
-6.974004054168288
 31
0.0
  0
LINE
  5
227
330
18
100
AcDbEntity
  8
ADP1DETAIL
100
AcDbLine
 10
27.56558684847276
 20
-6.974004054168289
 30
0.0
 11
27.56558684847276
 21
-6.474004054168289
 31
0.0
  0
LINE
  5
228
330
18
100
AcDbEntity
  8
ADP1DETAIL
100
AcDbLine
 10
28.34344058384637
 20
-6.694004054168288
 30
0.0
 11
27.56558684847276
 21
-6.694004054168288
 31
0.0
  0
LINE
  5
229
330
18
100
AcDbEntity
  8
ADP2DETAILX
  6
HIDDEN2
100
AcDbLine
 10
27.71645494995807
 20
-6.692746183092482
 30
0.0
 11
27.79763887792909
 21
-6.910081807414951
 31
0.0
  0
LINE
  5
22A
330
18
100
AcDbEntity
  8
ADP2DETAILX
  6
HIDDEN2
100
AcDbLine
 10
28.06957969975366
 20
-6.692746183092482
 30
0.0
 11
27.98839577178264
 21
-6.910081807414951
 31
0.0
  0
LINE
  5
22B
330
18
100
AcDbEntity
  8
ADP1DETAIL
100
AcDbLine
 10
28.34344058384637
 20
-6.694004054168288
 30
0.0
 11
28.34344058384637
 21
-6.974004054168288
 31
0.0
  0
ARC
  5
22C
330
18
100
AcDbEntity
  8
ADP1DETAIL
100
AcDbCircle
 10
27.8923913441467
 20
-4.206144456273134
 30
0.0
 40
0.455
100
AcDbArc
 50
263.804606534972
 51
96.25436164006572
  0
LINE
  5
22D
330
18
100
AcDbEntity
  8
ADP1DETAIL
100
AcDbLine
 10
27.56558684847276
 20
-3.316144456273133
 30
0.0
 11
27.56558684847275
 21
-5.096144456273133
 31
0.0
  0
ARC
  5
22E
330
18
100
AcDbEntity
  8
ADP1DETAIL
100
AcDbCircle
 10
27.81630814852588
 20
-4.907027005167108
 30
0.0
 40
0.25
100
AcDbArc
 50
83.80460653497186
 51
179.7820212361873
  0
LWPOLYLINE
  5
22F
330
18
100
AcDbEntity
  8
ADP1DETAIL
100
AcDbPolyline
 90
        3
 70
     0
 43
0.0
 10
27.28535443509862
 20
-5.854004054168288
 42
-0.218411271561902
 10
27.52847132332906
 20
-6.024004054168288
 42
0.8919252249134704
 10
27.56558684847276
 20
-6.474004054168289
 42
-62.82502614846645
  0
LINE
  5
234
330
18
100
AcDbEntity
  8
ADP1DETAIL
100
AcDbLine
 10
27.28535443509862
 20
-5.854004054168288
 30
0.0
 11
27.28535443509862
 21
-5.786004054168288
 31
0.0
  0
LINE
  5
235
330
18
100
AcDbEntity
  8
ADP1DETAIL
100
AcDbLine
 10
27.56558684847275
 20
-5.096144456273133
 30
0.0
 11
27.56630995775094
 21
-4.906075895679487
 31
0.0
  0
ARC
  5
236
330
18
100
AcDbEntity
  8
ADP1DETAIL
100
AcDbCircle
 10
27.81558684847275
 20
-3.505340582536507
 30
0.0
 40
0.25
100
AcDbArc
 50
180.0
 51
276.2543616400655
  0
CIRCLE
  5
237
330
18
100
AcDbEntity
  8
ADP1DETAIL
100
AcDbCircle
 10
27.8923913441467
 20
-4.206144456273134
 30
0.0
 40
0.094
  0
CIRCLE
  5
238
330
18
100
AcDbEntity
  8
ADP1DETAIL
100
AcDbCircle
 10
27.8923913441467
 20
-4.206144456273134
 30
0.0
 40
0.175
  0
LINE
  5
239
330
18
100
AcDbEntity
  8
ADP1DETAIL
100
AcDbLine
 10
27.56558684847275
 20
-3.505340582536507
 30
0.0
 11
27.56558684847275
 21
-3.316144456273133
 31
0.0
  0
TEXT
  5
248
330
18
100
AcDbEntity
  8
ADPDIM
100
AcDbText
 10
20.23890393080553
 20
-8.566134978352314
 30
0.0
 40
0.125
  1
J U L I U S  B L U M  &  C O . ,  I N C .      ( 8 0 0 )  5 2 6 - 6 2 9 3        W W W . J U L I U S B L U M . C O M        P A R T  N o .  3 9 3
 41
1.25
  7
ARIAL_WIDE
 72
     1
 11
26.67361146832258
 21
-8.441134978352314
 31
0.0
100
AcDbText
 73
     3
  0
DIMENSION
  5
3D2
330
18
100
AcDbEntity
  8
ADPDIM
 62
     3
100
AcDbDimension
  2
*D3
 10
27.17190350266294
 20
-5.479664324841252
 30
0.0
 11
25.49415176720942
 21
-5.479664324841252
 31
0.0
 70
   160
 71
     5
  3
STANDARD
100
AcDbAlignedDimension
 13
26.17190350266294
 23
-5.786004054168289
 33
0.0
 14
27.17190350266294
 24
-5.786004054168289
 34
0.0
100
AcDbRotatedDimension
1001
ACAD
1000
DSTYLE
1002
{
1070
   277
1070
     5
1070
    41
1040
0.125
1070
    73
1070
     0
1070
    74
1070
     0
1070
    78
1070
     3
1070
   140
1040
0.125
1070
   141
1040
0.1875
1070
   142
1040
0.125
1070
   147
1040
0.125
1070
   171
1070
     1
1002
}
  0
ENDSEC
  0
SECTION
  2
OBJECTS
  0
DICTIONARY
  5
C
330
0
100
AcDbDictionary
281
     1
  3
ACAD_COLOR
350
3CC
  3
ACAD_GROUP
350
D
  3
ACAD_LAYOUT
350
240
  3
ACAD_MATERIAL
350
3B7
  3
ACAD_MLINESTYLE
350
E
  3
ACAD_PLOTSETTINGS
350
241
  3
ACAD_PLOTSTYLENAME
350
23E
  3
ACAD_TABLESTYLE
350
3CD
  3
ACAD_VISUALSTYLE
350
3BB
  3
AcDbVariableDictionary
350
2A2
  3
DWGPROPS
350
429
  0
DICTIONARY
  5
29C
330
18
100
AcDbDictionary
280
     1
281
     1
  3
ACAD_LAYOUTSELFREF
360
3B1
  0
DICTIONARY
  5
29A
330
15
100
AcDbDictionary
280
     1
281
     1
  3
ACAD_LAYOUTSELFREF
360
3B0
  0
DICTIONARY
  5
3CC
102
{ACAD_REACTORS
330
C
102
}
330
C
100
AcDbDictionary
281
     1
  0
DICTIONARY
  5
D
102
{ACAD_REACTORS
330
C
102
}
330
C
100
AcDbDictionary
281
     1
  0
DICTIONARY
  5
240
102
{ACAD_REACTORS
330
C
102
}
330
C
100
AcDbDictionary
281
     1
  3
Layout1
350
243
  3
Model
350
242
  0
DICTIONARY
  5
3B7
102
{ACAD_REACTORS
330
C
102
}
330
C
100
AcDbDictionary
281
     1
  3
ByBlock
350
3B9
  3
ByLayer
350
3B8
  3
Global
350
3BA
  0
DICTIONARY
  5
E
102
{ACAD_REACTORS
330
C
102
}
330
C
100
AcDbDictionary
281
     1
  3
STANDARD
350
1B
  0
DICTIONARY
  5
241
102
{ACAD_REACTORS
330
C
102
}
330
C
100
AcDbDictionary
281
     1
  0
ACDBDICTIONARYWDFLT
  5
23E
102
{ACAD_REACTORS
330
C
102
}
330
C
100
AcDbDictionary
281
     1
  3
Normal
350
23F
100
AcDbDictionaryWithDefault
340
23F
  0
DICTIONARY
  5
3CD
102
{ACAD_REACTORS
330
C
102
}
330
C
100
AcDbDictionary
281
     1
  3
Standard
350
3CE
  0
DICTIONARY
  5
3BB
102
{ACAD_REACTORS
330
C
102
}
330
C
100
AcDbDictionary
281
     1
  3
2dWireframe
350
3C1
  3
3D Hidden
350
3C3
  3
3dWireframe
350
3C2
  3
Basic
350
3C0
  3
Brighten
350
3C7
  3
ColorChange
350
3CB
  3
Conceptual
350
3C4
  3
Dim
350
3C6
  3
Facepattern
350
3CA
  3
Flat
350
3BC
  3
FlatWithEdges
350
3BD
  3
Gouraud
350
3BE
  3
GouraudWithEdges
350
3BF
  3
Linepattern
350
3C9
  3
Realistic
350
3C5
  3
Thicken
350
3C8
  0
DICTIONARY
  5
2A2
102
{ACAD_REACTORS
330
C
102
}
330
C
100
AcDbDictionary
281
     1
  3
CTABLESTYLE
350
426
  3
DIMASSOC
350
2A3
  3
INDEXCTL
350
428
  3
SORTENTS
350
427
  0
XRECORD
  5
429
102
{ACAD_REACTORS
330
C
102
}
330
C
100
AcDbXrecord
280
     1
  1
DWGPROPS COOKIE
  2

  3

  4

  6

  7

  8
Yu Hu
  9

300
=
301
=
302
=
303
=
304
=
305
=
306
=
307
=
308
=
309
=
 40
0.0062423611111111
 41
2450374.624095672
 42
2453954.785903171
  1

 90
        0
  0
XRECORD
  5
3B1
102
{ACAD_REACTORS
330
29C
102
}
330
29C
100
AcDbXrecord
280
     1
340
18
  0
XRECORD
  5
3B0
102
{ACAD_REACTORS
330
29A
102
}
330
29A
100
AcDbXrecord
280
     1
340
15
  0
LAYOUT
  5
243
102
{ACAD_XDICTIONARY
360
42C
102
}
102
{ACAD_REACTORS
330
240
102
}
330
240
100
AcDbPlotSettings
  1

  2
Fax
  4

  6

 40
0.0
 41
0.0
 42
0.0
 43
0.0
 44
0.0
 45
0.0
 46
0.0
 47
0.0
 48
0.0
 49
0.0
140
0.0
141
0.0
142
1.0
143
1.0
 70
   688
 72
     0
 73
     0
 74
     5
  7
Default R14 pen assignments.ctb
 75
    16
147
1.0
148
0.0
149
0.0
100
AcDbLayout
  1
Layout1
 70
     1
 71
     1
 10
0.0
 20
0.0
 11
12.0
 21
9.0
 12
0.0
 22
0.0
 32
0.0
 14
1.000000000000000E+20
 24
1.000000000000000E+20
 34
1.000000000000000E+20
 15
-1.000000000000000E+20
 25
-1.000000000000000E+20
 35
-1.000000000000000E+20
146
0.0
 13
0.0
 23
0.0
 33
0.0
 16
1.0
 26
0.0
 36
0.0
 17
0.0
 27
1.0
 37
0.0
 76
     0
330
15
  0
LAYOUT
  5
242
102
{ACAD_XDICTIONARY
360
42A
102
}
102
{ACAD_REACTORS
330
240
102
}
330
240
100
AcDbPlotSettings
  1

  2
Fax
  4

  6

 40
0.0
 41
0.0
 42
0.0
 43
0.0
 44
0.0
 45
0.0
 46
0.0
 47
0.0
 48
0.0
 49
0.0
140
0.0
141
0.0
142
1.0
143
1.0
 70
  1712
 72
     0
 73
     0
 74
     0
  7
Default R14 pen assignments.ctb
 75
     0
147
1.0
148
0.0
149
0.0
100
AcDbLayout
  1
Model
 70
     1
 71
     0
 10
0.0
 20
0.0
 11
12.0
 21
9.0
 12
0.0
 22
0.0
 32
0.0
 14
0.0
 24
0.0
 34
0.0
 15
0.0
 25
0.0
 35
0.0
146
0.0
 13
0.0
 23
0.0
 33
0.0
 16
1.0
 26
0.0
 36
0.0
 17
0.0
 27
1.0
 37
0.0
 76
     0
330
18
331
38B
  0
MATERIAL
  5
3B9
102
{ACAD_XDICTIONARY
360
430
102
}
102
{ACAD_REACTORS
330
3B7
102
}
330
3B7
100
AcDbMaterial
  1
ByBlock
  0
MATERIAL
  5
3B8
102
{ACAD_XDICTIONARY
360
42E
102
}
102
{ACAD_REACTORS
330
3B7
102
}
330
3B7
100
AcDbMaterial
  1
ByLayer
  0
MATERIAL
  5
3BA
102
{ACAD_XDICTIONARY
360
432
102
}
102
{ACAD_REACTORS
330
3B7
102
}
330
3B7
100
AcDbMaterial
  1
Global
  0
MLINESTYLE
  5
1B
102
{ACAD_REACTORS
330
E
102
}
330
E
100
AcDbMlineStyle
  2
STANDARD
 70
     0
  3

 62
     0
 51
90.0
 52
90.0
 71
     2
 49
0.5
 62
   256
  6
BYLAYER
 49
-0.5
 62
   256
  6
BYLAYER
  0
ACDBPLACEHOLDER
  5
23F
102
{ACAD_REACTORS
330
23E
102
}
330
23E
  0
TABLESTYLE
  5
3CE
102
{ACAD_XDICTIONARY
360
434
102
}
102
{ACAD_REACTORS
330
3CD
102
}
330
3CD
100
AcDbTableStyle
  3
Standard
 70
     0
 71
     0
 40
0.06
 41
0.06
280
     0
281
     0
  7
STANDARD
140
0.18
170
     2
 62
     0
 63
     7
283
     0
274
    -2
284
     1
 64
     0
275
    -2
285
     1
 65
     0
276
    -2
286
     1
 66
     0
277
    -2
287
     1
 67
     0
278
    -2
288
     1
 68
     0
279
    -2
289
     1
 69
     0
  7
STANDARD
140
0.25
170
     5
 62
     0
 63
     7
283
     0
274
    -2
284
     1
 64
     0
275
    -2
285
     1
 65
     0
276
    -2
286
     1
 66
     0
277
    -2
287
     1
 67
     0
278
    -2
288
     1
 68
     0
279
    -2
289
     1
 69
     0
  7
STANDARD
140
0.18
170
     5
 62
     0
 63
     7
283
     0
274
    -2
284
     1
 64
     0
275
    -2
285
     1
 65
     0
276
    -2
286
     1
 66
     0
277
    -2
287
     1
 67
     0
278
    -2
288
     1
 68
     0
279
    -2
289
     1
 69
     0
  0
VISUALSTYLE
  5
3C1
102
{ACAD_REACTORS
330
3BB
102
}
330
3BB
100
AcDbVisualStyle
  2
2dWireframe
 70
     4
 71
     0
 72
     2
 73
     0
 90
        0
 40
-0.6
 41
-30.0
 62
     5
 63
     7
 74
     1
 91
        4
 64
     7
 65
   257
 75
     1
175
     1
 42
1.0
 92
        0
 66
   257
 43
1.0
 76
     1
 77
     6
 78
     2
 67
     7
 79
     5
170
     0
171
     0
290
     0
174
     0
 93
        1
 44
0.0
173
     0
291
     0
 45
0.0
1001
ACAD
1000
AcDbSavedByObjectVersion
1070
     0
  0
VISUALSTYLE
  5
3C3
102
{ACAD_REACTORS
330
3BB
102
}
330
3BB
100
AcDbVisualStyle
  2
3D Hidden
 70
     6
 71
     1
 72
     2
 73
     2
 90
        0
 40
-0.6
 41
-30.0
 62
     5
 63
     7
 74
     2
 91
        2
 64
     7
 65
   257
 75
     2
175
     1
 42
40.0
 92
        0
 66
   257
 43
1.0
 76
     1
 77
     6
 78
     2
 67
     7
 79
     3
170
     0
171
     0
290
     0
174
     0
 93
        1
 44
0.0
173
     0
291
     0
 45
0.0
1001
ACAD
1000
AcDbSavedByObjectVersion
1070
     0
  0
VISUALSTYLE
  5
3C2
102
{ACAD_REACTORS
330
3BB
102
}
330
3BB
100
AcDbVisualStyle
  2
3dWireframe
 70
     5
 71
     0
 72
     2
 73
     0
 90
        0
 40
-0.6
 41
-30.0
 62
     5
 63
     7
 74
     1
 91
        4
 64
     7
 65
   257
 75
     1
175
     1
 42
1.0
 92
        0
 66
   257
 43
1.0
 76
     1
 77
     6
 78
     2
 67
     7
 79
     5
170
     0
171
     0
290
     0
174
     0
 93
        1
 44
0.0
173
     0
291
     0
 45
0.0
1001
ACAD
1000
AcDbSavedByObjectVersion
1070
     0
  0
VISUALSTYLE
  5
3C0
102
{ACAD_REACTORS
330
3BB
102
}
330
3BB
100
AcDbVisualStyle
  2
Basic
 70
     7
 71
     1
 72
     0
 73
     1
 90
        0
 40
-0.6
 41
-30.0
 62
     5
 63
     7
 74
     0
 91
        4
 64
     7
 65
   257
 75
     1
175
     1
 42
1.0
 92
        8
 66
     7
 43
1.0
 76
     1
 77
     6
 78
     2
 67
     7
 79
     5
170
     0
171
     0
290
     0
174
     0
 93
        1
 44
0.0
173
     0
291
     1
 45
0.0
1001
ACAD
1000
AcDbSavedByObjectVersion
1070
     0
  0
VISUALSTYLE
  5
3C7
102
{ACAD_REACTORS
330
3BB
102
}
330
3BB
100
AcDbVisualStyle
  2
Brighten
 70
    12
 71
     2
 72
     2
 73
     0
 90
        0
 40
-0.6
 41
-30.0
 62
     5
 63
     7
 74
     1
 91
        4
 64
     7
 65
   257
 75
     1
175
     1
 42
1.0
 92
        8
 66
     7
 43
1.0
 76
     1
 77
     6
 78
     2
 67
     7
 79
     5
170
     0
171
     0
290
     0
174
     0
 93
        1
 44
50.0
173
     0
291
     1
 45
0.0
1001
ACAD
1000
AcDbSavedByObjectVersion
1070
     0
  0
VISUALSTYLE
  5
3CB
102
{ACAD_REACTORS
330
3BB
102
}
330
3BB
100
AcDbVisualStyle
  2
ColorChange
 70
    16
 71
     2
 72
     2
 73
     3
 90
        0
 40
-0.6
 41
-30.0
 62
     5
 63
     8
 74
     1
 91
        4
 64
     7
 65
   257
 75
     1
175
     1
 42
1.0
 92
        8
 66
     8
 43
1.0
 76
     1
 77
     6
 78
     2
 67
     7
 79
     5
170
     0
171
     0
290
     0
174
     0
 93
        1
 44
0.0
173
     0
291
     1
 45
0.0
1001
ACAD
1000
AcDbSavedByObjectVersion
1070
     0
  0
VISUALSTYLE
  5
3C4
102
{ACAD_REACTORS
330
3BB
102
}
330
3BB
100
AcDbVisualStyle
  2
Conceptual
 70
     9
 71
     3
 72
     2
 73
     0
 90
        0
 40
-0.6
 41
-30.0
 62
     5
 63
     7
 74
     2
 91
        2
 64
     7
 65
   257
 75
     1
175
     1
 42
40.0
 92
        8
 66
     7
 43
1.0
 76
     1
 77
     6
 78
     2
 67
     7
 79
     3
170
     0
171
     0
290
     0
174
     0
 93
        1
 44
0.0
173
     0
291
     0
 45
0.0
1001
ACAD
1000
AcDbSavedByObjectVersion
1070
     0
  0
VISUALSTYLE
  5
3C6
102
{ACAD_REACTORS
330
3BB
102
}
330
3BB
100
AcDbVisualStyle
  2
Dim
 70
    11
 71
     2
 72
     2
 73
     0
 90
        0
 40
-0.6
 41
-30.0
 62
     5
 63
     7
 74
     1
 91
        4
 64
     7
 65
   257
 75
     1
175
     1
 42
1.0
 92
        8
 66
     7
 43
1.0
 76
     1
 77
     6
 78
     2
 67
     7
 79
     5
170
     0
171
     0
290
     0
174
     0
 93
        1
 44
-50.0
173
     0
291
     1
 45
0.0
1001
ACAD
1000
AcDbSavedByObjectVersion
1070
     0
  0
VISUALSTYLE
  5
3CA
102
{ACAD_REACTORS
330
3BB
102
}
330
3BB
100
AcDbVisualStyle
  2
Facepattern
 70
    15
 71
     2
 72
     2
 73
     0
 90
        0
 40
-0.6
 41
-30.0
 62
     5
 63
     7
 74
     1
 91
        4
 64
     7
 65
   257
 75
     1
175
     1
 42
1.0
 92
        8
 66
     7
 43
1.0
 76
     1
 77
     6
 78
     2
 67
     7
 79
     5
170
     0
171
     0
290
     0
174
     0
 93
        1
 44
0.0
173
     0
291
     1
 45
0.0
1001
ACAD
1000
AcDbSavedByObjectVersion
1070
     0
  0
VISUALSTYLE
  5
3BC
102
{ACAD_REACTORS
330
3BB
102
}
330
3BB
100
AcDbVisualStyle
  2
Flat
 70
     0
 71
     2
 72
     1
 73
     1
 90
        2
 40
-0.6
 41
30.0
 62
     5
 63
     7
 74
     0
 91
        4
 64
     7
 65
   257
 75
     1
175
     1
 42
1.0
 92
        8
 66
     7
 43
1.0
 76
     1
 77
     6
 78
     2
 67
     7
 79
     5
170
     0
171
     0
290
     0
174
     0
 93
       13
 44
0.0
173
     0
291
     1
 45
0.0
1001
ACAD
1000
AcDbSavedByObjectVersion
1070
     0
  0
VISUALSTYLE
  5
3BD
102
{ACAD_REACTORS
330
3BB
102
}
330
3BB
100
AcDbVisualStyle
  2
FlatWithEdges
 70
     1
 71
     2
 72
     1
 73
     1
 90
        2
 40
-0.6
 41
30.0
 62
     5
 63
     7
 74
     1
 91
        4
 64
     7
 65
   257
 75
     1
175
     1
 42
1.0
 92
        0
 66
   257
 43
1.0
 76
     1
 77
     6
 78
     2
 67
     7
 79
     5
170
     0
171
     0
290
     0
174
     0
 93
       13
 44
0.0
173
     0
291
     1
 45
0.0
1001
ACAD
1000
AcDbSavedByObjectVersion
1070
     0
  0
VISUALSTYLE
  5
3BE
102
{ACAD_REACTORS
330
3BB
102
}
330
3BB
100
AcDbVisualStyle
  2
Gouraud
 70
     2
 71
     2
 72
     2
 73
     1
 90
        2
 40
-0.6
 41
30.0
 62
     5
 63
     7
 74
     0
 91
        4
 64
     7
 65
   257
 75
     1
175
     1
 42
1.0
 92
        0
 66
     7
 43
1.0
 76
     1
 77
     6
 78
     2
 67
     7
 79
     5
170
     0
171
     0
290
     0
174
     0
 93
       13
 44
0.0
173
     0
291
     1
 45
0.0
1001
ACAD
1000
AcDbSavedByObjectVersion
1070
     0
  0
VISUALSTYLE
  5
3BF
102
{ACAD_REACTORS
330
3BB
102
}
330
3BB
100
AcDbVisualStyle
  2
GouraudWithEdges
 70
     3
 71
     2
 72
     2
 73
     1
 90
        2
 40
-0.6
 41
30.0
 62
     5
 63
     7
 74
     1
 91
        4
 64
     7
 65
   257
 75
     1
175
     1
 42
1.0
 92
        0
 66
   257
 43
1.0
 76
     1
 77
     6
 78
     2
 67
     7
 79
     5
170
     0
171
     0
290
     0
174
     0
 93
       13
 44
0.0
173
     0
291
     1
 45
0.0
1001
ACAD
1000
AcDbSavedByObjectVersion
1070
     0
  0
VISUALSTYLE
  5
3C9
102
{ACAD_REACTORS
330
3BB
102
}
330
3BB
100
AcDbVisualStyle
  2
Linepattern
 70
    14
 71
     2
 72
     2
 73
     0
 90
        0
 40
-0.6
 41
-30.0
 62
     5
 63
     7
 74
     1
 91
        4
 64
     7
 65
   257
 75
     7
175
     7
 42
1.0
 92
        8
 66
     7
 43
1.0
 76
     1
 77
     6
 78
     2
 67
     7
 79
     5
170
     0
171
     0
290
     0
174
     0
 93
        1
 44
0.0
173
     0
291
     1
 45
0.0
1001
ACAD
1000
AcDbSavedByObjectVersion
1070
     0
  0
VISUALSTYLE
  5
3C5
102
{ACAD_REACTORS
330
3BB
102
}
330
3BB
100
AcDbVisualStyle
  2
Realistic
 70
     8
 71
     2
 72
     2
 73
     0
 90
        0
 40
-0.6
 41
-30.0
 62
     5
 63
     7
 74
     1
 91
        0
 64
     7
 65
   257
 75
     1
175
     1
 42
1.0
 92
        8
 66
     8
 43
1.0
 76
     1
 77
     6
 78
     2
 67
     7
 79
     5
170
     0
171
     0
290
     0
174
     0
 93
       13
 44
0.0
173
     0
291
     0
 45
0.0
1001
ACAD
1000
AcDbSavedByObjectVersion
1070
     0
  0
VISUALSTYLE
  5
3C8
102
{ACAD_REACTORS
330
3BB
102
}
330
3BB
100
AcDbVisualStyle
  2
Thicken
 70
    13
 71
     2
 72
     2
 73
     0
 90
        0
 40
-0.6
 41
-30.0
 62
     5
 63
     7
 74
     1
 91
        4
 64
     7
 65
   257
 75
     1
175
     1
 42
1.0
 92
       12
 66
     7
 43
1.0
 76
     1
 77
     6
 78
     2
 67
     7
 79
     5
170
     0
171
     0
290
     0
174
     0
 93
        1
 44
0.0
173
     0
291
     1
 45
0.0
1001
ACAD
1000
AcDbSavedByObjectVersion
1070
     0
  0
DICTIONARYVAR
  5
426
102
{ACAD_REACTORS
330
2A2
102
}
330
2A2
100
DictionaryVariables
280
     0
  1
STANDARD
  0
DICTIONARYVAR
  5
2A3
102
{ACAD_REACTORS
330
2A2
102
}
330
2A2
100
DictionaryVariables
280
     0
  1
1
  0
DICTIONARYVAR
  5
428
102
{ACAD_REACTORS
330
2A2
102
}
330
2A2
100
DictionaryVariables
280
     0
  1
0
  0
DICTIONARYVAR
  5
427
102
{ACAD_REACTORS
330
2A2
102
}
330
2A2
100
DictionaryVariables
280
     0
  1
127
  0
DICTIONARY
  5
42C
330
243
100
AcDbDictionary
280
     1
281
     1
  3
ACAD_XREC_ROUNDTRIP
360
42D
  0
DICTIONARY
  5
42A
330
242
100
AcDbDictionary
280
     1
281
     1
  3
ACAD_XREC_ROUNDTRIP
360
42B
  0
DICTIONARY
  5
430
330
3B9
100
AcDbDictionary
280
     1
281
     1
  3
ACAD_XREC_ROUNDTRIP
360
431
  0
DICTIONARY
  5
42E
330
3B8
100
AcDbDictionary
280
     1
281
     1
  3
ACAD_XREC_ROUNDTRIP
360
42F
  0
DICTIONARY
  5
432
330
3BA
100
AcDbDictionary
280
     1
281
     1
  3
ACAD_XREC_ROUNDTRIP
360
433
  0
DICTIONARY
  5
434
330
3CE
100
AcDbDictionary
280
     1
281
     1
  3
ACAD_XREC_ROUNDTRIP
360
435
  0
XRECORD
  5
42D
102
{ACAD_REACTORS
330
42C
102
}
330
42C
100
AcDbXrecord
280
     1
102
SHADEPLOT
 70
     0
102
SHADEPLOTRESLEVEL
 70
     2
102
SHADEPLOTCUSTOMDPI
 70
   300
  0
XRECORD
  5
42B
102
{ACAD_REACTORS
330
42A
102
}
330
42A
100
AcDbXrecord
280
     1
102
SHADEPLOT
 70
     0
102
SHADEPLOTRESLEVEL
 70
     2
102
SHADEPLOTCUSTOMDPI
 70
   300
  0
XRECORD
  5
431
102
{ACAD_REACTORS
330
430
102
}
330
430
100
AcDbXrecord
280
     1
102
MATERIAL
148
0.0
149
0.0
149
0.0
 93
        0
 94
       63
282
     0
 72
     1
 77
     1
171
     1
175
     1
179
     1
273
     0
  0
XRECORD
  5
42F
102
{ACAD_REACTORS
330
42E
102
}
330
42E
100
AcDbXrecord
280
     1
102
MATERIAL
148
0.0
149
0.0
149
0.0
 93
        0
 94
       63
282
     0
 72
     1
 77
     1
171
     1
175
     1
179
     1
273
     0
  0
XRECORD
  5
433
102
{ACAD_REACTORS
330
432
102
}
330
432
100
AcDbXrecord
280
     1
102
MATERIAL
148
0.0
149
0.0
149
0.0
 93
        0
 94
       63
282
     0
 72
     1
 77
     1
171
     1
175
     1
179
     1
273
     0
  0
XRECORD
  5
435
102
{ACAD_REACTORS
330
434
102
}
330
434
100
AcDbXrecord
280
     1
102
ACAD_ROUNDTRIP_PRE2007_TABLESTYLE
 90
      512
 91
        0
  1

 92
      512
 93
        0
  2

 94
      512
 95
        0
  3

  0
ENDSEC
  0
EOF
