  0
SECTION
  2
HEADER
  9
$ACADVER
  1
AC1014
  9
$ACADMAINTVER
 70
     9
  9
$DWGCODEPAGE
  3
ANSI_1252
  9
$INSBASE
 10
-12.5836432289713
 20
-2.851327025224787
 30
0.0
  9
$EXTMIN
 10
-15.73627173198475
 20
-4.016780948295451
 30
0.0
  9
$EXTMAX
 10
-2.866856656950647
 20
1.725525926567746
 30
0.0
  9
$LIMMIN
 10
0.0
 20
0.0
  9
$LIMMAX
 10
36.0
 20
36.0
  9
$ORTHOMODE
 70
     1
  9
$REGENMODE
 70
     1
  9
$FILLMODE
 70
     1
  9
$QTEXTMODE
 70
     0
  9
$MIRRTEXT
 70
     1
  9
$DRAGMODE
 70
     0
  9
$LTSCALE
 40
1.0
  9
$OSMODE
 70
    37
  9
$ATTMODE
 70
     1
  9
$TEXTSIZE
 40
0.2
  9
$TRACEWID
 40
0.05
  9
$TEXTSTYLE
  7
STANDARD
  9
$CLAYER
  8
ADP2DETAIL
  9
$CELTYPE
  6
BYLAYER
  9
$CECOLOR
 62
   256
  9
$CELTSCALE
 40
1.0
  9
$DELOBJ
 70
     1
  9
$DISPSILH
 70
     0
  9
$DIMSCALE
 40
1.0
  9
$DIMASZ
 40
0.125
  9
$DIMEXO
 40
0.0625
  9
$DIMDLI
 40
0.38
  9
$DIMRND
 40
0.0
  9
$DIMDLE
 40
0.0
  9
$DIMEXE
 40
0.18
  9
$DIMTP
 40
0.0
  9
$DIMTM
 40
0.0
  9
$DIMTXT
 40
0.125
  9
$DIMCEN
 40
0.1875
  9
$DIMTSZ
 40
0.125
  9
$DIMTOL
 70
     0
  9
$DIMLIM
 70
     0
  9
$DIMTIH
 70
     0
  9
$DIMTOH
 70
     0
  9
$DIMSE1
 70
     0
  9
$DIMSE2
 70
     0
  9
$DIMTAD
 70
     0
  9
$DIMZIN
 70
     3
  9
$DIMBLK
  1

  9
$DIMASO
 70
     1
  9
$DIMSHO
 70
     1
  9
$DIMPOST
  1

  9
$DIMAPOST
  1

  9
$DIMALT
 70
     0
  9
$DIMALTD
 70
     1
  9
$DIMALTF
 40
25.4
  9
$DIMLFAC
 40
1.0
  9
$DIMTOFL
 70
     0
  9
$DIMTVP
 40
0.0
  9
$DIMTIX
 70
     0
  9
$DIMSOXD
 70
     0
  9
$DIMSAH
 70
     0
  9
$DIMBLK1
  1

  9
$DIMBLK2
  1

  9
$DIMSTYLE
  2
STANDARD
  9
$DIMCLRD
 70
     0
  9
$DIMCLRE
 70
     0
  9
$DIMCLRT
 70
     0
  9
$DIMTFAC
 40
1.0
  9
$DIMGAP
 40
0.125
  9
$DIMJUST
 70
     0
  9
$DIMSD1
 70
     0
  9
$DIMSD2
 70
     0
  9
$DIMTOLJ
 70
     1
  9
$DIMTZIN
 70
     0
  9
$DIMALTZ
 70
     0
  9
$DIMALTTZ
 70
     0
  9
$DIMFIT
 70
     3
  9
$DIMUPT
 70
     0
  9
$DIMUNIT
 70
     2
  9
$DIMDEC
 70
     4
  9
$DIMTDEC
 70
     4
  9
$DIMALTU
 70
     2
  9
$DIMALTTD
 70
     2
  9
$DIMTXSTY
  7
STANDARD
  9
$DIMAUNIT
 70
     0
  9
$LUNITS
 70
     5
  9
$LUPREC
 70
     4
  9
$SKETCHINC
 40
0.1
  9
$FILLETRAD
 40
0.062
  9
$AUNITS
 70
     0
  9
$AUPREC
 70
     0
  9
$MENU
  1
acad
  9
$ELEVATION
 40
0.0
  9
$PELEVATION
 40
0.0
  9
$THICKNESS
 40
0.0
  9
$LIMCHECK
 70
     0
  9
$BLIPMODE
 70
     0
  9
$CHAMFERA
 40
0.0
  9
$CHAMFERB
 40
0.0
  9
$CHAMFERC
 40
0.0
  9
$CHAMFERD
 40
0.0
  9
$SKPOLY
 70
     0
  9
$TDCREATE
 40
2450386.499285104
  9
$TDUPDATE
 40
2452297.069300486
  9
$TDINDWG
 40
0.0589034144
  9
$TDUSRTIMER
 40
0.0589034144
  9
$USRTIMER
 70
     1
  9
$ANGBASE
 50
0.0
  9
$ANGDIR
 70
     0
  9
$PDMODE
 70
     0
  9
$PDSIZE
 40
0.0
  9
$PLINEWID
 40
0.0
  9
$COORDS
 70
     2
  9
$SPLFRAME
 70
     0
  9
$SPLINETYPE
 70
     6
  9
$SPLINESEGS
 70
     8
  9
$ATTDIA
 70
     0
  9
$ATTREQ
 70
     1
  9
$HANDLING
 70
 22529
  9
$HANDSEED
  5
3A1
  9
$SURFTAB1
 70
     6
  9
$SURFTAB2
 70
     6
  9
$SURFTYPE
 70
     6
  9
$SURFU
 70
     6
  9
$SURFV
 70
     6
  9
$UCSNAME
  2

  9
$UCSORG
 10
0.0
 20
0.0
 30
0.0
  9
$UCSXDIR
 10
1.0
 20
0.0
 30
0.0
  9
$UCSYDIR
 10
0.0
 20
1.0
 30
0.0
  9
$PUCSNAME
  2

  9
$PUCSORG
 10
0.0
 20
0.0
 30
0.0
  9
$PUCSXDIR
 10
1.0
 20
0.0
 30
0.0
  9
$PUCSYDIR
 10
0.0
 20
1.0
 30
0.0
  9
$USERI1
 70
     0
  9
$USERI2
 70
     0
  9
$USERI3
 70
     0
  9
$USERI4
 70
     0
  9
$USERI5
 70
     0
  9
$USERR1
 40
0.0
  9
$USERR2
 40
0.0
  9
$USERR3
 40
0.0
  9
$USERR4
 40
0.0
  9
$USERR5
 40
0.0
  9
$WORLDVIEW
 70
     1
  9
$SHADEDGE
 70
     3
  9
$SHADEDIF
 70
    70
  9
$TILEMODE
 70
     1
  9
$MAXACTVP
 70
    15
  9
$PINSBASE
 10
4.403525741743744E+99
 20
7.061986388769092E+99
 30
0.0
  9
$PLIMCHECK
 70
     0
  9
$PEXTMIN
 10
1.000000000000000E+20
 20
1.000000000000000E+20
 30
1.000000000000000E+20
  9
$PEXTMAX
 10
-1.000000000000000E+20
 20
-1.000000000000000E+20
 30
-1.000000000000000E+20
  9
$PLIMMIN
 10
0.0
 20
0.0
  9
$PLIMMAX
 10
12.0
 20
9.0
  9
$UNITMODE
 70
     0
  9
$VISRETAIN
 70
     0
  9
$PLINEGEN
 70
     0
  9
$PSLTSCALE
 70
     1
  9
$TREEDEPTH
 70
  3020
  9
$PICKSTYLE
 70
     1
  9
$CMLSTYLE
  2
STANDARD
  9
$CMLJUST
 70
     0
  9
$CMLSCALE
 40
1.0
  9
$PROXYGRAPHICS
 70
     1
  9
$MEASUREMENT
 70
     0
  0
ENDSEC
  0
SECTION
  2
CLASSES
  0
CLASS
  1
ACDBDICTIONARYWDFLT
  2
AcDbDictionaryWithDefault
  3
AutoCAD 2000
 90
        0
280
     0
281
     0
  0
CLASS
  1
ACDBPLACEHOLDER
  2
AcDbPlaceHolder
  3
AutoCAD 2000
 90
        0
280
     0
281
     0
  0
CLASS
  1
LAYOUT
  2
AcDbLayout
  3
AutoCAD 2000
 90
        0
280
     0
281
     0
  0
CLASS
  1
DICTIONARYVAR
  2
AcDbDictionaryVar
  3
AutoCAD 2000
 90
        0
280
     0
281
     0
  0
CLASS
  1
LONG_TRANSACTION
  2
AcDbLongTransaction
  3
AutoCAD 2000
 90
        0
280
     0
281
     0
  0
CLASS
  1
LWPOLYLINE
  2
AcDbPolyline
  3
AutoCAD 2000
 90
        0
280
     0
281
     1
  0
CLASS
  1
HATCH
  2
AcDbHatch
  3
AutoCAD 2000
 90
        0
280
     0
281
     1
  0
CLASS
  1
XRECORD
  2
AcDbXrecord
  3
AutoCAD 2000
 90
        0
280
     0
281
     0
  0
CLASS
  1
LONG_TRANSACTION
  2
AcDbLongTransaction
  3
AutoCAD 2000
 90
        0
280
     0
281
     0
  0
CLASS
  1
LWPOLYLINE
  2
AcDbPolyline
  3
AutoCAD 2000
 90
        0
280
     0
281
     1
  0
CLASS
  1
HATCH
  2
AcDbHatch
  3
AutoCAD 2000
 90
        0
280
     0
281
     1
  0
CLASS
  1
XRECORD
  2
AcDbXrecord
  3
AutoCAD 2000
 90
        0
280
     0
281
     0
  0
CLASS
  1
LONG_TRANSACTION
  2
AcDbLongTransaction
  3
AutoCAD 2000
 90
        0
280
     0
281
     0
  0
CLASS
  1
LWPOLYLINE
  2
AcDbPolyline
  3
AutoCAD 2000
 90
        0
280
     0
281
     1
  0
CLASS
  1
HATCH
  2
AcDbHatch
  3
AutoCAD 2000
 90
        0
280
     0
281
     1
  0
CLASS
  1
XRECORD
  2
AcDbXrecord
  3
AutoCAD 2000
 90
        0
280
     0
281
     0
  0
CLASS
  1
LONG_TRANSACTION
  2
AcDbLongTransaction
  3
AutoCAD 2000
 90
        0
280
     0
281
     0
  0
CLASS
  1
LWPOLYLINE
  2
AcDbPolyline
  3
AutoCAD 2000
 90
        0
280
     0
281
     1
  0
CLASS
  1
HATCH
  2
AcDbHatch
  3
AutoCAD 2000
 90
        0
280
     0
281
     1
  0
CLASS
  1
XRECORD
  2
AcDbXrecord
  3
AutoCAD 2000
 90
        0
280
     0
281
     0
  0
CLASS
  1
LONG_TRANSACTION
  2
AcDbLongTransaction
  3
AutoCAD 2000
 90
        0
280
     0
281
     0
  0
CLASS
  1
LWPOLYLINE
  2
AcDbPolyline
  3
AutoCAD 2000
 90
        0
280
     0
281
     1
  0
CLASS
  1
HATCH
  2
AcDbHatch
  3
AutoCAD 2000
 90
        0
280
     0
281
     1
  0
CLASS
  1
XRECORD
  2
AcDbXrecord
  3
AutoCAD 2000
 90
        0
280
     0
281
     0
  0
CLASS
  1
LONG_TRANSACTION
  2
AcDbLongTransaction
  3
AutoCAD 2000
 90
        0
280
     0
281
     0
  0
CLASS
  1
LWPOLYLINE
  2
AcDbPolyline
  3
AutoCAD 2000
 90
        0
280
     0
281
     1
  0
CLASS
  1
HATCH
  2
AcDbHatch
  3
AutoCAD 2000
 90
        0
280
     0
281
     1
  0
CLASS
  1
XRECORD
  2
AcDbXrecord
  3
AutoCAD 2000
 90
        0
280
     0
281
     0
  0
CLASS
  1
LONG_TRANSACTION
  2
AcDbLongTransaction
  3
AutoCAD 2000
 90
        0
280
     0
281
     0
  0
CLASS
  1
LWPOLYLINE
  2
AcDbPolyline
  3
AutoCAD 2000
 90
        0
280
     0
281
     1
  0
CLASS
  1
HATCH
  2
AcDbHatch
  3
AutoCAD 2000
 90
        0
280
     0
281
     1
  0
CLASS
  1
XRECORD
  2
AcDbXrecord
  3
AutoCAD 2000
 90
        0
280
     0
281
     0
  0
ENDSEC
  0
SECTION
  2
TABLES
  0
TABLE
  2
VPORT
  5
8
330
0
100
AcDbSymbolTable
 70
     2
  0
VPORT
  5
37E
330
8
100
AcDbSymbolTableRecord
100
AcDbViewportTableRecord
  2
*ACTIVE
 70
     0
 10
0.0
 20
0.0
 11
1.0
 21
1.0
 12
-9.301436261725161
 22
-1.145969896944286
 13
0.0
 23
0.0
 14
0.5740882589684922
 24
0.5740882589684922
 15
0.5
 25
0.5
 16
0.0
 26
0.0
 36
1.0
 17
0.0
 27
0.0
 37
0.0
 40
8.235775435311127
 41
1.570528967254408
 42
50.0
 43
0.0
 44
0.0
 50
0.0
 51
0.0
 71
     0
 72
   100
 73
     1
 74
     0
 75
     0
 76
     0
 77
     0
 78
     0
  0
ENDTAB
  0
TABLE
  2
LTYPE
  5
5
330
0
100
AcDbSymbolTable
 70
     2
  0
LTYPE
  5
12
330
5
100
AcDbSymbolTableRecord
100
AcDbLinetypeTableRecord
  2
BYBLOCK
 70
     0
  3

 72
    65
 73
     0
 40
0.0
  0
LTYPE
  5
13
330
5
100
AcDbSymbolTableRecord
100
AcDbLinetypeTableRecord
  2
BYLAYER
 70
     0
  3

 72
    65
 73
     0
 40
0.0
  0
LTYPE
  5
14
330
5
100
AcDbSymbolTableRecord
100
AcDbLinetypeTableRecord
  2
CONTINUOUS
 70
     0
  3
Solid line
 72
    65
 73
     0
 40
0.0
  0
LTYPE
  5
119
330
5
100
AcDbSymbolTableRecord
100
AcDbLinetypeTableRecord
  2
HIDDEN2
 70
     0
  3
_ _ _ _ _ _ _ _ _ _ _ _ _ _ _ _ _ _ _ _ _ _ _ _
 72
    65
 73
     2
 40
0.1875
 49
0.125
 74
     0
 49
-0.0625
 74
     0
  0
ENDTAB
  0
TABLE
  2
LAYER
  5
2
330
0
100
AcDbSymbolTable
 70
     5
  0
LAYER
  5
F
330
2
100
AcDbSymbolTableRecord
100
AcDbLayerTableRecord
  2
0
 70
     0
 62
     7
  6
CONTINUOUS
  0
LAYER
  5
11D
330
2
100
AcDbSymbolTableRecord
100
AcDbLayerTableRecord
  2
ADP1DETAIL
 70
     0
 62
     7
  6
CONTINUOUS
  0
LAYER
  5
11F
330
2
100
AcDbSymbolTableRecord
100
AcDbLayerTableRecord
  2
DEFPOINTS
 70
     0
 62
     7
  6
CONTINUOUS
  0
LAYER
  5
120
330
2
100
AcDbSymbolTableRecord
100
AcDbLayerTableRecord
  2
ADP2DETAIL
 70
     0
 62
     5
  6
CONTINUOUS
  0
LAYER
  5
121
330
2
100
AcDbSymbolTableRecord
100
AcDbLayerTableRecord
  2
ADPDIM
 70
     0
 62
     3
  6
CONTINUOUS
  0
ENDTAB
  0
TABLE
  2
STYLE
  5
3
330
0
100
AcDbSymbolTable
 70
     2
  0
STYLE
  5
10
330
3
100
AcDbSymbolTableRecord
100
AcDbTextStyleTableRecord
  2
STANDARD
 70
     0
 40
0.0
 41
1.0
 50
0.0
 71
     0
 42
0.2
  3
txt
  4

  0
STYLE
  5
1DC
330
3
100
AcDbSymbolTableRecord
100
AcDbTextStyleTableRecord
  2
ARIAL_WIDE
 70
     0
 40
0.0
 41
1.25
 50
0.0
 71
     0
 42
0.2
  3
ARIAL.TTF
  4

1001
ACAD
1000
Arial
1071
       34
  0
ENDTAB
  0
TABLE
  2
VIEW
  5
6
330
0
100
AcDbSymbolTable
 70
     0
  0
ENDTAB
  0
TABLE
  2
UCS
  5
7
330
0
100
AcDbSymbolTable
 70
     0
  0
ENDTAB
  0
TABLE
  2
APPID
  5
9
330
0
100
AcDbSymbolTable
 70
     1
  0
APPID
  5
11
330
9
100
AcDbSymbolTableRecord
100
AcDbRegAppTableRecord
  2
ACAD
 70
     0
  0
ENDTAB
  0
TABLE
  2
DIMSTYLE
  5
A
330
0
100
AcDbSymbolTable
 70
     1
  0
DIMSTYLE
105
1D0
330
A
100
AcDbSymbolTableRecord
100
AcDbDimStyleTableRecord
  2
STANDARD
 70
     0
  3

  4

  5

  6

  7

 40
1.0
 41
0.18
 42
0.0625
 43
0.38
 44
0.18
 45
0.0
 46
0.0
 47
0.0
 48
0.0
140
0.18
141
0.09
142
0.0
143
25.4
144
1.0
145
0.0
146
1.0
147
0.09
 71
     0
 72
     0
 73
     1
 74
     1
 75
     0
 76
     0
 77
     0
 78
     0
170
     0
171
     2
172
     0
173
     0
174
     0
175
     0
176
     0
177
     0
178
     0
270
     2
271
     4
272
     4
273
     2
274
     2
340
10
275
     0
280
     0
281
     0
282
     0
283
     1
284
     0
285
     0
286
     0
287
     3
288
     0
  0
ENDTAB
  0
TABLE
  2
BLOCK_RECORD
  5
1
330
0
100
AcDbSymbolTable
 70
     6
  0
BLOCK_RECORD
  5
18
102
{ACAD_XDICTIONARY
360
231
102
}
330
1
100
AcDbSymbolTableRecord
100
AcDbBlockTableRecord
  2
*MODEL_SPACE
  0
BLOCK_RECORD
  5
15
102
{ACAD_XDICTIONARY
360
22F
102
}
330
1
100
AcDbSymbolTableRecord
100
AcDbBlockTableRecord
  2
*PAPER_SPACE
  0
BLOCK_RECORD
  5
112
330
1
100
AcDbSymbolTableRecord
100
AcDbBlockTableRecord
  2
*D0
  0
BLOCK_RECORD
  5
113
330
1
100
AcDbSymbolTableRecord
100
AcDbBlockTableRecord
  2
*D1
  0
BLOCK_RECORD
  5
114
330
1
100
AcDbSymbolTableRecord
100
AcDbBlockTableRecord
  2
*D2
  0
BLOCK_RECORD
  5
115
330
1
100
AcDbSymbolTableRecord
100
AcDbBlockTableRecord
  2
*D3
  0
BLOCK_RECORD
  5
116
330
1
100
AcDbSymbolTableRecord
100
AcDbBlockTableRecord
  2
*D4
  0
BLOCK_RECORD
  5
117
330
1
100
AcDbSymbolTableRecord
100
AcDbBlockTableRecord
  2
*D5
  0
ENDTAB
  0
ENDSEC
  0
SECTION
  2
BLOCKS
  0
BLOCK
  5
124
330
18
100
AcDbEntity
  8
0
100
AcDbBlockBegin
  2
*MODEL_SPACE
 70
     0
 10
0.0
 20
0.0
 30
0.0
  3
*MODEL_SPACE
  1

  0
ENDBLK
  5
125
330
18
100
AcDbEntity
  8
0
100
AcDbBlockEnd
  0
BLOCK
  5
122
330
15
100
AcDbEntity
 67
     1
  8
0
100
AcDbBlockBegin
  2
*PAPER_SPACE
 70
     0
 10
0.0
 20
0.0
 30
0.0
  3
*PAPER_SPACE
  1

  0
ENDBLK
  5
123
330
15
100
AcDbEntity
 67
     1
  8
0
100
AcDbBlockEnd
  0
BLOCK
  5
127
330
112
100
AcDbEntity
  8
0
100
AcDbBlockBegin
  2
*D0
 70
     1
 10
0.0
 20
0.0
 30
0.0
  3
*D0
  1

  0
LINE
  5
128
330
112
100
AcDbEntity
  8
0
  6
BYBLOCK
 62
     0
100
AcDbLine
 10
-6.681002108233844
 20
0.7976791278362341
 30
0.0
 11
-6.079643228971305
 21
0.797679127836234
 31
0.0
  0
LINE
  5
129
330
112
100
AcDbEntity
  8
0
  6
BYBLOCK
 62
     0
100
AcDbLine
 10
-7.581094877571707
 20
-1.468588897291464
 30
0.0
 11
-6.079643228971305
 21
-1.468588897291464
 31
0.0
  0
LINE
  5
12A
330
112
100
AcDbEntity
  8
0
  6
BYBLOCK
 62
     0
100
AcDbLine
 10
-6.259643228971305
 20
0.797679127836234
 30
0.0
 11
-6.259643228971305
 21
0.0603784486057182
 31
0.0
  0
LINE
  5
12B
330
112
100
AcDbEntity
  8
0
  6
BYBLOCK
 62
     0
100
AcDbLine
 10
-6.259643228971305
 20
-1.468588897291464
 30
0.0
 11
-6.259643228971305
 21
-0.7312882180609485
 31
0.0
  0
LINE
  5
12C
330
112
100
AcDbEntity
  8
0
  6
BYBLOCK
 62
     0
100
AcDbLine
 10
-6.134643228971305
 20
0.672679127836234
 30
0.0
 11
-6.384643228971305
 21
0.9226791278362341
 31
0.0
  0
LINE
  5
12D
330
112
100
AcDbEntity
  8
0
  6
BYBLOCK
 62
     0
100
AcDbLine
 10
-6.134643228971305
 20
-1.593588897291464
 30
0.0
 11
-6.384643228971305
 21
-1.343588897291464
 31
0.0
  0
TEXT
  5
12E
330
112
100
AcDbEntity
  8
0
  6
BYBLOCK
 62
     0
100
AcDbText
 10
-6.197143228971305
 20
-0.6062882180609485
 30
0.0
 40
0.125
  1
2 1/4
 50
90.0
 72
     1
 11
-6.259643228971305
 21
-0.3354548847276151
 31
0.0
100
AcDbText
 73
     2
  0
POINT
  5
12F
330
112
100
AcDbEntity
  8
DEFPOINTS
  6
BYBLOCK
 62
     0
100
AcDbPoint
 10
-6.743502108233844
 20
0.7976791278362341
 30
0.0
  0
POINT
  5
130
330
112
100
AcDbEntity
  8
DEFPOINTS
  6
BYBLOCK
 62
     0
100
AcDbPoint
 10
-7.643594877571707
 20
-1.468588897291464
 30
0.0
  0
POINT
  5
131
330
112
100
AcDbEntity
  8
DEFPOINTS
  6
BYBLOCK
 62
     0
100
AcDbPoint
 10
-6.259643228971305
 20
-1.468588897291464
 30
0.0
  0
ENDBLK
  5
132
330
112
100
AcDbEntity
  8
0
100
AcDbBlockEnd
  0
BLOCK
  5
133
330
113
100
AcDbEntity
  8
0
100
AcDbBlockBegin
  2
*D1
 70
     1
 10
0.0
 20
0.0
 30
0.0
  3
*D1
  1

  0
LINE
  5
134
330
113
100
AcDbEntity
  8
0
  6
BYBLOCK
 62
     0
100
AcDbLine
 10
-8.404243945313213
 20
1.048182149960097
 30
0.0
 11
-8.404243945313213
 21
1.539525926567746
 31
0.0
  0
LINE
  5
135
330
113
100
AcDbEntity
  8
0
  6
BYBLOCK
 62
     0
100
AcDbLine
 10
-7.012952390365919
 20
1.048182149960097
 30
0.0
 11
-7.012952390365919
 21
1.539525926567746
 31
0.0
  0
LINE
  5
136
330
113
100
AcDbEntity
  8
0
  6
BYBLOCK
 62
     0
100
AcDbLine
 10
-8.404243945313213
 20
1.359525926567746
 30
0.0
 11
-8.1044315011729
 21
1.359525926567746
 31
0.0
  0
LINE
  5
137
330
113
100
AcDbEntity
  8
0
  6
BYBLOCK
 62
     0
100
AcDbLine
 10
-7.012952390365919
 20
1.359525926567746
 30
0.0
 11
-7.312764834506233
 21
1.359525926567746
 31
0.0
  0
LINE
  5
138
330
113
100
AcDbEntity
  8
0
  6
BYBLOCK
 62
     0
100
AcDbLine
 10
-8.529243945313213
 20
1.234525926567746
 30
0.0
 11
-8.279243945313213
 21
1.484525926567746
 31
0.0
  0
LINE
  5
139
330
113
100
AcDbEntity
  8
0
  6
BYBLOCK
 62
     0
100
AcDbLine
 10
-7.137952390365919
 20
1.234525926567746
 30
0.0
 11
-6.887952390365919
 21
1.484525926567746
 31
0.0
  0
TEXT
  5
13A
330
113
100
AcDbEntity
  8
0
  6
BYBLOCK
 62
     0
100
AcDbText
 10
-7.979431501172899
 20
1.297025926567746
 30
0.0
 40
0.125
  1
1 3/8
 72
     1
 11
-7.708598167839566
 21
1.359525926567746
 31
0.0
100
AcDbText
 73
     2
  0
POINT
  5
13B
330
113
100
AcDbEntity
  8
DEFPOINTS
  6
BYBLOCK
 62
     0
100
AcDbPoint
 10
-8.404243945313213
 20
0.9856821499600979
 30
0.0
  0
POINT
  5
13C
330
113
100
AcDbEntity
  8
DEFPOINTS
  6
BYBLOCK
 62
     0
100
AcDbPoint
 10
-7.012952390365919
 20
0.9856821499600979
 30
0.0
  0
POINT
  5
13D
330
113
100
AcDbEntity
  8
DEFPOINTS
  6
BYBLOCK
 62
     0
100
AcDbPoint
 10
-7.012952390365919
 20
1.359525926567746
 30
0.0
  0
ENDBLK
  5
13E
330
113
100
AcDbEntity
  8
0
100
AcDbBlockEnd
  0
BLOCK
  5
13F
330
114
100
AcDbEntity
  8
0
100
AcDbBlockBegin
  2
*D2
 70
     1
 10
0.0
 20
0.0
 30
0.0
  3
*D2
  1

  0
LINE
  5
140
330
114
100
AcDbEntity
  8
0
  6
BYBLOCK
 62
     0
100
AcDbLine
 10
-8.872437408693567
 20
-2.2390839909215
 30
0.0
 11
-9.079499687079358
 21
-2.379174007945143
 31
0.0
  0
LINE
  5
141
330
114
100
AcDbEntity
  8
0
  6
BYBLOCK
 62
     0
100
AcDbLine
 10
-8.905923539374642
 20
-2.412660138626218
 30
0.0
 11
-8.838951278012492
 21
-2.065507843216782
 31
0.0
  0
LINE
  5
142
330
114
100
AcDbEntity
  8
0
  6
BYBLOCK
 62
     0
100
AcDbLine
 10
-7.921094877571709
 20
-1.468588897291463
 30
0.0
 11
-7.546094877571709
 21
-1.468588897291463
 31
0.0
  0
LINE
  5
143
330
114
100
AcDbEntity
  8
0
  6
BYBLOCK
 62
     0
100
AcDbLine
 10
-7.733594877571709
 20
-1.656088897291463
 30
0.0
 11
-7.733594877571709
 21
-1.281088897291463
 31
0.0
  0
TEXT
  5
144
330
114
100
AcDbEntity
  8
0
  6
BYBLOCK
 62
     0
100
AcDbText
 10
-9.734684777442755
 20
-2.897906300953735
 30
0.0
 40
0.125
  1
%%c2 3/4
 50
34.0807025078365
 72
     1
 11
-9.476369053985461
 21
-2.647679873907126
 31
0.0
100
AcDbText
 73
     2
  0
POINT
  5
145
330
114
100
AcDbEntity
  8
DEFPOINTS
  6
BYBLOCK
 62
     0
100
AcDbPoint
 10
-8.872437408693567
 20
-2.2390839909215
 30
0.0
  0
POINT
  5
146
330
114
100
AcDbEntity
  8
DEFPOINTS
  6
BYBLOCK
 62
     0
100
AcDbPoint
 10
-6.59475234644985
 20
-0.6980938036614253
 30
0.0
  0
ENDBLK
  5
147
330
114
100
AcDbEntity
  8
0
100
AcDbBlockEnd
  0
BLOCK
  5
148
330
115
100
AcDbEntity
  8
0
100
AcDbBlockBegin
  2
*D3
 70
     1
 10
0.0
 20
0.0
 30
0.0
  3
*D3
  1

  0
LINE
  5
149
330
115
100
AcDbEntity
  8
0
  6
BYBLOCK
 62
     0
100
AcDbLine
 10
-8.743502108233844
 20
1.032729432714639
 30
0.0
 11
-8.743502108233844
 21
1.725525926567746
 31
0.0
  0
LINE
  5
14A
330
115
100
AcDbEntity
  8
0
  6
BYBLOCK
 62
     0
100
AcDbLine
 10
-6.743502108233844
 20
1.032729432714639
 30
0.0
 11
-6.743502108233844
 21
1.725525926567746
 31
0.0
  0
LINE
  5
14B
330
115
100
AcDbEntity
  8
0
  6
BYBLOCK
 62
     0
100
AcDbLine
 10
-8.743502108233844
 20
1.545525926567746
 30
0.0
 11
-7.910168774900511
 21
1.545525926567746
 31
0.0
  0
LINE
  5
14C
330
115
100
AcDbEntity
  8
0
  6
BYBLOCK
 62
     0
100
AcDbLine
 10
-6.743502108233844
 20
1.545525926567746
 30
0.0
 11
-7.576835441567177
 21
1.545525926567746
 31
0.0
  0
LINE
  5
14D
330
115
100
AcDbEntity
  8
0
  6
BYBLOCK
 62
     0
100
AcDbLine
 10
-8.868502108233844
 20
1.420525926567746
 30
0.0
 11
-8.618502108233844
 21
1.670525926567746
 31
0.0
  0
LINE
  5
14E
330
115
100
AcDbEntity
  8
0
  6
BYBLOCK
 62
     0
100
AcDbLine
 10
-6.868502108233844
 20
1.420525926567746
 30
0.0
 11
-6.618502108233844
 21
1.670525926567746
 31
0.0
  0
TEXT
  5
14F
330
115
100
AcDbEntity
  8
0
  6
BYBLOCK
 62
     0
100
AcDbText
 10
-7.785168774900511
 20
1.483025926567746
 30
0.0
 40
0.125
  1
2
 72
     1
 11
-7.743502108233844
 21
1.545525926567746
 31
0.0
100
AcDbText
 73
     2
  0
POINT
  5
150
330
115
100
AcDbEntity
  8
DEFPOINTS
  6
BYBLOCK
 62
     0
100
AcDbPoint
 10
-8.743502108233844
 20
0.9702294327146393
 30
0.0
  0
POINT
  5
151
330
115
100
AcDbEntity
  8
DEFPOINTS
  6
BYBLOCK
 62
     0
100
AcDbPoint
 10
-6.743502108233844
 20
0.9702294327146393
 30
0.0
  0
POINT
  5
152
330
115
100
AcDbEntity
  8
DEFPOINTS
  6
BYBLOCK
 62
     0
100
AcDbPoint
 10
-6.743502108233844
 20
1.545525926567746
 30
0.0
  0
ENDBLK
  5
153
330
115
100
AcDbEntity
  8
0
100
AcDbBlockEnd
  0
BLOCK
  5
154
330
116
100
AcDbEntity
  8
0
100
AcDbBlockBegin
  2
*D4
 70
     1
 10
0.0
 20
0.0
 30
0.0
  3
*D4
  1

  0
LINE
  5
155
330
116
100
AcDbEntity
  8
0
  6
BYBLOCK
 62
     0
100
AcDbLine
 10
-12.5836432289713
 20
-0.0388270252247875
 30
0.0
 11
-12.5836432289713
 21
1.352172974775213
 31
0.0
  0
LINE
  5
156
330
116
100
AcDbEntity
  8
0
  6
BYBLOCK
 62
     0
100
AcDbLine
 10
-10.0727045270921
 20
0.8871610766846075
 30
0.0
 11
-10.0727045270921
 21
1.352172974775213
 31
0.0
  0
LINE
  5
157
330
116
100
AcDbEntity
  8
0
  6
BYBLOCK
 62
     0
100
AcDbLine
 10
-12.5836432289713
 20
1.172172974775213
 30
0.0
 11
-11.72400721136503
 21
1.172172974775213
 31
0.0
  0
LINE
  5
158
330
116
100
AcDbEntity
  8
0
  6
BYBLOCK
 62
     0
100
AcDbLine
 10
-10.0727045270921
 20
1.172172974775213
 30
0.0
 11
-10.93234054469836
 21
1.172172974775213
 31
0.0
  0
LINE
  5
159
330
116
100
AcDbEntity
  8
0
  6
BYBLOCK
 62
     0
100
AcDbLine
 10
-12.7086432289713
 20
1.047172974775213
 30
0.0
 11
-12.4586432289713
 21
1.297172974775213
 31
0.0
  0
LINE
  5
15A
330
116
100
AcDbEntity
  8
0
  6
BYBLOCK
 62
     0
100
AcDbLine
 10
-10.19770452709209
 20
1.047172974775213
 30
0.0
 11
-9.947704527092099
 21
1.297172974775213
 31
0.0
  0
TEXT
  5
15B
330
116
100
AcDbEntity
  8
0
  6
BYBLOCK
 62
     0
100
AcDbText
 10
-11.59900721136503
 20
1.109672974775213
 30
0.0
 40
0.125
  1
2 1/2
 72
     1
 11
-11.3281738780317
 21
1.172172974775213
 31
0.0
100
AcDbText
 73
     2
  0
POINT
  5
15C
330
116
100
AcDbEntity
  8
DEFPOINTS
  6
BYBLOCK
 62
     0
100
AcDbPoint
 10
-12.5836432289713
 20
-0.1013270252247875
 30
0.0
  0
POINT
  5
15D
330
116
100
AcDbEntity
  8
DEFPOINTS
  6
BYBLOCK
 62
     0
100
AcDbPoint
 10
-10.0727045270921
 20
0.8246610766846075
 30
0.0
  0
POINT
  5
15E
330
116
100
AcDbEntity
  8
DEFPOINTS
  6
BYBLOCK
 62
     0
100
AcDbPoint
 10
-10.0727045270921
 20
1.172172974775213
 30
0.0
  0
ENDBLK
  5
15F
330
116
100
AcDbEntity
  8
0
100
AcDbBlockEnd
  0
BLOCK
  5
160
330
117
100
AcDbEntity
  8
0
100
AcDbBlockBegin
  2
*D5
 70
     1
 10
0.0
 20
0.0
 30
0.0
  3
*D5
  1

  0
LINE
  5
161
330
117
100
AcDbEntity
  8
0
  6
BYBLOCK
 62
     0
100
AcDbLine
 10
-7.91518516029672
 20
-1.590558285745494
 30
0.0
 11
-8.122716911982449
 21
-1.729951872550101
 31
0.0
  0
LINE
  5
162
330
117
100
AcDbEntity
  8
0
  6
BYBLOCK
 62
     0
100
AcDbLine
 10
-7.949254242737281
 20
-1.764020954990662
 30
0.0
 11
-7.881116077856159
 21
-1.417095616500327
 31
0.0
  0
LINE
  5
163
330
117
100
AcDbEntity
  8
0
  6
BYBLOCK
 62
     0
100
AcDbLine
 10
-7.921094877571708
 20
-1.468588897291464
 30
0.0
 11
-7.546094877571708
 21
-1.468588897291464
 31
0.0
  0
LINE
  5
164
330
117
100
AcDbEntity
  8
0
  6
BYBLOCK
 62
     0
100
AcDbLine
 10
-7.733594877571708
 20
-1.656088897291464
 30
0.0
 11
-7.733594877571708
 21
-1.281088897291464
 31
0.0
  0
TEXT
  5
165
330
117
100
AcDbEntity
  8
0
  6
BYBLOCK
 62
     0
100
AcDbText
 10
-8.641286519776571
 20
-2.153551041950484
 30
0.0
 40
0.125
  1
%%c7/16
 50
33.88821312375861
 72
     1
 11
-8.451308852151518
 21
-1.950658384990728
 31
0.0
100
AcDbText
 73
     2
  0
POINT
  5
166
330
117
100
AcDbEntity
  8
DEFPOINTS
  6
BYBLOCK
 62
     0
100
AcDbPoint
 10
-7.91518516029672
 20
-1.590558285745494
 30
0.0
  0
POINT
  5
167
330
117
100
AcDbEntity
  8
DEFPOINTS
  6
BYBLOCK
 62
     0
100
AcDbPoint
 10
-7.552004594846695
 20
-1.346619508837433
 30
0.0
  0
ENDBLK
  5
168
330
117
100
AcDbEntity
  8
0
100
AcDbBlockEnd
  0
ENDSEC
  0
SECTION
  2
ENTITIES
  0
DIMENSION
  5
169
330
18
100
AcDbEntity
  8
ADPDIM
100
AcDbDimension
  2
*D4
 10
-10.0727045270921
 20
1.172172974775213
 30
0.0
 11
-11.3281738780317
 21
1.172172974775213
 31
0.0
100
AcDbAlignedDimension
 13
-12.5836432289713
 23
-0.1013270252247875
 33
0.0
 14
-10.0727045270921
 24
0.8246610766846075
 34
0.0
100
AcDbRotatedDimension
  0
LWPOLYLINE
  5
16A
330
18
100
AcDbEntity
  8
ADP1DETAIL
100
AcDbPolyline
 90
        6
 70
     0
 43
0.0
 10
-9.521874809158777
 20
0.8451305742907923
 10
-9.521874809158777
 20
0.4425134186866049
 42
0.2927242292984135
 10
-10.16485308910893
 20
0.0758770482744864
 42
-0.2464927303434341
 10
-11.56126800135023
 20
-0.9453906723089101
 42
-0.0462735726296767
 10
-12.10985964339553
 20
-0.9453906723089101
 42
0.1832888743227216
 10
-12.24700753522788
 20
-1.082418777697656
 42
1.564220373526539
  0
LWPOLYLINE
  5
172
330
18
100
AcDbEntity
  8
ADP1DETAIL
100
AcDbPolyline
 90
        5
 70
     0
 43
0.0
 10
-9.59383356421117
 20
0.9457849049003566
 42
-0.3120341273705903
 10
-10.51490609169029
 20
0.9314056433129604
 42
0.8920437164298759
 10
-10.60845255039315
 20
0.9026472869722375
 42
0.6473254417849656
 10
-9.521874809158777
 20
0.8451305742907923
 42
0.6182765053642453
 10
-9.579442018893367
 20
0.9601639996536835
 42
2848.777980009486
  0
ARC
  5
179
330
18
100
AcDbEntity
  8
ADP1DETAIL
100
AcDbCircle
 10
-11.0150370098989
 20
0.6330375920066689
 30
0.0
 40
0.4824297545219605
100
AcDbArc
 50
352.7225410335163
 51
30.94060516282769
  0
LWPOLYLINE
  5
17A
330
18
100
AcDbEntity
  8
ADP1DETAIL
100
AcDbPolyline
 90
        3
 70
     0
 43
0.0
 10
-12.24700753522788
 20
-0.6090489943406952
 10
-12.24700753522788
 20
-2.465156954111705
 42
0.2635727013609625
 10
-12.35921943314235
 20
-2.55235661787486
 42
0.1999804351342478
  0
LWPOLYLINE
  5
17F
330
18
100
AcDbEntity
  8
ADP1DETAIL
100
AcDbPolyline
 90
        3
 70
     0
 43
0.0
 10
-12.35921943314235
 20
-0.6713344615314161
 10
-12.35921943314235
 20
-2.71429891983604
 42
0.4681132857464523
 10
-12.47143133105683
 20
-2.789041558034067
 42
1.113798090850198
  0
LWPOLYLINE
  5
184
330
18
100
AcDbEntity
  8
ADP1DETAIL
100
AcDbPolyline
 90
        4
 70
     1
 43
0.0
 10
-12.5836432289713
 20
-2.851327025224787
 10
-12.5836432289713
 20
-0.1013270252247875
 10
-12.4586432289713
 20
-0.1013270252247875
 10
-12.4586432289713
 20
-2.851327025224787
  0
LWPOLYLINE
  5
18A
330
18
100
AcDbEntity
  8
ADP1DETAIL
100
AcDbPolyline
 90
        3
 70
     0
 43
0.0
 10
-10.53889277372916
 20
0.5741610766846068
 42
-0.3098140830975009
 10
-11.18722831673
 20
-0.2976214644641879
 42
-0.1692904890284472
 10
-12.45896333409789
 20
-0.0983078434039944
 42
-4.034525178236495
  0
LWPOLYLINE
  5
18F
330
18
100
AcDbEntity
  8
ADP1DETAIL
100
AcDbPolyline
 90
        5
 70
     0
 43
0.0
 10
-10.53889277372916
 20
0.5741610766846068
 10
-10.53889277372916
 20
0.3250190624795457
 42
-0.2856512416453715
 10
-10.92540053002425
 20
-0.3474498576090554
 42
-0.2078206286758872
 10
-11.89790376980959
 20
-0.5965918718141157
 42
0.2255067538137569
 10
-12.40909142097809
 20
-0.6837915840579956
 42
3.212070612844574
  0
LINE
  5
196
330
18
100
AcDbEntity
  8
ADP2DETAIL
  6
HIDDEN2
100
AcDbLine
 10
-12.40909138362012
 20
-1.256818202185417
 30
0.0
 11
-12.57117523201237
 21
-1.256818202185417
 31
0.0
  0
LINE
  5
197
330
18
100
AcDbEntity
  8
ADP2DETAIL
  6
HIDDEN2
100
AcDbLine
 10
-12.40909138362012
 20
-1.69281671492409
 30
0.0
 11
-12.57117523201237
 21
-1.69281671492409
 31
0.0
  0
ARC
  5
198
330
18
100
AcDbEntity
  8
ADP1DETAIL
100
AcDbCircle
 10
-6.86850210823384
 20
0.6991610766846068
 30
0.0
 40
0.125
100
AcDbArc
 50
270.0
 51
0.0
  0
ARC
  5
199
330
18
100
AcDbEntity
  8
ADP1DETAIL
100
AcDbCircle
 10
-8.61850210823384
 20
0.6991610766846068
 30
0.0
 40
0.125
100
AcDbArc
 50
180.0
 51
270.0
  0
DIMENSION
  5
19A
330
18
100
AcDbEntity
  8
ADPDIM
100
AcDbDimension
  2
*D0
 10
-6.259643228971305
 20
-1.468588897291464
 30
0.0
 11
-6.259643228971305
 21
-0.3354548847276151
 31
0.0
100
AcDbAlignedDimension
 13
-6.743502108233844
 23
0.7976791278362341
 33
0.0
 14
-7.643594877571707
 24
-1.468588897291464
 34
0.0
 50
90.0
100
AcDbRotatedDimension
  0
ARC
  5
19B
330
18
100
AcDbEntity
  8
ADP1DETAIL
100
AcDbCircle
 10
-7.728269366023912
 20
0.8547666449955922
 30
0.0
 40
0.3878452625743965
100
AcDbArc
 50
269.2132457092452
 51
4.315936870758827
  0
ARC
  5
19C
330
18
100
AcDbEntity
  8
ADP1DETAIL
100
AcDbCircle
 10
-7.74748687802414
 20
0.8340906626987148
 30
0.0
 40
0.3673954531283217
100
AcDbArc
 50
172.1996195829922
 51
272.1669913987183
  0
ARC
  5
19D
330
18
100
AcDbEntity
  8
ADP1DETAIL
100
AcDbCircle
 10
-9.425977220518213
 20
-0.2288569751423366
 30
0.0
 40
1.399233935213088
100
AcDbArc
 50
347.9131117824028
 51
5.344684184953338
  0
DIMENSION
  5
19E
330
18
100
AcDbEntity
  8
ADPDIM
100
AcDbDimension
  2
*D5
 10
-7.552004594846695
 20
-1.346619508837433
 30
0.0
 11
-8.451308852151518
 21
-1.950658384990728
 31
0.0
 70
     3
100
AcDbDiametricDimension
 15
-7.91518516029672
 25
-1.590558285745494
 35
0.0
 40
0.0
  0
DIMENSION
  5
19F
330
18
100
AcDbEntity
  8
ADPDIM
100
AcDbDimension
  2
*D2
 10
-6.59475234644985
 20
-0.6980938036614253
 30
0.0
 11
-9.476369053985461
 21
-2.647679873907126
 31
0.0
 70
     3
100
AcDbDiametricDimension
 15
-8.872437408693567
 25
-2.2390839909215
 35
0.0
 40
0.0
  0
ARC
  5
1A0
330
18
100
AcDbEntity
  8
ADP1DETAIL
100
AcDbCircle
 10
-7.733594877571707
 20
-1.468588897291464
 30
0.0
 40
1.0
100
AcDbArc
 50
139.5784852780645
 51
42.92962201952805
  0
ARC
  5
1A1
330
18
100
AcDbEntity
  8
ADP1DETAIL
100
AcDbCircle
 10
-7.733594877571707
 20
-1.468588897291464
 30
0.0
 40
1.375
100
AcDbArc
 50
102.3516491360057
 51
77.64835086399426
  0
ARC
  5
1A2
330
18
100
AcDbEntity
  8
ADP1DETAIL
100
AcDbCircle
 10
-7.733594877571707
 20
-1.468588897291464
 30
0.0
 40
1.25
100
AcDbArc
 50
133.8105085815925
 51
46.18949141840746
  0
LWPOLYLINE
  5
1A3
330
18
100
AcDbEntity
  8
ADP1DETAIL
100
AcDbPolyline
 90
        4
 70
     0
 43
0.0
 10
-8.519078312404893
 20
-0.9827619914079232
 42
-0.2653409194881914
 10
-8.169974546986605
 20
-1.020133310506935
 42
0.488671517422391
 10
-8.020358658195327
 20
-0.9952191139345028
 42
-0.2823187619257269
 10
-7.733594877571707
 20
-0.7336199772028622
 42
-0.0948956510465492
  0
LINE
  5
1A9
330
18
100
AcDbEntity
  8
ADP1DETAIL
100
AcDbLine
 10
-8.003544537610061
 20
0.5741610766846068
 30
0.0
 11
-8.61850210823384
 21
0.5741610766846068
 31
0.0
  0
ARC
  5
1AA
330
18
100
AcDbEntity
  8
ADP1DETAIL
100
AcDbCircle
 10
-10.24237010712732
 20
-0.2750456443372928
 30
0.0
 40
2.216583571703591
100
AcDbArc
 50
4.567731971249008
 51
22.52677546872849
  0
ARC
  5
1AB
330
18
100
AcDbEntity
  8
ADP1DETAIL
100
AcDbCircle
 10
-8.43180237105032
 20
-0.7738030504009568
 30
0.0
 40
0.2316521475104399
100
AcDbArc
 50
41.10479043247981
 51
112.1327805058516
  0
ARC
  5
1AC
330
18
100
AcDbEntity
  8
ADP1DETAIL
100
AcDbCircle
 10
-8.514421844141939
 20
-1.048881075983747
 30
0.0
 40
0.4896826148294571
100
AcDbArc
 50
90.54484270379015
 51
124.7264706027058
  0
ARC
  5
1AD
330
18
100
AcDbEntity
  8
ADP1DETAIL
100
AcDbCircle
 10
-8.179572846913099
 20
-0.5275065613404491
 30
0.0
 40
0.1219414987053103
100
AcDbArc
 50
230.4309454706047
 51
2.659099787081579
  0
ARC
  5
1AE
330
18
100
AcDbEntity
  8
ADP1DETAIL
100
AcDbCircle
 10
-6.952767911001476
 20
-1.048881075983747
 30
0.0
 40
0.4896826148294571
100
AcDbArc
 50
55.27352939729411
 51
89.45515729620984
  0
ARC
  5
1AF
330
18
100
AcDbEntity
  8
ADP1DETAIL
100
AcDbCircle
 10
-7.035387384093095
 20
-0.7738030504009568
 30
0.0
 40
0.2316521475104399
100
AcDbArc
 50
67.86721949414834
 51
138.8952095675201
  0
ARC
  5
1B0
330
18
100
AcDbEntity
  8
ADP1DETAIL
100
AcDbCircle
 10
-7.287616908230315
 20
-0.5275065613404491
 30
0.0
 40
0.1219414987053103
100
AcDbArc
 50
177.3409002129184
 51
309.5690545293952
  0
LWPOLYLINE
  5
1B1
330
18
100
AcDbEntity
  8
ADP1DETAIL
100
AcDbPolyline
 90
        4
 70
     0
 43
0.0
 10
-6.948111442738522
 20
-0.9827619914079232
 42
0.2653409194881914
 10
-7.29721520815681
 20
-1.020133310506935
 42
-0.488671517422391
 10
-7.446831096948088
 20
-0.9952191139345028
 42
0.2823187619257269
 10
-7.733594877571707
 20
-0.7336199772028622
 42
0.0948956510465492
  0
CIRCLE
  5
1B7
330
18
100
AcDbEntity
  8
ADP1DETAIL
100
AcDbCircle
 10
-7.733594877571707
 20
-1.468588897291464
 30
0.0
 40
0.21875
  0
ARC
  5
1B8
330
18
100
AcDbEntity
  8
ADP1DETAIL
100
AcDbCircle
 10
-5.224819648016087
 20
-0.2750456443372928
 30
0.0
 40
2.216583571703591
100
AcDbArc
 50
157.4732245312715
 51
175.4322680287509
  0
ARC
  5
1B9
330
18
100
AcDbEntity
  8
ADP1DETAIL
100
AcDbCircle
 10
-6.041212534625201
 20
-0.2288569751423357
 30
0.0
 40
1.399233935213088
100
AcDbArc
 50
174.6553158150466
 51
192.0868882175972
  0
LINE
  5
1BA
330
18
100
AcDbEntity
  8
ADP1DETAIL
100
AcDbLine
 10
-6.86850210823384
 20
0.5741610766846068
 30
0.0
 11
-7.456657844942387
 21
0.5741610766846068
 31
0.0
  0
LINE
  5
1BB
330
18
100
AcDbEntity
  8
ADP2DETAIL
  6
HIDDEN2
100
AcDbLine
 10
-8.743502108233844
 20
0.7976791278362341
 30
0.0
 11
-6.743502108233844
 21
0.7976791278362341
 31
0.0
  0
DIMENSION
  5
1BC
330
18
100
AcDbEntity
  8
ADPDIM
100
AcDbDimension
  2
*D3
 10
-6.743502108233844
 20
1.545525926567746
 30
0.0
 11
-7.743502108233844
 21
1.545525926567746
 31
0.0
100
AcDbAlignedDimension
 13
-8.743502108233844
 23
0.9702294327146393
 33
0.0
 14
-6.743502108233844
 24
0.9702294327146393
 34
0.0
100
AcDbRotatedDimension
  0
DIMENSION
  5
1BD
330
18
100
AcDbEntity
  8
ADPDIM
100
AcDbDimension
  2
*D1
 10
-7.012952390365919
 20
1.359525926567746
 30
0.0
 11
-7.708598167839566
 21
1.359525926567746
 31
0.0
100
AcDbAlignedDimension
 13
-8.404243945313213
 23
0.9856821499600979
 33
0.0
 14
-7.012952390365919
 24
0.9856821499600979
 34
0.0
100
AcDbRotatedDimension
  0
LINE
  5
1BE
330
18
100
AcDbEntity
  8
ADP1DETAIL
100
AcDbLine
 10
-8.743502108233844
 20
0.9702294327146393
 30
0.0
 11
-6.743502108233844
 21
0.9702294327146393
 31
0.0
  0
LINE
  5
1BF
330
18
100
AcDbEntity
  8
ADP2DETAIL
  6
HIDDEN2
100
AcDbLine
 10
-10.17144074676003
 20
0.6536137939300662
 30
0.0
 11
-9.983713474032764
 21
0.6536137939300662
 31
0.0
  0
LINE
  5
1C0
330
18
100
AcDbEntity
  8
ADP2DETAIL
  6
HIDDEN2
100
AcDbLine
 10
-10.17144074676003
 20
0.6536137939300662
 30
0.0
 11
-10.2250771103964
 21
0.5932728848391587
 31
0.0
  0
LINE
  5
1C1
330
18
100
AcDbEntity
  8
ADP2DETAIL
  6
HIDDEN2
100
AcDbLine
 10
-9.983713474032764
 20
0.6539812467509978
 30
0.0
 11
-9.9300771103964
 21
0.5932728848391587
 31
0.0
  0
LINE
  5
1C2
330
18
100
AcDbEntity
  8
ADP2DETAIL
  6
HIDDEN2
100
AcDbLine
 10
-10.17144074676003
 20
0.7948034089860108
 30
0.0
 11
-10.17144074676003
 21
0.6536137939300662
 31
0.0
  0
LINE
  5
1C3
330
18
100
AcDbEntity
  8
ADP2DETAIL
  6
HIDDEN2
100
AcDbLine
 10
-9.983713474032764
 20
0.7948034089860108
 30
0.0
 11
-9.983713474032764
 21
0.6539812467509978
 31
0.0
  0
LINE
  5
1C4
330
18
100
AcDbEntity
  8
ADP1DETAIL
100
AcDbLine
 10
-8.74350210823384
 20
0.6991610766846068
 30
0.0
 11
-8.743502108233844
 21
0.9702294327146393
 31
0.0
  0
LINE
  5
1C5
330
18
100
AcDbEntity
  8
ADP2DETAIL
  6
HIDDEN2
100
AcDbLine
 10
-8.523104291408991
 20
0.6536137939300662
 30
0.0
 11
-8.576740655045355
 21
0.5932728848391587
 31
0.0
  0
LINE
  5
1C6
330
18
100
AcDbEntity
  8
ADP2DETAIL
  6
HIDDEN2
100
AcDbLine
 10
-8.523104291408991
 20
0.6536137939300662
 30
0.0
 11
-8.335377018681718
 21
0.6536137939300662
 31
0.0
  0
LINE
  5
1C7
330
18
100
AcDbEntity
  8
ADP2DETAIL
  6
HIDDEN2
100
AcDbLine
 10
-8.335377018681718
 20
0.6539812467509978
 30
0.0
 11
-8.281740655045354
 21
0.5932728848391587
 31
0.0
  0
LINE
  5
1C8
330
18
100
AcDbEntity
  8
ADP2DETAIL
  6
HIDDEN2
100
AcDbLine
 10
-8.523104291408991
 20
0.7948034089860108
 30
0.0
 11
-8.523104291408991
 21
0.6536137939300662
 31
0.0
  0
LINE
  5
1C9
330
18
100
AcDbEntity
  8
ADP2DETAIL
  6
HIDDEN2
100
AcDbLine
 10
-8.335377018681718
 20
0.7948034089860108
 30
0.0
 11
-8.335377018681718
 21
0.6539812467509978
 31
0.0
  0
LINE
  5
1CA
330
18
100
AcDbEntity
  8
ADP2DETAIL
  6
HIDDEN2
100
AcDbLine
 10
-6.944085463734424
 20
0.6536137939300662
 30
0.0
 11
-7.131812736461696
 21
0.6536137939300662
 31
0.0
  0
LINE
  5
1CB
330
18
100
AcDbEntity
  8
ADP2DETAIL
  6
HIDDEN2
100
AcDbLine
 10
-7.131812736461696
 20
0.6539812467509978
 30
0.0
 11
-7.185449100098061
 21
0.5932728848391587
 31
0.0
  0
LINE
  5
1CC
330
18
100
AcDbEntity
  8
ADP2DETAIL
  6
HIDDEN2
100
AcDbLine
 10
-6.944085463734424
 20
0.6536137939300662
 30
0.0
 11
-6.890449100098059
 21
0.5932728848391587
 31
0.0
  0
LINE
  5
1CD
330
18
100
AcDbEntity
  8
ADP2DETAIL
  6
HIDDEN2
100
AcDbLine
 10
-7.131812736461696
 20
0.7948034089860108
 30
0.0
 11
-7.131812736461696
 21
0.6539812467509978
 31
0.0
  0
LINE
  5
1CE
330
18
100
AcDbEntity
  8
ADP2DETAIL
  6
HIDDEN2
100
AcDbLine
 10
-6.944085463734424
 20
0.7948034089860108
 30
0.0
 11
-6.944085463734424
 21
0.6536137939300662
 31
0.0
  0
LINE
  5
1CF
330
18
100
AcDbEntity
  8
ADP1DETAIL
100
AcDbLine
 10
-6.743502108233844
 20
0.9702294327146393
 30
0.0
 11
-6.74350210823384
 21
0.6991610766846068
 31
0.0
  0
TEXT
  5
1DD
330
18
100
AcDbEntity
  8
ADPDIM
100
AcDbText
 10
-15.73627173198475
 20
-3.97977549126953
 30
0.0
 40
0.125
  1
J U L I U S  B L U M  &  C O . ,  I N C .      ( 8 0 0 )  5 2 6 - 6 2 9 3        W W W . J U L I U S B L U M . C O M        P A R T  N o .  3 8 2
 41
1.25
  7
ARIAL_WIDE
 72
     1
 11
-9.301564194467701
 21
-3.85477549126953
 31
0.0
100
AcDbText
 73
     3
  0
ENDSEC
  0
SECTION
  2
OBJECTS
  0
DICTIONARY
  5
C
330
0
100
AcDbDictionary
  3
ACAD_GROUP
350
D
  3
ACAD_LAYOUT
350
1D6
  3
ACAD_MLINESTYLE
350
E
  3
ACAD_PLOTSETTINGS
350
1D7
  3
ACAD_PLOTSTYLENAME
350
1D4
  3
ACDBHEADERROUNDTRIPXREC
350
37F
  3
ACDBVARIABLEDICTIONARY
350
237
  0
DICTIONARY
  5
231
330
18
100
AcDbDictionary
280
     1
  3
ACAD_LAYOUTSELFREF
360
3A0
  0
DICTIONARY
  5
22F
330
15
100
AcDbDictionary
280
     1
  3
ACAD_LAYOUTSELFREF
360
39F
  0
DICTIONARY
  5
D
102
{ACAD_REACTORS
330
C
102
}
330
C
100
AcDbDictionary
  0
DICTIONARY
  5
1D6
102
{ACAD_REACTORS
330
C
102
}
330
C
100
AcDbDictionary
  0
DICTIONARY
  5
E
102
{ACAD_REACTORS
330
C
102
}
330
C
100
AcDbDictionary
  3
STANDARD
350
1B
  0
DICTIONARY
  5
1D7
102
{ACAD_REACTORS
330
C
102
}
330
C
100
AcDbDictionary
  0
ACDBDICTIONARYWDFLT
  5
1D4
102
{ACAD_REACTORS
330
C
102
}
330
C
100
AcDbDictionary
281
     1
  3
Normal
350
1D5
100
AcDbDictionaryWithDefault
340
1D5
  0
DICTIONARY
  5
37F
102
{ACAD_REACTORS
330
C
102
}
330
C
100
AcDbDictionary
  3
CEPSNTYPE
350
389
  3
FINGERPRINTGUID
350
38A
  3
HYPERLINKBASE
350
382
  3
INSUNITS
350
388
  3
LAYOUTDICT
350
384
  3
LWETCUNION
350
387
  3
PLOTSETDICT
350
385
  3
PLOTSTYLNAMDICT
350
386
  3
PSVPSCALE
350
38C
  3
PUCSBASE
350
38F
  3
PUCSORGBACK
350
395
  3
PUCSORGBOTTOM
350
391
  3
PUCSORGFRONT
350
394
  3
PUCSORGLEFT
350
392
  3
PUCSORGRIGHT
350
393
  3
PUCSORGTOP
350
390
  3
PUCSORTHOREF
350
38D
  3
PUCSORTHOVIEW
350
38E
  3
STYLESHEET
350
383
  3
TSTACKALIGN
350
380
  3
TSTACKSIZE
350
381
  3
UCSBASE
350
398
  3
UCSORGBACK
350
39E
  3
UCSORGBOTTOM
350
39A
  3
UCSORGFRONT
350
39D
  3
UCSORGLEFT
350
39B
  3
UCSORGRIGHT
350
39C
  3
UCSORGTOP
350
399
  3
UCSORTHOREF
350
396
  3
UCSORTHOVIEW
350
397
  3
VERSIONGUID
350
38B
  0
DICTIONARY
  5
237
102
{ACAD_REACTORS
330
C
102
}
330
C
100
AcDbDictionary
  3
DIMASSOC
350
238
  0
XRECORD
  5
3A0
102
{ACAD_REACTORS
330
231
102
}
330
231
100
AcDbXrecord
340
18
  0
XRECORD
  5
39F
102
{ACAD_REACTORS
330
22F
102
}
330
22F
100
AcDbXrecord
340
15
  0
MLINESTYLE
  5
1B
102
{ACAD_REACTORS
330
E
102
}
330
E
100
AcDbMlineStyle
  2
STANDARD
 70
     0
  3

 62
     0
 51
90.0
 52
90.0
 71
     2
 49
0.5
 62
   256
  6
BYLAYER
 49
-0.5
 62
   256
  6
BYLAYER
  0
ACDBPLACEHOLDER
  5
1D5
102
{ACAD_REACTORS
330
1D4
102
}
330
1D4
100
AcDbPlaceHolder
280
     0
  0
XRECORD
  5
389
102
{ACAD_REACTORS
330
37F
102
}
330
37F
100
AcDbXrecord
 90
        0
  0
XRECORD
  5
38A
102
{ACAD_REACTORS
330
37F
102
}
330
37F
100
AcDbXrecord
  1
{1AF8E3E9-7FAD-4668-A1D8-2519B8219B86}
  0
XRECORD
  5
382
102
{ACAD_REACTORS
330
37F
102
}
330
37F
100
AcDbXrecord
  1

  0
XRECORD
  5
388
102
{ACAD_REACTORS
330
37F
102
}
330
37F
100
AcDbXrecord
 90
        0
  0
XRECORD
  5
384
102
{ACAD_REACTORS
330
37F
102
}
330
37F
100
AcDbXrecord
340
1D6
  0
XRECORD
  5
387
102
{ACAD_REACTORS
330
37F
102
}
330
37F
100
AcDbXrecord
 90
    14877
  0
XRECORD
  5
385
102
{ACAD_REACTORS
330
37F
102
}
330
37F
100
AcDbXrecord
340
1D7
  0
XRECORD
  5
386
102
{ACAD_REACTORS
330
37F
102
}
330
37F
100
AcDbXrecord
340
1D4
  0
XRECORD
  5
38C
102
{ACAD_REACTORS
330
37F
102
}
330
37F
100
AcDbXrecord
 40
0.0
  0
XRECORD
  5
38F
102
{ACAD_REACTORS
330
37F
102
}
330
37F
100
AcDbXrecord
340
0
  0
XRECORD
  5
395
102
{ACAD_REACTORS
330
37F
102
}
330
37F
100
AcDbXrecord
 10
0.0
 20
0.0
 30
0.0
  0
XRECORD
  5
391
102
{ACAD_REACTORS
330
37F
102
}
330
37F
100
AcDbXrecord
 10
0.0
 20
0.0
 30
0.0
  0
XRECORD
  5
394
102
{ACAD_REACTORS
330
37F
102
}
330
37F
100
AcDbXrecord
 10
0.0
 20
0.0
 30
0.0
  0
XRECORD
  5
392
102
{ACAD_REACTORS
330
37F
102
}
330
37F
100
AcDbXrecord
 10
0.0
 20
0.0
 30
0.0
  0
XRECORD
  5
393
102
{ACAD_REACTORS
330
37F
102
}
330
37F
100
AcDbXrecord
 10
0.0
 20
0.0
 30
0.0
  0
XRECORD
  5
390
102
{ACAD_REACTORS
330
37F
102
}
330
37F
100
AcDbXrecord
 10
0.0
 20
0.0
 30
0.0
  0
XRECORD
  5
38D
102
{ACAD_REACTORS
330
37F
102
}
330
37F
100
AcDbXrecord
340
0
  0
XRECORD
  5
38E
102
{ACAD_REACTORS
330
37F
102
}
330
37F
100
AcDbXrecord
 70
     0
  0
XRECORD
  5
383
102
{ACAD_REACTORS
330
37F
102
}
330
37F
100
AcDbXrecord
  1

  0
XRECORD
  5
380
102
{ACAD_REACTORS
330
37F
102
}
330
37F
100
AcDbXrecord
 90
        1
  0
XRECORD
  5
381
102
{ACAD_REACTORS
330
37F
102
}
330
37F
100
AcDbXrecord
 90
       70
  0
XRECORD
  5
398
102
{ACAD_REACTORS
330
37F
102
}
330
37F
100
AcDbXrecord
340
0
  0
XRECORD
  5
39E
102
{ACAD_REACTORS
330
37F
102
}
330
37F
100
AcDbXrecord
 10
0.0
 20
0.0
 30
0.0
  0
XRECORD
  5
39A
102
{ACAD_REACTORS
330
37F
102
}
330
37F
100
AcDbXrecord
 10
0.0
 20
0.0
 30
0.0
  0
XRECORD
  5
39D
102
{ACAD_REACTORS
330
37F
102
}
330
37F
100
AcDbXrecord
 10
0.0
 20
0.0
 30
0.0
  0
XRECORD
  5
39B
102
{ACAD_REACTORS
330
37F
102
}
330
37F
100
AcDbXrecord
 10
0.0
 20
0.0
 30
0.0
  0
XRECORD
  5
39C
102
{ACAD_REACTORS
330
37F
102
}
330
37F
100
AcDbXrecord
 10
0.0
 20
0.0
 30
0.0
  0
XRECORD
  5
399
102
{ACAD_REACTORS
330
37F
102
}
330
37F
100
AcDbXrecord
 10
0.0
 20
0.0
 30
0.0
  0
XRECORD
  5
396
102
{ACAD_REACTORS
330
37F
102
}
330
37F
100
AcDbXrecord
340
0
  0
XRECORD
  5
397
102
{ACAD_REACTORS
330
37F
102
}
330
37F
100
AcDbXrecord
 70
     0
  0
XRECORD
  5
38B
102
{ACAD_REACTORS
330
37F
102
}
330
37F
100
AcDbXrecord
  1
{7D7CA44A-E523-4ADE-B6E0-5287F363187B}
  0
DICTIONARYVAR
  5
238
102
{ACAD_REACTORS
330
237
102
}
330
237
100
DictionaryVariables
280
     0
  1
1
  0
ENDSEC
  0
EOF
