  0
SECTION
  2
HEADER
  9
$ACADVER
  1
AC1014
  9
$ACADMAINTVER
 70
     9
  9
$DWGCODEPAGE
  3
ANSI_1252
  9
$INSBASE
 10
-21.38325821870004
 20
-2.884134202304259
 30
0.0
  9
$EXTMIN
 10
-24.51782812276462
 20
-4.245637801664118
 30
0.0
  9
$EXTMAX
 10
-11.64841304773051
 20
1.547150393458242
 30
0.0
  9
$LIMMIN
 10
0.0
 20
0.0
  9
$LIMMAX
 10
36.0
 20
36.0
  9
$ORTHOMODE
 70
     1
  9
$REGENMODE
 70
     1
  9
$FILLMODE
 70
     1
  9
$QTEXTMODE
 70
     0
  9
$MIRRTEXT
 70
     1
  9
$DRAGMODE
 70
     0
  9
$LTSCALE
 40
1.0
  9
$OSMODE
 70
    37
  9
$ATTMODE
 70
     1
  9
$TEXTSIZE
 40
0.2
  9
$TRACEWID
 40
0.05
  9
$TEXTSTYLE
  7
STANDARD
  9
$CLAYER
  8
ADP2DETAIL
  9
$CELTYPE
  6
BYLAYER
  9
$CECOLOR
 62
   256
  9
$CELTSCALE
 40
1.0
  9
$DELOBJ
 70
     1
  9
$DISPSILH
 70
     0
  9
$DIMSCALE
 40
1.0
  9
$DIMASZ
 40
0.125
  9
$DIMEXO
 40
0.0625
  9
$DIMDLI
 40
0.38
  9
$DIMRND
 40
0.0
  9
$DIMDLE
 40
0.0
  9
$DIMEXE
 40
0.18
  9
$DIMTP
 40
0.0
  9
$DIMTM
 40
0.0
  9
$DIMTXT
 40
0.125
  9
$DIMCEN
 40
0.1875
  9
$DIMTSZ
 40
0.125
  9
$DIMTOL
 70
     0
  9
$DIMLIM
 70
     0
  9
$DIMTIH
 70
     0
  9
$DIMTOH
 70
     0
  9
$DIMSE1
 70
     0
  9
$DIMSE2
 70
     0
  9
$DIMTAD
 70
     0
  9
$DIMZIN
 70
     3
  9
$DIMBLK
  1

  9
$DIMASO
 70
     1
  9
$DIMSHO
 70
     1
  9
$DIMPOST
  1

  9
$DIMAPOST
  1

  9
$DIMALT
 70
     0
  9
$DIMALTD
 70
     1
  9
$DIMALTF
 40
25.4
  9
$DIMLFAC
 40
1.0
  9
$DIMTOFL
 70
     0
  9
$DIMTVP
 40
0.0
  9
$DIMTIX
 70
     0
  9
$DIMSOXD
 70
     0
  9
$DIMSAH
 70
     0
  9
$DIMBLK1
  1

  9
$DIMBLK2
  1

  9
$DIMSTYLE
  2
STANDARD
  9
$DIMCLRD
 70
     0
  9
$DIMCLRE
 70
     0
  9
$DIMCLRT
 70
     0
  9
$DIMTFAC
 40
1.0
  9
$DIMGAP
 40
0.125
  9
$DIMJUST
 70
     0
  9
$DIMSD1
 70
     0
  9
$DIMSD2
 70
     0
  9
$DIMTOLJ
 70
     1
  9
$DIMTZIN
 70
     0
  9
$DIMALTZ
 70
     0
  9
$DIMALTTZ
 70
     0
  9
$DIMFIT
 70
     3
  9
$DIMUPT
 70
     0
  9
$DIMUNIT
 70
     2
  9
$DIMDEC
 70
     4
  9
$DIMTDEC
 70
     4
  9
$DIMALTU
 70
     2
  9
$DIMALTTD
 70
     2
  9
$DIMTXSTY
  7
STANDARD
  9
$DIMAUNIT
 70
     0
  9
$LUNITS
 70
     5
  9
$LUPREC
 70
     4
  9
$SKETCHINC
 40
0.1
  9
$FILLETRAD
 40
0.062
  9
$AUNITS
 70
     0
  9
$AUPREC
 70
     0
  9
$MENU
  1
acad
  9
$ELEVATION
 40
0.0
  9
$PELEVATION
 40
0.0
  9
$THICKNESS
 40
0.0
  9
$LIMCHECK
 70
     0
  9
$BLIPMODE
 70
     0
  9
$CHAMFERA
 40
0.0
  9
$CHAMFERB
 40
0.0
  9
$CHAMFERC
 40
0.0
  9
$CHAMFERD
 40
0.0
  9
$SKPOLY
 70
     0
  9
$TDCREATE
 40
2450386.499018518
  9
$TDUPDATE
 40
2452297.069273356
  9
$TDINDWG
 40
0.0600096875
  9
$TDUSRTIMER
 40
0.0600096875
  9
$USRTIMER
 70
     1
  9
$ANGBASE
 50
0.0
  9
$ANGDIR
 70
     0
  9
$PDMODE
 70
     0
  9
$PDSIZE
 40
0.0
  9
$PLINEWID
 40
0.0
  9
$COORDS
 70
     2
  9
$SPLFRAME
 70
     0
  9
$SPLINETYPE
 70
     6
  9
$SPLINESEGS
 70
     8
  9
$ATTDIA
 70
     0
  9
$ATTREQ
 70
     1
  9
$HANDLING
 70
 22529
  9
$HANDSEED
  5
3D9
  9
$SURFTAB1
 70
     6
  9
$SURFTAB2
 70
     6
  9
$SURFTYPE
 70
     6
  9
$SURFU
 70
     6
  9
$SURFV
 70
     6
  9
$UCSNAME
  2

  9
$UCSORG
 10
0.0
 20
0.0
 30
0.0
  9
$UCSXDIR
 10
1.0
 20
0.0
 30
0.0
  9
$UCSYDIR
 10
0.0
 20
1.0
 30
0.0
  9
$PUCSNAME
  2

  9
$PUCSORG
 10
0.0
 20
0.0
 30
0.0
  9
$PUCSXDIR
 10
1.0
 20
0.0
 30
0.0
  9
$PUCSYDIR
 10
0.0
 20
1.0
 30
0.0
  9
$USERI1
 70
     0
  9
$USERI2
 70
     0
  9
$USERI3
 70
     0
  9
$USERI4
 70
     0
  9
$USERI5
 70
     0
  9
$USERR1
 40
0.0
  9
$USERR2
 40
0.0
  9
$USERR3
 40
0.0
  9
$USERR4
 40
0.0
  9
$USERR5
 40
0.0
  9
$WORLDVIEW
 70
     1
  9
$SHADEDGE
 70
     3
  9
$SHADEDIF
 70
    70
  9
$TILEMODE
 70
     1
  9
$MAXACTVP
 70
    15
  9
$PINSBASE
 10
4.403525741743744E+99
 20
7.061986388769092E+99
 30
0.0
  9
$PLIMCHECK
 70
     0
  9
$PEXTMIN
 10
1.000000000000000E+20
 20
1.000000000000000E+20
 30
1.000000000000000E+20
  9
$PEXTMAX
 10
-1.000000000000000E+20
 20
-1.000000000000000E+20
 30
-1.000000000000000E+20
  9
$PLIMMIN
 10
0.0
 20
0.0
  9
$PLIMMAX
 10
12.0
 20
9.0
  9
$UNITMODE
 70
     0
  9
$VISRETAIN
 70
     0
  9
$PLINEGEN
 70
     0
  9
$PSLTSCALE
 70
     1
  9
$TREEDEPTH
 70
  3020
  9
$PICKSTYLE
 70
     1
  9
$CMLSTYLE
  2
STANDARD
  9
$CMLJUST
 70
     0
  9
$CMLSCALE
 40
1.0
  9
$PROXYGRAPHICS
 70
     1
  9
$MEASUREMENT
 70
     0
  0
ENDSEC
  0
SECTION
  2
CLASSES
  0
CLASS
  1
ACDBDICTIONARYWDFLT
  2
AcDbDictionaryWithDefault
  3
AutoCAD 2000
 90
        0
280
     0
281
     0
  0
CLASS
  1
ACDBPLACEHOLDER
  2
AcDbPlaceHolder
  3
AutoCAD 2000
 90
        0
280
     0
281
     0
  0
CLASS
  1
LAYOUT
  2
AcDbLayout
  3
AutoCAD 2000
 90
        0
280
     0
281
     0
  0
CLASS
  1
DICTIONARYVAR
  2
AcDbDictionaryVar
  3
AutoCAD 2000
 90
        0
280
     0
281
     0
  0
CLASS
  1
LONG_TRANSACTION
  2
AcDbLongTransaction
  3
AutoCAD 2000
 90
        0
280
     0
281
     0
  0
CLASS
  1
LWPOLYLINE
  2
AcDbPolyline
  3
AutoCAD 2000
 90
        0
280
     0
281
     1
  0
CLASS
  1
HATCH
  2
AcDbHatch
  3
AutoCAD 2000
 90
        0
280
     0
281
     1
  0
CLASS
  1
XRECORD
  2
AcDbXrecord
  3
AutoCAD 2000
 90
        0
280
     0
281
     0
  0
CLASS
  1
LONG_TRANSACTION
  2
AcDbLongTransaction
  3
AutoCAD 2000
 90
        0
280
     0
281
     0
  0
CLASS
  1
LWPOLYLINE
  2
AcDbPolyline
  3
AutoCAD 2000
 90
        0
280
     0
281
     1
  0
CLASS
  1
HATCH
  2
AcDbHatch
  3
AutoCAD 2000
 90
        0
280
     0
281
     1
  0
CLASS
  1
XRECORD
  2
AcDbXrecord
  3
AutoCAD 2000
 90
        0
280
     0
281
     0
  0
CLASS
  1
LONG_TRANSACTION
  2
AcDbLongTransaction
  3
AutoCAD 2000
 90
        0
280
     0
281
     0
  0
CLASS
  1
LWPOLYLINE
  2
AcDbPolyline
  3
AutoCAD 2000
 90
        0
280
     0
281
     1
  0
CLASS
  1
HATCH
  2
AcDbHatch
  3
AutoCAD 2000
 90
        0
280
     0
281
     1
  0
CLASS
  1
XRECORD
  2
AcDbXrecord
  3
AutoCAD 2000
 90
        0
280
     0
281
     0
  0
CLASS
  1
LONG_TRANSACTION
  2
AcDbLongTransaction
  3
AutoCAD 2000
 90
        0
280
     0
281
     0
  0
CLASS
  1
LWPOLYLINE
  2
AcDbPolyline
  3
AutoCAD 2000
 90
        0
280
     0
281
     1
  0
CLASS
  1
HATCH
  2
AcDbHatch
  3
AutoCAD 2000
 90
        0
280
     0
281
     1
  0
CLASS
  1
XRECORD
  2
AcDbXrecord
  3
AutoCAD 2000
 90
        0
280
     0
281
     0
  0
CLASS
  1
LONG_TRANSACTION
  2
AcDbLongTransaction
  3
AutoCAD 2000
 90
        0
280
     0
281
     0
  0
CLASS
  1
LWPOLYLINE
  2
AcDbPolyline
  3
AutoCAD 2000
 90
        0
280
     0
281
     1
  0
CLASS
  1
HATCH
  2
AcDbHatch
  3
AutoCAD 2000
 90
        0
280
     0
281
     1
  0
CLASS
  1
XRECORD
  2
AcDbXrecord
  3
AutoCAD 2000
 90
        0
280
     0
281
     0
  0
CLASS
  1
LONG_TRANSACTION
  2
AcDbLongTransaction
  3
AutoCAD 2000
 90
        0
280
     0
281
     0
  0
CLASS
  1
LWPOLYLINE
  2
AcDbPolyline
  3
AutoCAD 2000
 90
        0
280
     0
281
     1
  0
CLASS
  1
HATCH
  2
AcDbHatch
  3
AutoCAD 2000
 90
        0
280
     0
281
     1
  0
CLASS
  1
XRECORD
  2
AcDbXrecord
  3
AutoCAD 2000
 90
        0
280
     0
281
     0
  0
CLASS
  1
LONG_TRANSACTION
  2
AcDbLongTransaction
  3
AutoCAD 2000
 90
        0
280
     0
281
     0
  0
CLASS
  1
LWPOLYLINE
  2
AcDbPolyline
  3
AutoCAD 2000
 90
        0
280
     0
281
     1
  0
CLASS
  1
HATCH
  2
AcDbHatch
  3
AutoCAD 2000
 90
        0
280
     0
281
     1
  0
CLASS
  1
XRECORD
  2
AcDbXrecord
  3
AutoCAD 2000
 90
        0
280
     0
281
     0
  0
ENDSEC
  0
SECTION
  2
TABLES
  0
TABLE
  2
VPORT
  5
8
330
0
100
AcDbSymbolTable
 70
     2
  0
VPORT
  5
3B6
330
8
100
AcDbSymbolTableRecord
100
AcDbViewportTableRecord
  2
*ACTIVE
 70
     0
 10
0.0
 20
0.0
 11
1.0
 21
1.0
 12
-18.08126150075283
 22
-1.34945085788729
 13
0.0
 23
0.0
 14
0.5740882589684922
 24
0.5740882589684922
 15
0.5
 25
0.5
 16
0.0
 26
0.0
 36
1.0
 17
0.0
 27
0.0
 37
0.0
 40
8.236113456758964
 41
1.570528967254408
 42
50.0
 43
0.0
 44
0.0
 50
0.0
 51
0.0
 71
     0
 72
   100
 73
     1
 74
     0
 75
     0
 76
     0
 77
     0
 78
     0
  0
ENDTAB
  0
TABLE
  2
LTYPE
  5
5
330
0
100
AcDbSymbolTable
 70
     2
  0
LTYPE
  5
12
330
5
100
AcDbSymbolTableRecord
100
AcDbLinetypeTableRecord
  2
BYBLOCK
 70
     0
  3

 72
    65
 73
     0
 40
0.0
  0
LTYPE
  5
13
330
5
100
AcDbSymbolTableRecord
100
AcDbLinetypeTableRecord
  2
BYLAYER
 70
     0
  3

 72
    65
 73
     0
 40
0.0
  0
LTYPE
  5
14
330
5
100
AcDbSymbolTableRecord
100
AcDbLinetypeTableRecord
  2
CONTINUOUS
 70
     0
  3
Solid line
 72
    65
 73
     0
 40
0.0
  0
LTYPE
  5
11F
330
5
100
AcDbSymbolTableRecord
100
AcDbLinetypeTableRecord
  2
HIDDEN2
 70
     0
  3
_ _ _ _ _ _ _ _ _ _ _ _ _ _ _ _ _ _ _ _ _ _ _ _
 72
    65
 73
     2
 40
0.1875
 49
0.125
 74
     0
 49
-0.0625
 74
     0
  0
ENDTAB
  0
TABLE
  2
LAYER
  5
2
330
0
100
AcDbSymbolTable
 70
     5
  0
LAYER
  5
F
330
2
100
AcDbSymbolTableRecord
100
AcDbLayerTableRecord
  2
0
 70
     0
 62
     7
  6
CONTINUOUS
  0
LAYER
  5
123
330
2
100
AcDbSymbolTableRecord
100
AcDbLayerTableRecord
  2
ADP1DETAIL
 70
     0
 62
     7
  6
CONTINUOUS
  0
LAYER
  5
125
330
2
100
AcDbSymbolTableRecord
100
AcDbLayerTableRecord
  2
DEFPOINTS
 70
     0
 62
     7
  6
CONTINUOUS
  0
LAYER
  5
126
330
2
100
AcDbSymbolTableRecord
100
AcDbLayerTableRecord
  2
ADP2DETAIL
 70
     0
 62
     5
  6
CONTINUOUS
  0
LAYER
  5
127
330
2
100
AcDbSymbolTableRecord
100
AcDbLayerTableRecord
  2
ADPDIM
 70
     0
 62
     3
  6
CONTINUOUS
  0
ENDTAB
  0
TABLE
  2
STYLE
  5
3
330
0
100
AcDbSymbolTable
 70
     2
  0
STYLE
  5
10
330
3
100
AcDbSymbolTableRecord
100
AcDbTextStyleTableRecord
  2
STANDARD
 70
     0
 40
0.0
 41
1.0
 50
0.0
 71
     0
 42
0.2
  3
txt
  4

  0
STYLE
  5
1E9
330
3
100
AcDbSymbolTableRecord
100
AcDbTextStyleTableRecord
  2
ARIAL_WIDE
 70
     0
 40
0.0
 41
1.25
 50
0.0
 71
     0
 42
0.2
  3
ARIAL.TTF
  4

1001
ACAD
1000
Arial
1071
       34
  0
ENDTAB
  0
TABLE
  2
VIEW
  5
6
330
0
100
AcDbSymbolTable
 70
     0
  0
ENDTAB
  0
TABLE
  2
UCS
  5
7
330
0
100
AcDbSymbolTable
 70
     0
  0
ENDTAB
  0
TABLE
  2
APPID
  5
9
330
0
100
AcDbSymbolTable
 70
     1
  0
APPID
  5
11
330
9
100
AcDbSymbolTableRecord
100
AcDbRegAppTableRecord
  2
ACAD
 70
     0
  0
ENDTAB
  0
TABLE
  2
DIMSTYLE
  5
A
330
0
100
AcDbSymbolTable
 70
     1
  0
DIMSTYLE
105
1DD
330
A
100
AcDbSymbolTableRecord
100
AcDbDimStyleTableRecord
  2
STANDARD
 70
     0
  3

  4

  5

  6

  7

 40
1.0
 41
0.18
 42
0.0625
 43
0.38
 44
0.18
 45
0.0
 46
0.0
 47
0.0
 48
0.0
140
0.18
141
0.09
142
0.0
143
25.4
144
1.0
145
0.0
146
1.0
147
0.09
 71
     0
 72
     0
 73
     1
 74
     1
 75
     0
 76
     0
 77
     0
 78
     0
170
     0
171
     2
172
     0
173
     0
174
     0
175
     0
176
     0
177
     0
178
     0
270
     2
271
     4
272
     4
273
     2
274
     2
340
10
275
     0
280
     0
281
     0
282
     0
283
     1
284
     0
285
     0
286
     0
287
     3
288
     0
  0
ENDTAB
  0
TABLE
  2
BLOCK_RECORD
  5
1
330
0
100
AcDbSymbolTable
 70
     6
  0
BLOCK_RECORD
  5
18
102
{ACAD_XDICTIONARY
360
23E
102
}
330
1
100
AcDbSymbolTableRecord
100
AcDbBlockTableRecord
  2
*MODEL_SPACE
  0
BLOCK_RECORD
  5
15
102
{ACAD_XDICTIONARY
360
23C
102
}
330
1
100
AcDbSymbolTableRecord
100
AcDbBlockTableRecord
  2
*PAPER_SPACE
  0
BLOCK_RECORD
  5
118
330
1
100
AcDbSymbolTableRecord
100
AcDbBlockTableRecord
  2
*D0
  0
BLOCK_RECORD
  5
119
330
1
100
AcDbSymbolTableRecord
100
AcDbBlockTableRecord
  2
*D1
  0
BLOCK_RECORD
  5
11A
330
1
100
AcDbSymbolTableRecord
100
AcDbBlockTableRecord
  2
*D2
  0
BLOCK_RECORD
  5
11B
330
1
100
AcDbSymbolTableRecord
100
AcDbBlockTableRecord
  2
*D3
  0
BLOCK_RECORD
  5
11C
330
1
100
AcDbSymbolTableRecord
100
AcDbBlockTableRecord
  2
*D4
  0
BLOCK_RECORD
  5
11D
330
1
100
AcDbSymbolTableRecord
100
AcDbBlockTableRecord
  2
*D5
  0
ENDTAB
  0
ENDSEC
  0
SECTION
  2
BLOCKS
  0
BLOCK
  5
12A
330
18
100
AcDbEntity
  8
0
100
AcDbBlockBegin
  2
*MODEL_SPACE
 70
     0
 10
0.0
 20
0.0
 30
0.0
  3
*MODEL_SPACE
  1

  0
ENDBLK
  5
12B
330
18
100
AcDbEntity
  8
0
100
AcDbBlockEnd
  0
BLOCK
  5
128
330
15
100
AcDbEntity
 67
     1
  8
0
100
AcDbBlockBegin
  2
*PAPER_SPACE
 70
     0
 10
0.0
 20
0.0
 30
0.0
  3
*PAPER_SPACE
  1

  0
ENDBLK
  5
129
330
15
100
AcDbEntity
 67
     1
  8
0
100
AcDbBlockEnd
  0
BLOCK
  5
12D
330
118
100
AcDbEntity
  8
0
100
AcDbBlockBegin
  2
*D0
 70
     1
 10
0.0
 20
0.0
 30
0.0
  3
*D0
  1

  0
LINE
  5
12E
330
118
100
AcDbEntity
  8
0
  6
BYBLOCK
 62
     0
100
AcDbLine
 10
-16.38070986730045
 20
-1.501396074370936
 30
0.0
 11
-14.87925821870004
 21
-1.501396074370936
 31
0.0
  0
LINE
  5
12F
330
118
100
AcDbEntity
  8
0
  6
BYBLOCK
 62
     0
100
AcDbLine
 10
-15.48061709796258
 20
0.6668538996051355
 30
0.0
 11
-14.87925821870004
 21
0.6668538996051354
 31
0.0
  0
LINE
  5
130
330
118
100
AcDbEntity
  8
0
  6
BYBLOCK
 62
     0
100
AcDbLine
 10
-15.05925821870004
 20
-1.501396074370936
 30
0.0
 11
-15.05925821870004
 21
-0.8756044207162339
 31
0.0
  0
LINE
  5
131
330
118
100
AcDbEntity
  8
0
  6
BYBLOCK
 62
     0
100
AcDbLine
 10
-15.05925821870004
 20
0.6668538996051354
 30
0.0
 11
-15.05925821870004
 21
0.0410622459504328
 31
0.0
  0
LINE
  5
132
330
118
100
AcDbEntity
  8
0
  6
BYBLOCK
 62
     0
100
AcDbLine
 10
-14.93425821870004
 20
-1.626396074370936
 30
0.0
 11
-15.18425821870004
 21
-1.376396074370936
 31
0.0
  0
LINE
  5
133
330
118
100
AcDbEntity
  8
0
  6
BYBLOCK
 62
     0
100
AcDbLine
 10
-14.93425821870004
 20
0.5418538996051354
 30
0.0
 11
-15.18425821870004
 21
0.7918538996051354
 31
0.0
  0
TEXT
  5
134
330
118
100
AcDbEntity
  8
0
  6
BYBLOCK
 62
     0
100
AcDbText
 10
-14.99675821870004
 20
-0.7506044207162339
 30
0.0
 40
0.125
  1
2 3/16
 50
90.0
 72
     1
 11
-15.05925821870004
 21
-0.4172710873829005
 31
0.0
100
AcDbText
 73
     2
  0
POINT
  5
135
330
118
100
AcDbEntity
  8
DEFPOINTS
  6
BYBLOCK
 62
     0
100
AcDbPoint
 10
-16.44320986730044
 20
-1.501396074370936
 30
0.0
  0
POINT
  5
136
330
118
100
AcDbEntity
  8
DEFPOINTS
  6
BYBLOCK
 62
     0
100
AcDbPoint
 10
-15.54311709796258
 20
0.6668538996051355
 30
0.0
  0
POINT
  5
137
330
118
100
AcDbEntity
  8
DEFPOINTS
  6
BYBLOCK
 62
     0
100
AcDbPoint
 10
-15.05925821870004
 20
0.6668538996051354
 30
0.0
  0
ENDBLK
  5
138
330
118
100
AcDbEntity
  8
0
100
AcDbBlockEnd
  0
BLOCK
  5
139
330
119
100
AcDbEntity
  8
0
100
AcDbBlockBegin
  2
*D1
 70
     1
 10
0.0
 20
0.0
 30
0.0
  3
*D1
  1

  0
LINE
  5
13A
330
119
100
AcDbEntity
  8
0
  6
BYBLOCK
 62
     0
100
AcDbLine
 10
-17.20385893504195
 20
0.7448066168505943
 30
0.0
 11
-17.20385893504195
 21
1.361150393458242
 31
0.0
  0
LINE
  5
13B
330
119
100
AcDbEntity
  8
0
  6
BYBLOCK
 62
     0
100
AcDbLine
 10
-15.81256738009466
 20
0.7448066168505943
 30
0.0
 11
-15.81256738009466
 21
1.361150393458242
 31
0.0
  0
LINE
  5
13C
330
119
100
AcDbEntity
  8
0
  6
BYBLOCK
 62
     0
100
AcDbLine
 10
-17.20385893504195
 20
1.181150393458242
 30
0.0
 11
-16.90404649090164
 21
1.181150393458242
 31
0.0
  0
LINE
  5
13D
330
119
100
AcDbEntity
  8
0
  6
BYBLOCK
 62
     0
100
AcDbLine
 10
-15.81256738009466
 20
1.181150393458242
 30
0.0
 11
-16.11237982423497
 21
1.181150393458242
 31
0.0
  0
LINE
  5
13E
330
119
100
AcDbEntity
  8
0
  6
BYBLOCK
 62
     0
100
AcDbLine
 10
-17.32885893504195
 20
1.056150393458242
 30
0.0
 11
-17.07885893504195
 21
1.306150393458242
 31
0.0
  0
LINE
  5
13F
330
119
100
AcDbEntity
  8
0
  6
BYBLOCK
 62
     0
100
AcDbLine
 10
-15.93756738009466
 20
1.056150393458242
 30
0.0
 11
-15.68756738009466
 21
1.306150393458242
 31
0.0
  0
TEXT
  5
140
330
119
100
AcDbEntity
  8
0
  6
BYBLOCK
 62
     0
100
AcDbText
 10
-16.77904649090164
 20
1.118650393458242
 30
0.0
 40
0.125
  1
1 3/8
 72
     1
 11
-16.5082131575683
 21
1.181150393458242
 31
0.0
100
AcDbText
 73
     2
  0
POINT
  5
141
330
119
100
AcDbEntity
  8
DEFPOINTS
  6
BYBLOCK
 62
     0
100
AcDbPoint
 10
-17.20385893504195
 20
0.6823066168505943
 30
0.0
  0
POINT
  5
142
330
119
100
AcDbEntity
  8
DEFPOINTS
  6
BYBLOCK
 62
     0
100
AcDbPoint
 10
-15.81256738009466
 20
0.6823066168505943
 30
0.0
  0
POINT
  5
143
330
119
100
AcDbEntity
  8
DEFPOINTS
  6
BYBLOCK
 62
     0
100
AcDbPoint
 10
-15.81256738009466
 20
1.181150393458242
 30
0.0
  0
ENDBLK
  5
144
330
119
100
AcDbEntity
  8
0
100
AcDbBlockEnd
  0
BLOCK
  5
145
330
11A
100
AcDbEntity
  8
0
100
AcDbBlockBegin
  2
*D2
 70
     1
 10
0.0
 20
0.0
 30
0.0
  3
*D2
  1

  0
LINE
  5
146
330
11A
100
AcDbEntity
  8
0
  6
BYBLOCK
 62
     0
100
AcDbLine
 10
-17.71857221210155
 20
-2.198203875366029
 30
0.0
 11
-17.93409263842902
 21
-2.324896202819683
 31
0.0
  0
LINE
  5
147
330
11A
100
AcDbEntity
  8
0
  6
BYBLOCK
 62
     0
100
AcDbLine
 10
-17.76298626153846
 20
-2.369310252256593
 30
0.0
 11
-17.67415816266464
 21
-2.027097498475465
 31
0.0
  0
LINE
  5
148
330
11A
100
AcDbEntity
  8
0
  6
BYBLOCK
 62
     0
100
AcDbLine
 10
-16.72070986730044
 20
-1.501396074370934
 30
0.0
 11
-16.34570986730044
 21
-1.501396074370934
 31
0.0
  0
LINE
  5
149
330
11A
100
AcDbEntity
  8
0
  6
BYBLOCK
 62
     0
100
AcDbLine
 10
-16.53320986730044
 20
-1.688896074370934
 30
0.0
 11
-16.53320986730044
 21
-1.313896074370934
 31
0.0
  0
TEXT
  5
14A
330
11A
100
AcDbEntity
  8
0
  6
BYBLOCK
 62
     0
100
AcDbText
 10
-18.62082097765719
 20
-2.801084067580397
 30
0.0
 40
0.125
  1
%%c2 3/4
 50
30.44887368010038
 72
     1
 11
-18.34717345555668
 21
-2.567723163772519
 31
0.0
100
AcDbText
 73
     2
  0
POINT
  5
14B
330
11A
100
AcDbEntity
  8
DEFPOINTS
  6
BYBLOCK
 62
     0
100
AcDbPoint
 10
-17.71857221210155
 20
-2.198203875366029
 30
0.0
  0
POINT
  5
14C
330
11A
100
AcDbEntity
  8
DEFPOINTS
  6
BYBLOCK
 62
     0
100
AcDbPoint
 10
-15.34784752249934
 20
-0.8045882733758402
 30
0.0
  0
ENDBLK
  5
14D
330
11A
100
AcDbEntity
  8
0
100
AcDbBlockEnd
  0
BLOCK
  5
14E
330
11B
100
AcDbEntity
  8
0
100
AcDbBlockBegin
  2
*D3
 70
     1
 10
0.0
 20
0.0
 30
0.0
  3
*D3
  1

  0
LINE
  5
14F
330
11B
100
AcDbEntity
  8
0
  6
BYBLOCK
 62
     0
100
AcDbLine
 10
-16.66929484614779
 20
-1.672663237108329
 30
0.0
 11
-16.82482053625905
 21
-1.868397137379636
 31
0.0
  0
LINE
  5
150
330
11B
100
AcDbEntity
  8
0
  6
BYBLOCK
 62
     0
100
AcDbLine
 10
-16.64919074106776
 20
-1.84829303229961
 30
0.0
 11
-16.68939895122782
 21
-1.497033441917048
 31
0.0
  0
LINE
  5
151
330
11B
100
AcDbEntity
  8
0
  6
BYBLOCK
 62
     0
100
AcDbLine
 10
-16.72070986730044
 20
-1.501396074370936
 30
0.0
 11
-16.34570986730045
 21
-1.501396074370936
 31
0.0
  0
LINE
  5
152
330
11B
100
AcDbEntity
  8
0
  6
BYBLOCK
 62
     0
100
AcDbLine
 10
-16.53320986730045
 20
-1.688896074370936
 30
0.0
 11
-16.53320986730045
 21
-1.313896074370936
 31
0.0
  0
TEXT
  5
153
330
11B
100
AcDbEntity
  8
0
  6
BYBLOCK
 62
     0
100
AcDbText
 10
-17.19062223482123
 20
-2.429235627297602
 30
0.0
 40
0.125
  1
%%c7/16
 50
51.53014769386519
 72
     1
 11
-17.07106954560187
 21
-2.178309146142539
 31
0.0
100
AcDbText
 73
     2
  0
POINT
  5
154
330
11B
100
AcDbEntity
  8
DEFPOINTS
  6
BYBLOCK
 62
     0
100
AcDbPoint
 10
-16.66929484614779
 20
-1.672663237108329
 30
0.0
  0
POINT
  5
155
330
11B
100
AcDbEntity
  8
DEFPOINTS
  6
BYBLOCK
 62
     0
100
AcDbPoint
 10
-16.3971248884531
 20
-1.330128911633542
 30
0.0
  0
ENDBLK
  5
156
330
11B
100
AcDbEntity
  8
0
100
AcDbBlockEnd
  0
BLOCK
  5
157
330
11C
100
AcDbEntity
  8
0
100
AcDbBlockBegin
  2
*D4
 70
     1
 10
0.0
 20
0.0
 30
0.0
  3
*D4
  1

  0
LINE
  5
158
330
11C
100
AcDbEntity
  8
0
  6
BYBLOCK
 62
     0
100
AcDbLine
 10
-21.38325821870004
 20
-0.0716342023042591
 30
0.0
 11
-21.38325821870004
 21
1.076865797695741
 31
0.0
  0
LINE
  5
159
330
11C
100
AcDbEntity
  8
0
  6
BYBLOCK
 62
     0
100
AcDbLine
 10
-18.87231951682084
 20
0.7293538996051355
 30
0.0
 11
-18.87231951682084
 21
1.076865797695741
 31
0.0
  0
LINE
  5
15A
330
11C
100
AcDbEntity
  8
0
  6
BYBLOCK
 62
     0
100
AcDbLine
 10
-21.38325821870004
 20
0.896865797695742
 30
0.0
 11
-20.52362220109377
 21
0.896865797695742
 31
0.0
  0
LINE
  5
15B
330
11C
100
AcDbEntity
  8
0
  6
BYBLOCK
 62
     0
100
AcDbLine
 10
-18.87231951682084
 20
0.896865797695742
 30
0.0
 11
-19.73195553442711
 21
0.896865797695742
 31
0.0
  0
LINE
  5
15C
330
11C
100
AcDbEntity
  8
0
  6
BYBLOCK
 62
     0
100
AcDbLine
 10
-21.50825821870004
 20
0.771865797695742
 30
0.0
 11
-21.25825821870004
 21
1.021865797695741
 31
0.0
  0
LINE
  5
15D
330
11C
100
AcDbEntity
  8
0
  6
BYBLOCK
 62
     0
100
AcDbLine
 10
-18.99731951682084
 20
0.771865797695742
 30
0.0
 11
-18.74731951682084
 21
1.021865797695741
 31
0.0
  0
TEXT
  5
15E
330
11C
100
AcDbEntity
  8
0
  6
BYBLOCK
 62
     0
100
AcDbText
 10
-20.39862220109377
 20
0.834365797695742
 30
0.0
 40
0.125
  1
2 1/2
 72
     1
 11
-20.12778886776044
 21
0.896865797695742
 31
0.0
100
AcDbText
 73
     2
  0
POINT
  5
15F
330
11C
100
AcDbEntity
  8
DEFPOINTS
  6
BYBLOCK
 62
     0
100
AcDbPoint
 10
-21.38325821870004
 20
-0.1341342023042591
 30
0.0
  0
POINT
  5
160
330
11C
100
AcDbEntity
  8
DEFPOINTS
  6
BYBLOCK
 62
     0
100
AcDbPoint
 10
-18.87231951682084
 20
0.6668538996051355
 30
0.0
  0
POINT
  5
161
330
11C
100
AcDbEntity
  8
DEFPOINTS
  6
BYBLOCK
 62
     0
100
AcDbPoint
 10
-18.87231951682084
 20
0.896865797695742
 30
0.0
  0
ENDBLK
  5
162
330
11C
100
AcDbEntity
  8
0
100
AcDbBlockEnd
  0
BLOCK
  5
163
330
11D
100
AcDbEntity
  8
0
100
AcDbBlockBegin
  2
*D5
 70
     1
 10
0.0
 20
0.0
 30
0.0
  3
*D5
  1

  0
LINE
  5
164
330
11D
100
AcDbEntity
  8
0
  6
BYBLOCK
 62
     0
100
AcDbLine
 10
-17.54311709796258
 20
0.7293538996051355
 30
0.0
 11
-17.54311709796258
 21
1.547150393458242
 31
0.0
  0
LINE
  5
165
330
11D
100
AcDbEntity
  8
0
  6
BYBLOCK
 62
     0
100
AcDbLine
 10
-15.54311709796258
 20
0.7293538996051355
 30
0.0
 11
-15.54311709796258
 21
1.547150393458242
 31
0.0
  0
LINE
  5
166
330
11D
100
AcDbEntity
  8
0
  6
BYBLOCK
 62
     0
100
AcDbLine
 10
-17.54311709796258
 20
1.367150393458242
 30
0.0
 11
-16.70978376462925
 21
1.367150393458242
 31
0.0
  0
LINE
  5
167
330
11D
100
AcDbEntity
  8
0
  6
BYBLOCK
 62
     0
100
AcDbLine
 10
-15.54311709796258
 20
1.367150393458242
 30
0.0
 11
-16.37645043129591
 21
1.367150393458242
 31
0.0
  0
LINE
  5
168
330
11D
100
AcDbEntity
  8
0
  6
BYBLOCK
 62
     0
100
AcDbLine
 10
-17.66811709796258
 20
1.242150393458242
 30
0.0
 11
-17.41811709796258
 21
1.492150393458242
 31
0.0
  0
LINE
  5
169
330
11D
100
AcDbEntity
  8
0
  6
BYBLOCK
 62
     0
100
AcDbLine
 10
-15.66811709796258
 20
1.242150393458242
 30
0.0
 11
-15.41811709796258
 21
1.492150393458242
 31
0.0
  0
TEXT
  5
16A
330
11D
100
AcDbEntity
  8
0
  6
BYBLOCK
 62
     0
100
AcDbText
 10
-16.58478376462925
 20
1.304650393458242
 30
0.0
 40
0.125
  1
2
 72
     1
 11
-16.54311709796258
 21
1.367150393458242
 31
0.0
100
AcDbText
 73
     2
  0
POINT
  5
16B
330
11D
100
AcDbEntity
  8
DEFPOINTS
  6
BYBLOCK
 62
     0
100
AcDbPoint
 10
-17.54311709796258
 20
0.6668538996051355
 30
0.0
  0
POINT
  5
16C
330
11D
100
AcDbEntity
  8
DEFPOINTS
  6
BYBLOCK
 62
     0
100
AcDbPoint
 10
-15.54311709796258
 20
0.6668538996051355
 30
0.0
  0
POINT
  5
16D
330
11D
100
AcDbEntity
  8
DEFPOINTS
  6
BYBLOCK
 62
     0
100
AcDbPoint
 10
-15.54311709796258
 20
1.367150393458242
 30
0.0
  0
ENDBLK
  5
16E
330
11D
100
AcDbEntity
  8
0
100
AcDbBlockEnd
  0
ENDSEC
  0
SECTION
  2
ENTITIES
  0
DIMENSION
  5
16F
330
18
100
AcDbEntity
  8
ADPDIM
100
AcDbDimension
  2
*D4
 10
-18.87231951682084
 20
0.896865797695742
 30
0.0
 11
-20.12778886776044
 21
0.896865797695742
 31
0.0
100
AcDbAlignedDimension
 13
-21.38325821870004
 23
-0.1341342023042591
 33
0.0
 14
-18.87231951682084
 24
0.6668538996051355
 34
0.0
100
AcDbRotatedDimension
  0
LWPOLYLINE
  5
170
330
18
100
AcDbEntity
  8
ADP1DETAIL
100
AcDbPolyline
 90
        6
 70
     0
 43
0.0
 10
-18.40340843983344
 20
0.4788538996051353
 10
-18.40340843983344
 20
0.1923405663010618
 42
0.1969432856690073
 10
-18.96446807883767
 20
-0.0194301288049856
 42
-0.2517523679132456
 10
-20.36088299107897
 20
-0.9781978493883816
 42
-0.0462735726296767
 10
-20.90947463312427
 20
-0.9781978493883816
 42
0.1832888743227216
 10
-21.04662252495662
 20
-1.115225954777128
 42
1.580582300562416
  0
LWPOLYLINE
  5
178
330
18
100
AcDbEntity
  8
ADP1DETAIL
100
AcDbPolyline
 90
        5
 70
     0
 43
0.0
 10
-19.3385077634579
 20
0.4788538996051353
 10
-19.3385077634579
 20
0.2297118854000746
 42
-0.2668103001976556
 10
-19.72501551975299
 20
-0.505257034688527
 42
-0.2128052119993106
 10
-20.69751875953833
 20
-0.6293990488935873
 42
0.2255067538137569
 10
-21.20870641070683
 20
-0.7165987611374672
 42
3.261673100416417
  0
LWPOLYLINE
  5
17F
330
18
100
AcDbEntity
  8
ADP1DETAIL
100
AcDbPolyline
 90
        3
 70
     0
 43
0.0
 10
-19.3385077634579
 20
0.4788538996051353
 42
-0.2959843365458318
 10
-19.98684330645875
 20
-0.45542864154366
 42
-0.1660428775443372
 10
-21.25857832382663
 20
-0.1311150204834663
 42
-4.074167571905979
  0
LWPOLYLINE
  5
184
330
18
100
AcDbEntity
  8
ADP1DETAIL
100
AcDbPolyline
 90
        4
 70
     1
 43
0.0
 10
-21.38325821870004
 20
-2.884134202304259
 10
-21.38325821870004
 20
-0.1341342023042591
 10
-21.25825821870004
 20
-0.1341342023042591
 10
-21.25825821870004
 20
-2.884134202304259
  0
LWPOLYLINE
  5
18A
330
18
100
AcDbEntity
  8
ADP1DETAIL
100
AcDbPolyline
 90
        3
 70
     0
 43
0.0
 10
-21.15883442287109
 20
-0.7041416386108877
 10
-21.15883442287109
 20
-2.747106096915512
 42
0.4681132857464523
 10
-21.27104632078557
 20
-2.821848735113538
 42
1.113798090850198
  0
LWPOLYLINE
  5
18F
330
18
100
AcDbEntity
  8
ADP1DETAIL
100
AcDbPolyline
 90
        3
 70
     0
 43
0.0
 10
-21.04662252495662
 20
-0.6418561714201672
 10
-21.04662252495662
 20
-2.497964131191177
 42
0.2635727013609625
 10
-21.15883442287109
 20
-2.585163794954331
 42
0.1999804351342478
  0
LINE
  5
194
330
18
100
AcDbEntity
  8
ADP2DETAIL
  6
HIDDEN2
100
AcDbLine
 10
-21.20870637334886
 20
-1.289625379264888
 30
0.0
 11
-21.3707902217411
 21
-1.289625379264888
 31
0.0
  0
LINE
  5
195
330
18
100
AcDbEntity
  8
ADP2DETAIL
  6
HIDDEN2
100
AcDbLine
 10
-21.20870637334886
 20
-1.725623892003562
 30
0.0
 11
-21.3707902217411
 21
-1.725623892003562
 31
0.0
  0
DIMENSION
  5
196
330
18
100
AcDbEntity
  8
ADPDIM
100
AcDbDimension
  2
*D0
 10
-15.05925821870004
 20
0.6668538996051354
 30
0.0
 11
-15.05925821870004
 21
-0.4172710873829005
 31
0.0
100
AcDbAlignedDimension
 13
-16.44320986730044
 23
-1.501396074370936
 33
0.0
 14
-15.54311709796258
 24
0.6668538996051355
 34
0.0
 50
90.0
100
AcDbRotatedDimension
  0
LINE
  5
197
330
18
100
AcDbEntity
  8
ADP2DETAIL
  6
HIDDEN2
100
AcDbLine
 10
-15.93142772619043
 20
0.6593521509336085
 30
0.0
 11
-15.93142772619043
 21
0.5586740696715263
 31
0.0
  0
LINE
  5
198
330
18
100
AcDbEntity
  8
ADP2DETAIL
  6
HIDDEN2
100
AcDbLine
 10
-15.74370045346316
 20
0.6593521509336085
 30
0.0
 11
-15.74370045346316
 21
0.5583066168505946
 31
0.0
  0
LINE
  5
199
330
18
100
AcDbEntity
  8
ADP2DETAIL
  6
HIDDEN2
100
AcDbLine
 10
-17.32271928113773
 20
0.6593521509336085
 30
0.0
 11
-17.32271928113773
 21
0.5583066168505946
 31
0.0
  0
LINE
  5
19A
330
18
100
AcDbEntity
  8
ADP2DETAIL
  6
HIDDEN2
100
AcDbLine
 10
-17.13499200841046
 20
0.6593521509336085
 30
0.0
 11
-17.13499200841046
 21
0.5586740696715263
 31
0.0
  0
LINE
  5
19B
330
18
100
AcDbEntity
  8
ADP2DETAIL
  6
HIDDEN2
100
AcDbLine
 10
-18.97105573648877
 20
0.6593521509336085
 30
0.0
 11
-18.97105573648877
 21
0.5583066168505946
 31
0.0
  0
LINE
  5
19C
330
18
100
AcDbEntity
  8
ADP2DETAIL
  6
HIDDEN2
100
AcDbLine
 10
-18.7833284637615
 20
0.6593521509336085
 30
0.0
 11
-18.7833284637615
 21
0.5586740696715263
 31
0.0
  0
LWPOLYLINE
  5
19D
330
18
100
AcDbEntity
  8
ADP1DETAIL
100
AcDbPolyline
 90
        4
 70
     1
 43
0.0
 10
-19.34106951682084
 20
0.4788538996051353
 10
-19.34106951682084
 20
0.6668538996051355
 10
-18.40356951682084
 20
0.6668538996051355
 10
-18.40356951682084
 20
0.4788538996051353
  0
LWPOLYLINE
  5
1A3
330
18
100
AcDbEntity
  8
ADP1DETAIL
100
AcDbPolyline
 90
        5
 70
     0
 43
0.0
 10
-17.54311709796258
 20
0.4788538996051353
 10
-17.54311709796258
 20
0.6668538996051355
 10
-15.54311709796258
 20
0.6668538996051355
 10
-15.54311709796258
 20
0.4788538996051353
 10
-16.18410610188216
 20
0.4788538996051353
  0
LINE
  5
1AA
330
18
100
AcDbEntity
  8
ADP2DETAIL
  6
HIDDEN2
100
AcDbLine
 10
-17.32271928113773
 20
0.5583066168505946
 30
0.0
 11
-17.37635564477409
 21
0.4979657077596871
 31
0.0
  0
DIMENSION
  5
1AB
330
18
100
AcDbEntity
  8
ADPDIM
100
AcDbDimension
  2
*D2
 10
-15.34784752249934
 20
-0.8045882733758402
 30
0.0
 11
-18.34717345555668
 21
-2.567723163772519
 31
0.0
 70
     3
100
AcDbDiametricDimension
 15
-17.71857221210155
 25
-2.198203875366029
 35
0.0
 40
0.0
  0
ARC
  5
1AC
330
18
100
AcDbEntity
  8
ADP1DETAIL
100
AcDbCircle
 10
-16.53320986730045
 20
-1.501396074370935
 30
0.0
 40
1.25
100
AcDbArc
 50
133.8105085815925
 51
46.18949141840746
  0
ARC
  5
1AD
330
18
100
AcDbEntity
  8
ADP1DETAIL
100
AcDbCircle
 10
-16.53320986730045
 20
-1.501396074370935
 30
0.0
 40
1.375
100
AcDbArc
 50
102.3516491360057
 51
77.64835086399426
  0
ARC
  5
1AE
330
18
100
AcDbEntity
  8
ADP1DETAIL
100
AcDbCircle
 10
-16.53320986730045
 20
-1.501396074370935
 30
0.0
 40
1.0
100
AcDbArc
 50
139.5784852780645
 51
42.92962201952805
  0
LWPOLYLINE
  5
1AF
330
18
100
AcDbEntity
  8
ADP1DETAIL
100
AcDbPolyline
 90
        2
 70
     0
 43
0.0
 10
-16.8698456357598
 20
0.4788538996051353
 10
-17.54311709796258
 20
0.4788538996051353
  0
LWPOLYLINE
  5
1B3
330
18
100
AcDbEntity
  8
ADP1DETAIL
100
AcDbPolyline
 90
        6
 70
     0
 43
0.0
 10
-16.99452553063321
 20
0.4788538996051353
 42
-0.0785218959964905
 10
-16.832441644883
 20
-0.1938295532927459
 42
-0.0893484549299667
 10
-16.85737763880086
 20
-0.5546564591762868
 42
-0.6508238573534694
 10
-17.05686551542788
 20
-0.6543132454660206
 42
0.3202371727998283
 10
-17.31869330213363
 20
-0.5920277782753001
 42
0.1502612996944818
 10
-17.59298908579832
 20
-0.6792274420384543
 42
3.47349496049706
  0
LINE
  5
1BB
330
18
100
AcDbEntity
  8
ADP2DETAIL
  6
HIDDEN2
100
AcDbLine
 10
-18.97105573648877
 20
0.5583066168505946
 30
0.0
 11
-18.7833284637615
 21
0.5583066168505946
 31
0.0
  0
LINE
  5
1BC
330
18
100
AcDbEntity
  8
ADP2DETAIL
  6
HIDDEN2
100
AcDbLine
 10
-18.97105573648877
 20
0.5583066168505946
 30
0.0
 11
-19.02469210012514
 21
0.4979657077596871
 31
0.0
  0
LINE
  5
1BD
330
18
100
AcDbEntity
  8
ADP2DETAIL
  6
HIDDEN2
100
AcDbLine
 10
-18.7833284637615
 20
0.5586740696715263
 30
0.0
 11
-18.72969210012514
 21
0.4979657077596871
 31
0.0
  0
DIMENSION
  5
1BE
330
18
100
AcDbEntity
  8
ADPDIM
100
AcDbDimension
  2
*D3
 10
-16.3971248884531
 20
-1.330128911633542
 30
0.0
 11
-17.07106954560187
 21
-2.178309146142539
 31
0.0
 70
     3
100
AcDbDiametricDimension
 15
-16.66929484614779
 25
-1.672663237108329
 35
0.0
 40
0.0
  0
LWPOLYLINE
  5
1BF
330
18
100
AcDbEntity
  8
ADP1DETAIL
100
AcDbPolyline
 90
        4
 70
     0
 43
0.0
 10
-15.74772643246726
 20
-1.015569168487394
 42
0.2653409194881914
 10
-16.09683019788555
 20
-1.052940487586407
 42
-0.488671517422391
 10
-16.24644608667683
 20
-1.028026291013974
 42
0.2823187619257269
 10
-16.53320986730045
 20
-0.7664271542823342
 42
0.0948956510465492
  0
LWPOLYLINE
  5
1C5
330
18
100
AcDbEntity
  8
ADP1DETAIL
100
AcDbPolyline
 90
        6
 70
     0
 43
0.0
 10
-16.07189420396768
 20
0.4788538996051353
 42
0.0785218959964905
 10
-16.23397808971789
 20
-0.1938295532927459
 42
0.0893484549299667
 10
-16.20904209580003
 20
-0.5546564591762868
 42
0.6508238573534694
 10
-16.00955421917301
 20
-0.6543132454660206
 42
-0.3202371727998283
 10
-15.74772643246726
 20
-0.5920277782753001
 42
-0.1502612996944818
 10
-15.47343064880257
 20
-0.6792274420384543
 42
-3.47349496049706
  0
ARC
  5
1CD
330
18
100
AcDbEntity
  8
ADP1DETAIL
100
AcDbCircle
 10
-16.50159633006667
 20
0.5388053988901951
 30
0.0
 40
0.323100955212418
100
AcDbArc
 50
264.3849596834326
 51
349.3067786001215
  0
LWPOLYLINE
  5
1CE
330
18
100
AcDbEntity
  8
ADP1DETAIL
100
AcDbPolyline
 90
        4
 70
     0
 43
0.0
 10
-17.31869330213363
 20
-1.015569168487394
 42
-0.2653409194881914
 10
-16.96958953671534
 20
-1.052940487586407
 42
0.488671517422391
 10
-16.81997364792406
 20
-1.028026291013974
 42
-0.2823187619257269
 10
-16.53320986730045
 20
-0.7664271542823342
 42
-0.0948956510465492
  0
CIRCLE
  5
1D4
330
18
100
AcDbEntity
  8
ADP1DETAIL
100
AcDbCircle
 10
-16.53320986730045
 20
-1.501396074370935
 30
0.0
 40
0.21875
  0
ARC
  5
1D5
330
18
100
AcDbEntity
  8
ADP1DETAIL
100
AcDbCircle
 10
-16.56482340453423
 20
0.5388053988901951
 30
0.0
 40
0.323100955212418
100
AcDbArc
 50
190.6932213998785
 51
275.6150403165674
  0
LINE
  5
1D6
330
18
100
AcDbEntity
  8
ADP2DETAIL
  6
HIDDEN2
100
AcDbLine
 10
-17.32271928113773
 20
0.5583066168505946
 30
0.0
 11
-17.13499200841046
 21
0.5583066168505946
 31
0.0
  0
LINE
  5
1D7
330
18
100
AcDbEntity
  8
ADP2DETAIL
  6
HIDDEN2
100
AcDbLine
 10
-17.13499200841046
 20
0.5586740696715263
 30
0.0
 11
-17.08135564477409
 21
0.4979657077596871
 31
0.0
  0
LINE
  5
1D8
330
18
100
AcDbEntity
  8
ADP2DETAIL
  6
HIDDEN2
100
AcDbLine
 10
-15.74370045346316
 20
0.5583066168505946
 30
0.0
 11
-15.93142772619043
 21
0.5583066168505946
 31
0.0
  0
LINE
  5
1D9
330
18
100
AcDbEntity
  8
ADP2DETAIL
  6
HIDDEN2
100
AcDbLine
 10
-15.93142772619043
 20
0.5586740696715263
 30
0.0
 11
-15.9850640898268
 21
0.4979657077596871
 31
0.0
  0
LINE
  5
1DA
330
18
100
AcDbEntity
  8
ADP2DETAIL
  6
HIDDEN2
100
AcDbLine
 10
-15.74370045346316
 20
0.5583066168505946
 30
0.0
 11
-15.6900640898268
 21
0.4979657077596871
 31
0.0
  0
DIMENSION
  5
1DB
330
18
100
AcDbEntity
  8
ADPDIM
100
AcDbDimension
  2
*D5
 10
-15.54311709796258
 20
1.367150393458242
 30
0.0
 11
-16.54311709796258
 21
1.367150393458242
 31
0.0
100
AcDbAlignedDimension
 13
-17.54311709796258
 23
0.6668538996051355
 33
0.0
 14
-15.54311709796258
 24
0.6668538996051355
 34
0.0
100
AcDbRotatedDimension
  0
DIMENSION
  5
1DC
330
18
100
AcDbEntity
  8
ADPDIM
100
AcDbDimension
  2
*D1
 10
-15.81256738009466
 20
1.181150393458242
 30
0.0
 11
-16.5082131575683
 21
1.181150393458242
 31
0.0
100
AcDbAlignedDimension
 13
-17.20385893504195
 23
0.6823066168505943
 33
0.0
 14
-15.81256738009466
 24
0.6823066168505943
 34
0.0
100
AcDbRotatedDimension
  0
TEXT
  5
1EA
330
18
100
AcDbEntity
  8
ADPDIM
100
AcDbText
 10
-24.51782812276462
 20
-4.208632344638197
 30
0.0
 40
0.125
  1
J U L I U S  B L U M  &  C O . ,  I N C .      ( 8 0 0 )  5 2 6 - 6 2 9 3        W W W . J U L I U S B L U M . C O M        P A R T  N o .  3 8 1
 41
1.25
  7
ARIAL_WIDE
 72
     1
 11
-18.08312058524757
 21
-4.083632344638197
 31
0.0
100
AcDbText
 73
     3
  0
ENDSEC
  0
SECTION
  2
OBJECTS
  0
DICTIONARY
  5
C
330
0
100
AcDbDictionary
  3
ACAD_GROUP
350
D
  3
ACAD_LAYOUT
350
1E3
  3
ACAD_MLINESTYLE
350
E
  3
ACAD_PLOTSETTINGS
350
1E4
  3
ACAD_PLOTSTYLENAME
350
1E1
  3
ACDBHEADERROUNDTRIPXREC
350
3B7
  3
ACDBVARIABLEDICTIONARY
350
244
  0
DICTIONARY
  5
23E
330
18
100
AcDbDictionary
280
     1
  3
ACAD_LAYOUTSELFREF
360
3D8
  0
DICTIONARY
  5
23C
330
15
100
AcDbDictionary
280
     1
  3
ACAD_LAYOUTSELFREF
360
3D7
  0
DICTIONARY
  5
D
102
{ACAD_REACTORS
330
C
102
}
330
C
100
AcDbDictionary
  0
DICTIONARY
  5
1E3
102
{ACAD_REACTORS
330
C
102
}
330
C
100
AcDbDictionary
  0
DICTIONARY
  5
E
102
{ACAD_REACTORS
330
C
102
}
330
C
100
AcDbDictionary
  3
STANDARD
350
1B
  0
DICTIONARY
  5
1E4
102
{ACAD_REACTORS
330
C
102
}
330
C
100
AcDbDictionary
  0
ACDBDICTIONARYWDFLT
  5
1E1
102
{ACAD_REACTORS
330
C
102
}
330
C
100
AcDbDictionary
281
     1
  3
Normal
350
1E2
100
AcDbDictionaryWithDefault
340
1E2
  0
DICTIONARY
  5
3B7
102
{ACAD_REACTORS
330
C
102
}
330
C
100
AcDbDictionary
  3
CEPSNTYPE
350
3C1
  3
FINGERPRINTGUID
350
3C2
  3
HYPERLINKBASE
350
3BA
  3
INSUNITS
350
3C0
  3
LAYOUTDICT
350
3BC
  3
LWETCUNION
350
3BF
  3
PLOTSETDICT
350
3BD
  3
PLOTSTYLNAMDICT
350
3BE
  3
PSVPSCALE
350
3C4
  3
PUCSBASE
350
3C7
  3
PUCSORGBACK
350
3CD
  3
PUCSORGBOTTOM
350
3C9
  3
PUCSORGFRONT
350
3CC
  3
PUCSORGLEFT
350
3CA
  3
PUCSORGRIGHT
350
3CB
  3
PUCSORGTOP
350
3C8
  3
PUCSORTHOREF
350
3C5
  3
PUCSORTHOVIEW
350
3C6
  3
STYLESHEET
350
3BB
  3
TSTACKALIGN
350
3B8
  3
TSTACKSIZE
350
3B9
  3
UCSBASE
350
3D0
  3
UCSORGBACK
350
3D6
  3
UCSORGBOTTOM
350
3D2
  3
UCSORGFRONT
350
3D5
  3
UCSORGLEFT
350
3D3
  3
UCSORGRIGHT
350
3D4
  3
UCSORGTOP
350
3D1
  3
UCSORTHOREF
350
3CE
  3
UCSORTHOVIEW
350
3CF
  3
VERSIONGUID
350
3C3
  0
DICTIONARY
  5
244
102
{ACAD_REACTORS
330
C
102
}
330
C
100
AcDbDictionary
  3
DIMASSOC
350
245
  0
XRECORD
  5
3D8
102
{ACAD_REACTORS
330
23E
102
}
330
23E
100
AcDbXrecord
340
18
  0
XRECORD
  5
3D7
102
{ACAD_REACTORS
330
23C
102
}
330
23C
100
AcDbXrecord
340
15
  0
MLINESTYLE
  5
1B
102
{ACAD_REACTORS
330
E
102
}
330
E
100
AcDbMlineStyle
  2
STANDARD
 70
     0
  3

 62
     0
 51
90.0
 52
90.0
 71
     2
 49
0.5
 62
   256
  6
BYLAYER
 49
-0.5
 62
   256
  6
BYLAYER
  0
ACDBPLACEHOLDER
  5
1E2
102
{ACAD_REACTORS
330
1E1
102
}
330
1E1
100
AcDbPlaceHolder
280
     0
  0
XRECORD
  5
3C1
102
{ACAD_REACTORS
330
3B7
102
}
330
3B7
100
AcDbXrecord
 90
        0
  0
XRECORD
  5
3C2
102
{ACAD_REACTORS
330
3B7
102
}
330
3B7
100
AcDbXrecord
  1
{0F95AE5F-4780-4928-B937-037E54940669}
  0
XRECORD
  5
3BA
102
{ACAD_REACTORS
330
3B7
102
}
330
3B7
100
AcDbXrecord
  1

  0
XRECORD
  5
3C0
102
{ACAD_REACTORS
330
3B7
102
}
330
3B7
100
AcDbXrecord
 90
        0
  0
XRECORD
  5
3BC
102
{ACAD_REACTORS
330
3B7
102
}
330
3B7
100
AcDbXrecord
340
1E3
  0
XRECORD
  5
3BF
102
{ACAD_REACTORS
330
3B7
102
}
330
3B7
100
AcDbXrecord
 90
    14877
  0
XRECORD
  5
3BD
102
{ACAD_REACTORS
330
3B7
102
}
330
3B7
100
AcDbXrecord
340
1E4
  0
XRECORD
  5
3BE
102
{ACAD_REACTORS
330
3B7
102
}
330
3B7
100
AcDbXrecord
340
1E1
  0
XRECORD
  5
3C4
102
{ACAD_REACTORS
330
3B7
102
}
330
3B7
100
AcDbXrecord
 40
0.0
  0
XRECORD
  5
3C7
102
{ACAD_REACTORS
330
3B7
102
}
330
3B7
100
AcDbXrecord
340
0
  0
XRECORD
  5
3CD
102
{ACAD_REACTORS
330
3B7
102
}
330
3B7
100
AcDbXrecord
 10
0.0
 20
0.0
 30
0.0
  0
XRECORD
  5
3C9
102
{ACAD_REACTORS
330
3B7
102
}
330
3B7
100
AcDbXrecord
 10
0.0
 20
0.0
 30
0.0
  0
XRECORD
  5
3CC
102
{ACAD_REACTORS
330
3B7
102
}
330
3B7
100
AcDbXrecord
 10
0.0
 20
0.0
 30
0.0
  0
XRECORD
  5
3CA
102
{ACAD_REACTORS
330
3B7
102
}
330
3B7
100
AcDbXrecord
 10
0.0
 20
0.0
 30
0.0
  0
XRECORD
  5
3CB
102
{ACAD_REACTORS
330
3B7
102
}
330
3B7
100
AcDbXrecord
 10
0.0
 20
0.0
 30
0.0
  0
XRECORD
  5
3C8
102
{ACAD_REACTORS
330
3B7
102
}
330
3B7
100
AcDbXrecord
 10
0.0
 20
0.0
 30
0.0
  0
XRECORD
  5
3C5
102
{ACAD_REACTORS
330
3B7
102
}
330
3B7
100
AcDbXrecord
340
0
  0
XRECORD
  5
3C6
102
{ACAD_REACTORS
330
3B7
102
}
330
3B7
100
AcDbXrecord
 70
     0
  0
XRECORD
  5
3BB
102
{ACAD_REACTORS
330
3B7
102
}
330
3B7
100
AcDbXrecord
  1

  0
XRECORD
  5
3B8
102
{ACAD_REACTORS
330
3B7
102
}
330
3B7
100
AcDbXrecord
 90
        1
  0
XRECORD
  5
3B9
102
{ACAD_REACTORS
330
3B7
102
}
330
3B7
100
AcDbXrecord
 90
       70
  0
XRECORD
  5
3D0
102
{ACAD_REACTORS
330
3B7
102
}
330
3B7
100
AcDbXrecord
340
0
  0
XRECORD
  5
3D6
102
{ACAD_REACTORS
330
3B7
102
}
330
3B7
100
AcDbXrecord
 10
0.0
 20
0.0
 30
0.0
  0
XRECORD
  5
3D2
102
{ACAD_REACTORS
330
3B7
102
}
330
3B7
100
AcDbXrecord
 10
0.0
 20
0.0
 30
0.0
  0
XRECORD
  5
3D5
102
{ACAD_REACTORS
330
3B7
102
}
330
3B7
100
AcDbXrecord
 10
0.0
 20
0.0
 30
0.0
  0
XRECORD
  5
3D3
102
{ACAD_REACTORS
330
3B7
102
}
330
3B7
100
AcDbXrecord
 10
0.0
 20
0.0
 30
0.0
  0
XRECORD
  5
3D4
102
{ACAD_REACTORS
330
3B7
102
}
330
3B7
100
AcDbXrecord
 10
0.0
 20
0.0
 30
0.0
  0
XRECORD
  5
3D1
102
{ACAD_REACTORS
330
3B7
102
}
330
3B7
100
AcDbXrecord
 10
0.0
 20
0.0
 30
0.0
  0
XRECORD
  5
3CE
102
{ACAD_REACTORS
330
3B7
102
}
330
3B7
100
AcDbXrecord
340
0
  0
XRECORD
  5
3CF
102
{ACAD_REACTORS
330
3B7
102
}
330
3B7
100
AcDbXrecord
 70
     0
  0
XRECORD
  5
3C3
102
{ACAD_REACTORS
330
3B7
102
}
330
3B7
100
AcDbXrecord
  1
{FA5D243C-FE80-4CF3-B2FB-B592025B1745}
  0
DICTIONARYVAR
  5
245
102
{ACAD_REACTORS
330
244
102
}
330
244
100
DictionaryVariables
280
     0
  1
1
  0
ENDSEC
  0
EOF
