  0
SECTION
  2
HEADER
  9
$ACADVER
  1
AC1014
  9
$ACADMAINTVER
 70
     9
  9
$DWGCODEPAGE
  3
ANSI_1252
  9
$INSBASE
 10
13.82299037014531
 20
7.897836119721066
 30
0.0
  9
$EXTMIN
 10
11.42699590305342
 20
6.622980040531613
 30
0.0
  9
$EXTMAX
 10
24.29641097808753
 20
11.84434267234027
 30
0.0
  9
$LIMMIN
 10
0.0
 20
0.0
  9
$LIMMAX
 10
36.0
 20
36.0
  9
$ORTHOMODE
 70
     1
  9
$REGENMODE
 70
     1
  9
$FILLMODE
 70
     1
  9
$QTEXTMODE
 70
     0
  9
$MIRRTEXT
 70
     1
  9
$DRAGMODE
 70
     0
  9
$LTSCALE
 40
1.0
  9
$OSMODE
 70
    37
  9
$ATTMODE
 70
     1
  9
$TEXTSIZE
 40
0.2
  9
$TRACEWID
 40
0.05
  9
$TEXTSTYLE
  7
STANDARD
  9
$CLAYER
  8
ADP2DETAIL
  9
$CELTYPE
  6
BYLAYER
  9
$CECOLOR
 62
   256
  9
$CELTSCALE
 40
1.0
  9
$DELOBJ
 70
     1
  9
$DISPSILH
 70
     0
  9
$DIMSCALE
 40
1.0
  9
$DIMASZ
 40
0.125
  9
$DIMEXO
 40
0.0625
  9
$DIMDLI
 40
0.38
  9
$DIMRND
 40
0.0
  9
$DIMDLE
 40
0.0
  9
$DIMEXE
 40
0.18
  9
$DIMTP
 40
0.0
  9
$DIMTM
 40
0.0
  9
$DIMTXT
 40
0.125
  9
$DIMCEN
 40
0.1875
  9
$DIMTSZ
 40
0.125
  9
$DIMTOL
 70
     0
  9
$DIMLIM
 70
     0
  9
$DIMTIH
 70
     0
  9
$DIMTOH
 70
     0
  9
$DIMSE1
 70
     0
  9
$DIMSE2
 70
     0
  9
$DIMTAD
 70
     0
  9
$DIMZIN
 70
     3
  9
$DIMBLK
  1

  9
$DIMASO
 70
     1
  9
$DIMSHO
 70
     1
  9
$DIMPOST
  1

  9
$DIMAPOST
  1

  9
$DIMALT
 70
     0
  9
$DIMALTD
 70
     1
  9
$DIMALTF
 40
25.4
  9
$DIMLFAC
 40
1.0
  9
$DIMTOFL
 70
     0
  9
$DIMTVP
 40
0.0
  9
$DIMTIX
 70
     0
  9
$DIMSOXD
 70
     0
  9
$DIMSAH
 70
     0
  9
$DIMBLK1
  1

  9
$DIMBLK2
  1

  9
$DIMSTYLE
  2
STANDARD
  9
$DIMCLRD
 70
     0
  9
$DIMCLRE
 70
     0
  9
$DIMCLRT
 70
     0
  9
$DIMTFAC
 40
1.0
  9
$DIMGAP
 40
0.125
  9
$DIMJUST
 70
     0
  9
$DIMSD1
 70
     0
  9
$DIMSD2
 70
     0
  9
$DIMTOLJ
 70
     1
  9
$DIMTZIN
 70
     0
  9
$DIMALTZ
 70
     0
  9
$DIMALTTZ
 70
     0
  9
$DIMFIT
 70
     3
  9
$DIMUPT
 70
     0
  9
$DIMUNIT
 70
     2
  9
$DIMDEC
 70
     4
  9
$DIMTDEC
 70
     4
  9
$DIMALTU
 70
     2
  9
$DIMALTTD
 70
     2
  9
$DIMTXSTY
  7
STANDARD
  9
$DIMAUNIT
 70
     0
  9
$LUNITS
 70
     5
  9
$LUPREC
 70
     4
  9
$SKETCHINC
 40
0.1
  9
$FILLETRAD
 40
0.062
  9
$AUNITS
 70
     0
  9
$AUPREC
 70
     0
  9
$MENU
  1
acad
  9
$ELEVATION
 40
0.0
  9
$PELEVATION
 40
0.0
  9
$THICKNESS
 40
0.0
  9
$LIMCHECK
 70
     0
  9
$BLIPMODE
 70
     0
  9
$CHAMFERA
 40
0.0
  9
$CHAMFERB
 40
0.0
  9
$CHAMFERC
 40
0.0
  9
$CHAMFERD
 40
0.0
  9
$SKPOLY
 70
     0
  9
$TDCREATE
 40
2450386.498220868
  9
$TDUPDATE
 40
2452297.069112951
  9
$TDINDWG
 40
0.0607460301
  9
$TDUSRTIMER
 40
0.0607460301
  9
$USRTIMER
 70
     1
  9
$ANGBASE
 50
0.0
  9
$ANGDIR
 70
     0
  9
$PDMODE
 70
     0
  9
$PDSIZE
 40
0.0
  9
$PLINEWID
 40
0.0
  9
$COORDS
 70
     2
  9
$SPLFRAME
 70
     0
  9
$SPLINETYPE
 70
     6
  9
$SPLINESEGS
 70
     8
  9
$ATTDIA
 70
     0
  9
$ATTREQ
 70
     1
  9
$HANDLING
 70
 22529
  9
$HANDSEED
  5
373
  9
$SURFTAB1
 70
     6
  9
$SURFTAB2
 70
     6
  9
$SURFTYPE
 70
     6
  9
$SURFU
 70
     6
  9
$SURFV
 70
     6
  9
$UCSNAME
  2

  9
$UCSORG
 10
0.0
 20
0.0
 30
0.0
  9
$UCSXDIR
 10
1.0
 20
0.0
 30
0.0
  9
$UCSYDIR
 10
0.0
 20
1.0
 30
0.0
  9
$PUCSNAME
  2

  9
$PUCSORG
 10
0.0
 20
0.0
 30
0.0
  9
$PUCSXDIR
 10
1.0
 20
0.0
 30
0.0
  9
$PUCSYDIR
 10
0.0
 20
1.0
 30
0.0
  9
$USERI1
 70
     0
  9
$USERI2
 70
     0
  9
$USERI3
 70
     0
  9
$USERI4
 70
     0
  9
$USERI5
 70
     0
  9
$USERR1
 40
0.0
  9
$USERR2
 40
0.0
  9
$USERR3
 40
0.0
  9
$USERR4
 40
0.0
  9
$USERR5
 40
0.0
  9
$WORLDVIEW
 70
     1
  9
$SHADEDGE
 70
     3
  9
$SHADEDIF
 70
    70
  9
$TILEMODE
 70
     1
  9
$MAXACTVP
 70
    15
  9
$PINSBASE
 10
4.403525741743744E+99
 20
7.061986388769092E+99
 30
0.0
  9
$PLIMCHECK
 70
     0
  9
$PEXTMIN
 10
1.000000000000000E+20
 20
1.000000000000000E+20
 30
1.000000000000000E+20
  9
$PEXTMAX
 10
-1.000000000000000E+20
 20
-1.000000000000000E+20
 30
-1.000000000000000E+20
  9
$PLIMMIN
 10
0.0
 20
0.0
  9
$PLIMMAX
 10
12.0
 20
9.0
  9
$UNITMODE
 70
     0
  9
$VISRETAIN
 70
     0
  9
$PLINEGEN
 70
     0
  9
$PSLTSCALE
 70
     1
  9
$TREEDEPTH
 70
  3020
  9
$PICKSTYLE
 70
     1
  9
$CMLSTYLE
  2
STANDARD
  9
$CMLJUST
 70
     0
  9
$CMLSCALE
 40
1.0
  9
$PROXYGRAPHICS
 70
     1
  9
$MEASUREMENT
 70
     0
  0
ENDSEC
  0
SECTION
  2
CLASSES
  0
CLASS
  1
ACDBDICTIONARYWDFLT
  2
AcDbDictionaryWithDefault
  3
AutoCAD 2000
 90
        0
280
     0
281
     0
  0
CLASS
  1
ACDBPLACEHOLDER
  2
AcDbPlaceHolder
  3
AutoCAD 2000
 90
        0
280
     0
281
     0
  0
CLASS
  1
LAYOUT
  2
AcDbLayout
  3
AutoCAD 2000
 90
        0
280
     0
281
     0
  0
CLASS
  1
DICTIONARYVAR
  2
AcDbDictionaryVar
  3
AutoCAD 2000
 90
        0
280
     0
281
     0
  0
CLASS
  1
LONG_TRANSACTION
  2
AcDbLongTransaction
  3
AutoCAD 2000
 90
        0
280
     0
281
     0
  0
CLASS
  1
LWPOLYLINE
  2
AcDbPolyline
  3
AutoCAD 2000
 90
        0
280
     0
281
     1
  0
CLASS
  1
HATCH
  2
AcDbHatch
  3
AutoCAD 2000
 90
        0
280
     0
281
     1
  0
CLASS
  1
XRECORD
  2
AcDbXrecord
  3
AutoCAD 2000
 90
        0
280
     0
281
     0
  0
CLASS
  1
LONG_TRANSACTION
  2
AcDbLongTransaction
  3
AutoCAD 2000
 90
        0
280
     0
281
     0
  0
CLASS
  1
LWPOLYLINE
  2
AcDbPolyline
  3
AutoCAD 2000
 90
        0
280
     0
281
     1
  0
CLASS
  1
HATCH
  2
AcDbHatch
  3
AutoCAD 2000
 90
        0
280
     0
281
     1
  0
CLASS
  1
XRECORD
  2
AcDbXrecord
  3
AutoCAD 2000
 90
        0
280
     0
281
     0
  0
CLASS
  1
LONG_TRANSACTION
  2
AcDbLongTransaction
  3
AutoCAD 2000
 90
        0
280
     0
281
     0
  0
CLASS
  1
LWPOLYLINE
  2
AcDbPolyline
  3
AutoCAD 2000
 90
        0
280
     0
281
     1
  0
CLASS
  1
HATCH
  2
AcDbHatch
  3
AutoCAD 2000
 90
        0
280
     0
281
     1
  0
CLASS
  1
XRECORD
  2
AcDbXrecord
  3
AutoCAD 2000
 90
        0
280
     0
281
     0
  0
CLASS
  1
LONG_TRANSACTION
  2
AcDbLongTransaction
  3
AutoCAD 2000
 90
        0
280
     0
281
     0
  0
CLASS
  1
LWPOLYLINE
  2
AcDbPolyline
  3
AutoCAD 2000
 90
        0
280
     0
281
     1
  0
CLASS
  1
HATCH
  2
AcDbHatch
  3
AutoCAD 2000
 90
        0
280
     0
281
     1
  0
CLASS
  1
XRECORD
  2
AcDbXrecord
  3
AutoCAD 2000
 90
        0
280
     0
281
     0
  0
CLASS
  1
LONG_TRANSACTION
  2
AcDbLongTransaction
  3
AutoCAD 2000
 90
        0
280
     0
281
     0
  0
CLASS
  1
LWPOLYLINE
  2
AcDbPolyline
  3
AutoCAD 2000
 90
        0
280
     0
281
     1
  0
CLASS
  1
HATCH
  2
AcDbHatch
  3
AutoCAD 2000
 90
        0
280
     0
281
     1
  0
CLASS
  1
XRECORD
  2
AcDbXrecord
  3
AutoCAD 2000
 90
        0
280
     0
281
     0
  0
CLASS
  1
LONG_TRANSACTION
  2
AcDbLongTransaction
  3
AutoCAD 2000
 90
        0
280
     0
281
     0
  0
CLASS
  1
LWPOLYLINE
  2
AcDbPolyline
  3
AutoCAD 2000
 90
        0
280
     0
281
     1
  0
CLASS
  1
HATCH
  2
AcDbHatch
  3
AutoCAD 2000
 90
        0
280
     0
281
     1
  0
CLASS
  1
XRECORD
  2
AcDbXrecord
  3
AutoCAD 2000
 90
        0
280
     0
281
     0
  0
CLASS
  1
LONG_TRANSACTION
  2
AcDbLongTransaction
  3
AutoCAD 2000
 90
        0
280
     0
281
     0
  0
CLASS
  1
LWPOLYLINE
  2
AcDbPolyline
  3
AutoCAD 2000
 90
        0
280
     0
281
     1
  0
CLASS
  1
HATCH
  2
AcDbHatch
  3
AutoCAD 2000
 90
        0
280
     0
281
     1
  0
CLASS
  1
XRECORD
  2
AcDbXrecord
  3
AutoCAD 2000
 90
        0
280
     0
281
     0
  0
ENDSEC
  0
SECTION
  2
TABLES
  0
TABLE
  2
VPORT
  5
8
330
0
100
AcDbSymbolTable
 70
     2
  0
VPORT
  5
350
330
8
100
AcDbSymbolTableRecord
100
AcDbViewportTableRecord
  2
*ACTIVE
 70
     0
 10
0.0
 20
0.0
 11
1.0
 21
1.0
 12
17.86129769107944
 22
9.232910229862799
 13
0.0
 23
0.0
 14
0.5740882589684922
 24
0.5740882589684922
 15
0.5
 25
0.5
 16
0.0
 26
0.0
 36
1.0
 17
0.0
 27
0.0
 37
0.0
 40
8.236137295938563
 41
1.570528967254408
 42
50.0
 43
0.0
 44
0.0
 50
0.0
 51
0.0
 71
     0
 72
   100
 73
     1
 74
     0
 75
     0
 76
     0
 77
     0
 78
     0
  0
ENDTAB
  0
TABLE
  2
LTYPE
  5
5
330
0
100
AcDbSymbolTable
 70
     2
  0
LTYPE
  5
12
330
5
100
AcDbSymbolTableRecord
100
AcDbLinetypeTableRecord
  2
BYBLOCK
 70
     0
  3

 72
    65
 73
     0
 40
0.0
  0
LTYPE
  5
13
330
5
100
AcDbSymbolTableRecord
100
AcDbLinetypeTableRecord
  2
BYLAYER
 70
     0
  3

 72
    65
 73
     0
 40
0.0
  0
LTYPE
  5
14
330
5
100
AcDbSymbolTableRecord
100
AcDbLinetypeTableRecord
  2
CONTINUOUS
 70
     0
  3
Solid line
 72
    65
 73
     0
 40
0.0
  0
LTYPE
  5
129
330
5
100
AcDbSymbolTableRecord
100
AcDbLinetypeTableRecord
  2
HIDDEN2
 70
     0
  3
_ _ _ _ _ _ _ _ _ _ _ _ _ _ _ _ _ _ _ _ _ _ _ _
 72
    65
 73
     2
 40
0.1875
 49
0.125
 74
     0
 49
-0.0625
 74
     0
  0
ENDTAB
  0
TABLE
  2
LAYER
  5
2
330
0
100
AcDbSymbolTable
 70
     5
  0
LAYER
  5
F
330
2
100
AcDbSymbolTableRecord
100
AcDbLayerTableRecord
  2
0
 70
     0
 62
     7
  6
CONTINUOUS
  0
LAYER
  5
12D
330
2
100
AcDbSymbolTableRecord
100
AcDbLayerTableRecord
  2
ADP1DETAIL
 70
     0
 62
     7
  6
CONTINUOUS
  0
LAYER
  5
12F
330
2
100
AcDbSymbolTableRecord
100
AcDbLayerTableRecord
  2
DEFPOINTS
 70
     0
 62
     7
  6
CONTINUOUS
  0
LAYER
  5
130
330
2
100
AcDbSymbolTableRecord
100
AcDbLayerTableRecord
  2
ADP2DETAIL
 70
     0
 62
     5
  6
CONTINUOUS
  0
LAYER
  5
131
330
2
100
AcDbSymbolTableRecord
100
AcDbLayerTableRecord
  2
ADPDIM
 70
     0
 62
     3
  6
CONTINUOUS
  0
ENDTAB
  0
TABLE
  2
STYLE
  5
3
330
0
100
AcDbSymbolTable
 70
     2
  0
STYLE
  5
10
330
3
100
AcDbSymbolTableRecord
100
AcDbTextStyleTableRecord
  2
STANDARD
 70
     0
 40
0.0
 41
1.0
 50
0.0
 71
     0
 42
0.2
  3
txt
  4

  0
STYLE
  5
1AE
330
3
100
AcDbSymbolTableRecord
100
AcDbTextStyleTableRecord
  2
ARIAL_WIDE
 70
     0
 40
0.0
 41
1.25
 50
0.0
 71
     0
 42
0.2
  3
ARIAL.TTF
  4

1001
ACAD
1000
Arial
1071
       34
  0
ENDTAB
  0
TABLE
  2
VIEW
  5
6
330
0
100
AcDbSymbolTable
 70
     0
  0
ENDTAB
  0
TABLE
  2
UCS
  5
7
330
0
100
AcDbSymbolTable
 70
     0
  0
ENDTAB
  0
TABLE
  2
APPID
  5
9
330
0
100
AcDbSymbolTable
 70
     1
  0
APPID
  5
11
330
9
100
AcDbSymbolTableRecord
100
AcDbRegAppTableRecord
  2
ACAD
 70
     0
  0
ENDTAB
  0
TABLE
  2
DIMSTYLE
  5
A
330
0
100
AcDbSymbolTable
 70
     1
  0
DIMSTYLE
105
1A2
330
A
100
AcDbSymbolTableRecord
100
AcDbDimStyleTableRecord
  2
STANDARD
 70
     0
  3

  4

  5

  6

  7

 40
1.0
 41
0.18
 42
0.0625
 43
0.38
 44
0.18
 45
0.0
 46
0.0
 47
0.0
 48
0.0
140
0.18
141
0.09
142
0.0
143
25.4
144
1.0
145
0.0
146
1.0
147
0.09
 71
     0
 72
     0
 73
     1
 74
     1
 75
     0
 76
     0
 77
     0
 78
     0
170
     0
171
     2
172
     0
173
     0
174
     0
175
     0
176
     0
177
     0
178
     0
270
     2
271
     4
272
     4
273
     2
274
     2
340
10
275
     0
280
     0
281
     0
282
     0
283
     1
284
     0
285
     0
286
     0
287
     3
288
     0
  0
ENDTAB
  0
TABLE
  2
BLOCK_RECORD
  5
1
330
0
100
AcDbSymbolTable
 70
     5
  0
BLOCK_RECORD
  5
18
102
{ACAD_XDICTIONARY
360
203
102
}
330
1
100
AcDbSymbolTableRecord
100
AcDbBlockTableRecord
  2
*MODEL_SPACE
  0
BLOCK_RECORD
  5
15
102
{ACAD_XDICTIONARY
360
201
102
}
330
1
100
AcDbSymbolTableRecord
100
AcDbBlockTableRecord
  2
*PAPER_SPACE
  0
BLOCK_RECORD
  5
123
330
1
100
AcDbSymbolTableRecord
100
AcDbBlockTableRecord
  2
*D0
  0
BLOCK_RECORD
  5
124
330
1
100
AcDbSymbolTableRecord
100
AcDbBlockTableRecord
  2
*D1
  0
BLOCK_RECORD
  5
125
330
1
100
AcDbSymbolTableRecord
100
AcDbBlockTableRecord
  2
*D2
  0
BLOCK_RECORD
  5
126
330
1
100
AcDbSymbolTableRecord
100
AcDbBlockTableRecord
  2
*D3
  0
BLOCK_RECORD
  5
127
330
1
100
AcDbSymbolTableRecord
100
AcDbBlockTableRecord
  2
*D4
  0
ENDTAB
  0
ENDSEC
  0
SECTION
  2
BLOCKS
  0
BLOCK
  5
134
330
18
100
AcDbEntity
  8
0
100
AcDbBlockBegin
  2
*MODEL_SPACE
 70
     0
 10
0.0
 20
0.0
 30
0.0
  3
*MODEL_SPACE
  1

  0
ENDBLK
  5
135
330
18
100
AcDbEntity
  8
0
100
AcDbBlockEnd
  0
BLOCK
  5
132
330
15
100
AcDbEntity
 67
     1
  8
0
100
AcDbBlockBegin
  2
*PAPER_SPACE
 70
     0
 10
0.0
 20
0.0
 30
0.0
  3
*PAPER_SPACE
  1

  0
ENDBLK
  5
133
330
15
100
AcDbEntity
 67
     1
  8
0
100
AcDbBlockEnd
  0
BLOCK
  5
137
330
123
100
AcDbEntity
  8
0
100
AcDbBlockBegin
  2
*D0
 70
     1
 10
0.0
 20
0.0
 30
0.0
  3
*D0
  1

  0
LINE
  5
138
330
123
100
AcDbEntity
  8
0
  6
BYBLOCK
 62
     0
100
AcDbLine
 10
19.04624517584115
 20
8.51503535647263
 30
0.0
 11
18.85686478740107
 21
8.351832818274582
 31
0.0
  0
LINE
  5
139
330
123
100
AcDbEntity
  8
0
  6
BYBLOCK
 62
     0
100
AcDbLine
 10
19.03315625072014
 20
8.338743893153568
 30
0.0
 11
19.05933410096217
 21
8.691326819791692
 31
0.0
  0
LINE
  5
13A
330
123
100
AcDbEntity
  8
0
  6
BYBLOCK
 62
     0
100
AcDbLine
 10
20.05056519344627
 20
9.542111357058312
 30
0.0
 11
20.42556519344628
 21
9.542111357058312
 31
0.0
  0
LINE
  5
13B
330
123
100
AcDbEntity
  8
0
  6
BYBLOCK
 62
     0
100
AcDbLine
 10
20.23806519344627
 20
9.354611357058312
 30
0.0
 11
20.23806519344627
 21
9.729611357058312
 31
0.0
  0
TEXT
  5
13C
330
123
100
AcDbEntity
  8
0
  6
BYBLOCK
 62
     0
100
AcDbText
 10
18.29796085855701
 20
7.78767968353741
 30
0.0
 40
0.125
  1
%%c3 1/8
 50
40.75381196201131
 72
     1
 11
18.50966740859427
 21
8.052628164911494
 31
0.0
100
AcDbText
 73
     2
  0
POINT
  5
13D
330
123
100
AcDbEntity
  8
DEFPOINTS
  6
BYBLOCK
 62
     0
100
AcDbPoint
 10
19.04624517584115
 20
8.51503535647263
 30
0.0
  0
POINT
  5
13E
330
123
100
AcDbEntity
  8
DEFPOINTS
  6
BYBLOCK
 62
     0
100
AcDbPoint
 10
21.42988521105139
 20
10.56918735764399
 30
0.0
  0
ENDBLK
  5
13F
330
123
100
AcDbEntity
  8
0
100
AcDbBlockEnd
  0
BLOCK
  5
140
330
124
100
AcDbEntity
  8
0
100
AcDbBlockBegin
  2
*D1
 70
     1
 10
0.0
 20
0.0
 30
0.0
  3
*D1
  1

  0
LINE
  5
141
330
124
100
AcDbEntity
  8
0
  6
BYBLOCK
 62
     0
100
AcDbLine
 10
20.39056519344627
 20
9.510861357058308
 30
0.0
 11
22.37588062826807
 21
9.510861357058308
 31
0.0
  0
LINE
  5
142
330
124
100
AcDbEntity
  8
0
  6
BYBLOCK
 62
     0
100
AcDbLine
 10
21.27955801324927
 20
11.06055436445034
 30
0.0
 11
22.37588062826807
 21
11.06055436445034
 31
0.0
  0
LINE
  5
143
330
124
100
AcDbEntity
  8
0
  6
BYBLOCK
 62
     0
100
AcDbLine
 10
22.19588062826807
 20
9.510861357058308
 30
0.0
 11
22.19588062826807
 21
9.848207860754326
 31
0.0
  0
LINE
  5
144
330
124
100
AcDbEntity
  8
0
  6
BYBLOCK
 62
     0
100
AcDbLine
 10
22.19588062826807
 20
11.06055436445034
 30
0.0
 11
22.19588062826807
 21
10.72320786075432
 31
0.0
  0
LINE
  5
145
330
124
100
AcDbEntity
  8
0
  6
BYBLOCK
 62
     0
100
AcDbLine
 10
22.32088062826807
 20
9.385861357058308
 30
0.0
 11
22.07088062826807
 21
9.635861357058308
 31
0.0
  0
LINE
  5
146
330
124
100
AcDbEntity
  8
0
  6
BYBLOCK
 62
     0
100
AcDbLine
 10
22.32088062826807
 20
10.93555436445034
 30
0.0
 11
22.07088062826807
 21
11.18555436445034
 31
0.0
  0
TEXT
  5
147
330
124
100
AcDbEntity
  8
0
  6
BYBLOCK
 62
     0
100
AcDbText
 10
22.25838062826807
 20
9.973207860754326
 30
0.0
 40
0.125
  1
1 9/16
 50
90.0
 72
     1
 11
22.19588062826807
 21
10.28570786075432
 31
0.0
100
AcDbText
 73
     2
  0
POINT
  5
148
330
124
100
AcDbEntity
  8
DEFPOINTS
  6
BYBLOCK
 62
     0
100
AcDbPoint
 10
20.32806519344627
 20
9.510861357058308
 30
0.0
  0
POINT
  5
149
330
124
100
AcDbEntity
  8
DEFPOINTS
  6
BYBLOCK
 62
     0
100
AcDbPoint
 10
21.21705801324927
 20
11.06055436445034
 30
0.0
  0
POINT
  5
14A
330
124
100
AcDbEntity
  8
DEFPOINTS
  6
BYBLOCK
 62
     0
100
AcDbPoint
 10
22.19588062826807
 20
11.06055436445034
 30
0.0
  0
ENDBLK
  5
14B
330
124
100
AcDbEntity
  8
0
100
AcDbBlockEnd
  0
BLOCK
  5
14C
330
125
100
AcDbEntity
  8
0
100
AcDbBlockBegin
  2
*D2
 70
     1
 10
0.0
 20
0.0
 30
0.0
  3
*D2
  1

  0
LINE
  5
14D
330
125
100
AcDbEntity
  8
0
  6
BYBLOCK
 62
     0
100
AcDbLine
 10
19.21705801324927
 20
11.12305436445034
 30
0.0
 11
19.21705801324927
 21
11.84434267234027
 31
0.0
  0
LINE
  5
14E
330
125
100
AcDbEntity
  8
0
  6
BYBLOCK
 62
     0
100
AcDbLine
 10
21.21312158966601
 20
11.12305436445034
 30
0.0
 11
21.21312158966601
 21
11.84434267234027
 31
0.0
  0
LINE
  5
14F
330
125
100
AcDbEntity
  8
0
  6
BYBLOCK
 62
     0
100
AcDbLine
 10
19.21705801324927
 20
11.66434267234027
 30
0.0
 11
20.04842313479097
 21
11.66434267234027
 31
0.0
  0
LINE
  5
150
330
125
100
AcDbEntity
  8
0
  6
BYBLOCK
 62
     0
100
AcDbLine
 10
21.21312158966601
 20
11.66434267234027
 30
0.0
 11
20.38175646812431
 21
11.66434267234027
 31
0.0
  0
LINE
  5
151
330
125
100
AcDbEntity
  8
0
  6
BYBLOCK
 62
     0
100
AcDbLine
 10
19.09205801324927
 20
11.53934267234027
 30
0.0
 11
19.34205801324927
 21
11.78934267234027
 31
0.0
  0
LINE
  5
152
330
125
100
AcDbEntity
  8
0
  6
BYBLOCK
 62
     0
100
AcDbLine
 10
21.08812158966601
 20
11.53934267234027
 30
0.0
 11
21.33812158966601
 21
11.78934267234027
 31
0.0
  0
TEXT
  5
153
330
125
100
AcDbEntity
  8
0
  6
BYBLOCK
 62
     0
100
AcDbText
 10
20.17342313479097
 20
11.60184267234027
 30
0.0
 40
0.125
  1
2
 72
     1
 11
20.21508980145764
 21
11.66434267234027
 31
0.0
100
AcDbText
 73
     2
  0
POINT
  5
154
330
125
100
AcDbEntity
  8
DEFPOINTS
  6
BYBLOCK
 62
     0
100
AcDbPoint
 10
19.21705801324927
 20
11.06055436445035
 30
0.0
  0
POINT
  5
155
330
125
100
AcDbEntity
  8
DEFPOINTS
  6
BYBLOCK
 62
     0
100
AcDbPoint
 10
21.21312158966601
 20
11.06055436445035
 30
0.0
  0
POINT
  5
156
330
125
100
AcDbEntity
  8
DEFPOINTS
  6
BYBLOCK
 62
     0
100
AcDbPoint
 10
21.21312158966601
 20
11.66434267234027
 30
0.0
  0
ENDBLK
  5
157
330
125
100
AcDbEntity
  8
0
100
AcDbBlockEnd
  0
BLOCK
  5
158
330
126
100
AcDbEntity
  8
0
100
AcDbBlockBegin
  2
*D3
 70
     1
 10
0.0
 20
0.0
 30
0.0
  3
*D3
  1

  0
LINE
  5
159
330
126
100
AcDbEntity
  8
0
  6
BYBLOCK
 62
     0
100
AcDbLine
 10
19.50449237636268
 20
11.24733088853716
 30
0.0
 11
19.50449237636268
 21
11.55083088853716
 31
0.0
  0
LINE
  5
15A
330
126
100
AcDbEntity
  8
0
  6
BYBLOCK
 62
     0
100
AcDbLine
 10
20.87949237636268
 20
11.24733088853716
 30
0.0
 11
20.87949237636268
 21
11.55083088853716
 31
0.0
  0
LINE
  5
15B
330
126
100
AcDbEntity
  8
0
  6
BYBLOCK
 62
     0
100
AcDbLine
 10
19.50449237636268
 20
11.37083088853716
 30
0.0
 11
19.79615904302934
 21
11.37083088853716
 31
0.0
  0
LINE
  5
15C
330
126
100
AcDbEntity
  8
0
  6
BYBLOCK
 62
     0
100
AcDbLine
 10
20.87949237636268
 20
11.37083088853716
 30
0.0
 11
20.58782570969601
 21
11.37083088853716
 31
0.0
  0
LINE
  5
15D
330
126
100
AcDbEntity
  8
0
  6
BYBLOCK
 62
     0
100
AcDbLine
 10
19.37949237636268
 20
11.24583088853716
 30
0.0
 11
19.62949237636268
 21
11.49583088853716
 31
0.0
  0
LINE
  5
15E
330
126
100
AcDbEntity
  8
0
  6
BYBLOCK
 62
     0
100
AcDbLine
 10
20.75449237636268
 20
11.24583088853716
 30
0.0
 11
21.00449237636268
 21
11.49583088853716
 31
0.0
  0
TEXT
  5
15F
330
126
100
AcDbEntity
  8
0
  6
BYBLOCK
 62
     0
100
AcDbText
 10
19.92115904302934
 20
11.30833088853716
 30
0.0
 40
0.125
  1
1 3/8
 72
     1
 11
20.19199237636267
 21
11.37083088853716
 31
0.0
100
AcDbText
 73
     2
  0
POINT
  5
160
330
126
100
AcDbEntity
  8
DEFPOINTS
  6
BYBLOCK
 62
     0
100
AcDbPoint
 10
19.50449237636268
 20
11.18483088853716
 30
0.0
  0
POINT
  5
161
330
126
100
AcDbEntity
  8
DEFPOINTS
  6
BYBLOCK
 62
     0
100
AcDbPoint
 10
20.87949237636268
 20
11.18483088853716
 30
0.0
  0
POINT
  5
162
330
126
100
AcDbEntity
  8
DEFPOINTS
  6
BYBLOCK
 62
     0
100
AcDbPoint
 10
20.87949237636268
 20
11.37083088853716
 30
0.0
  0
ENDBLK
  5
163
330
126
100
AcDbEntity
  8
0
100
AcDbBlockEnd
  0
BLOCK
  5
164
330
127
100
AcDbEntity
  8
0
100
AcDbBlockBegin
  2
*D4
 70
     1
 10
0.0
 20
0.0
 30
0.0
  3
*D4
  1

  0
LINE
  5
165
330
127
100
AcDbEntity
  8
0
  6
BYBLOCK
 62
     0
100
AcDbLine
 10
13.82299037014531
 20
11.08533611972106
 30
0.0
 11
13.82299037014531
 21
11.68710622102035
 31
0.0
  0
LINE
  5
166
330
127
100
AcDbEntity
  8
0
  6
BYBLOCK
 62
     0
100
AcDbLine
 10
16.32299037014531
 20
11.14783611972106
 30
0.0
 11
16.32299037014531
 21
11.68710622102035
 31
0.0
  0
LINE
  5
167
330
127
100
AcDbEntity
  8
0
  6
BYBLOCK
 62
     0
100
AcDbLine
 10
13.82299037014531
 20
11.50710622102035
 30
0.0
 11
14.67715703681198
 21
11.50710622102035
 31
0.0
  0
LINE
  5
168
330
127
100
AcDbEntity
  8
0
  6
BYBLOCK
 62
     0
100
AcDbLine
 10
16.32299037014531
 20
11.50710622102035
 30
0.0
 11
15.46882370347865
 21
11.50710622102035
 31
0.0
  0
LINE
  5
169
330
127
100
AcDbEntity
  8
0
  6
BYBLOCK
 62
     0
100
AcDbLine
 10
13.69799037014531
 20
11.38210622102035
 30
0.0
 11
13.94799037014531
 21
11.63210622102035
 31
0.0
  0
LINE
  5
16A
330
127
100
AcDbEntity
  8
0
  6
BYBLOCK
 62
     0
100
AcDbLine
 10
16.19799037014531
 20
11.38210622102035
 30
0.0
 11
16.44799037014531
 21
11.63210622102035
 31
0.0
  0
TEXT
  5
16B
330
127
100
AcDbEntity
  8
0
  6
BYBLOCK
 62
     0
100
AcDbText
 10
14.80215703681198
 20
11.44460622102035
 30
0.0
 40
0.125
  1
2 1/2
 72
     1
 11
15.07299037014531
 21
11.50710622102035
 31
0.0
100
AcDbText
 73
     2
  0
POINT
  5
16C
330
127
100
AcDbEntity
  8
DEFPOINTS
  6
BYBLOCK
 62
     0
100
AcDbPoint
 10
13.82299037014531
 20
11.02283611972106
 30
0.0
  0
POINT
  5
16D
330
127
100
AcDbEntity
  8
DEFPOINTS
  6
BYBLOCK
 62
     0
100
AcDbPoint
 10
16.32299037014531
 20
11.08533611972106
 30
0.0
  0
POINT
  5
16E
330
127
100
AcDbEntity
  8
DEFPOINTS
  6
BYBLOCK
 62
     0
100
AcDbPoint
 10
16.32299037014531
 20
11.50710622102035
 30
0.0
  0
ENDBLK
  5
16F
330
127
100
AcDbEntity
  8
0
100
AcDbBlockEnd
  0
ENDSEC
  0
SECTION
  2
ENTITIES
  0
ARC
  5
170
330
18
100
AcDbEntity
  8
ADP1DETAIL
100
AcDbCircle
 10
14.35942665679605
 20
10.24456444999223
 30
0.0
 40
0.29876285288589
100
AcDbArc
 50
188.6754878693441
 51
261.2203508494926
  0
ARC
  5
171
330
18
100
AcDbEntity
  8
ADP1DETAIL
100
AcDbCircle
 10
15.4997246960887
 20
10.36633611972106
 30
0.0
 40
0.5
100
AcDbArc
 50
270.0
 51
0.0
  0
LINE
  5
172
330
18
100
AcDbEntity
  8
ADP1DETAIL
100
AcDbLine
 10
13.82299037014531
 20
7.897836119721066
 30
0.0
 11
13.82299037014531
 21
11.02283611972106
 31
0.0
  0
LINE
  5
173
330
18
100
AcDbEntity
  8
ADP1DETAIL
100
AcDbLine
 10
14.0640820965954
 20
10.90603495606218
 30
0.0
 11
14.0640820965954
 21
8.019881538241561
 31
0.0
  0
LINE
  5
174
330
18
100
AcDbEntity
  8
ADP1DETAIL
100
AcDbLine
 10
16.63128770407148
 20
10.85584811531263
 30
0.0
 11
16.7187246960887
 21
10.02283611972106
 31
0.0
  0
LINE
  5
175
330
18
100
AcDbEntity
  8
ADP1DETAIL
100
AcDbLine
 10
15.71872469608869
 20
9.022836119721066
 30
0.0
 11
14.31611194117028
 21
8.9670278308629
 31
0.0
  0
LINE
  5
176
330
18
100
AcDbEntity
  8
ADP1DETAIL
100
AcDbLine
 10
14.31382504298167
 20
9.949302303617118
 30
0.0
 11
15.4997246960887
 21
9.866336119721067
 31
0.0
  0
ARC
  5
177
330
18
100
AcDbEntity
  8
ADP1DETAIL
100
AcDbCircle
 10
14.32299037014531
 20
8.717122474348007
 30
0.0
 40
0.25
100
AcDbArc
 50
91.5766187604145
 51
180.0
  0
LINE
  5
178
330
18
100
AcDbEntity
  8
ADP1DETAIL
100
AcDbLine
 10
13.94799037014531
 20
7.897836119721066
 30
0.0
 11
13.82299037014531
 21
7.897836119721066
 31
0.0
  0
ARC
  5
179
330
18
100
AcDbEntity
  8
ADP1DETAIL
100
AcDbCircle
 10
13.95377358206381
 20
8.008874211073347
 30
0.0
 40
0.111188593260513
100
AcDbArc
 50
267.0185501044695
 51
7.213651404718345
  0
ARC
  5
17A
330
18
100
AcDbEntity
  8
ADP1DETAIL
100
AcDbCircle
 10
15.71872469608869
 20
10.02283611972106
 30
0.0
 40
1.0
100
AcDbArc
 50
270.0
 51
0.0
  0
DIMENSION
  5
17B
330
18
100
AcDbEntity
  8
ADPDIM
100
AcDbDimension
  2
*D4
 10
16.32299037014531
 20
11.50710622102035
 30
0.0
 11
15.07299037014531
 21
11.50710622102035
 31
0.0
100
AcDbAlignedDimension
 13
13.82299037014531
 23
11.02283611972106
 33
0.0
 14
16.32299037014531
 24
11.08533611972106
 34
0.0
100
AcDbRotatedDimension
  0
LINE
  5
17C
330
18
100
AcDbEntity
  8
ADP1DETAIL
100
AcDbLine
 10
13.82299037014531
 20
11.02283611972106
 30
0.0
 11
13.94799037014531
 21
11.02283611972106
 31
0.0
  0
ARC
  5
17D
330
18
100
AcDbEntity
  8
ADP1DETAIL
100
AcDbCircle
 10
13.95377358206381
 20
10.91179802836878
 30
0.0
 40
0.1111885932605123
100
AcDbArc
 50
352.7863485952806
 51
92.98144989553074
  0
LINE
  5
17E
330
18
100
AcDbEntity
  8
ADP2DETAIL
  6
HIDDEN2
100
AcDbLine
 10
16.42147899661921
 20
11.01267662021673
 30
0.0
 11
16.53335017584016
 21
10.89673665559319
 31
0.0
  0
LINE
  5
17F
330
18
100
AcDbEntity
  8
ADP1DETAIL
100
AcDbLine
 10
16.79174037014531
 20
10.89733611972106
 30
0.0
 11
15.85424037014531
 21
10.89733611972106
 31
0.0
  0
LINE
  5
180
330
18
100
AcDbEntity
  8
ADP1DETAIL
100
AcDbLine
 10
15.85424037014531
 20
11.08533611972106
 30
0.0
 11
16.79174037014531
 21
11.08533611972106
 31
0.0
  0
LINE
  5
181
330
18
100
AcDbEntity
  8
ADP1DETAIL
100
AcDbLine
 10
15.85424037014531
 20
10.89733611972106
 30
0.0
 11
15.85424037014531
 21
11.08533611972106
 31
0.0
  0
LINE
  5
182
330
18
100
AcDbEntity
  8
ADP2DETAIL
  6
HIDDEN2
100
AcDbLine
 10
16.42147899661921
 20
11.079176128957
 30
0.0
 11
16.42147899661921
 21
11.01267662021673
 31
0.0
  0
LINE
  5
183
330
18
100
AcDbEntity
  8
ADP2DETAIL
  6
HIDDEN2
100
AcDbLine
 10
16.20708699629404
 20
11.01267662021673
 30
0.0
 11
16.11944412277012
 21
10.89673665559319
 31
0.0
  0
LINE
  5
184
330
18
100
AcDbEntity
  8
ADP2DETAIL
  6
HIDDEN2
100
AcDbLine
 10
16.20708699629404
 20
11.079176128957
 30
0.0
 11
16.20708699629404
 21
11.01267662021673
 31
0.0
  0
LINE
  5
185
330
18
100
AcDbEntity
  8
ADP1DETAIL
100
AcDbLine
 10
15.9997246960887
 20
10.36633611972106
 30
0.0
 11
16.00946402132671
 21
10.88154854658372
 31
0.0
  0
LINE
  5
186
330
18
100
AcDbEntity
  8
ADP2DETAIL
  6
HIDDEN2
100
AcDbLine
 10
16.1996941678842
 20
11.01267662021673
 30
0.0
 11
16.42147899661921
 21
11.01267662021673
 31
0.0
  0
LINE
  5
187
330
18
100
AcDbEntity
  8
ADP1DETAIL
100
AcDbLine
 10
16.79174037014531
 20
11.08533611972106
 30
0.0
 11
16.79174037014531
 21
10.89733611972106
 31
0.0
  0
DIMENSION
  5
188
330
18
100
AcDbEntity
  8
ADPDIM
100
AcDbDimension
  2
*D1
 10
22.19588062826807
 20
11.06055436445034
 30
0.0
 11
22.19588062826807
 21
10.28570786075432
 31
0.0
100
AcDbAlignedDimension
 13
20.32806519344627
 23
9.510861357058308
 33
0.0
 14
21.21705801324927
 24
11.06055436445034
 34
0.0
 50
90.0
100
AcDbRotatedDimension
  0
DIMENSION
  5
189
330
18
100
AcDbEntity
  8
ADPDIM
100
AcDbDimension
  2
*D0
 10
21.42988521105139
 20
10.56918735764399
 30
0.0
 11
18.50966740859427
 21
8.052628164911494
 31
0.0
 70
     3
100
AcDbDiametricDimension
 15
19.04624517584115
 25
8.51503535647263
 35
0.0
 40
0.0
  0
ARC
  5
18A
330
18
100
AcDbEntity
  8
ADP1DETAIL
100
AcDbCircle
 10
20.23806519344627
 20
9.510861357058312
 30
0.0
 40
1.553095096189132
100
AcDbArc
 50
123.5370595827848
 51
55.92199465155323
  0
LINE
  5
18B
330
18
100
AcDbEntity
  8
ADP1DETAIL
100
AcDbLine
 10
19.89855920678593
 20
9.519851075648418
 30
0.0
 11
20.0088691415222
 21
10.73335936659994
 31
0.0
  0
LINE
  5
18C
330
18
100
AcDbEntity
  8
ADP1DETAIL
100
AcDbLine
 10
20.52949154590991
 20
10.73335936659994
 30
0.0
 11
20.63980148064618
 21
9.519851075648421
 31
0.0
  0
ARC
  5
18D
330
18
100
AcDbEntity
  8
ADP1DETAIL
100
AcDbCircle
 10
20.26918034371606
 20
9.462711134620962
 30
0.0
 40
0.375
100
AcDbArc
 50
171.2355192817106
 51
8.764480718289892
  0
ARC
  5
18E
330
18
100
AcDbEntity
  8
ADP1DETAIL
100
AcDbCircle
 10
19.88423458096196
 20
10.74291061332253
 30
0.0
 40
0.125
100
AcDbArc
 50
355.6177596408554
 51
90.0
  0
DIMENSION
  5
18F
330
18
100
AcDbEntity
  8
ADPDIM
100
AcDbDimension
  2
*D3
 10
20.87949237636268
 20
11.37083088853716
 30
0.0
 11
20.19199237636267
 21
11.37083088853716
 31
0.0
100
AcDbAlignedDimension
 13
19.50449237636268
 23
11.18483088853716
 33
0.0
 14
20.87949237636268
 24
11.18483088853716
 34
0.0
100
AcDbRotatedDimension
  0
DIMENSION
  5
190
330
18
100
AcDbEntity
  8
ADPDIM
100
AcDbDimension
  2
*D2
 10
21.21312158966601
 20
11.66434267234027
 30
0.0
 11
20.21508980145764
 21
11.66434267234027
 31
0.0
100
AcDbAlignedDimension
 13
19.21705801324927
 23
11.06055436445035
 33
0.0
 14
21.21312158966601
 24
11.06055436445035
 34
0.0
100
AcDbRotatedDimension
  0
LINE
  5
191
330
18
100
AcDbEntity
  8
ADP1DETAIL
100
AcDbLine
 10
21.15505801324927
 20
10.87255436445035
 30
0.0
 11
19.27905801324927
 21
10.87255436445034
 31
0.0
  0
LINE
  5
192
330
18
100
AcDbEntity
  8
ADP1DETAIL
100
AcDbLine
 10
19.21705801324927
 20
11.06055436445034
 30
0.0
 11
21.21705801324927
 21
11.06055436445034
 31
0.0
  0
LINE
  5
193
330
18
100
AcDbEntity
  8
ADP2DETAIL
  6
HIDDEN2
100
AcDbLine
 10
19.39359996199517
 20
11.00483088853716
 30
0.0
 11
19.61538479073018
 21
11.00483088853716
 31
0.0
  0
LINE
  5
194
330
18
100
AcDbEntity
  8
ADP2DETAIL
  6
HIDDEN2
100
AcDbLine
 10
19.40099279040501
 20
11.00483088853716
 30
0.0
 11
19.30488602107704
 21
10.87922070711203
 31
0.0
  0
LINE
  5
195
330
18
100
AcDbEntity
  8
ADP2DETAIL
  6
HIDDEN2
100
AcDbLine
 10
19.40099279040501
 20
11.07133039727742
 30
0.0
 11
19.40099279040501
 21
11.00483088853716
 31
0.0
  0
LINE
  5
196
330
18
100
AcDbEntity
  8
ADP1DETAIL
100
AcDbLine
 10
19.21705801324927
 20
10.93455436445035
 30
0.0
 11
19.21705801324927
 21
11.06055436445034
 31
0.0
  0
ARC
  5
197
330
18
100
AcDbEntity
  8
ADP1DETAIL
100
AcDbCircle
 10
19.27905801324927
 20
10.93455436445035
 30
0.0
 40
0.062
100
AcDbArc
 50
180.0
 51
270.0
  0
LINE
  5
198
330
18
100
AcDbEntity
  8
ADP2DETAIL
  6
HIDDEN2
100
AcDbLine
 10
19.61538479073018
 20
11.00483088853716
 30
0.0
 11
19.74106287369754
 21
10.87183187105662
 31
0.0
  0
LINE
  5
199
330
18
100
AcDbEntity
  8
ADP2DETAIL
  6
HIDDEN2
100
AcDbLine
 10
19.61538479073018
 20
11.06763597924972
 30
0.0
 11
19.61538479073018
 21
11.00483088853716
 31
0.0
  0
ARC
  5
19A
330
18
100
AcDbEntity
  8
ADP1DETAIL
100
AcDbCircle
 10
21.15505801324927
 20
10.93455436445035
 30
0.0
 40
0.062
100
AcDbArc
 50
270.0
 51
0.0
  0
ARC
  5
19B
330
18
100
AcDbEntity
  8
ADP1DETAIL
100
AcDbCircle
 10
20.65412610647015
 20
10.74291061332253
 30
0.0
 40
0.125
100
AcDbArc
 50
90.0
 51
184.3822403591446
  0
LINE
  5
19C
330
18
100
AcDbEntity
  8
ADP2DETAIL
  6
HIDDEN2
100
AcDbLine
 10
20.78345163236498
 20
11.00483088853716
 30
0.0
 11
20.687344863037
 21
10.87922070711203
 31
0.0
  0
LINE
  5
19D
330
18
100
AcDbEntity
  8
ADP2DETAIL
  6
HIDDEN2
100
AcDbLine
 10
20.77605880395513
 20
11.00483088853716
 30
0.0
 11
20.99784363269015
 21
11.00483088853716
 31
0.0
  0
LINE
  5
19E
330
18
100
AcDbEntity
  8
ADP2DETAIL
  6
HIDDEN2
100
AcDbLine
 10
20.78345163236498
 20
11.07133039727742
 30
0.0
 11
20.78345163236498
 21
11.00483088853716
 31
0.0
  0
LINE
  5
19F
330
18
100
AcDbEntity
  8
ADP2DETAIL
  6
HIDDEN2
100
AcDbLine
 10
20.99784363269015
 20
11.06763597924972
 30
0.0
 11
20.99784363269015
 21
11.00483088853716
 31
0.0
  0
LINE
  5
1A0
330
18
100
AcDbEntity
  8
ADP2DETAIL
  6
HIDDEN2
100
AcDbLine
 10
20.99784363269015
 20
11.00483088853716
 30
0.0
 11
21.1235217156575
 21
10.87183187105662
 31
0.0
  0
LINE
  5
1A1
330
18
100
AcDbEntity
  8
ADP1DETAIL
100
AcDbLine
 10
21.21705801324927
 20
11.06055436445034
 30
0.0
 11
21.21705801324927
 21
10.93455436445035
 31
0.0
  0
TEXT
  5
1AF
330
18
100
AcDbEntity
  8
ADPDIM
100
AcDbText
 10
11.42699590305342
 20
6.659985497557534
 30
0.0
 40
0.125
  1
J U L I U S  B L U M  &  C O . ,  I N C .      ( 8 0 0 )  5 2 6 - 6 2 9 3        W W W . J U L I U S B L U M . C O M        P A R T  N o .  3 7 1
 41
1.25
  7
ARIAL_WIDE
 72
     1
 11
17.86170344057047
 21
6.784985497557534
 31
0.0
100
AcDbText
 73
     3
  0
ENDSEC
  0
SECTION
  2
OBJECTS
  0
DICTIONARY
  5
C
330
0
100
AcDbDictionary
  3
ACAD_GROUP
350
D
  3
ACAD_LAYOUT
350
1A8
  3
ACAD_MLINESTYLE
350
E
  3
ACAD_PLOTSETTINGS
350
1A9
  3
ACAD_PLOTSTYLENAME
350
1A6
  3
ACDBHEADERROUNDTRIPXREC
350
351
  3
ACDBVARIABLEDICTIONARY
350
209
  0
DICTIONARY
  5
203
330
18
100
AcDbDictionary
280
     1
  3
ACAD_LAYOUTSELFREF
360
372
  0
DICTIONARY
  5
201
330
15
100
AcDbDictionary
280
     1
  3
ACAD_LAYOUTSELFREF
360
371
  0
DICTIONARY
  5
D
102
{ACAD_REACTORS
330
C
102
}
330
C
100
AcDbDictionary
  0
DICTIONARY
  5
1A8
102
{ACAD_REACTORS
330
C
102
}
330
C
100
AcDbDictionary
  0
DICTIONARY
  5
E
102
{ACAD_REACTORS
330
C
102
}
330
C
100
AcDbDictionary
  3
STANDARD
350
1B
  0
DICTIONARY
  5
1A9
102
{ACAD_REACTORS
330
C
102
}
330
C
100
AcDbDictionary
  0
ACDBDICTIONARYWDFLT
  5
1A6
102
{ACAD_REACTORS
330
C
102
}
330
C
100
AcDbDictionary
281
     1
  3
Normal
350
1A7
100
AcDbDictionaryWithDefault
340
1A7
  0
DICTIONARY
  5
351
102
{ACAD_REACTORS
330
C
102
}
330
C
100
AcDbDictionary
  3
CEPSNTYPE
350
35B
  3
FINGERPRINTGUID
350
35C
  3
HYPERLINKBASE
350
354
  3
INSUNITS
350
35A
  3
LAYOUTDICT
350
356
  3
LWETCUNION
350
359
  3
PLOTSETDICT
350
357
  3
PLOTSTYLNAMDICT
350
358
  3
PSVPSCALE
350
35E
  3
PUCSBASE
350
361
  3
PUCSORGBACK
350
367
  3
PUCSORGBOTTOM
350
363
  3
PUCSORGFRONT
350
366
  3
PUCSORGLEFT
350
364
  3
PUCSORGRIGHT
350
365
  3
PUCSORGTOP
350
362
  3
PUCSORTHOREF
350
35F
  3
PUCSORTHOVIEW
350
360
  3
STYLESHEET
350
355
  3
TSTACKALIGN
350
352
  3
TSTACKSIZE
350
353
  3
UCSBASE
350
36A
  3
UCSORGBACK
350
370
  3
UCSORGBOTTOM
350
36C
  3
UCSORGFRONT
350
36F
  3
UCSORGLEFT
350
36D
  3
UCSORGRIGHT
350
36E
  3
UCSORGTOP
350
36B
  3
UCSORTHOREF
350
368
  3
UCSORTHOVIEW
350
369
  3
VERSIONGUID
350
35D
  0
DICTIONARY
  5
209
102
{ACAD_REACTORS
330
C
102
}
330
C
100
AcDbDictionary
  3
DIMASSOC
350
20A
  0
XRECORD
  5
372
102
{ACAD_REACTORS
330
203
102
}
330
203
100
AcDbXrecord
340
18
  0
XRECORD
  5
371
102
{ACAD_REACTORS
330
201
102
}
330
201
100
AcDbXrecord
340
15
  0
MLINESTYLE
  5
1B
102
{ACAD_REACTORS
330
E
102
}
330
E
100
AcDbMlineStyle
  2
STANDARD
 70
     0
  3

 62
     0
 51
90.0
 52
90.0
 71
     2
 49
0.5
 62
   256
  6
BYLAYER
 49
-0.5
 62
   256
  6
BYLAYER
  0
ACDBPLACEHOLDER
  5
1A7
102
{ACAD_REACTORS
330
1A6
102
}
330
1A6
100
AcDbPlaceHolder
280
     0
  0
XRECORD
  5
35B
102
{ACAD_REACTORS
330
351
102
}
330
351
100
AcDbXrecord
 90
        0
  0
XRECORD
  5
35C
102
{ACAD_REACTORS
330
351
102
}
330
351
100
AcDbXrecord
  1
{6F9F8207-4ED3-4582-A290-F69F7E02475B}
  0
XRECORD
  5
354
102
{ACAD_REACTORS
330
351
102
}
330
351
100
AcDbXrecord
  1

  0
XRECORD
  5
35A
102
{ACAD_REACTORS
330
351
102
}
330
351
100
AcDbXrecord
 90
        0
  0
XRECORD
  5
356
102
{ACAD_REACTORS
330
351
102
}
330
351
100
AcDbXrecord
340
1A8
  0
XRECORD
  5
359
102
{ACAD_REACTORS
330
351
102
}
330
351
100
AcDbXrecord
 90
    14877
  0
XRECORD
  5
357
102
{ACAD_REACTORS
330
351
102
}
330
351
100
AcDbXrecord
340
1A9
  0
XRECORD
  5
358
102
{ACAD_REACTORS
330
351
102
}
330
351
100
AcDbXrecord
340
1A6
  0
XRECORD
  5
35E
102
{ACAD_REACTORS
330
351
102
}
330
351
100
AcDbXrecord
 40
0.0
  0
XRECORD
  5
361
102
{ACAD_REACTORS
330
351
102
}
330
351
100
AcDbXrecord
340
0
  0
XRECORD
  5
367
102
{ACAD_REACTORS
330
351
102
}
330
351
100
AcDbXrecord
 10
0.0
 20
0.0
 30
0.0
  0
XRECORD
  5
363
102
{ACAD_REACTORS
330
351
102
}
330
351
100
AcDbXrecord
 10
0.0
 20
0.0
 30
0.0
  0
XRECORD
  5
366
102
{ACAD_REACTORS
330
351
102
}
330
351
100
AcDbXrecord
 10
0.0
 20
0.0
 30
0.0
  0
XRECORD
  5
364
102
{ACAD_REACTORS
330
351
102
}
330
351
100
AcDbXrecord
 10
0.0
 20
0.0
 30
0.0
  0
XRECORD
  5
365
102
{ACAD_REACTORS
330
351
102
}
330
351
100
AcDbXrecord
 10
0.0
 20
0.0
 30
0.0
  0
XRECORD
  5
362
102
{ACAD_REACTORS
330
351
102
}
330
351
100
AcDbXrecord
 10
0.0
 20
0.0
 30
0.0
  0
XRECORD
  5
35F
102
{ACAD_REACTORS
330
351
102
}
330
351
100
AcDbXrecord
340
0
  0
XRECORD
  5
360
102
{ACAD_REACTORS
330
351
102
}
330
351
100
AcDbXrecord
 70
     0
  0
XRECORD
  5
355
102
{ACAD_REACTORS
330
351
102
}
330
351
100
AcDbXrecord
  1

  0
XRECORD
  5
352
102
{ACAD_REACTORS
330
351
102
}
330
351
100
AcDbXrecord
 90
        1
  0
XRECORD
  5
353
102
{ACAD_REACTORS
330
351
102
}
330
351
100
AcDbXrecord
 90
       70
  0
XRECORD
  5
36A
102
{ACAD_REACTORS
330
351
102
}
330
351
100
AcDbXrecord
340
0
  0
XRECORD
  5
370
102
{ACAD_REACTORS
330
351
102
}
330
351
100
AcDbXrecord
 10
0.0
 20
0.0
 30
0.0
  0
XRECORD
  5
36C
102
{ACAD_REACTORS
330
351
102
}
330
351
100
AcDbXrecord
 10
0.0
 20
0.0
 30
0.0
  0
XRECORD
  5
36F
102
{ACAD_REACTORS
330
351
102
}
330
351
100
AcDbXrecord
 10
0.0
 20
0.0
 30
0.0
  0
XRECORD
  5
36D
102
{ACAD_REACTORS
330
351
102
}
330
351
100
AcDbXrecord
 10
0.0
 20
0.0
 30
0.0
  0
XRECORD
  5
36E
102
{ACAD_REACTORS
330
351
102
}
330
351
100
AcDbXrecord
 10
0.0
 20
0.0
 30
0.0
  0
XRECORD
  5
36B
102
{ACAD_REACTORS
330
351
102
}
330
351
100
AcDbXrecord
 10
0.0
 20
0.0
 30
0.0
  0
XRECORD
  5
368
102
{ACAD_REACTORS
330
351
102
}
330
351
100
AcDbXrecord
340
0
  0
XRECORD
  5
369
102
{ACAD_REACTORS
330
351
102
}
330
351
100
AcDbXrecord
 70
     0
  0
XRECORD
  5
35D
102
{ACAD_REACTORS
330
351
102
}
330
351
100
AcDbXrecord
  1
{195D1D20-B6FC-45FA-A3A6-32C10BD7559E}
  0
DICTIONARYVAR
  5
20A
102
{ACAD_REACTORS
330
209
102
}
330
209
100
DictionaryVariables
280
     0
  1
1
  0
ENDSEC
  0
EOF
