  0
SECTION
  2
HEADER
  9
$ACADVER
  1
AC1014
  9
$ACADMAINTVER
 70
     9
  9
$DWGCODEPAGE
  3
ANSI_1252
  9
$INSBASE
 10
13.82299037014531
 20
7.897836119721066
 30
0.0
  9
$EXTMIN
 10
11.36201571123075
 20
6.586185571560847
 30
0.0
  9
$EXTMAX
 10
24.23143078626486
 20
11.84434267234027
 30
0.0
  9
$LIMMIN
 10
0.0
 20
0.0
  9
$LIMMAX
 10
36.0
 20
36.0
  9
$ORTHOMODE
 70
     1
  9
$REGENMODE
 70
     1
  9
$FILLMODE
 70
     1
  9
$QTEXTMODE
 70
     0
  9
$MIRRTEXT
 70
     1
  9
$DRAGMODE
 70
     0
  9
$LTSCALE
 40
1.0
  9
$OSMODE
 70
    37
  9
$ATTMODE
 70
     1
  9
$TEXTSIZE
 40
0.2
  9
$TRACEWID
 40
0.05
  9
$TEXTSTYLE
  7
STANDARD
  9
$CLAYER
  8
ADP2DETAIL
  9
$CELTYPE
  6
BYLAYER
  9
$CECOLOR
 62
   256
  9
$CELTSCALE
 40
1.0
  9
$DELOBJ
 70
     1
  9
$DISPSILH
 70
     0
  9
$DIMSCALE
 40
1.0
  9
$DIMASZ
 40
0.125
  9
$DIMEXO
 40
0.0625
  9
$DIMDLI
 40
0.38
  9
$DIMRND
 40
0.0
  9
$DIMDLE
 40
0.0
  9
$DIMEXE
 40
0.18
  9
$DIMTP
 40
0.0
  9
$DIMTM
 40
0.0
  9
$DIMTXT
 40
0.125
  9
$DIMCEN
 40
0.1875
  9
$DIMTSZ
 40
0.125
  9
$DIMTOL
 70
     0
  9
$DIMLIM
 70
     0
  9
$DIMTIH
 70
     0
  9
$DIMTOH
 70
     0
  9
$DIMSE1
 70
     0
  9
$DIMSE2
 70
     0
  9
$DIMTAD
 70
     0
  9
$DIMZIN
 70
     3
  9
$DIMBLK
  1

  9
$DIMASO
 70
     1
  9
$DIMSHO
 70
     1
  9
$DIMPOST
  1

  9
$DIMAPOST
  1

  9
$DIMALT
 70
     0
  9
$DIMALTD
 70
     1
  9
$DIMALTF
 40
25.4
  9
$DIMLFAC
 40
1.0
  9
$DIMTOFL
 70
     0
  9
$DIMTVP
 40
0.0
  9
$DIMTIX
 70
     0
  9
$DIMSOXD
 70
     0
  9
$DIMSAH
 70
     0
  9
$DIMBLK1
  1

  9
$DIMBLK2
  1

  9
$DIMSTYLE
  2
STANDARD
  9
$DIMCLRD
 70
     0
  9
$DIMCLRE
 70
     0
  9
$DIMCLRT
 70
     0
  9
$DIMTFAC
 40
1.0
  9
$DIMGAP
 40
0.125
  9
$DIMJUST
 70
     0
  9
$DIMSD1
 70
     0
  9
$DIMSD2
 70
     0
  9
$DIMTOLJ
 70
     1
  9
$DIMTZIN
 70
     0
  9
$DIMALTZ
 70
     0
  9
$DIMALTTZ
 70
     0
  9
$DIMFIT
 70
     3
  9
$DIMUPT
 70
     0
  9
$DIMUNIT
 70
     2
  9
$DIMDEC
 70
     4
  9
$DIMTDEC
 70
     4
  9
$DIMALTU
 70
     2
  9
$DIMALTTD
 70
     2
  9
$DIMTXSTY
  7
STANDARD
  9
$DIMAUNIT
 70
     0
  9
$LUNITS
 70
     5
  9
$LUPREC
 70
     4
  9
$SKETCHINC
 40
0.1
  9
$FILLETRAD
 40
0.062
  9
$AUNITS
 70
     0
  9
$AUPREC
 70
     0
  9
$MENU
  1
acad
  9
$ELEVATION
 40
0.0
  9
$PELEVATION
 40
0.0
  9
$THICKNESS
 40
0.0
  9
$LIMCHECK
 70
     0
  9
$BLIPMODE
 70
     0
  9
$CHAMFERA
 40
0.0
  9
$CHAMFERB
 40
0.0
  9
$CHAMFERC
 40
0.0
  9
$CHAMFERD
 40
0.0
  9
$SKPOLY
 70
     0
  9
$TDCREATE
 40
2450386.511373842
  9
$TDUPDATE
 40
2452297.069089803
  9
$TDINDWG
 40
0.0611018519
  9
$TDUSRTIMER
 40
0.0611018519
  9
$USRTIMER
 70
     1
  9
$ANGBASE
 50
0.0
  9
$ANGDIR
 70
     0
  9
$PDMODE
 70
     0
  9
$PDSIZE
 40
0.0
  9
$PLINEWID
 40
0.0
  9
$COORDS
 70
     2
  9
$SPLFRAME
 70
     0
  9
$SPLINETYPE
 70
     6
  9
$SPLINESEGS
 70
     8
  9
$ATTDIA
 70
     0
  9
$ATTREQ
 70
     1
  9
$HANDLING
 70
 22529
  9
$HANDSEED
  5
267
  9
$SURFTAB1
 70
     6
  9
$SURFTAB2
 70
     6
  9
$SURFTYPE
 70
     6
  9
$SURFU
 70
     6
  9
$SURFV
 70
     6
  9
$UCSNAME
  2

  9
$UCSORG
 10
0.0
 20
0.0
 30
0.0
  9
$UCSXDIR
 10
1.0
 20
0.0
 30
0.0
  9
$UCSYDIR
 10
0.0
 20
1.0
 30
0.0
  9
$PUCSNAME
  2

  9
$PUCSORG
 10
0.0
 20
0.0
 30
0.0
  9
$PUCSXDIR
 10
1.0
 20
0.0
 30
0.0
  9
$PUCSYDIR
 10
0.0
 20
1.0
 30
0.0
  9
$USERI1
 70
     0
  9
$USERI2
 70
     0
  9
$USERI3
 70
     0
  9
$USERI4
 70
     0
  9
$USERI5
 70
     0
  9
$USERR1
 40
0.0
  9
$USERR2
 40
0.0
  9
$USERR3
 40
0.0
  9
$USERR4
 40
0.0
  9
$USERR5
 40
0.0
  9
$WORLDVIEW
 70
     1
  9
$SHADEDGE
 70
     3
  9
$SHADEDIF
 70
    70
  9
$TILEMODE
 70
     1
  9
$MAXACTVP
 70
    15
  9
$PINSBASE
 10
4.403525741743744E+99
 20
7.061986388769092E+99
 30
0.0
  9
$PLIMCHECK
 70
     0
  9
$PEXTMIN
 10
1.000000000000000E+20
 20
1.000000000000000E+20
 30
1.000000000000000E+20
  9
$PEXTMAX
 10
-1.000000000000000E+20
 20
-1.000000000000000E+20
 30
-1.000000000000000E+20
  9
$PLIMMIN
 10
0.0
 20
0.0
  9
$PLIMMAX
 10
12.0
 20
9.0
  9
$UNITMODE
 70
     0
  9
$VISRETAIN
 70
     0
  9
$PLINEGEN
 70
     0
  9
$PSLTSCALE
 70
     1
  9
$TREEDEPTH
 70
  3020
  9
$PICKSTYLE
 70
     1
  9
$CMLSTYLE
  2
STANDARD
  9
$CMLJUST
 70
     0
  9
$CMLSCALE
 40
1.0
  9
$PROXYGRAPHICS
 70
     1
  9
$MEASUREMENT
 70
     0
  0
ENDSEC
  0
SECTION
  2
CLASSES
  0
CLASS
  1
ACDBDICTIONARYWDFLT
  2
AcDbDictionaryWithDefault
  3
AutoCAD 2000
 90
        0
280
     0
281
     0
  0
CLASS
  1
ACDBPLACEHOLDER
  2
AcDbPlaceHolder
  3
AutoCAD 2000
 90
        0
280
     0
281
     0
  0
CLASS
  1
LAYOUT
  2
AcDbLayout
  3
AutoCAD 2000
 90
        0
280
     0
281
     0
  0
CLASS
  1
DICTIONARYVAR
  2
AcDbDictionaryVar
  3
AutoCAD 2000
 90
        0
280
     0
281
     0
  0
CLASS
  1
LONG_TRANSACTION
  2
AcDbLongTransaction
  3
AutoCAD 2000
 90
        0
280
     0
281
     0
  0
CLASS
  1
LWPOLYLINE
  2
AcDbPolyline
  3
AutoCAD 2000
 90
        0
280
     0
281
     1
  0
CLASS
  1
HATCH
  2
AcDbHatch
  3
AutoCAD 2000
 90
        0
280
     0
281
     1
  0
CLASS
  1
XRECORD
  2
AcDbXrecord
  3
AutoCAD 2000
 90
        0
280
     0
281
     0
  0
CLASS
  1
LONG_TRANSACTION
  2
AcDbLongTransaction
  3
AutoCAD 2000
 90
        0
280
     0
281
     0
  0
CLASS
  1
LWPOLYLINE
  2
AcDbPolyline
  3
AutoCAD 2000
 90
        0
280
     0
281
     1
  0
CLASS
  1
HATCH
  2
AcDbHatch
  3
AutoCAD 2000
 90
        0
280
     0
281
     1
  0
CLASS
  1
XRECORD
  2
AcDbXrecord
  3
AutoCAD 2000
 90
        0
280
     0
281
     0
  0
CLASS
  1
LONG_TRANSACTION
  2
AcDbLongTransaction
  3
AutoCAD 2000
 90
        0
280
     0
281
     0
  0
CLASS
  1
LWPOLYLINE
  2
AcDbPolyline
  3
AutoCAD 2000
 90
        0
280
     0
281
     1
  0
CLASS
  1
HATCH
  2
AcDbHatch
  3
AutoCAD 2000
 90
        0
280
     0
281
     1
  0
CLASS
  1
XRECORD
  2
AcDbXrecord
  3
AutoCAD 2000
 90
        0
280
     0
281
     0
  0
CLASS
  1
LONG_TRANSACTION
  2
AcDbLongTransaction
  3
AutoCAD 2000
 90
        0
280
     0
281
     0
  0
CLASS
  1
LWPOLYLINE
  2
AcDbPolyline
  3
AutoCAD 2000
 90
        0
280
     0
281
     1
  0
CLASS
  1
HATCH
  2
AcDbHatch
  3
AutoCAD 2000
 90
        0
280
     0
281
     1
  0
CLASS
  1
XRECORD
  2
AcDbXrecord
  3
AutoCAD 2000
 90
        0
280
     0
281
     0
  0
CLASS
  1
LONG_TRANSACTION
  2
AcDbLongTransaction
  3
AutoCAD 2000
 90
        0
280
     0
281
     0
  0
CLASS
  1
LWPOLYLINE
  2
AcDbPolyline
  3
AutoCAD 2000
 90
        0
280
     0
281
     1
  0
CLASS
  1
HATCH
  2
AcDbHatch
  3
AutoCAD 2000
 90
        0
280
     0
281
     1
  0
CLASS
  1
XRECORD
  2
AcDbXrecord
  3
AutoCAD 2000
 90
        0
280
     0
281
     0
  0
CLASS
  1
LONG_TRANSACTION
  2
AcDbLongTransaction
  3
AutoCAD 2000
 90
        0
280
     0
281
     0
  0
CLASS
  1
LWPOLYLINE
  2
AcDbPolyline
  3
AutoCAD 2000
 90
        0
280
     0
281
     1
  0
CLASS
  1
HATCH
  2
AcDbHatch
  3
AutoCAD 2000
 90
        0
280
     0
281
     1
  0
CLASS
  1
XRECORD
  2
AcDbXrecord
  3
AutoCAD 2000
 90
        0
280
     0
281
     0
  0
CLASS
  1
LONG_TRANSACTION
  2
AcDbLongTransaction
  3
AutoCAD 2000
 90
        0
280
     0
281
     0
  0
CLASS
  1
LWPOLYLINE
  2
AcDbPolyline
  3
AutoCAD 2000
 90
        0
280
     0
281
     1
  0
CLASS
  1
HATCH
  2
AcDbHatch
  3
AutoCAD 2000
 90
        0
280
     0
281
     1
  0
CLASS
  1
XRECORD
  2
AcDbXrecord
  3
AutoCAD 2000
 90
        0
280
     0
281
     0
  0
ENDSEC
  0
SECTION
  2
TABLES
  0
TABLE
  2
VPORT
  5
8
330
0
100
AcDbSymbolTable
 70
     2
  0
VPORT
  5
244
330
8
100
AcDbSymbolTableRecord
100
AcDbViewportTableRecord
  2
*ACTIVE
 70
     0
 10
0.0
 20
0.0
 11
1.0
 21
1.0
 12
17.79675301326992
 22
9.215057446638891
 13
0.0
 23
0.0
 14
0.5740882589684922
 24
0.5740882589684922
 15
0.5
 25
0.5
 16
0.0
 26
0.0
 36
1.0
 17
0.0
 27
0.0
 37
0.0
 40
8.234380065871835
 41
1.570528967254408
 42
50.0
 43
0.0
 44
0.0
 50
0.0
 51
0.0
 71
     0
 72
   100
 73
     1
 74
     0
 75
     0
 76
     0
 77
     0
 78
     0
  0
ENDTAB
  0
TABLE
  2
LTYPE
  5
5
330
0
100
AcDbSymbolTable
 70
     2
  0
LTYPE
  5
12
330
5
100
AcDbSymbolTableRecord
100
AcDbLinetypeTableRecord
  2
BYBLOCK
 70
     0
  3

 72
    65
 73
     0
 40
0.0
  0
LTYPE
  5
13
330
5
100
AcDbSymbolTableRecord
100
AcDbLinetypeTableRecord
  2
BYLAYER
 70
     0
  3

 72
    65
 73
     0
 40
0.0
  0
LTYPE
  5
14
330
5
100
AcDbSymbolTableRecord
100
AcDbLinetypeTableRecord
  2
CONTINUOUS
 70
     0
  3
Solid line
 72
    65
 73
     0
 40
0.0
  0
LTYPE
  5
21
330
5
100
AcDbSymbolTableRecord
100
AcDbLinetypeTableRecord
  2
HIDDEN2
 70
     0
  3
_ _ _ _ _ _ _ _ _ _ _ _ _ _ _ _ _ _ _ _ _ _ _ _
 72
    65
 73
     2
 40
0.1875
 49
0.125
 74
     0
 49
-0.0625
 74
     0
  0
ENDTAB
  0
TABLE
  2
LAYER
  5
2
330
0
100
AcDbSymbolTable
 70
     5
  0
LAYER
  5
F
330
2
100
AcDbSymbolTableRecord
100
AcDbLayerTableRecord
  2
0
 70
     0
 62
     7
  6
CONTINUOUS
  0
LAYER
  5
23
330
2
100
AcDbSymbolTableRecord
100
AcDbLayerTableRecord
  2
ADP1DETAIL
 70
     0
 62
     7
  6
CONTINUOUS
  0
LAYER
  5
24
330
2
100
AcDbSymbolTableRecord
100
AcDbLayerTableRecord
  2
DEFPOINTS
 70
     0
 62
     7
  6
CONTINUOUS
  0
LAYER
  5
25
330
2
100
AcDbSymbolTableRecord
100
AcDbLayerTableRecord
  2
ADP2DETAIL
 70
     0
 62
     5
  6
CONTINUOUS
  0
LAYER
  5
26
330
2
100
AcDbSymbolTableRecord
100
AcDbLayerTableRecord
  2
ADPDIM
 70
     0
 62
     3
  6
CONTINUOUS
  0
ENDTAB
  0
TABLE
  2
STYLE
  5
3
330
0
100
AcDbSymbolTable
 70
     2
  0
STYLE
  5
10
330
3
100
AcDbSymbolTableRecord
100
AcDbTextStyleTableRecord
  2
STANDARD
 70
     0
 40
0.0
 41
1.0
 50
0.0
 71
     0
 42
0.2
  3
txt
  4

  0
STYLE
  5
A2
330
3
100
AcDbSymbolTableRecord
100
AcDbTextStyleTableRecord
  2
ARIAL_WIDE
 70
     0
 40
0.0
 41
1.25
 50
0.0
 71
     0
 42
0.2
  3
ARIAL.TTF
  4

1001
ACAD
1000
Arial
1071
       34
  0
ENDTAB
  0
TABLE
  2
VIEW
  5
6
330
0
100
AcDbSymbolTable
 70
     0
  0
ENDTAB
  0
TABLE
  2
UCS
  5
7
330
0
100
AcDbSymbolTable
 70
     0
  0
ENDTAB
  0
TABLE
  2
APPID
  5
9
330
0
100
AcDbSymbolTable
 70
     1
  0
APPID
  5
11
330
9
100
AcDbSymbolTableRecord
100
AcDbRegAppTableRecord
  2
ACAD
 70
     0
  0
ENDTAB
  0
TABLE
  2
DIMSTYLE
  5
A
330
0
100
AcDbSymbolTable
 70
     1
  0
DIMSTYLE
105
96
330
A
100
AcDbSymbolTableRecord
100
AcDbDimStyleTableRecord
  2
STANDARD
 70
     0
  3

  4

  5

  6

  7

 40
1.0
 41
0.18
 42
0.0625
 43
0.38
 44
0.18
 45
0.0
 46
0.0
 47
0.0
 48
0.0
140
0.18
141
0.09
142
0.0
143
25.4
144
1.0
145
0.0
146
1.0
147
0.09
 71
     0
 72
     0
 73
     1
 74
     1
 75
     0
 76
     0
 77
     0
 78
     0
170
     0
171
     2
172
     0
173
     0
174
     0
175
     0
176
     0
177
     0
178
     0
270
     2
271
     4
272
     4
273
     2
274
     2
340
10
275
     0
280
     0
281
     0
282
     0
283
     1
284
     0
285
     0
286
     0
287
     3
288
     0
  0
ENDTAB
  0
TABLE
  2
BLOCK_RECORD
  5
1
330
0
100
AcDbSymbolTable
 70
     5
  0
BLOCK_RECORD
  5
18
102
{ACAD_XDICTIONARY
360
F7
102
}
330
1
100
AcDbSymbolTableRecord
100
AcDbBlockTableRecord
  2
*MODEL_SPACE
  0
BLOCK_RECORD
  5
15
102
{ACAD_XDICTIONARY
360
F5
102
}
330
1
100
AcDbSymbolTableRecord
100
AcDbBlockTableRecord
  2
*PAPER_SPACE
  0
BLOCK_RECORD
  5
1C
330
1
100
AcDbSymbolTableRecord
100
AcDbBlockTableRecord
  2
*D0
  0
BLOCK_RECORD
  5
1D
330
1
100
AcDbSymbolTableRecord
100
AcDbBlockTableRecord
  2
*D1
  0
BLOCK_RECORD
  5
1E
330
1
100
AcDbSymbolTableRecord
100
AcDbBlockTableRecord
  2
*D2
  0
BLOCK_RECORD
  5
1F
330
1
100
AcDbSymbolTableRecord
100
AcDbBlockTableRecord
  2
*D3
  0
BLOCK_RECORD
  5
20
330
1
100
AcDbSymbolTableRecord
100
AcDbBlockTableRecord
  2
*D4
  0
ENDTAB
  0
ENDSEC
  0
SECTION
  2
BLOCKS
  0
BLOCK
  5
29
330
18
100
AcDbEntity
  8
0
100
AcDbBlockBegin
  2
*MODEL_SPACE
 70
     0
 10
0.0
 20
0.0
 30
0.0
  3
*MODEL_SPACE
  1

  0
ENDBLK
  5
2A
330
18
100
AcDbEntity
  8
0
100
AcDbBlockEnd
  0
BLOCK
  5
27
330
15
100
AcDbEntity
 67
     1
  8
0
100
AcDbBlockBegin
  2
*PAPER_SPACE
 70
     0
 10
0.0
 20
0.0
 30
0.0
  3
*PAPER_SPACE
  1

  0
ENDBLK
  5
28
330
15
100
AcDbEntity
 67
     1
  8
0
100
AcDbBlockEnd
  0
BLOCK
  5
2B
330
1C
100
AcDbEntity
  8
0
100
AcDbBlockBegin
  2
*D0
 70
     1
 10
0.0
 20
0.0
 30
0.0
  3
*D0
  1

  0
LINE
  5
2C
330
1C
100
AcDbEntity
  8
0
  6
BYBLOCK
 62
     0
100
AcDbLine
 10
19.04624517584115
 20
8.51503535647263
 30
0.0
 11
18.85686478740107
 21
8.351832818274582
 31
0.0
  0
LINE
  5
2D
330
1C
100
AcDbEntity
  8
0
  6
BYBLOCK
 62
     0
100
AcDbLine
 10
19.03315625072014
 20
8.338743893153568
 30
0.0
 11
19.05933410096217
 21
8.691326819791692
 31
0.0
  0
LINE
  5
2E
330
1C
100
AcDbEntity
  8
0
  6
BYBLOCK
 62
     0
100
AcDbLine
 10
20.05056519344627
 20
9.542111357058312
 30
0.0
 11
20.42556519344628
 21
9.542111357058312
 31
0.0
  0
LINE
  5
2F
330
1C
100
AcDbEntity
  8
0
  6
BYBLOCK
 62
     0
100
AcDbLine
 10
20.23806519344627
 20
9.354611357058312
 30
0.0
 11
20.23806519344627
 21
9.729611357058312
 31
0.0
  0
TEXT
  5
30
330
1C
100
AcDbEntity
  8
0
  6
BYBLOCK
 62
     0
100
AcDbText
 10
18.29796085855701
 20
7.78767968353741
 30
0.0
 40
0.125
  1
%%c3 1/8
 50
40.75381196201131
 72
     1
 11
18.50966740859427
 21
8.052628164911494
 31
0.0
100
AcDbText
 73
     2
  0
POINT
  5
31
330
1C
100
AcDbEntity
  8
DEFPOINTS
  6
BYBLOCK
 62
     0
100
AcDbPoint
 10
19.04624517584115
 20
8.51503535647263
 30
0.0
  0
POINT
  5
32
330
1C
100
AcDbEntity
  8
DEFPOINTS
  6
BYBLOCK
 62
     0
100
AcDbPoint
 10
21.42988521105139
 20
10.56918735764399
 30
0.0
  0
ENDBLK
  5
33
330
1C
100
AcDbEntity
  8
0
100
AcDbBlockEnd
  0
BLOCK
  5
34
330
1D
100
AcDbEntity
  8
0
100
AcDbBlockBegin
  2
*D1
 70
     1
 10
0.0
 20
0.0
 30
0.0
  3
*D1
  1

  0
LINE
  5
35
330
1D
100
AcDbEntity
  8
0
  6
BYBLOCK
 62
     0
100
AcDbLine
 10
20.39056519344627
 20
9.510861357058308
 30
0.0
 11
22.37588062826807
 21
9.510861357058308
 31
0.0
  0
LINE
  5
36
330
1D
100
AcDbEntity
  8
0
  6
BYBLOCK
 62
     0
100
AcDbLine
 10
21.27955801324927
 20
11.06055436445034
 30
0.0
 11
22.37588062826807
 21
11.06055436445034
 31
0.0
  0
LINE
  5
37
330
1D
100
AcDbEntity
  8
0
  6
BYBLOCK
 62
     0
100
AcDbLine
 10
22.19588062826807
 20
9.510861357058308
 30
0.0
 11
22.19588062826807
 21
9.848207860754326
 31
0.0
  0
LINE
  5
38
330
1D
100
AcDbEntity
  8
0
  6
BYBLOCK
 62
     0
100
AcDbLine
 10
22.19588062826807
 20
11.06055436445034
 30
0.0
 11
22.19588062826807
 21
10.72320786075432
 31
0.0
  0
LINE
  5
39
330
1D
100
AcDbEntity
  8
0
  6
BYBLOCK
 62
     0
100
AcDbLine
 10
22.32088062826807
 20
9.385861357058308
 30
0.0
 11
22.07088062826807
 21
9.635861357058308
 31
0.0
  0
LINE
  5
3A
330
1D
100
AcDbEntity
  8
0
  6
BYBLOCK
 62
     0
100
AcDbLine
 10
22.32088062826807
 20
10.93555436445034
 30
0.0
 11
22.07088062826807
 21
11.18555436445034
 31
0.0
  0
TEXT
  5
3B
330
1D
100
AcDbEntity
  8
0
  6
BYBLOCK
 62
     0
100
AcDbText
 10
22.25838062826807
 20
9.973207860754326
 30
0.0
 40
0.125
  1
1 9/16
 50
90.0
 72
     1
 11
22.19588062826807
 21
10.28570786075432
 31
0.0
100
AcDbText
 73
     2
  0
POINT
  5
3C
330
1D
100
AcDbEntity
  8
DEFPOINTS
  6
BYBLOCK
 62
     0
100
AcDbPoint
 10
20.32806519344627
 20
9.510861357058308
 30
0.0
  0
POINT
  5
3D
330
1D
100
AcDbEntity
  8
DEFPOINTS
  6
BYBLOCK
 62
     0
100
AcDbPoint
 10
21.21705801324927
 20
11.06055436445034
 30
0.0
  0
POINT
  5
3E
330
1D
100
AcDbEntity
  8
DEFPOINTS
  6
BYBLOCK
 62
     0
100
AcDbPoint
 10
22.19588062826807
 20
11.06055436445034
 30
0.0
  0
ENDBLK
  5
3F
330
1D
100
AcDbEntity
  8
0
100
AcDbBlockEnd
  0
BLOCK
  5
40
330
1E
100
AcDbEntity
  8
0
100
AcDbBlockBegin
  2
*D2
 70
     1
 10
0.0
 20
0.0
 30
0.0
  3
*D2
  1

  0
LINE
  5
41
330
1E
100
AcDbEntity
  8
0
  6
BYBLOCK
 62
     0
100
AcDbLine
 10
19.21705801324927
 20
11.12305436445034
 30
0.0
 11
19.21705801324927
 21
11.84434267234027
 31
0.0
  0
LINE
  5
42
330
1E
100
AcDbEntity
  8
0
  6
BYBLOCK
 62
     0
100
AcDbLine
 10
21.21312158966601
 20
11.12305436445034
 30
0.0
 11
21.21312158966601
 21
11.84434267234027
 31
0.0
  0
LINE
  5
43
330
1E
100
AcDbEntity
  8
0
  6
BYBLOCK
 62
     0
100
AcDbLine
 10
19.21705801324927
 20
11.66434267234027
 30
0.0
 11
20.04842313479097
 21
11.66434267234027
 31
0.0
  0
LINE
  5
44
330
1E
100
AcDbEntity
  8
0
  6
BYBLOCK
 62
     0
100
AcDbLine
 10
21.21312158966601
 20
11.66434267234027
 30
0.0
 11
20.38175646812431
 21
11.66434267234027
 31
0.0
  0
LINE
  5
45
330
1E
100
AcDbEntity
  8
0
  6
BYBLOCK
 62
     0
100
AcDbLine
 10
19.09205801324927
 20
11.53934267234027
 30
0.0
 11
19.34205801324927
 21
11.78934267234027
 31
0.0
  0
LINE
  5
46
330
1E
100
AcDbEntity
  8
0
  6
BYBLOCK
 62
     0
100
AcDbLine
 10
21.08812158966601
 20
11.53934267234027
 30
0.0
 11
21.33812158966601
 21
11.78934267234027
 31
0.0
  0
TEXT
  5
47
330
1E
100
AcDbEntity
  8
0
  6
BYBLOCK
 62
     0
100
AcDbText
 10
20.17342313479097
 20
11.60184267234027
 30
0.0
 40
0.125
  1
2
 72
     1
 11
20.21508980145764
 21
11.66434267234027
 31
0.0
100
AcDbText
 73
     2
  0
POINT
  5
48
330
1E
100
AcDbEntity
  8
DEFPOINTS
  6
BYBLOCK
 62
     0
100
AcDbPoint
 10
19.21705801324927
 20
11.06055436445035
 30
0.0
  0
POINT
  5
49
330
1E
100
AcDbEntity
  8
DEFPOINTS
  6
BYBLOCK
 62
     0
100
AcDbPoint
 10
21.21312158966601
 20
11.06055436445035
 30
0.0
  0
POINT
  5
4A
330
1E
100
AcDbEntity
  8
DEFPOINTS
  6
BYBLOCK
 62
     0
100
AcDbPoint
 10
21.21312158966601
 20
11.66434267234027
 30
0.0
  0
ENDBLK
  5
4B
330
1E
100
AcDbEntity
  8
0
100
AcDbBlockEnd
  0
BLOCK
  5
4C
330
1F
100
AcDbEntity
  8
0
100
AcDbBlockBegin
  2
*D3
 70
     1
 10
0.0
 20
0.0
 30
0.0
  3
*D3
  1

  0
LINE
  5
4D
330
1F
100
AcDbEntity
  8
0
  6
BYBLOCK
 62
     0
100
AcDbLine
 10
19.50449237636268
 20
11.24733088853716
 30
0.0
 11
19.50449237636268
 21
11.55083088853716
 31
0.0
  0
LINE
  5
4E
330
1F
100
AcDbEntity
  8
0
  6
BYBLOCK
 62
     0
100
AcDbLine
 10
20.87949237636268
 20
11.24733088853716
 30
0.0
 11
20.87949237636268
 21
11.55083088853716
 31
0.0
  0
LINE
  5
4F
330
1F
100
AcDbEntity
  8
0
  6
BYBLOCK
 62
     0
100
AcDbLine
 10
19.50449237636268
 20
11.37083088853716
 30
0.0
 11
19.79615904302934
 21
11.37083088853716
 31
0.0
  0
LINE
  5
50
330
1F
100
AcDbEntity
  8
0
  6
BYBLOCK
 62
     0
100
AcDbLine
 10
20.87949237636268
 20
11.37083088853716
 30
0.0
 11
20.58782570969601
 21
11.37083088853716
 31
0.0
  0
LINE
  5
51
330
1F
100
AcDbEntity
  8
0
  6
BYBLOCK
 62
     0
100
AcDbLine
 10
19.37949237636268
 20
11.24583088853716
 30
0.0
 11
19.62949237636268
 21
11.49583088853716
 31
0.0
  0
LINE
  5
52
330
1F
100
AcDbEntity
  8
0
  6
BYBLOCK
 62
     0
100
AcDbLine
 10
20.75449237636268
 20
11.24583088853716
 30
0.0
 11
21.00449237636268
 21
11.49583088853716
 31
0.0
  0
TEXT
  5
53
330
1F
100
AcDbEntity
  8
0
  6
BYBLOCK
 62
     0
100
AcDbText
 10
19.92115904302934
 20
11.30833088853716
 30
0.0
 40
0.125
  1
1 3/8
 72
     1
 11
20.19199237636267
 21
11.37083088853716
 31
0.0
100
AcDbText
 73
     2
  0
POINT
  5
54
330
1F
100
AcDbEntity
  8
DEFPOINTS
  6
BYBLOCK
 62
     0
100
AcDbPoint
 10
19.50449237636268
 20
11.18483088853716
 30
0.0
  0
POINT
  5
55
330
1F
100
AcDbEntity
  8
DEFPOINTS
  6
BYBLOCK
 62
     0
100
AcDbPoint
 10
20.87949237636268
 20
11.18483088853716
 30
0.0
  0
POINT
  5
56
330
1F
100
AcDbEntity
  8
DEFPOINTS
  6
BYBLOCK
 62
     0
100
AcDbPoint
 10
20.87949237636268
 20
11.37083088853716
 30
0.0
  0
ENDBLK
  5
57
330
1F
100
AcDbEntity
  8
0
100
AcDbBlockEnd
  0
BLOCK
  5
58
330
20
100
AcDbEntity
  8
0
100
AcDbBlockBegin
  2
*D4
 70
     1
 10
0.0
 20
0.0
 30
0.0
  3
*D4
  1

  0
LINE
  5
59
330
20
100
AcDbEntity
  8
0
  6
BYBLOCK
 62
     0
100
AcDbLine
 10
13.82299037014531
 20
11.08533611972106
 30
0.0
 11
13.82299037014531
 21
11.68710622102035
 31
0.0
  0
LINE
  5
5A
330
20
100
AcDbEntity
  8
0
  6
BYBLOCK
 62
     0
100
AcDbLine
 10
16.32299037014531
 20
11.14783611972106
 30
0.0
 11
16.32299037014531
 21
11.68710622102035
 31
0.0
  0
LINE
  5
5B
330
20
100
AcDbEntity
  8
0
  6
BYBLOCK
 62
     0
100
AcDbLine
 10
13.82299037014531
 20
11.50710622102035
 30
0.0
 11
14.67715703681198
 21
11.50710622102035
 31
0.0
  0
LINE
  5
5C
330
20
100
AcDbEntity
  8
0
  6
BYBLOCK
 62
     0
100
AcDbLine
 10
16.32299037014531
 20
11.50710622102035
 30
0.0
 11
15.46882370347865
 21
11.50710622102035
 31
0.0
  0
LINE
  5
5D
330
20
100
AcDbEntity
  8
0
  6
BYBLOCK
 62
     0
100
AcDbLine
 10
13.69799037014531
 20
11.38210622102035
 30
0.0
 11
13.94799037014531
 21
11.63210622102035
 31
0.0
  0
LINE
  5
5E
330
20
100
AcDbEntity
  8
0
  6
BYBLOCK
 62
     0
100
AcDbLine
 10
16.19799037014531
 20
11.38210622102035
 30
0.0
 11
16.44799037014531
 21
11.63210622102035
 31
0.0
  0
TEXT
  5
5F
330
20
100
AcDbEntity
  8
0
  6
BYBLOCK
 62
     0
100
AcDbText
 10
14.80215703681198
 20
11.44460622102035
 30
0.0
 40
0.125
  1
2 1/2
 72
     1
 11
15.07299037014531
 21
11.50710622102035
 31
0.0
100
AcDbText
 73
     2
  0
POINT
  5
60
330
20
100
AcDbEntity
  8
DEFPOINTS
  6
BYBLOCK
 62
     0
100
AcDbPoint
 10
13.82299037014531
 20
11.02283611972106
 30
0.0
  0
POINT
  5
61
330
20
100
AcDbEntity
  8
DEFPOINTS
  6
BYBLOCK
 62
     0
100
AcDbPoint
 10
16.32299037014531
 20
11.08533611972106
 30
0.0
  0
POINT
  5
62
330
20
100
AcDbEntity
  8
DEFPOINTS
  6
BYBLOCK
 62
     0
100
AcDbPoint
 10
16.32299037014531
 20
11.50710622102035
 30
0.0
  0
ENDBLK
  5
63
330
20
100
AcDbEntity
  8
0
100
AcDbBlockEnd
  0
ENDSEC
  0
SECTION
  2
ENTITIES
  0
ARC
  5
64
330
18
100
AcDbEntity
  8
ADP1DETAIL
100
AcDbCircle
 10
14.35942665679605
 20
10.24456444999223
 30
0.0
 40
0.29876285288589
100
AcDbArc
 50
188.6754878693441
 51
261.2203508494926
  0
ARC
  5
65
330
18
100
AcDbEntity
  8
ADP1DETAIL
100
AcDbCircle
 10
15.4997246960887
 20
10.36633611972106
 30
0.0
 40
0.5
100
AcDbArc
 50
270.0
 51
0.0
  0
LINE
  5
66
330
18
100
AcDbEntity
  8
ADP1DETAIL
100
AcDbLine
 10
13.82299037014531
 20
7.897836119721066
 30
0.0
 11
13.82299037014531
 21
11.02283611972106
 31
0.0
  0
LINE
  5
67
330
18
100
AcDbEntity
  8
ADP1DETAIL
100
AcDbLine
 10
14.0640820965954
 20
10.90603495606218
 30
0.0
 11
14.0640820965954
 21
8.019881538241561
 31
0.0
  0
LINE
  5
68
330
18
100
AcDbEntity
  8
ADP1DETAIL
100
AcDbLine
 10
16.63128770407148
 20
10.85584811531263
 30
0.0
 11
16.7187246960887
 21
10.02283611972106
 31
0.0
  0
LINE
  5
69
330
18
100
AcDbEntity
  8
ADP1DETAIL
100
AcDbLine
 10
15.71872469608869
 20
9.022836119721066
 30
0.0
 11
14.31611194117028
 21
8.9670278308629
 31
0.0
  0
LINE
  5
6A
330
18
100
AcDbEntity
  8
ADP1DETAIL
100
AcDbLine
 10
14.31382504298167
 20
9.949302303617118
 30
0.0
 11
15.4997246960887
 21
9.866336119721067
 31
0.0
  0
ARC
  5
6B
330
18
100
AcDbEntity
  8
ADP1DETAIL
100
AcDbCircle
 10
14.32299037014531
 20
8.717122474348007
 30
0.0
 40
0.25
100
AcDbArc
 50
91.5766187604145
 51
180.0
  0
LINE
  5
6C
330
18
100
AcDbEntity
  8
ADP1DETAIL
100
AcDbLine
 10
13.94799037014531
 20
7.897836119721066
 30
0.0
 11
13.82299037014531
 21
7.897836119721066
 31
0.0
  0
ARC
  5
6D
330
18
100
AcDbEntity
  8
ADP1DETAIL
100
AcDbCircle
 10
13.95377358206381
 20
8.008874211073347
 30
0.0
 40
0.111188593260513
100
AcDbArc
 50
267.0185501044695
 51
7.213651404718345
  0
ARC
  5
6E
330
18
100
AcDbEntity
  8
ADP1DETAIL
100
AcDbCircle
 10
15.71872469608869
 20
10.02283611972106
 30
0.0
 40
1.0
100
AcDbArc
 50
270.0
 51
0.0
  0
DIMENSION
  5
6F
330
18
100
AcDbEntity
  8
ADPDIM
100
AcDbDimension
  2
*D4
 10
16.32299037014531
 20
11.50710622102035
 30
0.0
 11
15.07299037014531
 21
11.50710622102035
 31
0.0
100
AcDbAlignedDimension
 13
13.82299037014531
 23
11.02283611972106
 33
0.0
 14
16.32299037014531
 24
11.08533611972106
 34
0.0
100
AcDbRotatedDimension
  0
LINE
  5
70
330
18
100
AcDbEntity
  8
ADP1DETAIL
100
AcDbLine
 10
13.82299037014531
 20
11.02283611972106
 30
0.0
 11
13.94799037014531
 21
11.02283611972106
 31
0.0
  0
ARC
  5
71
330
18
100
AcDbEntity
  8
ADP1DETAIL
100
AcDbCircle
 10
13.95377358206381
 20
10.91179802836878
 30
0.0
 40
0.1111885932605123
100
AcDbArc
 50
352.7863485952806
 51
92.98144989553074
  0
LINE
  5
72
330
18
100
AcDbEntity
  8
ADP2DETAIL
  6
HIDDEN2
100
AcDbLine
 10
16.42147899661921
 20
11.01267662021673
 30
0.0
 11
16.53335017584016
 21
10.89673665559319
 31
0.0
  0
LINE
  5
73
330
18
100
AcDbEntity
  8
ADP1DETAIL
100
AcDbLine
 10
16.79174037014531
 20
10.89733611972106
 30
0.0
 11
15.85424037014531
 21
10.89733611972106
 31
0.0
  0
LINE
  5
74
330
18
100
AcDbEntity
  8
ADP1DETAIL
100
AcDbLine
 10
15.85424037014531
 20
11.08533611972106
 30
0.0
 11
16.79174037014531
 21
11.08533611972106
 31
0.0
  0
LINE
  5
75
330
18
100
AcDbEntity
  8
ADP1DETAIL
100
AcDbLine
 10
15.85424037014531
 20
10.89733611972106
 30
0.0
 11
15.85424037014531
 21
11.08533611972106
 31
0.0
  0
LINE
  5
76
330
18
100
AcDbEntity
  8
ADP2DETAIL
  6
HIDDEN2
100
AcDbLine
 10
16.42147899661921
 20
11.079176128957
 30
0.0
 11
16.42147899661921
 21
11.01267662021673
 31
0.0
  0
LINE
  5
77
330
18
100
AcDbEntity
  8
ADP2DETAIL
  6
HIDDEN2
100
AcDbLine
 10
16.20708699629404
 20
11.01267662021673
 30
0.0
 11
16.11944412277012
 21
10.89673665559319
 31
0.0
  0
LINE
  5
78
330
18
100
AcDbEntity
  8
ADP2DETAIL
  6
HIDDEN2
100
AcDbLine
 10
16.20708699629404
 20
11.079176128957
 30
0.0
 11
16.20708699629404
 21
11.01267662021673
 31
0.0
  0
LINE
  5
79
330
18
100
AcDbEntity
  8
ADP1DETAIL
100
AcDbLine
 10
15.9997246960887
 20
10.36633611972106
 30
0.0
 11
16.00946402132671
 21
10.88154854658372
 31
0.0
  0
LINE
  5
7A
330
18
100
AcDbEntity
  8
ADP2DETAIL
  6
HIDDEN2
100
AcDbLine
 10
16.1996941678842
 20
11.01267662021673
 30
0.0
 11
16.42147899661921
 21
11.01267662021673
 31
0.0
  0
LINE
  5
7B
330
18
100
AcDbEntity
  8
ADP1DETAIL
100
AcDbLine
 10
16.79174037014531
 20
11.08533611972106
 30
0.0
 11
16.79174037014531
 21
10.89733611972106
 31
0.0
  0
DIMENSION
  5
7C
330
18
100
AcDbEntity
  8
ADPDIM
100
AcDbDimension
  2
*D1
 10
22.19588062826807
 20
11.06055436445034
 30
0.0
 11
22.19588062826807
 21
10.28570786075432
 31
0.0
100
AcDbAlignedDimension
 13
20.32806519344627
 23
9.510861357058308
 33
0.0
 14
21.21705801324927
 24
11.06055436445034
 34
0.0
 50
90.0
100
AcDbRotatedDimension
  0
DIMENSION
  5
7D
330
18
100
AcDbEntity
  8
ADPDIM
100
AcDbDimension
  2
*D0
 10
21.42988521105139
 20
10.56918735764399
 30
0.0
 11
18.50966740859427
 21
8.052628164911494
 31
0.0
 70
     3
100
AcDbDiametricDimension
 15
19.04624517584115
 25
8.51503535647263
 35
0.0
 40
0.0
  0
ARC
  5
7E
330
18
100
AcDbEntity
  8
ADP1DETAIL
100
AcDbCircle
 10
20.23806519344627
 20
9.510861357058312
 30
0.0
 40
1.553095096189132
100
AcDbArc
 50
123.5370595827848
 51
55.92199465155323
  0
LINE
  5
7F
330
18
100
AcDbEntity
  8
ADP1DETAIL
100
AcDbLine
 10
19.89855920678593
 20
9.519851075648418
 30
0.0
 11
20.0088691415222
 21
10.73335936659994
 31
0.0
  0
LINE
  5
80
330
18
100
AcDbEntity
  8
ADP1DETAIL
100
AcDbLine
 10
20.52949154590991
 20
10.73335936659994
 30
0.0
 11
20.63980148064618
 21
9.519851075648421
 31
0.0
  0
ARC
  5
81
330
18
100
AcDbEntity
  8
ADP1DETAIL
100
AcDbCircle
 10
20.26918034371606
 20
9.462711134620962
 30
0.0
 40
0.375
100
AcDbArc
 50
171.2355192817106
 51
8.764480718289892
  0
ARC
  5
82
330
18
100
AcDbEntity
  8
ADP1DETAIL
100
AcDbCircle
 10
19.88423458096196
 20
10.74291061332253
 30
0.0
 40
0.125
100
AcDbArc
 50
355.6177596408554
 51
90.0
  0
DIMENSION
  5
83
330
18
100
AcDbEntity
  8
ADPDIM
100
AcDbDimension
  2
*D3
 10
20.87949237636268
 20
11.37083088853716
 30
0.0
 11
20.19199237636267
 21
11.37083088853716
 31
0.0
100
AcDbAlignedDimension
 13
19.50449237636268
 23
11.18483088853716
 33
0.0
 14
20.87949237636268
 24
11.18483088853716
 34
0.0
100
AcDbRotatedDimension
  0
DIMENSION
  5
84
330
18
100
AcDbEntity
  8
ADPDIM
100
AcDbDimension
  2
*D2
 10
21.21312158966601
 20
11.66434267234027
 30
0.0
 11
20.21508980145764
 21
11.66434267234027
 31
0.0
100
AcDbAlignedDimension
 13
19.21705801324927
 23
11.06055436445035
 33
0.0
 14
21.21312158966601
 24
11.06055436445035
 34
0.0
100
AcDbRotatedDimension
  0
LINE
  5
85
330
18
100
AcDbEntity
  8
ADP1DETAIL
100
AcDbLine
 10
21.15505801324927
 20
10.87255436445035
 30
0.0
 11
19.27905801324927
 21
10.87255436445034
 31
0.0
  0
LINE
  5
86
330
18
100
AcDbEntity
  8
ADP1DETAIL
100
AcDbLine
 10
19.21705801324927
 20
11.06055436445034
 30
0.0
 11
21.21705801324927
 21
11.06055436445034
 31
0.0
  0
LINE
  5
87
330
18
100
AcDbEntity
  8
ADP2DETAIL
  6
HIDDEN2
100
AcDbLine
 10
19.39359996199517
 20
11.00483088853716
 30
0.0
 11
19.61538479073018
 21
11.00483088853716
 31
0.0
  0
LINE
  5
88
330
18
100
AcDbEntity
  8
ADP2DETAIL
  6
HIDDEN2
100
AcDbLine
 10
19.40099279040501
 20
11.00483088853716
 30
0.0
 11
19.30488602107704
 21
10.87922070711203
 31
0.0
  0
LINE
  5
89
330
18
100
AcDbEntity
  8
ADP2DETAIL
  6
HIDDEN2
100
AcDbLine
 10
19.40099279040501
 20
11.07133039727742
 30
0.0
 11
19.40099279040501
 21
11.00483088853716
 31
0.0
  0
LINE
  5
8A
330
18
100
AcDbEntity
  8
ADP1DETAIL
100
AcDbLine
 10
19.21705801324927
 20
10.93455436445035
 30
0.0
 11
19.21705801324927
 21
11.06055436445034
 31
0.0
  0
ARC
  5
8B
330
18
100
AcDbEntity
  8
ADP1DETAIL
100
AcDbCircle
 10
19.27905801324927
 20
10.93455436445035
 30
0.0
 40
0.062
100
AcDbArc
 50
180.0
 51
270.0
  0
LINE
  5
8C
330
18
100
AcDbEntity
  8
ADP2DETAIL
  6
HIDDEN2
100
AcDbLine
 10
19.61538479073018
 20
11.00483088853716
 30
0.0
 11
19.74106287369754
 21
10.87183187105662
 31
0.0
  0
LINE
  5
8D
330
18
100
AcDbEntity
  8
ADP2DETAIL
  6
HIDDEN2
100
AcDbLine
 10
19.61538479073018
 20
11.06763597924972
 30
0.0
 11
19.61538479073018
 21
11.00483088853716
 31
0.0
  0
ARC
  5
8E
330
18
100
AcDbEntity
  8
ADP1DETAIL
100
AcDbCircle
 10
21.15505801324927
 20
10.93455436445035
 30
0.0
 40
0.062
100
AcDbArc
 50
270.0
 51
0.0
  0
ARC
  5
8F
330
18
100
AcDbEntity
  8
ADP1DETAIL
100
AcDbCircle
 10
20.65412610647015
 20
10.74291061332253
 30
0.0
 40
0.125
100
AcDbArc
 50
90.0
 51
184.3822403591446
  0
LINE
  5
90
330
18
100
AcDbEntity
  8
ADP2DETAIL
  6
HIDDEN2
100
AcDbLine
 10
20.78345163236498
 20
11.00483088853716
 30
0.0
 11
20.687344863037
 21
10.87922070711203
 31
0.0
  0
LINE
  5
91
330
18
100
AcDbEntity
  8
ADP2DETAIL
  6
HIDDEN2
100
AcDbLine
 10
20.77605880395513
 20
11.00483088853716
 30
0.0
 11
20.99784363269015
 21
11.00483088853716
 31
0.0
  0
LINE
  5
92
330
18
100
AcDbEntity
  8
ADP2DETAIL
  6
HIDDEN2
100
AcDbLine
 10
20.78345163236498
 20
11.07133039727742
 30
0.0
 11
20.78345163236498
 21
11.00483088853716
 31
0.0
  0
LINE
  5
93
330
18
100
AcDbEntity
  8
ADP2DETAIL
  6
HIDDEN2
100
AcDbLine
 10
20.99784363269015
 20
11.06763597924972
 30
0.0
 11
20.99784363269015
 21
11.00483088853716
 31
0.0
  0
LINE
  5
94
330
18
100
AcDbEntity
  8
ADP2DETAIL
  6
HIDDEN2
100
AcDbLine
 10
20.99784363269015
 20
11.00483088853716
 30
0.0
 11
21.1235217156575
 21
10.87183187105662
 31
0.0
  0
LINE
  5
95
330
18
100
AcDbEntity
  8
ADP1DETAIL
100
AcDbLine
 10
21.21705801324927
 20
11.06055436445034
 30
0.0
 11
21.21705801324927
 21
10.93455436445035
 31
0.0
  0
TEXT
  5
A3
330
18
100
AcDbEntity
  8
ADPDIM
100
AcDbText
 10
11.36201571123075
 20
6.623191028586768
 30
0.0
 40
0.125
  1
J U L I U S  B L U M  &  C O . ,  I N C .      ( 8 0 0 )  5 2 6 - 6 2 9 3        W W W . J U L I U S B L U M . C O M        P A R T  N o .  3 7 0
 41
1.25
  7
ARIAL_WIDE
 72
     1
 11
17.7967232487478
 21
6.748191028586768
 31
0.0
100
AcDbText
 73
     3
  0
ENDSEC
  0
SECTION
  2
OBJECTS
  0
DICTIONARY
  5
C
330
0
100
AcDbDictionary
  3
ACAD_GROUP
350
D
  3
ACAD_LAYOUT
350
9C
  3
ACAD_MLINESTYLE
350
E
  3
ACAD_PLOTSETTINGS
350
9D
  3
ACAD_PLOTSTYLENAME
350
9A
  3
ACDBHEADERROUNDTRIPXREC
350
245
  3
ACDBVARIABLEDICTIONARY
350
FD
  0
DICTIONARY
  5
F7
330
18
100
AcDbDictionary
280
     1
  3
ACAD_LAYOUTSELFREF
360
266
  0
DICTIONARY
  5
F5
330
15
100
AcDbDictionary
280
     1
  3
ACAD_LAYOUTSELFREF
360
265
  0
DICTIONARY
  5
D
102
{ACAD_REACTORS
330
C
102
}
330
C
100
AcDbDictionary
  0
DICTIONARY
  5
9C
102
{ACAD_REACTORS
330
C
102
}
330
C
100
AcDbDictionary
  0
DICTIONARY
  5
E
102
{ACAD_REACTORS
330
C
102
}
330
C
100
AcDbDictionary
  3
STANDARD
350
1B
  0
DICTIONARY
  5
9D
102
{ACAD_REACTORS
330
C
102
}
330
C
100
AcDbDictionary
  0
ACDBDICTIONARYWDFLT
  5
9A
102
{ACAD_REACTORS
330
C
102
}
330
C
100
AcDbDictionary
281
     1
  3
Normal
350
9B
100
AcDbDictionaryWithDefault
340
9B
  0
DICTIONARY
  5
245
102
{ACAD_REACTORS
330
C
102
}
330
C
100
AcDbDictionary
  3
CEPSNTYPE
350
24F
  3
FINGERPRINTGUID
350
250
  3
HYPERLINKBASE
350
248
  3
INSUNITS
350
24E
  3
LAYOUTDICT
350
24A
  3
LWETCUNION
350
24D
  3
PLOTSETDICT
350
24B
  3
PLOTSTYLNAMDICT
350
24C
  3
PSVPSCALE
350
252
  3
PUCSBASE
350
255
  3
PUCSORGBACK
350
25B
  3
PUCSORGBOTTOM
350
257
  3
PUCSORGFRONT
350
25A
  3
PUCSORGLEFT
350
258
  3
PUCSORGRIGHT
350
259
  3
PUCSORGTOP
350
256
  3
PUCSORTHOREF
350
253
  3
PUCSORTHOVIEW
350
254
  3
STYLESHEET
350
249
  3
TSTACKALIGN
350
246
  3
TSTACKSIZE
350
247
  3
UCSBASE
350
25E
  3
UCSORGBACK
350
264
  3
UCSORGBOTTOM
350
260
  3
UCSORGFRONT
350
263
  3
UCSORGLEFT
350
261
  3
UCSORGRIGHT
350
262
  3
UCSORGTOP
350
25F
  3
UCSORTHOREF
350
25C
  3
UCSORTHOVIEW
350
25D
  3
VERSIONGUID
350
251
  0
DICTIONARY
  5
FD
102
{ACAD_REACTORS
330
C
102
}
330
C
100
AcDbDictionary
  3
DIMASSOC
350
FE
  0
XRECORD
  5
266
102
{ACAD_REACTORS
330
F7
102
}
330
F7
100
AcDbXrecord
340
18
  0
XRECORD
  5
265
102
{ACAD_REACTORS
330
F5
102
}
330
F5
100
AcDbXrecord
340
15
  0
MLINESTYLE
  5
1B
102
{ACAD_REACTORS
330
E
102
}
330
E
100
AcDbMlineStyle
  2
STANDARD
 70
     0
  3

 62
     0
 51
90.0
 52
90.0
 71
     2
 49
0.5
 62
   256
  6
BYLAYER
 49
-0.5
 62
   256
  6
BYLAYER
  0
ACDBPLACEHOLDER
  5
9B
102
{ACAD_REACTORS
330
9A
102
}
330
9A
100
AcDbPlaceHolder
280
     0
  0
XRECORD
  5
24F
102
{ACAD_REACTORS
330
245
102
}
330
245
100
AcDbXrecord
 90
        0
  0
XRECORD
  5
250
102
{ACAD_REACTORS
330
245
102
}
330
245
100
AcDbXrecord
  1
{09731918-8D25-4FFF-A107-FC2B7153807A}
  0
XRECORD
  5
248
102
{ACAD_REACTORS
330
245
102
}
330
245
100
AcDbXrecord
  1

  0
XRECORD
  5
24E
102
{ACAD_REACTORS
330
245
102
}
330
245
100
AcDbXrecord
 90
        0
  0
XRECORD
  5
24A
102
{ACAD_REACTORS
330
245
102
}
330
245
100
AcDbXrecord
340
9C
  0
XRECORD
  5
24D
102
{ACAD_REACTORS
330
245
102
}
330
245
100
AcDbXrecord
 90
    14877
  0
XRECORD
  5
24B
102
{ACAD_REACTORS
330
245
102
}
330
245
100
AcDbXrecord
340
9D
  0
XRECORD
  5
24C
102
{ACAD_REACTORS
330
245
102
}
330
245
100
AcDbXrecord
340
9A
  0
XRECORD
  5
252
102
{ACAD_REACTORS
330
245
102
}
330
245
100
AcDbXrecord
 40
0.0
  0
XRECORD
  5
255
102
{ACAD_REACTORS
330
245
102
}
330
245
100
AcDbXrecord
340
0
  0
XRECORD
  5
25B
102
{ACAD_REACTORS
330
245
102
}
330
245
100
AcDbXrecord
 10
0.0
 20
0.0
 30
0.0
  0
XRECORD
  5
257
102
{ACAD_REACTORS
330
245
102
}
330
245
100
AcDbXrecord
 10
0.0
 20
0.0
 30
0.0
  0
XRECORD
  5
25A
102
{ACAD_REACTORS
330
245
102
}
330
245
100
AcDbXrecord
 10
0.0
 20
0.0
 30
0.0
  0
XRECORD
  5
258
102
{ACAD_REACTORS
330
245
102
}
330
245
100
AcDbXrecord
 10
0.0
 20
0.0
 30
0.0
  0
XRECORD
  5
259
102
{ACAD_REACTORS
330
245
102
}
330
245
100
AcDbXrecord
 10
0.0
 20
0.0
 30
0.0
  0
XRECORD
  5
256
102
{ACAD_REACTORS
330
245
102
}
330
245
100
AcDbXrecord
 10
0.0
 20
0.0
 30
0.0
  0
XRECORD
  5
253
102
{ACAD_REACTORS
330
245
102
}
330
245
100
AcDbXrecord
340
0
  0
XRECORD
  5
254
102
{ACAD_REACTORS
330
245
102
}
330
245
100
AcDbXrecord
 70
     0
  0
XRECORD
  5
249
102
{ACAD_REACTORS
330
245
102
}
330
245
100
AcDbXrecord
  1

  0
XRECORD
  5
246
102
{ACAD_REACTORS
330
245
102
}
330
245
100
AcDbXrecord
 90
        1
  0
XRECORD
  5
247
102
{ACAD_REACTORS
330
245
102
}
330
245
100
AcDbXrecord
 90
       70
  0
XRECORD
  5
25E
102
{ACAD_REACTORS
330
245
102
}
330
245
100
AcDbXrecord
340
0
  0
XRECORD
  5
264
102
{ACAD_REACTORS
330
245
102
}
330
245
100
AcDbXrecord
 10
0.0
 20
0.0
 30
0.0
  0
XRECORD
  5
260
102
{ACAD_REACTORS
330
245
102
}
330
245
100
AcDbXrecord
 10
0.0
 20
0.0
 30
0.0
  0
XRECORD
  5
263
102
{ACAD_REACTORS
330
245
102
}
330
245
100
AcDbXrecord
 10
0.0
 20
0.0
 30
0.0
  0
XRECORD
  5
261
102
{ACAD_REACTORS
330
245
102
}
330
245
100
AcDbXrecord
 10
0.0
 20
0.0
 30
0.0
  0
XRECORD
  5
262
102
{ACAD_REACTORS
330
245
102
}
330
245
100
AcDbXrecord
 10
0.0
 20
0.0
 30
0.0
  0
XRECORD
  5
25F
102
{ACAD_REACTORS
330
245
102
}
330
245
100
AcDbXrecord
 10
0.0
 20
0.0
 30
0.0
  0
XRECORD
  5
25C
102
{ACAD_REACTORS
330
245
102
}
330
245
100
AcDbXrecord
340
0
  0
XRECORD
  5
25D
102
{ACAD_REACTORS
330
245
102
}
330
245
100
AcDbXrecord
 70
     0
  0
XRECORD
  5
251
102
{ACAD_REACTORS
330
245
102
}
330
245
100
AcDbXrecord
  1
{FE9C4751-F35F-48E7-9194-E57FF41E2935}
  0
DICTIONARYVAR
  5
FE
102
{ACAD_REACTORS
330
FD
102
}
330
FD
100
DictionaryVariables
280
     0
  1
1
  0
ENDSEC
  0
EOF
