  0
SECTION
  2
HEADER
  9
$ACADVER
  1
AC1014
  9
$ACADMAINTVER
 70
     9
  9
$DWGCODEPAGE
  3
ANSI_1252
  9
$INSBASE
 10
0.2742779227220063
 20
2.087961229901881
 30
0.0
  9
$EXTMIN
 10
-6.313420389461946
 20
-1.154784792235873
 30
0.0
  9
$EXTMAX
 10
6.738037659651285
 20
4.471463831817709
 30
0.0
  9
$LIMMIN
 10
0.0
 20
0.0
  9
$LIMMAX
 10
36.0
 20
36.0
  9
$ORTHOMODE
 70
     1
  9
$REGENMODE
 70
     1
  9
$FILLMODE
 70
     1
  9
$QTEXTMODE
 70
     0
  9
$MIRRTEXT
 70
     1
  9
$DRAGMODE
 70
     0
  9
$LTSCALE
 40
1.0
  9
$OSMODE
 70
    37
  9
$ATTMODE
 70
     1
  9
$TEXTSIZE
 40
0.2
  9
$TRACEWID
 40
0.05
  9
$TEXTSTYLE
  7
STANDARD
  9
$CLAYER
  8
0
  9
$CELTYPE
  6
BYLAYER
  9
$CECOLOR
 62
   256
  9
$CELTSCALE
 40
1.0
  9
$DELOBJ
 70
     1
  9
$DISPSILH
 70
     0
  9
$DIMSCALE
 40
1.0
  9
$DIMASZ
 40
0.125
  9
$DIMEXO
 40
0.0625
  9
$DIMDLI
 40
0.38
  9
$DIMRND
 40
0.0
  9
$DIMDLE
 40
0.0
  9
$DIMEXE
 40
0.18
  9
$DIMTP
 40
0.0
  9
$DIMTM
 40
0.0
  9
$DIMTXT
 40
0.125
  9
$DIMCEN
 40
0.1875
  9
$DIMTSZ
 40
0.125
  9
$DIMTOL
 70
     0
  9
$DIMLIM
 70
     0
  9
$DIMTIH
 70
     0
  9
$DIMTOH
 70
     0
  9
$DIMSE1
 70
     0
  9
$DIMSE2
 70
     0
  9
$DIMTAD
 70
     0
  9
$DIMZIN
 70
     3
  9
$DIMBLK
  1

  9
$DIMASO
 70
     1
  9
$DIMSHO
 70
     1
  9
$DIMPOST
  1

  9
$DIMAPOST
  1

  9
$DIMALT
 70
     0
  9
$DIMALTD
 70
     1
  9
$DIMALTF
 40
25.4
  9
$DIMLFAC
 40
1.0
  9
$DIMTOFL
 70
     0
  9
$DIMTVP
 40
0.0
  9
$DIMTIX
 70
     0
  9
$DIMSOXD
 70
     0
  9
$DIMSAH
 70
     0
  9
$DIMBLK1
  1

  9
$DIMBLK2
  1

  9
$DIMSTYLE
  2
STANDARD
  9
$DIMCLRD
 70
     0
  9
$DIMCLRE
 70
     0
  9
$DIMCLRT
 70
     0
  9
$DIMTFAC
 40
1.0
  9
$DIMGAP
 40
0.125
  9
$DIMJUST
 70
     0
  9
$DIMSD1
 70
     0
  9
$DIMSD2
 70
     0
  9
$DIMTOLJ
 70
     1
  9
$DIMTZIN
 70
     3
  9
$DIMALTZ
 70
     3
  9
$DIMALTTZ
 70
     3
  9
$DIMFIT
 70
     5
  9
$DIMUPT
 70
     0
  9
$DIMUNIT
 70
     5
  9
$DIMDEC
 70
     4
  9
$DIMTDEC
 70
     4
  9
$DIMALTU
 70
     5
  9
$DIMALTTD
 70
     1
  9
$DIMTXSTY
  7
STANDARD
  9
$DIMAUNIT
 70
     0
  9
$LUNITS
 70
     5
  9
$LUPREC
 70
     4
  9
$SKETCHINC
 40
0.1
  9
$FILLETRAD
 40
0.187
  9
$AUNITS
 70
     0
  9
$AUPREC
 70
     0
  9
$MENU
  1
acad
  9
$ELEVATION
 40
0.0
  9
$PELEVATION
 40
0.0
  9
$THICKNESS
 40
0.0
  9
$LIMCHECK
 70
     0
  9
$BLIPMODE
 70
     0
  9
$CHAMFERA
 40
0.0
  9
$CHAMFERB
 40
0.0
  9
$CHAMFERC
 40
0.0
  9
$CHAMFERD
 40
0.0
  9
$SKPOLY
 70
     0
  9
$TDCREATE
 40
2450387.655867083
  9
$TDUPDATE
 40
2452297.084929108
  9
$TDINDWG
 40
0.0957519444
  9
$TDUSRTIMER
 40
0.0957519444
  9
$USRTIMER
 70
     1
  9
$ANGBASE
 50
0.0
  9
$ANGDIR
 70
     0
  9
$PDMODE
 70
     0
  9
$PDSIZE
 40
0.0
  9
$PLINEWID
 40
0.0
  9
$COORDS
 70
     2
  9
$SPLFRAME
 70
     0
  9
$SPLINETYPE
 70
     6
  9
$SPLINESEGS
 70
     8
  9
$ATTDIA
 70
     0
  9
$ATTREQ
 70
     1
  9
$HANDLING
 70
 22529
  9
$HANDSEED
  5
2D1
  9
$SURFTAB1
 70
     6
  9
$SURFTAB2
 70
     6
  9
$SURFTYPE
 70
     6
  9
$SURFU
 70
     6
  9
$SURFV
 70
     6
  9
$UCSNAME
  2

  9
$UCSORG
 10
0.0
 20
0.0
 30
0.0
  9
$UCSXDIR
 10
1.0
 20
0.0
 30
0.0
  9
$UCSYDIR
 10
0.0
 20
1.0
 30
0.0
  9
$PUCSNAME
  2

  9
$PUCSORG
 10
0.0
 20
0.0
 30
0.0
  9
$PUCSXDIR
 10
1.0
 20
0.0
 30
0.0
  9
$PUCSYDIR
 10
0.0
 20
1.0
 30
0.0
  9
$USERI1
 70
     0
  9
$USERI2
 70
     0
  9
$USERI3
 70
     0
  9
$USERI4
 70
     0
  9
$USERI5
 70
     0
  9
$USERR1
 40
0.0
  9
$USERR2
 40
0.0
  9
$USERR3
 40
0.0
  9
$USERR4
 40
0.0
  9
$USERR5
 40
0.0
  9
$WORLDVIEW
 70
     1
  9
$SHADEDGE
 70
     3
  9
$SHADEDIF
 70
    70
  9
$TILEMODE
 70
     1
  9
$MAXACTVP
 70
    15
  9
$PINSBASE
 10
0.0
 20
0.0
 30
0.0
  9
$PLIMCHECK
 70
     0
  9
$PEXTMIN
 10
1.000000000000000E+20
 20
1.000000000000000E+20
 30
1.000000000000000E+20
  9
$PEXTMAX
 10
-1.000000000000000E+20
 20
-1.000000000000000E+20
 30
-1.000000000000000E+20
  9
$PLIMMIN
 10
0.0
 20
0.0
  9
$PLIMMAX
 10
12.0
 20
9.0
  9
$UNITMODE
 70
     0
  9
$VISRETAIN
 70
     0
  9
$PLINEGEN
 70
     0
  9
$PSLTSCALE
 70
     1
  9
$TREEDEPTH
 70
  3020
  9
$PICKSTYLE
 70
     1
  9
$CMLSTYLE
  2
STANDARD
  9
$CMLJUST
 70
     0
  9
$CMLSCALE
 40
1.0
  9
$PROXYGRAPHICS
 70
     1
  9
$MEASUREMENT
 70
     0
  0
ENDSEC
  0
SECTION
  2
CLASSES
  0
CLASS
  1
ACDBDICTIONARYWDFLT
  2
AcDbDictionaryWithDefault
  3
AutoCAD 2000
 90
        0
280
     0
281
     0
  0
CLASS
  1
ACDBPLACEHOLDER
  2
AcDbPlaceHolder
  3
AutoCAD 2000
 90
        0
280
     0
281
     0
  0
CLASS
  1
LAYOUT
  2
AcDbLayout
  3
AutoCAD 2000
 90
        0
280
     0
281
     0
  0
CLASS
  1
DICTIONARYVAR
  2
AcDbDictionaryVar
  3
AutoCAD 2000
 90
        0
280
     0
281
     0
  0
CLASS
  1
LONG_TRANSACTION
  2
AcDbLongTransaction
  3
AutoCAD 2000
 90
        0
280
     0
281
     0
  0
CLASS
  1
LWPOLYLINE
  2
AcDbPolyline
  3
AutoCAD 2000
 90
        0
280
     0
281
     1
  0
CLASS
  1
HATCH
  2
AcDbHatch
  3
AutoCAD 2000
 90
        0
280
     0
281
     1
  0
CLASS
  1
XRECORD
  2
AcDbXrecord
  3
AutoCAD 2000
 90
        0
280
     0
281
     0
  0
CLASS
  1
LONG_TRANSACTION
  2
AcDbLongTransaction
  3
AutoCAD 2000
 90
        0
280
     0
281
     0
  0
CLASS
  1
LWPOLYLINE
  2
AcDbPolyline
  3
AutoCAD 2000
 90
        0
280
     0
281
     1
  0
CLASS
  1
HATCH
  2
AcDbHatch
  3
AutoCAD 2000
 90
        0
280
     0
281
     1
  0
CLASS
  1
XRECORD
  2
AcDbXrecord
  3
AutoCAD 2000
 90
        0
280
     0
281
     0
  0
CLASS
  1
LONG_TRANSACTION
  2
AcDbLongTransaction
  3
AutoCAD 2000
 90
        0
280
     0
281
     0
  0
CLASS
  1
LWPOLYLINE
  2
AcDbPolyline
  3
AutoCAD 2000
 90
        0
280
     0
281
     1
  0
CLASS
  1
HATCH
  2
AcDbHatch
  3
AutoCAD 2000
 90
        0
280
     0
281
     1
  0
CLASS
  1
XRECORD
  2
AcDbXrecord
  3
AutoCAD 2000
 90
        0
280
     0
281
     0
  0
CLASS
  1
LONG_TRANSACTION
  2
AcDbLongTransaction
  3
AutoCAD 2000
 90
        0
280
     0
281
     0
  0
CLASS
  1
LWPOLYLINE
  2
AcDbPolyline
  3
AutoCAD 2000
 90
        0
280
     0
281
     1
  0
CLASS
  1
HATCH
  2
AcDbHatch
  3
AutoCAD 2000
 90
        0
280
     0
281
     1
  0
CLASS
  1
XRECORD
  2
AcDbXrecord
  3
AutoCAD 2000
 90
        0
280
     0
281
     0
  0
CLASS
  1
LONG_TRANSACTION
  2
AcDbLongTransaction
  3
AutoCAD 2000
 90
        0
280
     0
281
     0
  0
CLASS
  1
LWPOLYLINE
  2
AcDbPolyline
  3
AutoCAD 2000
 90
        0
280
     0
281
     1
  0
CLASS
  1
HATCH
  2
AcDbHatch
  3
AutoCAD 2000
 90
        0
280
     0
281
     1
  0
CLASS
  1
XRECORD
  2
AcDbXrecord
  3
AutoCAD 2000
 90
        0
280
     0
281
     0
  0
ENDSEC
  0
SECTION
  2
TABLES
  0
TABLE
  2
VPORT
  5
8
330
0
100
AcDbSymbolTable
 70
     2
  0
VPORT
  5
2AD
330
8
100
AcDbSymbolTableRecord
100
AcDbViewportTableRecord
  2
*ACTIVE
 70
     0
 10
0.0
 20
0.0
 11
1.0
 21
1.0
 12
0.2224079218617945
 22
1.658567281916516
 13
0.0
 23
0.0
 14
0.5740882589684922
 24
0.5740882589684922
 15
0.5
 25
0.5
 16
0.0
 26
0.0
 36
1.0
 17
0.0
 27
0.0
 37
0.0
 40
8.366243680480812
 41
1.570528967254408
 42
50.0
 43
0.0
 44
0.0
 50
0.0
 51
0.0
 71
     0
 72
   100
 73
     1
 74
     0
 75
     0
 76
     0
 77
     0
 78
     0
  0
ENDTAB
  0
TABLE
  2
LTYPE
  5
5
330
0
100
AcDbSymbolTable
 70
     1
  0
LTYPE
  5
13
330
5
100
AcDbSymbolTableRecord
100
AcDbLinetypeTableRecord
  2
BYBLOCK
 70
     0
  3

 72
    65
 73
     0
 40
0.0
  0
LTYPE
  5
14
330
5
100
AcDbSymbolTableRecord
100
AcDbLinetypeTableRecord
  2
BYLAYER
 70
     0
  3

 72
    65
 73
     0
 40
0.0
  0
LTYPE
  5
15
330
5
100
AcDbSymbolTableRecord
100
AcDbLinetypeTableRecord
  2
CONTINUOUS
 70
     0
  3
Solid line
 72
    65
 73
     0
 40
0.0
  0
ENDTAB
  0
TABLE
  2
LAYER
  5
2
330
0
100
AcDbSymbolTable
 70
     4
  0
LAYER
  5
10
330
2
100
AcDbSymbolTableRecord
100
AcDbLayerTableRecord
  2
0
 70
     0
 62
     7
  6
CONTINUOUS
  0
LAYER
  5
7F
330
2
100
AcDbSymbolTableRecord
100
AcDbLayerTableRecord
  2
ADP1DETAIL
 70
     0
 62
     7
  6
CONTINUOUS
  0
LAYER
  5
81
330
2
100
AcDbSymbolTableRecord
100
AcDbLayerTableRecord
  2
DEFPOINTS
 70
     0
 62
     7
  6
CONTINUOUS
  0
LAYER
  5
82
330
2
100
AcDbSymbolTableRecord
100
AcDbLayerTableRecord
  2
ADPDIM
 70
     0
 62
     3
  6
CONTINUOUS
  0
ENDTAB
  0
TABLE
  2
STYLE
  5
3
330
0
100
AcDbSymbolTable
 70
     2
  0
STYLE
  5
11
330
3
100
AcDbSymbolTableRecord
100
AcDbTextStyleTableRecord
  2
STANDARD
 70
     0
 40
0.0
 41
1.0
 50
0.0
 71
     0
 42
0.2
  3
txt
  4

  0
STYLE
  5
11A
330
3
100
AcDbSymbolTableRecord
100
AcDbTextStyleTableRecord
  2
ARIAL_WIDE
 70
     0
 40
0.0
 41
1.25
 50
0.0
 71
     0
 42
0.2
  3
ARIAL.TTF
  4

1001
ACAD
1000
Arial
1071
       34
  0
ENDTAB
  0
TABLE
  2
VIEW
  5
6
330
0
100
AcDbSymbolTable
 70
     0
  0
ENDTAB
  0
TABLE
  2
UCS
  5
7
330
0
100
AcDbSymbolTable
 70
     0
  0
ENDTAB
  0
TABLE
  2
APPID
  5
9
330
0
100
AcDbSymbolTable
 70
     1
  0
APPID
  5
12
330
9
100
AcDbSymbolTableRecord
100
AcDbRegAppTableRecord
  2
ACAD
 70
     0
  0
ENDTAB
  0
TABLE
  2
DIMSTYLE
  5
A
330
0
100
AcDbSymbolTable
 70
     1
  0
DIMSTYLE
105
118
330
A
100
AcDbSymbolTableRecord
100
AcDbDimStyleTableRecord
  2
STANDARD
 70
     0
  3

  4

  5

  6

  7

 40
1.0
 41
0.18
 42
0.0625
 43
0.38
 44
0.18
 45
0.0
 46
0.0
 47
0.0
 48
0.0
140
0.18
141
0.09
142
0.0
143
25.4
144
1.0
145
0.0
146
1.0
147
0.09
 71
     0
 72
     0
 73
     1
 74
     1
 75
     0
 76
     0
 77
     0
 78
     0
170
     0
171
     2
172
     0
173
     0
174
     0
175
     0
176
     0
177
     0
178
     0
270
     2
271
     4
272
     4
273
     2
274
     2
340
11
275
     0
280
     0
281
     0
282
     0
283
     1
284
     0
285
     0
286
     0
287
     3
288
     0
  0
ENDTAB
  0
TABLE
  2
BLOCK_RECORD
  5
1
330
0
100
AcDbSymbolTable
 70
     5
  0
BLOCK_RECORD
  5
1E
102
{ACAD_XDICTIONARY
360
157
102
}
330
1
100
AcDbSymbolTableRecord
100
AcDbBlockTableRecord
  2
*MODEL_SPACE
  0
BLOCK_RECORD
  5
1A
102
{ACAD_XDICTIONARY
360
159
102
}
330
1
100
AcDbSymbolTableRecord
100
AcDbBlockTableRecord
  2
*PAPER_SPACE
  0
BLOCK_RECORD
  5
77
330
1
100
AcDbSymbolTableRecord
100
AcDbBlockTableRecord
  2
*D0
  0
BLOCK_RECORD
  5
78
330
1
100
AcDbSymbolTableRecord
100
AcDbBlockTableRecord
  2
*D1
  0
BLOCK_RECORD
  5
79
330
1
100
AcDbSymbolTableRecord
100
AcDbBlockTableRecord
  2
*D2
  0
BLOCK_RECORD
  5
7A
330
1
100
AcDbSymbolTableRecord
100
AcDbBlockTableRecord
  2
*D3
  0
BLOCK_RECORD
  5
7B
330
1
100
AcDbSymbolTableRecord
100
AcDbBlockTableRecord
  2
*D4
  0
ENDTAB
  0
ENDSEC
  0
SECTION
  2
BLOCKS
  0
BLOCK
  5
85
330
1E
100
AcDbEntity
  8
0
100
AcDbBlockBegin
  2
*MODEL_SPACE
 70
     0
 10
0.0
 20
0.0
 30
0.0
  3
*MODEL_SPACE
  1

  0
ENDBLK
  5
86
330
1E
100
AcDbEntity
  8
0
100
AcDbBlockEnd
  0
BLOCK
  5
83
330
1A
100
AcDbEntity
 67
     1
  8
0
100
AcDbBlockBegin
  2
*PAPER_SPACE
 70
     0
 10
0.0
 20
0.0
 30
0.0
  3
*PAPER_SPACE
  1

  0
ENDBLK
  5
84
330
1A
100
AcDbEntity
 67
     1
  8
0
100
AcDbBlockEnd
  0
BLOCK
  5
88
330
77
100
AcDbEntity
  8
0
100
AcDbBlockBegin
  2
*D0
 70
     1
 10
0.0
 20
0.0
 30
0.0
  3
*D0
  1

  0
LINE
  5
89
330
77
100
AcDbEntity
  8
0
  6
BYBLOCK
 62
     0
100
AcDbLine
 10
0.1697548028276605
 20
1.42488697888948
 30
0.0
 11
-1.709986472324774
 21
1.42488697888948
 31
0.0
  0
LINE
  5
8A
330
77
100
AcDbEntity
  8
0
  6
BYBLOCK
 62
     0
100
AcDbLine
 10
0.1697548028276605
 20
-0.4751130211105199
 30
0.0
 11
-1.709986472324774
 21
-0.4751130211105198
 31
0.0
  0
LINE
  5
8B
330
77
100
AcDbEntity
  8
0
  6
BYBLOCK
 62
     0
100
AcDbLine
 10
-1.529986472324774
 20
1.42488697888948
 30
0.0
 11
-1.529986472324774
 21
0.8082203122228134
 31
0.0
  0
LINE
  5
8C
330
77
100
AcDbEntity
  8
0
  6
BYBLOCK
 62
     0
100
AcDbLine
 10
-1.529986472324774
 20
-0.4751130211105198
 30
0.0
 11
-1.529986472324774
 21
0.1415536455561469
 31
0.0
  0
LINE
  5
8D
330
77
100
AcDbEntity
  8
0
  6
BYBLOCK
 62
     0
100
AcDbLine
 10
-1.404986472324774
 20
1.29988697888948
 30
0.0
 11
-1.654986472324774
 21
1.54988697888948
 31
0.0
  0
LINE
  5
8E
330
77
100
AcDbEntity
  8
0
  6
BYBLOCK
 62
     0
100
AcDbLine
 10
-1.404986472324774
 20
-0.6001130211105198
 30
0.0
 11
-1.654986472324774
 21
-0.3501130211105198
 31
0.0
  0
TEXT
  5
8F
330
77
100
AcDbEntity
  8
0
  6
BYBLOCK
 62
     0
100
AcDbText
 10
-1.467486472324774
 20
0.2665536455561469
 30
0.0
 40
0.125
  1
1.900
 50
90.0
 72
     1
 11
-1.529986472324774
 21
0.4748869788894802
 31
0.0
100
AcDbText
 73
     2
  0
POINT
  5
91
330
77
100
AcDbEntity
  8
DEFPOINTS
  6
BYBLOCK
 62
     0
100
AcDbPoint
 10
0.2322548028276605
 20
1.42488697888948
 30
0.0
  0
POINT
  5
92
330
77
100
AcDbEntity
  8
DEFPOINTS
  6
BYBLOCK
 62
     0
100
AcDbPoint
 10
0.2322548028276605
 20
-0.4751130211105199
 30
0.0
  0
POINT
  5
93
330
77
100
AcDbEntity
  8
DEFPOINTS
  6
BYBLOCK
 62
     0
100
AcDbPoint
 10
-1.529986472324774
 20
-0.4751130211105198
 30
0.0
  0
ENDBLK
  5
94
330
77
100
AcDbEntity
  8
0
100
AcDbBlockEnd
  0
BLOCK
  5
95
330
78
100
AcDbEntity
  8
0
100
AcDbBlockBegin
  2
*D1
 70
     1
 10
0.0
 20
0.0
 30
0.0
  3
*D1
  1

  0
LINE
  5
96
330
78
100
AcDbEntity
  8
0
  6
BYBLOCK
 62
     0
100
AcDbLine
 10
0.2322548028276605
 20
4.05046122990188
 30
0.0
 11
0.2322548028276605
 21
4.471463831817709
 31
0.0
  0
LINE
  5
97
330
78
100
AcDbEntity
  8
0
  6
BYBLOCK
 62
     0
100
AcDbLine
 10
-0.8927451971723394
 20
3.76421122990188
 30
0.0
 11
-0.8927451971723394
 21
4.471463831817709
 31
0.0
  0
LINE
  5
98
330
78
100
AcDbEntity
  8
0
  6
BYBLOCK
 62
     0
100
AcDbLine
 10
0.2322548028276605
 20
4.29146383181771
 30
0.0
 11
0.4822548028276606
 21
4.29146383181771
 31
0.0
  0
LINE
  5
99
330
78
100
AcDbEntity
  8
0
  6
BYBLOCK
 62
     0
100
AcDbLine
 10
-0.8927451971723394
 20
4.29146383181771
 30
0.0
 11
-1.142745197172339
 21
4.29146383181771
 31
0.0
  0
LINE
  5
9A
330
78
100
AcDbEntity
  8
0
  6
BYBLOCK
 62
     0
100
AcDbLine
 10
0.1072548028276605
 20
4.16646383181771
 30
0.0
 11
0.3572548028276605
 21
4.41646383181771
 31
0.0
  0
LINE
  5
9B
330
78
100
AcDbEntity
  8
0
  6
BYBLOCK
 62
     0
100
AcDbLine
 10
-1.017745197172339
 20
4.16646383181771
 30
0.0
 11
-0.7677451971723395
 21
4.41646383181771
 31
0.0
  0
TEXT
  5
9C
330
78
100
AcDbEntity
  8
0
  6
BYBLOCK
 62
     0
100
AcDbText
 10
-1.767745197172339
 20
4.22896383181771
 30
0.0
 40
0.125
  1
1 1/8
 72
     1
 11
-1.517745197172339
 21
4.29146383181771
 31
0.0
100
AcDbText
 73
     2
  0
POINT
  5
9D
330
78
100
AcDbEntity
  8
DEFPOINTS
  6
BYBLOCK
 62
     0
100
AcDbPoint
 10
0.2322548028276605
 20
3.98796122990188
 30
0.0
  0
POINT
  5
9E
330
78
100
AcDbEntity
  8
DEFPOINTS
  6
BYBLOCK
 62
     0
100
AcDbPoint
 10
-0.8927451971723394
 20
3.70171122990188
 30
0.0
  0
POINT
  5
9F
330
78
100
AcDbEntity
  8
DEFPOINTS
  6
BYBLOCK
 62
     0
100
AcDbPoint
 10
-0.8927451971723394
 20
4.29146383181771
 30
0.0
  0
ENDBLK
  5
A0
330
78
100
AcDbEntity
  8
0
100
AcDbBlockEnd
  0
BLOCK
  5
A1
330
79
100
AcDbEntity
  8
0
100
AcDbBlockBegin
  2
*D2
 70
     1
 10
0.0
 20
0.0
 30
0.0
  3
*D2
  1

  0
LINE
  5
A2
330
79
100
AcDbEntity
  8
0
  6
BYBLOCK
 62
     0
100
AcDbLine
 10
2.79475480282766
 20
1.42488697888948
 30
0.0
 11
3.270171997996542
 21
1.42488697888948
 31
0.0
  0
LINE
  5
A3
330
79
100
AcDbEntity
  8
0
  6
BYBLOCK
 62
     0
100
AcDbLine
 10
2.79475480282766
 20
0.9873869788894801
 30
0.0
 11
3.270171997996542
 21
0.9873869788894801
 31
0.0
  0
LINE
  5
A4
330
79
100
AcDbEntity
  8
0
  6
BYBLOCK
 62
     0
100
AcDbLine
 10
3.090171997996542
 20
1.42488697888948
 30
0.0
 11
3.090171997996542
 21
1.67488697888948
 31
0.0
  0
LINE
  5
A5
330
79
100
AcDbEntity
  8
0
  6
BYBLOCK
 62
     0
100
AcDbLine
 10
3.090171997996542
 20
0.9873869788894801
 30
0.0
 11
3.090171997996542
 21
0.7373869788894801
 31
0.0
  0
LINE
  5
A6
330
79
100
AcDbEntity
  8
0
  6
BYBLOCK
 62
     0
100
AcDbLine
 10
3.215171997996542
 20
1.29988697888948
 30
0.0
 11
2.965171997996542
 21
1.54988697888948
 31
0.0
  0
LINE
  5
A7
330
79
100
AcDbEntity
  8
0
  6
BYBLOCK
 62
     0
100
AcDbLine
 10
3.215171997996542
 20
0.8623869788894801
 30
0.0
 11
2.965171997996542
 21
1.11238697888948
 31
0.0
  0
TEXT
  5
A8
330
79
100
AcDbEntity
  8
0
  6
BYBLOCK
 62
     0
100
AcDbText
 10
3.152671997996542
 20
0.1957203122228134
 30
0.0
 40
0.125
  1
7/16
 50
90.0
 72
     1
 11
3.090171997996542
 21
0.4040536455561468
 31
0.0
100
AcDbText
 73
     2
  0
POINT
  5
A9
330
79
100
AcDbEntity
  8
DEFPOINTS
  6
BYBLOCK
 62
     0
100
AcDbPoint
 10
2.73225480282766
 20
1.42488697888948
 30
0.0
  0
POINT
  5
AA
330
79
100
AcDbEntity
  8
DEFPOINTS
  6
BYBLOCK
 62
     0
100
AcDbPoint
 10
2.73225480282766
 20
0.9873869788894801
 30
0.0
  0
POINT
  5
AB
330
79
100
AcDbEntity
  8
DEFPOINTS
  6
BYBLOCK
 62
     0
100
AcDbPoint
 10
3.090171997996542
 20
0.9873869788894801
 30
0.0
  0
ENDBLK
  5
AC
330
79
100
AcDbEntity
  8
0
100
AcDbBlockEnd
  0
BLOCK
  5
AD
330
7A
100
AcDbEntity
  8
0
100
AcDbBlockBegin
  2
*D3
 70
     1
 10
0.0
 20
0.0
 30
0.0
  3
*D3
  1

  0
LINE
  5
AE
330
7A
100
AcDbEntity
  8
0
  6
BYBLOCK
 62
     0
100
AcDbLine
 10
0.2322548028276605
 20
4.05046122990188
 30
0.0
 11
0.2322548028276605
 21
4.471463831817709
 31
0.0
  0
LINE
  5
AF
330
7A
100
AcDbEntity
  8
0
  6
BYBLOCK
 62
     0
100
AcDbLine
 10
2.82600480282766
 20
3.10046122990188
 30
0.0
 11
2.82600480282766
 21
4.471463831817709
 31
0.0
  0
LINE
  5
B0
330
7A
100
AcDbEntity
  8
0
  6
BYBLOCK
 62
     0
100
AcDbLine
 10
0.2322548028276605
 20
4.29146383181771
 30
0.0
 11
1.112463136160993
 21
4.29146383181771
 31
0.0
  0
LINE
  5
B1
330
7A
100
AcDbEntity
  8
0
  6
BYBLOCK
 62
     0
100
AcDbLine
 10
2.82600480282766
 20
4.29146383181771
 30
0.0
 11
1.945796469494327
 21
4.29146383181771
 31
0.0
  0
LINE
  5
B2
330
7A
100
AcDbEntity
  8
0
  6
BYBLOCK
 62
     0
100
AcDbLine
 10
0.1072548028276605
 20
4.16646383181771
 30
0.0
 11
0.3572548028276605
 21
4.41646383181771
 31
0.0
  0
LINE
  5
B3
330
7A
100
AcDbEntity
  8
0
  6
BYBLOCK
 62
     0
100
AcDbLine
 10
2.70100480282766
 20
4.16646383181771
 30
0.0
 11
2.95100480282766
 21
4.41646383181771
 31
0.0
  0
TEXT
  5
B4
330
7A
100
AcDbEntity
  8
0
  6
BYBLOCK
 62
     0
100
AcDbText
 10
1.237463136160993
 20
4.22896383181771
 30
0.0
 40
0.125
  1
2 5/8
 72
     1
 11
1.52912980282766
 21
4.29146383181771
 31
0.0
100
AcDbText
 73
     2
  0
POINT
  5
B5
330
7A
100
AcDbEntity
  8
DEFPOINTS
  6
BYBLOCK
 62
     0
100
AcDbPoint
 10
0.2322548028276605
 20
3.98796122990188
 30
0.0
  0
POINT
  5
B6
330
7A
100
AcDbEntity
  8
DEFPOINTS
  6
BYBLOCK
 62
     0
100
AcDbPoint
 10
2.82600480282766
 20
3.03796122990188
 30
0.0
  0
POINT
  5
B7
330
7A
100
AcDbEntity
  8
DEFPOINTS
  6
BYBLOCK
 62
     0
100
AcDbPoint
 10
2.82600480282766
 20
4.29146383181771
 30
0.0
  0
ENDBLK
  5
B8
330
7A
100
AcDbEntity
  8
0
100
AcDbBlockEnd
  0
BLOCK
  5
B9
330
7B
100
AcDbEntity
  8
0
100
AcDbBlockBegin
  2
*D4
 70
     1
 10
0.0
 20
0.0
 30
0.0
  3
*D4
  1

  0
LINE
  5
BA
330
7B
100
AcDbEntity
  8
0
  6
BYBLOCK
 62
     0
100
AcDbLine
 10
1.93850480282766
 20
3.98796122990188
 30
0.0
 11
3.500699671837034
 21
3.98796122990188
 31
0.0
  0
LINE
  5
BB
330
7B
100
AcDbEntity
  8
0
  6
BYBLOCK
 62
     0
100
AcDbLine
 10
1.93850480282766
 20
2.08796122990188
 30
0.0
 11
3.500699671837034
 21
2.08796122990188
 31
0.0
  0
LINE
  5
BC
330
7B
100
AcDbEntity
  8
0
  6
BYBLOCK
 62
     0
100
AcDbLine
 10
3.320699671837034
 20
3.98796122990188
 30
0.0
 11
3.320699671837034
 21
3.371294563235213
 31
0.0
  0
LINE
  5
BD
330
7B
100
AcDbEntity
  8
0
  6
BYBLOCK
 62
     0
100
AcDbLine
 10
3.320699671837034
 20
2.08796122990188
 30
0.0
 11
3.320699671837034
 21
2.704627896568547
 31
0.0
  0
LINE
  5
BE
330
7B
100
AcDbEntity
  8
0
  6
BYBLOCK
 62
     0
100
AcDbLine
 10
3.445699671837034
 20
3.86296122990188
 30
0.0
 11
3.195699671837034
 21
4.11296122990188
 31
0.0
  0
LINE
  5
BF
330
7B
100
AcDbEntity
  8
0
  6
BYBLOCK
 62
     0
100
AcDbLine
 10
3.445699671837034
 20
1.96296122990188
 30
0.0
 11
3.195699671837034
 21
2.21296122990188
 31
0.0
  0
TEXT
  5
C0
330
7B
100
AcDbEntity
  8
0
  6
BYBLOCK
 62
     0
100
AcDbText
 10
3.383199671837034
 20
2.829627896568547
 30
0.0
 40
0.125
  1
1.900
 50
90.0
 72
     1
 11
3.320699671837034
 21
3.03796122990188
 31
0.0
100
AcDbText
 73
     2
  0
POINT
  5
C1
330
7B
100
AcDbEntity
  8
DEFPOINTS
  6
BYBLOCK
 62
     0
100
AcDbPoint
 10
1.87600480282766
 20
3.98796122990188
 30
0.0
  0
POINT
  5
C2
330
7B
100
AcDbEntity
  8
DEFPOINTS
  6
BYBLOCK
 62
     0
100
AcDbPoint
 10
1.87600480282766
 20
2.08796122990188
 30
0.0
  0
POINT
  5
C3
330
7B
100
AcDbEntity
  8
DEFPOINTS
  6
BYBLOCK
 62
     0
100
AcDbPoint
 10
3.320699671837034
 20
2.08796122990188
 30
0.0
  0
ENDBLK
  5
C4
330
7B
100
AcDbEntity
  8
0
100
AcDbBlockEnd
  0
ENDSEC
  0
SECTION
  2
ENTITIES
  0
ARC
  5
C5
330
1E
100
AcDbEntity
  8
ADP1DETAIL
100
AcDbCircle
 10
-1.964577725061428
 20
3.03796122990188
 30
0.0
 40
0.7985934901437651
100
AcDbArc
 50
80.68878761083956
 51
99.31121238916038
  0
ARC
  5
C6
330
1E
100
AcDbEntity
  8
ADP1DETAIL
100
AcDbCircle
 10
-1.964577725061428
 20
3.03796122990188
 30
0.0
 40
0.6949999999999999
100
AcDbArc
 50
78.15199504915513
 51
101.8480049508448
  0
ARC
  5
C7
330
1E
100
AcDbEntity
  8
ADP1DETAIL
100
AcDbCircle
 10
-1.964577725061428
 20
3.03796122990188
 30
0.0
 40
0.6949999999999999
100
AcDbArc
 50
258.1519950491551
 51
281.8480049508448
  0
ARC
  5
C8
330
1E
100
AcDbEntity
  8
ADP1DETAIL
100
AcDbCircle
 10
-1.964577725061428
 20
3.03796122990188
 30
0.0
 40
0.7985934901437651
100
AcDbArc
 50
260.6887876108395
 51
279.3112123891603
  0
ARC
  5
C9
330
1E
100
AcDbEntity
  8
ADP1DETAIL
100
AcDbCircle
 10
-1.964577725061428
 20
3.03796122990188
 30
0.0
 40
0.8199999999999999
100
AcDbArc
 50
261.1295384801971
 51
278.8704615198028
  0
ARC
  5
CA
330
1E
100
AcDbEntity
  8
ADP1DETAIL
100
AcDbCircle
 10
-1.964577725061428
 20
3.03796122990188
 30
0.0
 40
0.8199999999999999
100
AcDbArc
 50
81.12953848019712
 51
98.8704615198028
  0
CIRCLE
  5
CB
330
1E
100
AcDbEntity
  8
ADP1DETAIL
100
AcDbCircle
 10
-1.964577725061428
 20
3.03796122990188
 30
0.0
 40
0.95
  0
LINE
  5
CC
330
1E
100
AcDbEntity
  8
ADP1DETAIL
100
AcDbLine
 10
-2.091022569040242
 20
2.227768844458044
 30
0.0
 11
-2.154935585562405
 21
2.739072976635346
 31
0.0
  0
LINE
  5
CD
330
1E
100
AcDbEntity
  8
ADP1DETAIL
100
AcDbLine
 10
-2.914577725061427
 20
2.27596122990188
 30
0.0
 11
-2.914577725061427
 21
3.79996122990188
 31
0.0
  0
ARC
  5
CE
330
1E
100
AcDbEntity
  8
ADP1DETAIL
100
AcDbCircle
 10
-2.726577725061427
 20
2.27596122990188
 30
0.0
 40
0.188
100
AcDbArc
 50
180.0
 51
270.0
  0
LINE
  5
CF
330
1E
100
AcDbEntity
  8
ADP1DETAIL
100
AcDbLine
 10
-1.964577725061427
 20
2.08796122990188
 30
0.0
 11
-2.726577725061427
 21
2.08796122990188
 31
0.0
  0
ARC
  5
D0
330
1E
100
AcDbEntity
  8
ADP1DETAIL
100
AcDbCircle
 10
-1.964577725061428
 20
3.03796122990188
 30
0.0
 40
0.8199999999999999
100
AcDbArc
 50
171.1295384801971
 51
188.8704615198028
  0
ARC
  5
D1
330
1E
100
AcDbEntity
  8
ADP1DETAIL
100
AcDbCircle
 10
-2.726577725061427
 20
3.79996122990188
 30
0.0
 40
0.188
100
AcDbArc
 50
90.0
 51
180.0
  0
ARC
  5
D2
330
1E
100
AcDbEntity
  8
ADP1DETAIL
100
AcDbCircle
 10
-2.278970320151612
 20
3.352353824992065
 30
0.0
 40
0.125
100
AcDbArc
 50
277.1250163489018
 51
352.8749836510982
  0
LINE
  5
D3
330
1E
100
AcDbEntity
  8
ADP1DETAIL
100
AcDbLine
 10
-2.774770110505264
 20
2.911516385923066
 30
0.0
 11
-2.263465978327962
 21
2.847603369400903
 31
0.0
  0
LINE
  5
D4
330
1E
100
AcDbEntity
  8
ADP1DETAIL
100
AcDbLine
 10
-2.774770110505263
 20
3.164406073880694
 30
0.0
 11
-2.263465978327961
 21
3.228319090402857
 31
0.0
  0
ARC
  5
D5
330
1E
100
AcDbEntity
  8
ADP1DETAIL
100
AcDbCircle
 10
-1.964577725061428
 20
3.03796122990188
 30
0.0
 40
0.6949999999999999
100
AcDbArc
 50
168.1519950491551
 51
191.8480049508447
  0
ARC
  5
D6
330
1E
100
AcDbEntity
  8
ADP1DETAIL
100
AcDbCircle
 10
-1.964577725061428
 20
3.03796122990188
 30
0.0
 40
0.7985934901437651
100
AcDbArc
 50
170.6887876108395
 51
189.3112123891603
  0
ARC
  5
D7
330
1E
100
AcDbEntity
  8
ADP1DETAIL
100
AcDbCircle
 10
-2.278970320151613
 20
2.723568634811695
 30
0.0
 40
0.125
100
AcDbArc
 50
7.125016348901811
 51
82.87498365109819
  0
LINE
  5
D8
330
1E
100
AcDbEntity
  8
ADP1DETAIL
100
AcDbLine
 10
-2.726577725061427
 20
3.98796122990188
 30
0.0
 11
-1.964577725061427
 21
3.98796122990188
 31
0.0
  0
LINE
  5
D9
330
1E
100
AcDbEntity
  8
ADP1DETAIL
100
AcDbLine
 10
-2.091022569040241
 20
3.848153615345716
 30
0.0
 11
-2.154935585562403
 21
3.336849483168414
 31
0.0
  0
DIMENSION
  5
DA
330
1E
100
AcDbEntity
  8
ADPDIM
100
AcDbDimension
  2
*D2
 10
3.090171997996542
 20
0.9873869788894801
 30
0.0
 11
3.090171997996542
 21
0.4040536455561468
 31
0.0
100
AcDbAlignedDimension
 13
2.73225480282766
 23
1.42488697888948
 33
0.0
 14
2.73225480282766
 24
0.9873869788894801
 34
0.0
 50
90.0
100
AcDbRotatedDimension
  0
DIMENSION
  5
DB
330
1E
100
AcDbEntity
  8
ADPDIM
100
AcDbDimension
  2
*D0
 10
-1.529986472324774
 20
-0.4751130211105198
 30
0.0
 11
-1.529986472324774
 21
0.4748869788894802
 31
0.0
  1
1.900
100
AcDbAlignedDimension
 13
0.2322548028276605
 23
1.42488697888948
 33
0.0
 14
0.2322548028276605
 24
-0.4751130211105199
 34
0.0
 50
90.0
100
AcDbRotatedDimension
  0
ARC
  5
DC
330
1E
100
AcDbEntity
  8
ADP1DETAIL
100
AcDbCircle
 10
1.067689122427589
 20
0.3247398994370723
 30
0.0
 40
0.7286486801048412
100
AcDbArc
 50
114.5747915682807
 51
238.1766793266197
  0
LINE
  5
DD
330
1E
100
AcDbEntity
  8
ADP1DETAIL
100
AcDbLine
 10
0.8260048028276605
 20
-0.1313630211105199
 30
0.0
 11
0.8260048028276605
 21
0.7998869788894803
 31
0.0
  0
LINE
  5
DE
330
1E
100
AcDbEntity
  8
ADP1DETAIL
100
AcDbLine
 10
0.2322548028276605
 20
1.42488697888948
 30
0.0
 11
0.2322548028276605
 21
0.0154562987800295
 31
0.0
  0
LINE
  5
DF
330
1E
100
AcDbEntity
  8
ADP1DETAIL
100
AcDbLine
 10
0.2322548028276605
 20
-0.4751130211105199
 30
0.0
 11
0.2322548028276605
 21
1.42488697888948
 31
0.0
  0
LINE
  5
E0
330
1E
100
AcDbEntity
  8
ADP1DETAIL
100
AcDbLine
 10
-0.8927451971723394
 20
-0.18886302111052
 30
0.0
 11
-0.8927451971723394
 21
1.138636978889479
 31
0.0
  0
LINE
  5
E1
330
1E
100
AcDbEntity
  8
ADP1DETAIL
100
AcDbLine
 10
0.2322548028276605
 20
1.16988697888948
 30
0.0
 11
0.2322548028276605
 21
-0.22011302111052
 31
0.0
  0
LINE
  5
E2
330
1E
100
AcDbEntity
  8
ADP1DETAIL
100
AcDbLine
 10
0.2322548028276605
 20
0.59527181179254
 30
0.0
 11
-0.8927451971723394
 21
0.59527181179254
 31
0.0
  0
LINE
  5
E3
330
1E
100
AcDbEntity
  8
ADP1DETAIL
100
AcDbLine
 10
0.1072548028276605
 20
-0.34511302111052
 30
0.0
 11
-0.7677451971723395
 21
-0.31386302111052
 31
0.0
  0
LINE
  5
E4
330
1E
100
AcDbEntity
  8
ADP1DETAIL
100
AcDbLine
 10
-0.8927451971723394
 20
0.3545021459864197
 30
0.0
 11
0.2322548028276605
 21
0.3545021459864197
 31
0.0
  0
LINE
  5
E5
330
1E
100
AcDbEntity
  8
ADP1DETAIL
100
AcDbLine
 10
-0.8927451971723394
 20
-0.18886302111052
 30
0.0
 11
-0.7677451971723395
 21
-0.31386302111052
 31
0.0
  0
LINE
  5
E6
330
1E
100
AcDbEntity
  8
ADP1DETAIL
100
AcDbLine
 10
-0.7677451971723395
 20
0.3545021459864199
 30
0.0
 11
-0.7677451971723395
 21
0.5952718117925402
 31
0.0
  0
ARC
  5
E7
330
1E
100
AcDbEntity
  8
ADP1DETAIL
100
AcDbCircle
 10
0.4822548028276606
 20
-0.1313630211105199
 30
0.0
 40
0.34375
100
AcDbArc
 50
270.0
 51
0.0
  0
LINE
  5
E8
330
1E
100
AcDbEntity
  8
ADP1DETAIL
100
AcDbLine
 10
0.2322548028276605
 20
-0.4751130211105199
 30
0.0
 11
0.4822548028276606
 21
-0.4751130211105199
 31
0.0
  0
LINE
  5
E9
330
1E
100
AcDbEntity
  8
ADP1DETAIL
100
AcDbLine
 10
0.1072548028276608
 20
-0.34511302111052
 30
0.0
 11
0.2322548028276605
 21
-0.22011302111052
 31
0.0
  0
LINE
  5
EA
330
1E
100
AcDbEntity
  8
ADP1DETAIL
100
AcDbLine
 10
0.1072548028276605
 20
0.3545021459864199
 30
0.0
 11
0.1072548028276605
 21
0.5952718117925402
 31
0.0
  0
DIMENSION
  5
EB
330
1E
100
AcDbEntity
  8
ADPDIM
100
AcDbDimension
  2
*D3
 10
2.82600480282766
 20
4.29146383181771
 30
0.0
 11
1.52912980282766
 21
4.29146383181771
 31
0.0
100
AcDbAlignedDimension
 13
0.2322548028276605
 23
3.98796122990188
 33
0.0
 14
2.82600480282766
 24
3.03796122990188
 34
0.0
100
AcDbRotatedDimension
  0
LINE
  5
EC
330
1E
100
AcDbEntity
  8
ADP1DETAIL
100
AcDbLine
 10
0.7646581881787558
 20
0.9873869788894802
 30
0.0
 11
2.73225480282766
 21
0.9873869788894801
 31
0.0
  0
LINE
  5
ED
330
1E
100
AcDbEntity
  8
ADP1DETAIL
100
AcDbLine
 10
2.73225480282766
 20
1.42488697888948
 30
0.0
 11
0.2322548028276605
 21
1.42488697888948
 31
0.0
  0
LWPOLYLINE
  5
EE
330
1E
100
AcDbEntity
  8
ADP1DETAIL
100
AcDbPolyline
 90
        2
 70
     0
 43
0.0
 10
1.87600480282766
 20
2.08796122990188
 10
0.2322548028276605
 20
2.08796122990188
  0
LWPOLYLINE
  5
F2
330
1E
100
AcDbEntity
  8
ADP1DETAIL
100
AcDbPolyline
 90
        3
 70
     0
 43
0.0
 10
0.2322548028276605
 20
2.08796122990188
 10
0.2322548028276605
 20
3.98796122990188
 10
1.87600480282766
 20
3.98796122990188
  0
DIMENSION
  5
F7
330
1E
100
AcDbEntity
  8
ADPDIM
100
AcDbDimension
  2
*D1
 10
-0.8927451971723394
 20
4.29146383181771
 30
0.0
 11
-1.517745197172339
 21
4.29146383181771
 31
0.0
100
AcDbAlignedDimension
 13
0.2322548028276605
 23
3.98796122990188
 33
0.0
 14
-0.8927451971723394
 24
3.70171122990188
 34
0.0
100
AcDbRotatedDimension
  0
LINE
  5
F8
330
1E
100
AcDbEntity
  8
ADP1DETAIL
100
AcDbLine
 10
0.1072548028276605
 20
2.21796122990188
 30
0.0
 11
-0.7677451971723395
 21
2.24921122990188
 31
0.0
  0
LINE
  5
F9
330
1E
100
AcDbEntity
  8
ADP1DETAIL
100
AcDbLine
 10
-0.7677451971723395
 20
1.263636978889479
 30
0.0
 11
0.1072548028276605
 21
1.294886978889479
 31
0.0
  0
LINE
  5
FA
330
1E
100
AcDbEntity
  8
ADP1DETAIL
100
AcDbLine
 10
0.2322548028276605
 20
3.15834606280494
 30
0.0
 11
-0.8927451971723394
 21
3.15834606280494
 31
0.0
  0
LINE
  5
FB
330
1E
100
AcDbEntity
  8
ADP1DETAIL
100
AcDbLine
 10
-0.8927451971723394
 20
2.917576396998819
 30
0.0
 11
0.2322548028276605
 21
2.917576396998819
 31
0.0
  0
LINE
  5
FC
330
1E
100
AcDbEntity
  8
ADP1DETAIL
100
AcDbLine
 10
-0.7677451971723395
 20
3.82671122990188
 30
0.0
 11
0.1072548028276605
 21
3.85796122990188
 31
0.0
  0
LINE
  5
FD
330
1E
100
AcDbEntity
  8
ADP1DETAIL
100
AcDbLine
 10
-0.8927451971723394
 20
2.37421122990188
 30
0.0
 11
-0.8927451971723394
 21
3.70171122990188
 31
0.0
  0
LINE
  5
FE
330
1E
100
AcDbEntity
  8
ADP1DETAIL
100
AcDbLine
 10
-1.838132881082614
 20
2.227768844458044
 30
0.0
 11
-1.774219864560451
 21
2.739072976635345
 31
0.0
  0
LINE
  5
FF
330
1E
100
AcDbEntity
  8
ADP1DETAIL
100
AcDbLine
 10
-0.7677451971723395
 20
1.263636978889479
 30
0.0
 11
-0.8927451971723394
 21
1.138636978889479
 31
0.0
  0
LINE
  5
100
330
1E
100
AcDbEntity
  8
ADP1DETAIL
100
AcDbLine
 10
-0.8927451971723394
 20
2.37421122990188
 30
0.0
 11
-0.7677451971723395
 21
2.24921122990188
 31
0.0
  0
ARC
  5
101
330
1E
100
AcDbEntity
  8
ADP1DETAIL
100
AcDbCircle
 10
-1.650185129971242
 20
3.352353824992064
 30
0.0
 40
0.125
100
AcDbArc
 50
187.1250163489018
 51
262.8749836510982
  0
LINE
  5
102
330
1E
100
AcDbEntity
  8
ADP1DETAIL
100
AcDbLine
 10
-1.154385339617591
 20
3.164406073880693
 30
0.0
 11
-1.665689471794893
 21
3.228319090402856
 31
0.0
  0
LINE
  5
103
330
1E
100
AcDbEntity
  8
ADP1DETAIL
100
AcDbLine
 10
-1.154385339617592
 20
2.911516385923065
 30
0.0
 11
-1.665689471794894
 21
2.847603369400903
 31
0.0
  0
ARC
  5
104
330
1E
100
AcDbEntity
  8
ADP1DETAIL
100
AcDbCircle
 10
-1.650185129971243
 20
2.723568634811694
 30
0.0
 40
0.125
100
AcDbArc
 50
97.1250163489018
 51
172.8749836510981
  0
ARC
  5
105
330
1E
100
AcDbEntity
  8
ADP1DETAIL
100
AcDbCircle
 10
-1.964577725061428
 20
3.03796122990188
 30
0.0
 40
0.8199999999999999
100
AcDbArc
 50
351.1295384801971
 51
8.870461519802795
  0
ARC
  5
106
330
1E
100
AcDbEntity
  8
ADP1DETAIL
100
AcDbCircle
 10
-1.964577725061428
 20
3.03796122990188
 30
0.0
 40
0.7985934901437651
100
AcDbArc
 50
350.6887876108395
 51
9.311212389160358
  0
ARC
  5
107
330
1E
100
AcDbEntity
  8
ADP1DETAIL
100
AcDbCircle
 10
-1.964577725061428
 20
3.03796122990188
 30
0.0
 40
0.6949999999999999
100
AcDbArc
 50
348.151995049155
 51
11.84800495084478
  0
LINE
  5
108
330
1E
100
AcDbEntity
  8
ADP1DETAIL
100
AcDbLine
 10
-1.838132881082613
 20
3.848153615345716
 30
0.0
 11
-1.77421986456045
 21
3.336849483168413
 31
0.0
  0
LINE
  5
109
330
1E
100
AcDbEntity
  8
ADP1DETAIL
100
AcDbLine
 10
-0.7677451971723395
 20
2.91757639699882
 30
0.0
 11
-0.7677451971723395
 21
3.15834606280494
 31
0.0
  0
LINE
  5
10A
330
1E
100
AcDbEntity
  8
ADP1DETAIL
100
AcDbLine
 10
-0.7677451971723395
 20
3.82671122990188
 30
0.0
 11
-0.8927451971723394
 21
3.70171122990188
 31
0.0
  0
LINE
  5
10B
330
1E
100
AcDbEntity
  8
ADP1DETAIL
100
AcDbLine
 10
0.2322548028276605
 20
3.73296122990188
 30
0.0
 11
0.2322548028276605
 21
2.34296122990188
 31
0.0
  0
ARC
  5
10C
330
1E
100
AcDbEntity
  8
ADP1DETAIL
100
AcDbCircle
 10
-0.2677451971723395
 20
3.03796122990188
 30
0.0
 40
1.09375
100
AcDbArc
 50
299.7069477050234
 51
60.29305229497659
  0
ARC
  5
10D
330
1E
100
AcDbEntity
  8
ADP1DETAIL
100
AcDbCircle
 10
1.01350480282766
 20
0.7998869788894803
 30
0.0
 40
0.1875
100
AcDbArc
 50
90.0
 51
180.0
  0
LINE
  5
10E
330
1E
100
AcDbEntity
  8
ADP1DETAIL
100
AcDbLine
 10
0.2322548028276605
 20
1.42488697888948
 30
0.0
 11
0.2322548028276605
 21
0.9873869788894801
 31
0.0
  0
LINE
  5
10F
330
1E
100
AcDbEntity
  8
ADP1DETAIL
100
AcDbLine
 10
0.2322548028276605
 20
1.169886978889479
 30
0.0
 11
0.1072548028276605
 21
1.294886978889479
 31
0.0
  0
LINE
  5
110
330
1E
100
AcDbEntity
  8
ADP1DETAIL
100
AcDbLine
 10
0.1072548028276608
 20
2.21796122990188
 30
0.0
 11
0.2322548028276605
 21
2.34296122990188
 31
0.0
  0
LINE
  5
111
330
1E
100
AcDbEntity
  8
ADP1DETAIL
100
AcDbLine
 10
0.1072548028276605
 20
2.91757639699882
 30
0.0
 11
0.1072548028276605
 21
3.15834606280494
 31
0.0
  0
LINE
  5
112
330
1E
100
AcDbEntity
  8
ADP1DETAIL
100
AcDbLine
 10
0.2322548028276605
 20
3.73296122990188
 30
0.0
 11
0.1072548028276605
 21
3.85796122990188
 31
0.0
  0
DIMENSION
  5
113
330
1E
100
AcDbEntity
  8
ADPDIM
100
AcDbDimension
  2
*D4
 10
3.320699671837034
 20
2.08796122990188
 30
0.0
 11
3.320699671837034
 21
3.03796122990188
 31
0.0
  1
1.900
100
AcDbAlignedDimension
 13
1.87600480282766
 23
3.98796122990188
 33
0.0
 14
1.87600480282766
 24
2.08796122990188
 34
0.0
 50
90.0
100
AcDbRotatedDimension
  0
ARC
  5
114
330
1E
100
AcDbEntity
  8
ADP1DETAIL
100
AcDbCircle
 10
1.87600480282766
 20
3.03796122990188
 30
0.0
 40
0.95
100
AcDbArc
 50
270.0
 51
90.0
  0
ARC
  5
115
330
1E
100
AcDbEntity
  8
ADP1DETAIL
100
AcDbCircle
 10
2.73225480282766
 20
1.33113697888948
 30
0.0
 40
0.09375
100
AcDbArc
 50
0.0
 51
90.0
  0
ARC
  5
116
330
1E
100
AcDbEntity
  8
ADP1DETAIL
100
AcDbCircle
 10
2.73225480282766
 20
1.08113697888948
 30
0.0
 40
0.09375
100
AcDbArc
 50
270.0
 51
0.0
  0
LINE
  5
117
330
1E
100
AcDbEntity
  8
ADP1DETAIL
100
AcDbLine
 10
2.82600480282766
 20
1.08113697888948
 30
0.0
 11
2.82600480282766
 21
1.33113697888948
 31
0.0
  0
TEXT
  5
11B
330
1E
100
AcDbEntity
  8
ADPDIM
100
AcDbText
 10
-6.313420389461946
 20
-1.117779335209952
 30
0.0
 40
0.125
  1
J U L I U S  B L U M  &  C O . ,  I N C .      ( 8 0 0 )  5 2 6 - 6 2 9 3        W W W . J U L I U S B L U M . C O M        P A R T  N o .  3 6 0 2
 41
1.25
  7
ARIAL_WIDE
 72
     1
 11
0.2123086350946695
 21
-0.9927793352099525
 31
0.0
100
AcDbText
 73
     3
  0
ENDSEC
  0
SECTION
  2
OBJECTS
  0
DICTIONARY
  5
C
330
0
100
AcDbDictionary
  3
ACAD_GROUP
350
D
  3
ACAD_LAYOUT
350
19
  3
ACAD_MLINESTYLE
350
16
  3
ACAD_PLOTSETTINGS
350
18
  3
ACAD_PLOTSTYLENAME
350
E
  3
ACDBHEADERROUNDTRIPXREC
350
2AE
  3
ACDBVARIABLEDICTIONARY
350
18C
  0
DICTIONARY
  5
157
330
1E
100
AcDbDictionary
280
     1
  3
ACAD_LAYOUTSELFREF
360
2D0
  0
DICTIONARY
  5
159
330
1A
100
AcDbDictionary
280
     1
  3
ACAD_LAYOUTSELFREF
360
2CF
  0
DICTIONARY
  5
D
102
{ACAD_REACTORS
330
C
102
}
330
C
100
AcDbDictionary
  0
DICTIONARY
  5
19
102
{ACAD_REACTORS
330
C
102
}
330
C
100
AcDbDictionary
  0
DICTIONARY
  5
16
102
{ACAD_REACTORS
330
C
102
}
330
C
100
AcDbDictionary
  3
STANDARD
350
17
  0
DICTIONARY
  5
18
102
{ACAD_REACTORS
330
C
102
}
330
C
100
AcDbDictionary
  0
ACDBDICTIONARYWDFLT
  5
E
102
{ACAD_REACTORS
330
C
102
}
330
C
100
AcDbDictionary
281
     1
  3
Normal
350
F
100
AcDbDictionaryWithDefault
340
F
  0
DICTIONARY
  5
2AE
102
{ACAD_REACTORS
330
C
102
}
330
C
100
AcDbDictionary
  3
CEPSNTYPE
350
2B8
  3
DIMSTYLEDATA
350
2BC
  3
FINGERPRINTGUID
350
2B9
  3
HYPERLINKBASE
350
2B1
  3
INSUNITS
350
2B7
  3
LAYOUTDICT
350
2B3
  3
LWETCUNION
350
2B6
  3
PLOTSETDICT
350
2B4
  3
PLOTSTYLNAMDICT
350
2B5
  3
PSVPSCALE
350
2BB
  3
PUCSBASE
350
2BF
  3
PUCSORGBACK
350
2C5
  3
PUCSORGBOTTOM
350
2C1
  3
PUCSORGFRONT
350
2C4
  3
PUCSORGLEFT
350
2C2
  3
PUCSORGRIGHT
350
2C3
  3
PUCSORGTOP
350
2C0
  3
PUCSORTHOREF
350
2BD
  3
PUCSORTHOVIEW
350
2BE
  3
STYLESHEET
350
2B2
  3
TSTACKALIGN
350
2AF
  3
TSTACKSIZE
350
2B0
  3
UCSBASE
350
2C8
  3
UCSORGBACK
350
2CE
  3
UCSORGBOTTOM
350
2CA
  3
UCSORGFRONT
350
2CD
  3
UCSORGLEFT
350
2CB
  3
UCSORGRIGHT
350
2CC
  3
UCSORGTOP
350
2C9
  3
UCSORTHOREF
350
2C6
  3
UCSORTHOVIEW
350
2C7
  3
VERSIONGUID
350
2BA
  0
DICTIONARY
  5
18C
102
{ACAD_REACTORS
330
C
102
}
330
C
100
AcDbDictionary
  3
DIMASSOC
350
18E
  3
HIDETEXT
350
18D
  0
XRECORD
  5
2D0
102
{ACAD_REACTORS
330
157
102
}
330
157
100
AcDbXrecord
340
1E
  0
XRECORD
  5
2CF
102
{ACAD_REACTORS
330
159
102
}
330
159
100
AcDbXrecord
340
1A
  0
MLINESTYLE
  5
17
102
{ACAD_REACTORS
330
16
102
}
330
16
100
AcDbMlineStyle
  2
STANDARD
 70
     0
  3

 62
   256
 51
90.0
 52
90.0
 71
     2
 49
0.5
 62
   256
  6
BYLAYER
 49
-0.5
 62
   256
  6
BYLAYER
  0
ACDBPLACEHOLDER
  5
F
102
{ACAD_REACTORS
330
E
102
}
330
E
100
AcDbPlaceHolder
280
     0
  0
XRECORD
  5
2B8
102
{ACAD_REACTORS
330
2AE
102
}
330
2AE
100
AcDbXrecord
 90
        0
  0
XRECORD
  5
2BC
102
{ACAD_REACTORS
330
2AE
102
}
330
2AE
100
AcDbXrecord
1000
DSTYLE
1002
{
1070
   277
 70
     5
1070
   279
 70
     2
1002
}
  0
XRECORD
  5
2B9
102
{ACAD_REACTORS
330
2AE
102
}
330
2AE
100
AcDbXrecord
  1
{76FF4A67-F1E9-4961-842F-FE1422D4482A}
  0
XRECORD
  5
2B1
102
{ACAD_REACTORS
330
2AE
102
}
330
2AE
100
AcDbXrecord
  1

  0
XRECORD
  5
2B7
102
{ACAD_REACTORS
330
2AE
102
}
330
2AE
100
AcDbXrecord
 90
        0
  0
XRECORD
  5
2B3
102
{ACAD_REACTORS
330
2AE
102
}
330
2AE
100
AcDbXrecord
340
19
  0
XRECORD
  5
2B6
102
{ACAD_REACTORS
330
2AE
102
}
330
2AE
100
AcDbXrecord
 90
    14877
  0
XRECORD
  5
2B4
102
{ACAD_REACTORS
330
2AE
102
}
330
2AE
100
AcDbXrecord
340
18
  0
XRECORD
  5
2B5
102
{ACAD_REACTORS
330
2AE
102
}
330
2AE
100
AcDbXrecord
340
E
  0
XRECORD
  5
2BB
102
{ACAD_REACTORS
330
2AE
102
}
330
2AE
100
AcDbXrecord
 40
0.0
  0
XRECORD
  5
2BF
102
{ACAD_REACTORS
330
2AE
102
}
330
2AE
100
AcDbXrecord
340
0
  0
XRECORD
  5
2C5
102
{ACAD_REACTORS
330
2AE
102
}
330
2AE
100
AcDbXrecord
 10
0.0
 20
0.0
 30
0.0
  0
XRECORD
  5
2C1
102
{ACAD_REACTORS
330
2AE
102
}
330
2AE
100
AcDbXrecord
 10
0.0
 20
0.0
 30
0.0
  0
XRECORD
  5
2C4
102
{ACAD_REACTORS
330
2AE
102
}
330
2AE
100
AcDbXrecord
 10
0.0
 20
0.0
 30
0.0
  0
XRECORD
  5
2C2
102
{ACAD_REACTORS
330
2AE
102
}
330
2AE
100
AcDbXrecord
 10
0.0
 20
0.0
 30
0.0
  0
XRECORD
  5
2C3
102
{ACAD_REACTORS
330
2AE
102
}
330
2AE
100
AcDbXrecord
 10
0.0
 20
0.0
 30
0.0
  0
XRECORD
  5
2C0
102
{ACAD_REACTORS
330
2AE
102
}
330
2AE
100
AcDbXrecord
 10
0.0
 20
0.0
 30
0.0
  0
XRECORD
  5
2BD
102
{ACAD_REACTORS
330
2AE
102
}
330
2AE
100
AcDbXrecord
340
0
  0
XRECORD
  5
2BE
102
{ACAD_REACTORS
330
2AE
102
}
330
2AE
100
AcDbXrecord
 70
     0
  0
XRECORD
  5
2B2
102
{ACAD_REACTORS
330
2AE
102
}
330
2AE
100
AcDbXrecord
  1

  0
XRECORD
  5
2AF
102
{ACAD_REACTORS
330
2AE
102
}
330
2AE
100
AcDbXrecord
 90
        1
  0
XRECORD
  5
2B0
102
{ACAD_REACTORS
330
2AE
102
}
330
2AE
100
AcDbXrecord
 90
       70
  0
XRECORD
  5
2C8
102
{ACAD_REACTORS
330
2AE
102
}
330
2AE
100
AcDbXrecord
340
0
  0
XRECORD
  5
2CE
102
{ACAD_REACTORS
330
2AE
102
}
330
2AE
100
AcDbXrecord
 10
0.0
 20
0.0
 30
0.0
  0
XRECORD
  5
2CA
102
{ACAD_REACTORS
330
2AE
102
}
330
2AE
100
AcDbXrecord
 10
0.0
 20
0.0
 30
0.0
  0
XRECORD
  5
2CD
102
{ACAD_REACTORS
330
2AE
102
}
330
2AE
100
AcDbXrecord
 10
0.0
 20
0.0
 30
0.0
  0
XRECORD
  5
2CB
102
{ACAD_REACTORS
330
2AE
102
}
330
2AE
100
AcDbXrecord
 10
0.0
 20
0.0
 30
0.0
  0
XRECORD
  5
2CC
102
{ACAD_REACTORS
330
2AE
102
}
330
2AE
100
AcDbXrecord
 10
0.0
 20
0.0
 30
0.0
  0
XRECORD
  5
2C9
102
{ACAD_REACTORS
330
2AE
102
}
330
2AE
100
AcDbXrecord
 10
0.0
 20
0.0
 30
0.0
  0
XRECORD
  5
2C6
102
{ACAD_REACTORS
330
2AE
102
}
330
2AE
100
AcDbXrecord
340
0
  0
XRECORD
  5
2C7
102
{ACAD_REACTORS
330
2AE
102
}
330
2AE
100
AcDbXrecord
 70
     0
  0
XRECORD
  5
2BA
102
{ACAD_REACTORS
330
2AE
102
}
330
2AE
100
AcDbXrecord
  1
{D834F5C0-D959-418E-AE9D-AD87E2B9BABE}
  0
DICTIONARYVAR
  5
18E
102
{ACAD_REACTORS
330
18C
102
}
330
18C
100
DictionaryVariables
280
     0
  1
2
  0
DICTIONARYVAR
  5
18D
102
{ACAD_REACTORS
330
18C
102
}
330
18C
100
DictionaryVariables
280
     0
  1
1
  0
ENDSEC
  0
EOF
