  0
SECTION
  2
HEADER
  9
$ACADVER
  1
AC1014
  9
$ACADMAINTVER
 70
     9
  9
$DWGCODEPAGE
  3
ANSI_1252
  9
$INSBASE
 10
15.6478135880318
 20
1.393304121425081
 30
0.0
  9
$EXTMIN
 10
8.497084563475187
 20
0.6348042462750782
 30
0.0
  9
$EXTMAX
 10
21.54854261258841
 20
5.922995326886358
 30
0.0
  9
$LIMMIN
 10
0.0
 20
0.0
  9
$LIMMAX
 10
36.0
 20
36.0
  9
$ORTHOMODE
 70
     1
  9
$REGENMODE
 70
     1
  9
$FILLMODE
 70
     1
  9
$QTEXTMODE
 70
     0
  9
$MIRRTEXT
 70
     1
  9
$DRAGMODE
 70
     0
  9
$LTSCALE
 40
1.0
  9
$OSMODE
 70
    37
  9
$ATTMODE
 70
     1
  9
$TEXTSIZE
 40
0.2
  9
$TRACEWID
 40
0.05
  9
$TEXTSTYLE
  7
STANDARD
  9
$CLAYER
  8
ADPDIM
  9
$CELTYPE
  6
BYLAYER
  9
$CECOLOR
 62
   256
  9
$CELTSCALE
 40
1.0
  9
$DELOBJ
 70
     1
  9
$DISPSILH
 70
     0
  9
$DIMSCALE
 40
1.0
  9
$DIMASZ
 40
0.125
  9
$DIMEXO
 40
0.0625
  9
$DIMDLI
 40
0.38
  9
$DIMRND
 40
0.0
  9
$DIMDLE
 40
0.0
  9
$DIMEXE
 40
0.18
  9
$DIMTP
 40
0.0
  9
$DIMTM
 40
0.0
  9
$DIMTXT
 40
0.125
  9
$DIMCEN
 40
0.1875
  9
$DIMTSZ
 40
0.125
  9
$DIMTOL
 70
     0
  9
$DIMLIM
 70
     0
  9
$DIMTIH
 70
     0
  9
$DIMTOH
 70
     0
  9
$DIMSE1
 70
     0
  9
$DIMSE2
 70
     0
  9
$DIMTAD
 70
     0
  9
$DIMZIN
 70
     3
  9
$DIMBLK
  1

  9
$DIMASO
 70
     1
  9
$DIMSHO
 70
     1
  9
$DIMPOST
  1

  9
$DIMAPOST
  1

  9
$DIMALT
 70
     0
  9
$DIMALTD
 70
     1
  9
$DIMALTF
 40
25.4
  9
$DIMLFAC
 40
1.0
  9
$DIMTOFL
 70
     0
  9
$DIMTVP
 40
0.0
  9
$DIMTIX
 70
     0
  9
$DIMSOXD
 70
     0
  9
$DIMSAH
 70
     0
  9
$DIMBLK1
  1

  9
$DIMBLK2
  1

  9
$DIMSTYLE
  2
STANDARD
  9
$DIMCLRD
 70
     0
  9
$DIMCLRE
 70
     0
  9
$DIMCLRT
 70
     0
  9
$DIMTFAC
 40
1.0
  9
$DIMGAP
 40
0.125
  9
$DIMJUST
 70
     0
  9
$DIMSD1
 70
     0
  9
$DIMSD2
 70
     0
  9
$DIMTOLJ
 70
     1
  9
$DIMTZIN
 70
     0
  9
$DIMALTZ
 70
     0
  9
$DIMALTTZ
 70
     0
  9
$DIMFIT
 70
     3
  9
$DIMUPT
 70
     0
  9
$DIMUNIT
 70
     2
  9
$DIMDEC
 70
     4
  9
$DIMTDEC
 70
     4
  9
$DIMALTU
 70
     2
  9
$DIMALTTD
 70
     2
  9
$DIMTXSTY
  7
STANDARD
  9
$DIMAUNIT
 70
     0
  9
$LUNITS
 70
     5
  9
$LUPREC
 70
     5
  9
$SKETCHINC
 40
0.1
  9
$FILLETRAD
 40
0.0
  9
$AUNITS
 70
     0
  9
$AUPREC
 70
     0
  9
$MENU
  1
acad
  9
$ELEVATION
 40
0.0
  9
$PELEVATION
 40
0.0
  9
$THICKNESS
 40
0.0
  9
$LIMCHECK
 70
     0
  9
$BLIPMODE
 70
     0
  9
$CHAMFERA
 40
0.03125
  9
$CHAMFERB
 40
0.03125
  9
$CHAMFERC
 40
0.0
  9
$CHAMFERD
 40
0.0
  9
$SKPOLY
 70
     0
  9
$TDCREATE
 40
2450287.669947337
  9
$TDUPDATE
 40
2452297.084817708
  9
$TDINDWG
 40
0.0969169560
  9
$TDUSRTIMER
 40
0.0969169560
  9
$USRTIMER
 70
     1
  9
$ANGBASE
 50
0.0
  9
$ANGDIR
 70
     0
  9
$PDMODE
 70
     0
  9
$PDSIZE
 40
0.0
  9
$PLINEWID
 40
0.0
  9
$COORDS
 70
     2
  9
$SPLFRAME
 70
     0
  9
$SPLINETYPE
 70
     6
  9
$SPLINESEGS
 70
     8
  9
$ATTDIA
 70
     0
  9
$ATTREQ
 70
     1
  9
$HANDLING
 70
 22529
  9
$HANDSEED
  5
1F6
  9
$SURFTAB1
 70
     6
  9
$SURFTAB2
 70
     6
  9
$SURFTYPE
 70
     6
  9
$SURFU
 70
     6
  9
$SURFV
 70
     6
  9
$UCSNAME
  2

  9
$UCSORG
 10
0.0
 20
0.0
 30
0.0
  9
$UCSXDIR
 10
1.0
 20
0.0
 30
0.0
  9
$UCSYDIR
 10
0.0
 20
1.0
 30
0.0
  9
$PUCSNAME
  2

  9
$PUCSORG
 10
0.0
 20
0.0
 30
0.0
  9
$PUCSXDIR
 10
1.0
 20
0.0
 30
0.0
  9
$PUCSYDIR
 10
0.0
 20
1.0
 30
0.0
  9
$USERI1
 70
     0
  9
$USERI2
 70
     0
  9
$USERI3
 70
     0
  9
$USERI4
 70
     0
  9
$USERI5
 70
     0
  9
$USERR1
 40
0.0
  9
$USERR2
 40
0.0
  9
$USERR3
 40
0.0
  9
$USERR4
 40
0.0
  9
$USERR5
 40
0.0
  9
$WORLDVIEW
 70
     1
  9
$SHADEDGE
 70
     3
  9
$SHADEDIF
 70
    70
  9
$TILEMODE
 70
     1
  9
$MAXACTVP
 70
    15
  9
$PINSBASE
 10
0.1875030994415286
 20
0.0
 30
0.0
  9
$PLIMCHECK
 70
     0
  9
$PEXTMIN
 10
1.000000000000000E+20
 20
1.000000000000000E+20
 30
1.000000000000000E+20
  9
$PEXTMAX
 10
-1.000000000000000E+20
 20
-1.000000000000000E+20
 30
-1.000000000000000E+20
  9
$PLIMMIN
 10
0.0
 20
0.0
  9
$PLIMMAX
 10
12.0
 20
9.0
  9
$UNITMODE
 70
     0
  9
$VISRETAIN
 70
     0
  9
$PLINEGEN
 70
     0
  9
$PSLTSCALE
 70
     1
  9
$TREEDEPTH
 70
  3020
  9
$PICKSTYLE
 70
     1
  9
$CMLSTYLE
  2
STANDARD
  9
$CMLJUST
 70
     0
  9
$CMLSCALE
 40
1.0
  9
$PROXYGRAPHICS
 70
     1
  9
$MEASUREMENT
 70
     0
  0
ENDSEC
  0
SECTION
  2
CLASSES
  0
CLASS
  1
ACDBDICTIONARYWDFLT
  2
AcDbDictionaryWithDefault
  3
AutoCAD 2000
 90
        0
280
     0
281
     0
  0
CLASS
  1
ACDBPLACEHOLDER
  2
AcDbPlaceHolder
  3
AutoCAD 2000
 90
        0
280
     0
281
     0
  0
CLASS
  1
LAYOUT
  2
AcDbLayout
  3
AutoCAD 2000
 90
        0
280
     0
281
     0
  0
CLASS
  1
DICTIONARYVAR
  2
AcDbDictionaryVar
  3
AutoCAD 2000
 90
        0
280
     0
281
     0
  0
CLASS
  1
LONG_TRANSACTION
  2
AcDbLongTransaction
  3
AutoCAD 2000
 90
        0
280
     0
281
     0
  0
CLASS
  1
LWPOLYLINE
  2
AcDbPolyline
  3
AutoCAD 2000
 90
        0
280
     0
281
     1
  0
CLASS
  1
HATCH
  2
AcDbHatch
  3
AutoCAD 2000
 90
        0
280
     0
281
     1
  0
CLASS
  1
XRECORD
  2
AcDbXrecord
  3
AutoCAD 2000
 90
        0
280
     0
281
     0
  0
CLASS
  1
LONG_TRANSACTION
  2
AcDbLongTransaction
  3
AutoCAD 2000
 90
        0
280
     0
281
     0
  0
CLASS
  1
LWPOLYLINE
  2
AcDbPolyline
  3
AutoCAD 2000
 90
        0
280
     0
281
     1
  0
CLASS
  1
HATCH
  2
AcDbHatch
  3
AutoCAD 2000
 90
        0
280
     0
281
     1
  0
CLASS
  1
XRECORD
  2
AcDbXrecord
  3
AutoCAD 2000
 90
        0
280
     0
281
     0
  0
CLASS
  1
LONG_TRANSACTION
  2
AcDbLongTransaction
  3
AutoCAD 2000
 90
        0
280
     0
281
     0
  0
CLASS
  1
LWPOLYLINE
  2
AcDbPolyline
  3
AutoCAD 2000
 90
        0
280
     0
281
     1
  0
CLASS
  1
HATCH
  2
AcDbHatch
  3
AutoCAD 2000
 90
        0
280
     0
281
     1
  0
CLASS
  1
XRECORD
  2
AcDbXrecord
  3
AutoCAD 2000
 90
        0
280
     0
281
     0
  0
CLASS
  1
LONG_TRANSACTION
  2
AcDbLongTransaction
  3
AutoCAD 2000
 90
        0
280
     0
281
     0
  0
CLASS
  1
LWPOLYLINE
  2
AcDbPolyline
  3
AutoCAD 2000
 90
        0
280
     0
281
     1
  0
CLASS
  1
HATCH
  2
AcDbHatch
  3
AutoCAD 2000
 90
        0
280
     0
281
     1
  0
CLASS
  1
XRECORD
  2
AcDbXrecord
  3
AutoCAD 2000
 90
        0
280
     0
281
     0
  0
CLASS
  1
LONG_TRANSACTION
  2
AcDbLongTransaction
  3
AutoCAD 2000
 90
        0
280
     0
281
     0
  0
CLASS
  1
LWPOLYLINE
  2
AcDbPolyline
  3
AutoCAD 2000
 90
        0
280
     0
281
     1
  0
CLASS
  1
HATCH
  2
AcDbHatch
  3
AutoCAD 2000
 90
        0
280
     0
281
     1
  0
CLASS
  1
XRECORD
  2
AcDbXrecord
  3
AutoCAD 2000
 90
        0
280
     0
281
     0
  0
ENDSEC
  0
SECTION
  2
TABLES
  0
TABLE
  2
VPORT
  5
8
330
0
100
AcDbSymbolTable
 70
     2
  0
VPORT
  5
1D3
330
8
100
AcDbSymbolTableRecord
100
AcDbViewportTableRecord
  2
*ACTIVE
 70
     0
 10
0.0
 20
0.0
 11
1.0
 21
1.0
 12
15.03323895663364
 22
3.278320379180744
 13
0.0
 23
0.0
 14
0.5740882589684922
 24
0.5740882589684922
 15
0.5
 25
0.5
 16
0.0
 26
0.0
 36
1.0
 17
0.0
 27
0.0
 37
0.0
 40
8.36383573557225
 41
1.570528967254408
 42
50.0
 43
0.0
 44
0.0
 50
0.0
 51
0.0
 71
     0
 72
   100
 73
     1
 74
     0
 75
     0
 76
     0
 77
     0
 78
     0
  0
ENDTAB
  0
TABLE
  2
LTYPE
  5
5
330
0
100
AcDbSymbolTable
 70
     2
  0
LTYPE
  5
12
330
5
100
AcDbSymbolTableRecord
100
AcDbLinetypeTableRecord
  2
BYBLOCK
 70
     0
  3

 72
    65
 73
     0
 40
0.0
  0
LTYPE
  5
13
330
5
100
AcDbSymbolTableRecord
100
AcDbLinetypeTableRecord
  2
BYLAYER
 70
     0
  3

 72
    65
 73
     0
 40
0.0
  0
LTYPE
  5
14
330
5
100
AcDbSymbolTableRecord
100
AcDbLinetypeTableRecord
  2
CONTINUOUS
 70
     0
  3
Solid line
 72
    65
 73
     0
 40
0.0
  0
LTYPE
  5
2A
330
5
100
AcDbSymbolTableRecord
100
AcDbLinetypeTableRecord
  2
HIDDEN2
 70
     0
  3
_ _ _ _ _ _ _ _ _ _ _ _ _ _ _ _ _ _ _ _ _ _ _ _
 72
    65
 73
     2
 40
0.1875
 49
0.125
 74
     0
 49
-0.0625
 74
     0
  0
ENDTAB
  0
TABLE
  2
LAYER
  5
2
330
0
100
AcDbSymbolTable
 70
     5
  0
LAYER
  5
F
330
2
100
AcDbSymbolTableRecord
100
AcDbLayerTableRecord
  2
0
 70
     0
 62
     7
  6
CONTINUOUS
  0
LAYER
  5
2B
330
2
100
AcDbSymbolTableRecord
100
AcDbLayerTableRecord
  2
ADP2DETAIL
 70
     0
 62
     5
  6
CONTINUOUS
  0
LAYER
  5
2C
330
2
100
AcDbSymbolTableRecord
100
AcDbLayerTableRecord
  2
ADPDIM
 70
     0
 62
     3
  6
CONTINUOUS
  0
LAYER
  5
2D
330
2
100
AcDbSymbolTableRecord
100
AcDbLayerTableRecord
  2
ADP1DETAIL
 70
     0
 62
     7
  6
CONTINUOUS
  0
LAYER
  5
2E
330
2
100
AcDbSymbolTableRecord
100
AcDbLayerTableRecord
  2
DEFPOINTS
 70
     0
 62
     7
  6
CONTINUOUS
  0
ENDTAB
  0
TABLE
  2
STYLE
  5
3
330
0
100
AcDbSymbolTable
 70
     2
  0
STYLE
  5
10
330
3
100
AcDbSymbolTableRecord
100
AcDbTextStyleTableRecord
  2
STANDARD
 70
     0
 40
0.0
 41
1.0
 50
0.0
 71
     0
 42
0.2
  3
txt
  4

  0
STYLE
  5
8F
330
3
100
AcDbSymbolTableRecord
100
AcDbTextStyleTableRecord
  2
ARIAL_WIDE
 70
     0
 40
0.0
 41
1.25
 50
0.0
 71
     0
 42
0.2
  3
ARIAL.TTF
  4

1001
ACAD
1000
Arial
1071
       34
  0
ENDTAB
  0
TABLE
  2
VIEW
  5
6
330
0
100
AcDbSymbolTable
 70
     0
  0
ENDTAB
  0
TABLE
  2
UCS
  5
7
330
0
100
AcDbSymbolTable
 70
     0
  0
ENDTAB
  0
TABLE
  2
APPID
  5
9
330
0
100
AcDbSymbolTable
 70
     1
  0
APPID
  5
11
330
9
100
AcDbSymbolTableRecord
100
AcDbRegAppTableRecord
  2
ACAD
 70
     0
  0
ENDTAB
  0
TABLE
  2
DIMSTYLE
  5
A
330
0
100
AcDbSymbolTable
 70
     1
  0
DIMSTYLE
105
83
330
A
100
AcDbSymbolTableRecord
100
AcDbDimStyleTableRecord
  2
STANDARD
 70
     0
  3

  4

  5

  6

  7

 40
1.0
 41
0.18
 42
0.0625
 43
0.38
 44
0.18
 45
0.0
 46
0.0
 47
0.0
 48
0.0
140
0.18
141
0.09
142
0.0
143
25.4
144
1.0
145
0.0
146
1.0
147
0.09
 71
     0
 72
     0
 73
     1
 74
     1
 75
     0
 76
     0
 77
     0
 78
     0
170
     0
171
     2
172
     0
173
     0
174
     0
175
     0
176
     0
177
     0
178
     0
270
     2
271
     4
272
     4
273
     2
274
     2
340
10
275
     0
280
     0
281
     0
282
     0
283
     1
284
     0
285
     0
286
     0
287
     3
288
     0
  0
ENDTAB
  0
TABLE
  2
BLOCK_RECORD
  5
1
330
0
100
AcDbSymbolTable
 70
     3
  0
BLOCK_RECORD
  5
18
102
{ACAD_XDICTIONARY
360
E4
102
}
330
1
100
AcDbSymbolTableRecord
100
AcDbBlockTableRecord
  2
*MODEL_SPACE
  0
BLOCK_RECORD
  5
15
102
{ACAD_XDICTIONARY
360
E2
102
}
330
1
100
AcDbSymbolTableRecord
100
AcDbBlockTableRecord
  2
*PAPER_SPACE
  0
BLOCK_RECORD
  5
27
330
1
100
AcDbSymbolTableRecord
100
AcDbBlockTableRecord
  2
*D0
  0
BLOCK_RECORD
  5
28
330
1
100
AcDbSymbolTableRecord
100
AcDbBlockTableRecord
  2
*D1
  0
BLOCK_RECORD
  5
29
330
1
100
AcDbSymbolTableRecord
100
AcDbBlockTableRecord
  2
*D2
  0
ENDTAB
  0
ENDSEC
  0
SECTION
  2
BLOCKS
  0
BLOCK
  5
31
330
18
100
AcDbEntity
  8
0
100
AcDbBlockBegin
  2
*MODEL_SPACE
 70
     0
 10
0.0
 20
0.0
 30
0.0
  3
*MODEL_SPACE
  1

  0
ENDBLK
  5
32
330
18
100
AcDbEntity
  8
0
100
AcDbBlockEnd
  0
BLOCK
  5
2F
330
15
100
AcDbEntity
 67
     1
  8
0
100
AcDbBlockBegin
  2
*PAPER_SPACE
 70
     0
 10
0.0
 20
0.0
 30
0.0
  3
*PAPER_SPACE
  1

  0
ENDBLK
  5
30
330
15
100
AcDbEntity
 67
     1
  8
0
100
AcDbBlockEnd
  0
BLOCK
  5
34
330
27
100
AcDbEntity
  8
0
100
AcDbBlockBegin
  2
*D0
 70
     1
 10
0.0
 20
0.0
 30
0.0
  3
*D0
  1

  0
LINE
  5
35
330
27
100
AcDbEntity
  8
0
  6
BYBLOCK
 62
     0
100
AcDbLine
 10
14.3978135880318
 20
1.330804121425081
 30
0.0
 11
14.3978135880318
 21
0.988641313933649
 31
0.0
  0
LINE
  5
36
330
27
100
AcDbEntity
  8
0
  6
BYBLOCK
 62
     0
100
AcDbLine
 10
15.6478135880318
 20
1.330804121425081
 30
0.0
 11
15.6478135880318
 21
0.988641313933649
 31
0.0
  0
LINE
  5
37
330
27
100
AcDbEntity
  8
0
  6
BYBLOCK
 62
     0
100
AcDbLine
 10
14.3978135880318
 20
1.168641313933648
 30
0.0
 11
14.6478135880318
 21
1.168641313933648
 31
0.0
  0
LINE
  5
38
330
27
100
AcDbEntity
  8
0
  6
BYBLOCK
 62
     0
100
AcDbLine
 10
15.6478135880318
 20
1.168641313933648
 30
0.0
 11
15.3978135880318
 21
1.168641313933648
 31
0.0
  0
LINE
  5
39
330
27
100
AcDbEntity
  8
0
  6
BYBLOCK
 62
     0
100
AcDbLine
 10
14.2728135880318
 20
1.043641313933648
 30
0.0
 11
14.5228135880318
 21
1.293641313933648
 31
0.0
  0
LINE
  5
3A
330
27
100
AcDbEntity
  8
0
  6
BYBLOCK
 62
     0
100
AcDbLine
 10
15.5228135880318
 20
1.043641313933648
 30
0.0
 11
15.7728135880318
 21
1.293641313933648
 31
0.0
  0
TEXT
  5
3B
330
27
100
AcDbEntity
  8
0
  6
BYBLOCK
 62
     0
100
AcDbText
 10
14.7728135880318
 20
1.106141313933648
 30
0.0
 40
0.125
  1
1 1/4
 72
     1
 11
15.0228135880318
 21
1.168641313933648
 31
0.0
100
AcDbText
 73
     2
  0
POINT
  5
3C
330
27
100
AcDbEntity
  8
DEFPOINTS
  6
BYBLOCK
 62
     0
100
AcDbPoint
 10
14.3978135880318
 20
1.393304121425081
 30
0.0
  0
POINT
  5
3D
330
27
100
AcDbEntity
  8
DEFPOINTS
  6
BYBLOCK
 62
     0
100
AcDbPoint
 10
15.6478135880318
 20
1.393304121425081
 30
0.0
  0
POINT
  5
3E
330
27
100
AcDbEntity
  8
DEFPOINTS
  6
BYBLOCK
 62
     0
100
AcDbPoint
 10
15.6478135880318
 20
1.168641313933648
 30
0.0
  0
ENDBLK
  5
3F
330
27
100
AcDbEntity
  8
0
100
AcDbBlockEnd
  0
BLOCK
  5
40
330
28
100
AcDbEntity
  8
0
100
AcDbBlockBegin
  2
*D1
 70
     1
 10
0.0
 20
0.0
 30
0.0
  3
*D1
  1

  0
LINE
  5
41
330
28
100
AcDbEntity
  8
0
  6
BYBLOCK
 62
     0
100
AcDbLine
 10
14.97692803840819
 20
4.030620072201464
 30
0.0
 11
13.96652408158285
 21
4.030620072201464
 31
0.0
  0
LINE
  5
42
330
28
100
AcDbEntity
  8
0
  6
BYBLOCK
 62
     0
100
AcDbLine
 10
14.3353135880318
 20
1.393304121425081
 30
0.0
 11
13.96652408158285
 21
1.393304121425081
 31
0.0
  0
LINE
  5
43
330
28
100
AcDbEntity
  8
0
  6
BYBLOCK
 62
     0
100
AcDbLine
 10
14.14652408158285
 20
4.030620072201464
 30
0.0
 11
14.14652408158285
 21
3.128628763479939
 31
0.0
  0
LINE
  5
44
330
28
100
AcDbEntity
  8
0
  6
BYBLOCK
 62
     0
100
AcDbLine
 10
14.14652408158285
 20
1.393304121425081
 30
0.0
 11
14.14652408158285
 21
2.295295430146606
 31
0.0
  0
LINE
  5
45
330
28
100
AcDbEntity
  8
0
  6
BYBLOCK
 62
     0
100
AcDbLine
 10
14.27152408158285
 20
3.905620072201464
 30
0.0
 11
14.02152408158285
 21
4.155620072201464
 31
0.0
  0
LINE
  5
46
330
28
100
AcDbEntity
  8
0
  6
BYBLOCK
 62
     0
100
AcDbLine
 10
14.27152408158285
 20
1.268304121425081
 30
0.0
 11
14.02152408158285
 21
1.518304121425081
 31
0.0
  0
TEXT
  5
47
330
28
100
AcDbEntity
  8
0
  6
BYBLOCK
 62
     0
100
AcDbText
 10
14.20902408158285
 20
2.420295430146606
 30
0.0
 40
0.125
  1
2 5/8
 50
90.0
 72
     1
 11
14.14652408158285
 21
2.711962096813272
 31
0.0
100
AcDbText
 73
     2
  0
POINT
  5
48
330
28
100
AcDbEntity
  8
DEFPOINTS
  6
BYBLOCK
 62
     0
100
AcDbPoint
 10
15.03942803840819
 20
4.030620072201464
 30
0.0
  0
POINT
  5
49
330
28
100
AcDbEntity
  8
DEFPOINTS
  6
BYBLOCK
 62
     0
100
AcDbPoint
 10
14.3978135880318
 20
1.393304121425081
 30
0.0
  0
POINT
  5
4A
330
28
100
AcDbEntity
  8
DEFPOINTS
  6
BYBLOCK
 62
     0
100
AcDbPoint
 10
14.14652408158285
 20
1.393304121425081
 30
0.0
  0
ENDBLK
  5
4B
330
28
100
AcDbEntity
  8
0
100
AcDbBlockEnd
  0
BLOCK
  5
4C
330
29
100
AcDbEntity
  8
0
100
AcDbBlockBegin
  2
*D2
 70
     1
 10
0.0
 20
0.0
 30
0.0
  3
*D2
  1

  0
LINE
  5
4D
330
29
100
AcDbEntity
  8
0
  6
BYBLOCK
 62
     0
100
AcDbLine
 10
15.61217661668732
 20
2.816960160104048
 30
0.0
 11
15.8086309595725
 21
2.662345506330371
 31
0.0
  0
LINE
  5
4E
330
29
100
AcDbEntity
  8
0
  6
BYBLOCK
 62
     0
100
AcDbLine
 10
15.4366421183579
 20
2.7960403155483
 30
0.0
 11
15.78771111501675
 21
2.837880004659797
 31
0.0
  0
LINE
  5
4F
330
29
100
AcDbEntity
  8
0
  6
BYBLOCK
 62
     0
100
AcDbLine
 10
14.8353135880318
 20
3.28080412142508
 30
0.0
 11
15.2103135880318
 21
3.28080412142508
 31
0.0
  0
LINE
  5
50
330
29
100
AcDbEntity
  8
0
  6
BYBLOCK
 62
     0
100
AcDbLine
 10
15.0228135880318
 20
3.09330412142508
 30
0.0
 11
15.0228135880318
 21
3.46830412142508
 31
0.0
  0
TEXT
  5
51
330
29
100
AcDbEntity
  8
0
  6
BYBLOCK
 62
     0
100
AcDbText
 10
15.86820446757167
 20
2.535924593722238
 30
0.0
 40
0.125
  1
%%c1 1/2
 50
321.7963384537738
 72
     1
 11
16.15242605962155
 21
2.391769862226435
 31
0.0
100
AcDbText
 73
     2
  0
POINT
  5
52
330
29
100
AcDbEntity
  8
DEFPOINTS
  6
BYBLOCK
 62
     0
100
AcDbPoint
 10
15.61217661668732
 20
2.816960160104048
 30
0.0
  0
POINT
  5
53
330
29
100
AcDbEntity
  8
DEFPOINTS
  6
BYBLOCK
 62
     0
100
AcDbPoint
 10
14.43345055937627
 20
3.744648082746113
 30
0.0
  0
ENDBLK
  5
54
330
29
100
AcDbEntity
  8
0
100
AcDbBlockEnd
  0
ENDSEC
  0
SECTION
  2
ENTITIES
  0
DIMENSION
  5
55
330
18
100
AcDbEntity
  8
ADPDIM
100
AcDbDimension
  2
*D2
 10
14.43345055937627
 20
3.744648082746113
 30
0.0
 11
16.15242605962155
 21
2.391769862226435
 31
0.0
 70
     3
100
AcDbDiametricDimension
 15
15.61217661668732
 25
2.816960160104048
 35
0.0
 40
0.0
  0
DIMENSION
  5
56
330
18
100
AcDbEntity
  8
ADPDIM
100
AcDbDimension
  2
*D1
 10
14.14652408158285
 20
1.393304121425081
 30
0.0
 11
14.14652408158285
 21
2.711962096813272
 31
0.0
100
AcDbAlignedDimension
 13
15.03942803840819
 23
4.030620072201464
 33
0.0
 14
14.3978135880318
 24
1.393304121425081
 34
0.0
 50
90.0
100
AcDbRotatedDimension
  0
ARC
  5
57
330
18
100
AcDbEntity
  8
ADP1DETAIL
100
AcDbCircle
 10
15.0228135880318
 20
3.280804121425081
 30
0.0
 40
0.75
100
AcDbArc
 50
291.0394697813172
 51
246.4218215217981
  0
DIMENSION
  5
58
330
18
100
AcDbEntity
  8
ADPDIM
100
AcDbDimension
  2
*D0
 10
15.6478135880318
 20
1.168641313933648
 30
0.0
 11
15.0228135880318
 21
1.168641313933648
 31
0.0
100
AcDbAlignedDimension
 13
14.3978135880318
 23
1.393304121425081
 33
0.0
 14
15.6478135880318
 24
1.393304121425081
 34
0.0
100
AcDbRotatedDimension
  0
LINE
  5
59
330
18
100
AcDbEntity
  8
ADP1DETAIL
100
AcDbLine
 10
15.32079750258131
 20
1.955804121425081
 30
0.0
 11
14.72482967348228
 21
1.955804121425081
 31
0.0
  0
LINE
  5
5A
330
18
100
AcDbEntity
  8
ADP1DETAIL
100
AcDbLine
 10
15.32079750258131
 20
2.018304121425081
 30
0.0
 11
14.72482967348228
 21
2.018304121425081
 31
0.0
  0
LWPOLYLINE
  5
5B
330
18
100
AcDbEntity
  8
ADP1DETAIL
100
AcDbPolyline
 90
        3
 70
     0
 43
0.0
 10
15.3978135880318
 20
2.455804121425081
 42
0.2369143115377717
 10
15.17583235496263
 20
2.254548783118946
 42
0.3655961936329093
 10
15.32079750258131
 20
2.018304121425081
 42
-3.827538231605631
  0
LINE
  5
60
330
18
100
AcDbEntity
  8
ADP1DETAIL
100
AcDbLine
 10
15.3978135880318
 20
2.455804121425081
 30
0.0
 11
14.6478135880318
 21
2.455804121425081
 31
0.0
  0
LINE
  5
61
330
18
100
AcDbEntity
  8
ADP1DETAIL
100
AcDbLine
 10
15.3228135880318
 20
2.593417767181705
 30
0.0
 11
14.7228135880318
 21
2.593417767181705
 31
0.0
  0
LINE
  5
62
330
18
100
AcDbEntity
  8
ADP1DETAIL
100
AcDbLine
 10
15.6478135880318
 20
1.393304121425081
 30
0.0
 11
14.3978135880318
 21
1.393304121425081
 31
0.0
  0
LINE
  5
63
330
18
100
AcDbEntity
  8
ADP1DETAIL
100
AcDbLine
 10
15.6478135880318
 20
1.768304121425081
 30
0.0
 11
14.3978135880318
 21
1.768304121425081
 31
0.0
  0
LWPOLYLINE
  5
64
330
18
100
AcDbEntity
  8
ADP1DETAIL
100
AcDbPolyline
 90
        3
 70
     0
 43
0.0
 10
14.6478135880318
 20
2.455804121425081
 42
-0.2369143115377717
 10
14.86979482110097
 20
2.254548783118946
 42
-0.3655961936329093
 10
14.72482967348228
 20
2.018304121425081
 42
3.827538231605631
  0
ARC
  5
69
330
18
100
AcDbEntity
  8
ADP1DETAIL
100
AcDbCircle
 10
14.82174784071891
 20
1.596818174876559
 30
0.0
 40
0.3718387297738709
100
AcDbArc
 50
105.1083793340455
 51
152.5364866340062
  0
LINE
  5
6A
330
18
100
AcDbEntity
  8
ADP1DETAIL
100
AcDbLine
 10
14.3978135880318
 20
1.393304121425081
 30
0.0
 11
14.3978135880318
 21
1.768304121425081
 31
0.0
  0
LINE
  5
6B
330
18
100
AcDbEntity
  8
ADP1DETAIL
100
AcDbLine
 10
14.72482967348228
 20
2.018304121425081
 30
0.0
 11
14.72482967348229
 21
1.955804121425081
 31
0.0
  0
ARC
  5
6C
330
18
100
AcDbEntity
  8
ADP1DETAIL
100
AcDbCircle
 10
14.78422024183529
 20
2.470706413292123
 30
0.0
 40
0.1372182695735391
100
AcDbArc
 50
116.5840895033581
 51
186.234780883016
  0
ARC
  5
6D
330
18
100
AcDbEntity
  8
ADP1DETAIL
100
AcDbCircle
 10
15.22387933534468
 20
1.596818174876559
 30
0.0
 40
0.3718387297738709
100
AcDbArc
 50
27.46351336599381
 51
74.89162066595451
  0
LINE
  5
6E
330
18
100
AcDbEntity
  8
ADP1DETAIL
100
AcDbLine
 10
15.32079750258131
 20
2.018304121425081
 30
0.0
 11
15.32079750258131
 21
1.955804121425081
 31
0.0
  0
LINE
  5
6F
330
18
100
AcDbEntity
  8
ADP1DETAIL
100
AcDbLine
 10
15.6478135880318
 20
1.768304121425081
 30
0.0
 11
15.6478135880318
 21
1.393304121425081
 31
0.0
  0
ARC
  5
70
330
18
100
AcDbEntity
  8
ADP1DETAIL
100
AcDbCircle
 10
15.2614069342283
 20
2.470706413292123
 30
0.0
 40
0.1372182695735391
100
AcDbArc
 50
353.7652191169839
 51
63.41591049664188
  0
ARC
  5
71
330
18
100
AcDbEntity
  8
ADP1DETAIL
100
AcDbCircle
 10
15.2614069342283
 20
2.470706413292123
 30
0.0
 40
0.1372182695735391
100
AcDbArc
 50
353.7652191169839
 51
63.41591049664188
  0
LINE
  5
72
330
18
100
AcDbEntity
  8
ADP2DETAIL
  6
HIDDEN2
100
AcDbLine
 10
14.61007163349798
 20
5.799008730856497
 30
0.0
 11
15.43555554256561
 21
5.799008730856497
 31
0.0
  0
LINE
  5
73
330
18
100
AcDbEntity
  8
ADP2DETAIL
  6
HIDDEN2
100
AcDbLine
 10
15.43555554256561
 20
4.549008730856497
 30
0.0
 11
14.61007163349798
 21
4.549008730856497
 31
0.0
  0
CIRCLE
  5
74
330
18
100
AcDbEntity
  8
ADP2DETAIL
  6
HIDDEN2
100
AcDbCircle
 10
15.0228135880318
 20
5.174008730856497
 30
0.0
 40
0.5315388746018357
  0
CIRCLE
  5
75
330
18
100
AcDbEntity
  8
ADP2DETAIL
  6
HIDDEN2
100
AcDbCircle
 10
15.0228135880318
 20
5.174008730856497
 30
0.0
 40
0.3785201076710045
  0
CIRCLE
  5
76
330
18
100
AcDbEntity
  8
ADP2DETAIL
  6
HIDDEN2
100
AcDbCircle
 10
15.0228135880318
 20
5.174008730856497
 30
0.0
 40
0.3140911531738109
  0
CIRCLE
  5
77
330
18
100
AcDbEntity
  8
ADP1DETAIL
100
AcDbCircle
 10
15.0228135880318
 20
5.174008730856497
 30
0.0
 40
0.7489865960298605
  0
LINE
  5
78
330
18
100
AcDbEntity
  8
ADP2DETAIL
  6
HIDDEN2
100
AcDbLine
 10
14.39463128168418
 20
4.766126503952484
 30
0.0
 11
14.39463128168418
 21
5.581890957760509
 31
0.0
  0
CIRCLE
  5
79
330
18
100
AcDbEntity
  8
ADP2DETAIL
  6
HIDDEN2
100
AcDbCircle
 10
15.0228135880318
 20
5.174008730856497
 30
0.0
 40
0.1530187669308312
  0
LINE
  5
7A
330
18
100
AcDbEntity
  8
ADP1DETAIL
100
AcDbLine
 10
14.61007163349798
 20
4.549008730856497
 30
0.0
 11
14.39463128168418
 21
4.549008730856497
 31
0.0
  0
LINE
  5
7B
330
18
100
AcDbEntity
  8
ADP1DETAIL
100
AcDbLine
 10
14.39463128168418
 20
4.549008730856497
 30
0.0
 11
14.39463128168418
 21
4.766126503952484
 31
0.0
  0
LINE
  5
7C
330
18
100
AcDbEntity
  8
ADP1DETAIL
100
AcDbLine
 10
14.39463128168418
 20
5.799008730856498
 30
0.0
 11
14.61007163349798
 21
5.799008730856497
 31
0.0
  0
LINE
  5
7D
330
18
100
AcDbEntity
  8
ADP1DETAIL
100
AcDbLine
 10
14.39463128168418
 20
5.581890957760512
 30
0.0
 11
14.39463128168418
 21
5.799008730856498
 31
0.0
  0
LINE
  5
7E
330
18
100
AcDbEntity
  8
ADP2DETAIL
  6
HIDDEN2
100
AcDbLine
 10
15.65099594517456
 20
5.581890879530547
 30
0.0
 11
15.65099594517456
 21
4.766126582182443
 31
0.0
  0
LINE
  5
7F
330
18
100
AcDbEntity
  8
ADP1DETAIL
100
AcDbLine
 10
15.65099594517456
 20
4.549008730856497
 30
0.0
 11
15.43555554256562
 21
4.549008730856497
 31
0.0
  0
LINE
  5
80
330
18
100
AcDbEntity
  8
ADP1DETAIL
100
AcDbLine
 10
15.65099594517456
 20
4.766126582182444
 30
0.0
 11
15.65099594517456
 21
4.549008730856497
 31
0.0
  0
LINE
  5
81
330
18
100
AcDbEntity
  8
ADP1DETAIL
100
AcDbLine
 10
15.43555554256561
 20
5.799008730856498
 30
0.0
 11
15.65099594517456
 21
5.799008730856498
 31
0.0
  0
LINE
  5
82
330
18
100
AcDbEntity
  8
ADP1DETAIL
100
AcDbLine
 10
15.65099594517456
 20
5.799008730856498
 30
0.0
 11
15.65099594517456
 21
5.58189087953055
 31
0.0
  0
TEXT
  5
90
330
18
100
AcDbEntity
  8
ADPDIM
100
AcDbText
 10
8.497084563475187
 20
0.671809703300999
 30
0.0
 40
0.125
  1
J U L I U S  B L U M  &  C O . ,  I N C .      ( 8 0 0 )  5 2 6 - 6 2 9 3        W W W . J U L I U S B L U M . C O M        P A R T  N o .  3 5 4 3
 41
1.25
  7
ARIAL_WIDE
 72
     1
 11
15.0228135880318
 21
0.796809703300999
 31
0.0
100
AcDbText
 73
     3
  0
ENDSEC
  0
SECTION
  2
OBJECTS
  0
DICTIONARY
  5
C
330
0
100
AcDbDictionary
  3
ACAD_GROUP
350
D
  3
ACAD_LAYOUT
350
89
  3
ACAD_MLINESTYLE
350
E
  3
ACAD_PLOTSETTINGS
350
8A
  3
ACAD_PLOTSTYLENAME
350
87
  3
ACDBHEADERROUNDTRIPXREC
350
1D4
  3
ACDBVARIABLEDICTIONARY
350
EA
  0
DICTIONARY
  5
E4
330
18
100
AcDbDictionary
280
     1
  3
ACAD_LAYOUTSELFREF
360
1F5
  0
DICTIONARY
  5
E2
330
15
100
AcDbDictionary
280
     1
  3
ACAD_LAYOUTSELFREF
360
1F4
  0
DICTIONARY
  5
D
102
{ACAD_REACTORS
330
C
102
}
330
C
100
AcDbDictionary
  0
DICTIONARY
  5
89
102
{ACAD_REACTORS
330
C
102
}
330
C
100
AcDbDictionary
  0
DICTIONARY
  5
E
102
{ACAD_REACTORS
330
C
102
}
330
C
100
AcDbDictionary
  3
STANDARD
350
1B
  0
DICTIONARY
  5
8A
102
{ACAD_REACTORS
330
C
102
}
330
C
100
AcDbDictionary
  0
ACDBDICTIONARYWDFLT
  5
87
102
{ACAD_REACTORS
330
C
102
}
330
C
100
AcDbDictionary
281
     1
  3
Normal
350
88
100
AcDbDictionaryWithDefault
340
88
  0
DICTIONARY
  5
1D4
102
{ACAD_REACTORS
330
C
102
}
330
C
100
AcDbDictionary
  3
CEPSNTYPE
350
1DE
  3
FINGERPRINTGUID
350
1DF
  3
HYPERLINKBASE
350
1D7
  3
INSUNITS
350
1DD
  3
LAYOUTDICT
350
1D9
  3
LWETCUNION
350
1DC
  3
PLOTSETDICT
350
1DA
  3
PLOTSTYLNAMDICT
350
1DB
  3
PSVPSCALE
350
1E1
  3
PUCSBASE
350
1E4
  3
PUCSORGBACK
350
1EA
  3
PUCSORGBOTTOM
350
1E6
  3
PUCSORGFRONT
350
1E9
  3
PUCSORGLEFT
350
1E7
  3
PUCSORGRIGHT
350
1E8
  3
PUCSORGTOP
350
1E5
  3
PUCSORTHOREF
350
1E2
  3
PUCSORTHOVIEW
350
1E3
  3
STYLESHEET
350
1D8
  3
TSTACKALIGN
350
1D5
  3
TSTACKSIZE
350
1D6
  3
UCSBASE
350
1ED
  3
UCSORGBACK
350
1F3
  3
UCSORGBOTTOM
350
1EF
  3
UCSORGFRONT
350
1F2
  3
UCSORGLEFT
350
1F0
  3
UCSORGRIGHT
350
1F1
  3
UCSORGTOP
350
1EE
  3
UCSORTHOREF
350
1EB
  3
UCSORTHOVIEW
350
1EC
  3
VERSIONGUID
350
1E0
  0
DICTIONARY
  5
EA
102
{ACAD_REACTORS
330
C
102
}
330
C
100
AcDbDictionary
  3
DIMASSOC
350
EB
  0
XRECORD
  5
1F5
102
{ACAD_REACTORS
330
E4
102
}
330
E4
100
AcDbXrecord
340
18
  0
XRECORD
  5
1F4
102
{ACAD_REACTORS
330
E2
102
}
330
E2
100
AcDbXrecord
340
15
  0
MLINESTYLE
  5
1B
102
{ACAD_REACTORS
330
E
102
}
330
E
100
AcDbMlineStyle
  2
STANDARD
 70
     0
  3

 62
     0
 51
90.0
 52
90.0
 71
     2
 49
0.5
 62
   256
  6
BYLAYER
 49
-0.5
 62
   256
  6
BYLAYER
  0
ACDBPLACEHOLDER
  5
88
102
{ACAD_REACTORS
330
87
102
}
330
87
100
AcDbPlaceHolder
280
     0
  0
XRECORD
  5
1DE
102
{ACAD_REACTORS
330
1D4
102
}
330
1D4
100
AcDbXrecord
 90
        0
  0
XRECORD
  5
1DF
102
{ACAD_REACTORS
330
1D4
102
}
330
1D4
100
AcDbXrecord
  1
{31C18378-D49D-48DA-B39F-D37395B569AE}
  0
XRECORD
  5
1D7
102
{ACAD_REACTORS
330
1D4
102
}
330
1D4
100
AcDbXrecord
  1

  0
XRECORD
  5
1DD
102
{ACAD_REACTORS
330
1D4
102
}
330
1D4
100
AcDbXrecord
 90
        0
  0
XRECORD
  5
1D9
102
{ACAD_REACTORS
330
1D4
102
}
330
1D4
100
AcDbXrecord
340
89
  0
XRECORD
  5
1DC
102
{ACAD_REACTORS
330
1D4
102
}
330
1D4
100
AcDbXrecord
 90
    14877
  0
XRECORD
  5
1DA
102
{ACAD_REACTORS
330
1D4
102
}
330
1D4
100
AcDbXrecord
340
8A
  0
XRECORD
  5
1DB
102
{ACAD_REACTORS
330
1D4
102
}
330
1D4
100
AcDbXrecord
340
87
  0
XRECORD
  5
1E1
102
{ACAD_REACTORS
330
1D4
102
}
330
1D4
100
AcDbXrecord
 40
0.0
  0
XRECORD
  5
1E4
102
{ACAD_REACTORS
330
1D4
102
}
330
1D4
100
AcDbXrecord
340
0
  0
XRECORD
  5
1EA
102
{ACAD_REACTORS
330
1D4
102
}
330
1D4
100
AcDbXrecord
 10
0.0
 20
0.0
 30
0.0
  0
XRECORD
  5
1E6
102
{ACAD_REACTORS
330
1D4
102
}
330
1D4
100
AcDbXrecord
 10
0.0
 20
0.0
 30
0.0
  0
XRECORD
  5
1E9
102
{ACAD_REACTORS
330
1D4
102
}
330
1D4
100
AcDbXrecord
 10
0.0
 20
0.0
 30
0.0
  0
XRECORD
  5
1E7
102
{ACAD_REACTORS
330
1D4
102
}
330
1D4
100
AcDbXrecord
 10
0.0
 20
0.0
 30
0.0
  0
XRECORD
  5
1E8
102
{ACAD_REACTORS
330
1D4
102
}
330
1D4
100
AcDbXrecord
 10
0.0
 20
0.0
 30
0.0
  0
XRECORD
  5
1E5
102
{ACAD_REACTORS
330
1D4
102
}
330
1D4
100
AcDbXrecord
 10
0.0
 20
0.0
 30
0.0
  0
XRECORD
  5
1E2
102
{ACAD_REACTORS
330
1D4
102
}
330
1D4
100
AcDbXrecord
340
0
  0
XRECORD
  5
1E3
102
{ACAD_REACTORS
330
1D4
102
}
330
1D4
100
AcDbXrecord
 70
     0
  0
XRECORD
  5
1D8
102
{ACAD_REACTORS
330
1D4
102
}
330
1D4
100
AcDbXrecord
  1

  0
XRECORD
  5
1D5
102
{ACAD_REACTORS
330
1D4
102
}
330
1D4
100
AcDbXrecord
 90
        1
  0
XRECORD
  5
1D6
102
{ACAD_REACTORS
330
1D4
102
}
330
1D4
100
AcDbXrecord
 90
       70
  0
XRECORD
  5
1ED
102
{ACAD_REACTORS
330
1D4
102
}
330
1D4
100
AcDbXrecord
340
0
  0
XRECORD
  5
1F3
102
{ACAD_REACTORS
330
1D4
102
}
330
1D4
100
AcDbXrecord
 10
0.0
 20
0.0
 30
0.0
  0
XRECORD
  5
1EF
102
{ACAD_REACTORS
330
1D4
102
}
330
1D4
100
AcDbXrecord
 10
0.0
 20
0.0
 30
0.0
  0
XRECORD
  5
1F2
102
{ACAD_REACTORS
330
1D4
102
}
330
1D4
100
AcDbXrecord
 10
0.0
 20
0.0
 30
0.0
  0
XRECORD
  5
1F0
102
{ACAD_REACTORS
330
1D4
102
}
330
1D4
100
AcDbXrecord
 10
0.0
 20
0.0
 30
0.0
  0
XRECORD
  5
1F1
102
{ACAD_REACTORS
330
1D4
102
}
330
1D4
100
AcDbXrecord
 10
0.0
 20
0.0
 30
0.0
  0
XRECORD
  5
1EE
102
{ACAD_REACTORS
330
1D4
102
}
330
1D4
100
AcDbXrecord
 10
0.0
 20
0.0
 30
0.0
  0
XRECORD
  5
1EB
102
{ACAD_REACTORS
330
1D4
102
}
330
1D4
100
AcDbXrecord
340
0
  0
XRECORD
  5
1EC
102
{ACAD_REACTORS
330
1D4
102
}
330
1D4
100
AcDbXrecord
 70
     0
  0
XRECORD
  5
1E0
102
{ACAD_REACTORS
330
1D4
102
}
330
1D4
100
AcDbXrecord
  1
{02744A8C-A7D7-4220-8AE2-41137A921C5B}
  0
DICTIONARYVAR
  5
EB
102
{ACAD_REACTORS
330
EA
102
}
330
EA
100
DictionaryVariables
280
     0
  1
1
  0
ENDSEC
  0
EOF
