  0
SECTION
  2
HEADER
  9
$ACADVER
  1
AC1014
  9
$ACADMAINTVER
 70
     9
  9
$DWGCODEPAGE
  3
ANSI_1252
  9
$INSBASE
 10
15.51428559578697
 20
2.526287106212405
 30
0.0
  9
$EXTMIN
 10
3.219259802812892
 20
1.307291213525516
 30
0.0
  9
$EXTMAX
 10
26.05931138876105
 20
11.27726997367386
 30
0.0
  9
$LIMMIN
 10
0.0
 20
0.0
  9
$LIMMAX
 10
36.0
 20
36.0
  9
$ORTHOMODE
 70
     1
  9
$REGENMODE
 70
     1
  9
$FILLMODE
 70
     1
  9
$QTEXTMODE
 70
     0
  9
$MIRRTEXT
 70
     1
  9
$DRAGMODE
 70
     0
  9
$LTSCALE
 40
1.0
  9
$OSMODE
 70
    37
  9
$ATTMODE
 70
     1
  9
$TEXTSIZE
 40
0.2
  9
$TRACEWID
 40
0.05
  9
$TEXTSTYLE
  7
STANDARD
  9
$CLAYER
  8
ADP1DETAIL
  9
$CELTYPE
  6
BYLAYER
  9
$CECOLOR
 62
   256
  9
$CELTSCALE
 40
1.0
  9
$DELOBJ
 70
     1
  9
$DISPSILH
 70
     0
  9
$DIMSCALE
 40
1.0
  9
$DIMASZ
 40
0.125
  9
$DIMEXO
 40
0.0625
  9
$DIMDLI
 40
0.38
  9
$DIMRND
 40
0.0
  9
$DIMDLE
 40
0.0
  9
$DIMEXE
 40
0.18
  9
$DIMTP
 40
0.0
  9
$DIMTM
 40
0.0
  9
$DIMTXT
 40
0.125
  9
$DIMCEN
 40
0.1875
  9
$DIMTSZ
 40
0.125
  9
$DIMTOL
 70
     0
  9
$DIMLIM
 70
     0
  9
$DIMTIH
 70
     0
  9
$DIMTOH
 70
     0
  9
$DIMSE1
 70
     0
  9
$DIMSE2
 70
     0
  9
$DIMTAD
 70
     0
  9
$DIMZIN
 70
     3
  9
$DIMBLK
  1

  9
$DIMASO
 70
     1
  9
$DIMSHO
 70
     1
  9
$DIMPOST
  1

  9
$DIMAPOST
  1

  9
$DIMALT
 70
     0
  9
$DIMALTD
 70
     1
  9
$DIMALTF
 40
25.4
  9
$DIMLFAC
 40
1.0
  9
$DIMTOFL
 70
     0
  9
$DIMTVP
 40
0.0
  9
$DIMTIX
 70
     0
  9
$DIMSOXD
 70
     0
  9
$DIMSAH
 70
     0
  9
$DIMBLK1
  1

  9
$DIMBLK2
  1

  9
$DIMSTYLE
  2
STANDARD
  9
$DIMCLRD
 70
     0
  9
$DIMCLRE
 70
     0
  9
$DIMCLRT
 70
     0
  9
$DIMTFAC
 40
1.0
  9
$DIMGAP
 40
0.125
  9
$DIMJUST
 70
     0
  9
$DIMSD1
 70
     0
  9
$DIMSD2
 70
     0
  9
$DIMTOLJ
 70
     1
  9
$DIMTZIN
 70
     0
  9
$DIMALTZ
 70
     0
  9
$DIMALTTZ
 70
     0
  9
$DIMFIT
 70
     3
  9
$DIMUPT
 70
     0
  9
$DIMUNIT
 70
     2
  9
$DIMDEC
 70
     4
  9
$DIMTDEC
 70
     4
  9
$DIMALTU
 70
     2
  9
$DIMALTTD
 70
     2
  9
$DIMTXSTY
  7
STANDARD
  9
$DIMAUNIT
 70
     0
  9
$LUNITS
 70
     5
  9
$LUPREC
 70
     4
  9
$SKETCHINC
 40
0.1
  9
$FILLETRAD
 40
0.0
  9
$AUNITS
 70
     0
  9
$AUPREC
 70
     0
  9
$MENU
  1
acad
  9
$ELEVATION
 40
0.0
  9
$PELEVATION
 40
0.0
  9
$THICKNESS
 40
0.0
  9
$LIMCHECK
 70
     0
  9
$BLIPMODE
 70
     0
  9
$CHAMFERA
 40
0.0
  9
$CHAMFERB
 40
0.0
  9
$CHAMFERC
 40
0.0
  9
$CHAMFERD
 40
0.0
  9
$SKPOLY
 70
     0
  9
$TDCREATE
 40
2450281.593823680
  9
$TDUPDATE
 40
2452297.084734699
  9
$TDINDWG
 40
0.0983206944
  9
$TDUSRTIMER
 40
0.0983206944
  9
$USRTIMER
 70
     1
  9
$ANGBASE
 50
0.0
  9
$ANGDIR
 70
     0
  9
$PDMODE
 70
     0
  9
$PDSIZE
 40
0.0
  9
$PLINEWID
 40
0.0
  9
$COORDS
 70
     2
  9
$SPLFRAME
 70
     0
  9
$SPLINETYPE
 70
     6
  9
$SPLINESEGS
 70
     8
  9
$ATTDIA
 70
     0
  9
$ATTREQ
 70
     1
  9
$HANDLING
 70
 22529
  9
$HANDSEED
  5
261
  9
$SURFTAB1
 70
     6
  9
$SURFTAB2
 70
     6
  9
$SURFTYPE
 70
     6
  9
$SURFU
 70
     6
  9
$SURFV
 70
     6
  9
$UCSNAME
  2

  9
$UCSORG
 10
0.0
 20
0.0
 30
0.0
  9
$UCSXDIR
 10
1.0
 20
0.0
 30
0.0
  9
$UCSYDIR
 10
0.0
 20
1.0
 30
0.0
  9
$PUCSNAME
  2

  9
$PUCSORG
 10
0.0
 20
0.0
 30
0.0
  9
$PUCSXDIR
 10
1.0
 20
0.0
 30
0.0
  9
$PUCSYDIR
 10
0.0
 20
1.0
 30
0.0
  9
$USERI1
 70
     0
  9
$USERI2
 70
     0
  9
$USERI3
 70
     0
  9
$USERI4
 70
     0
  9
$USERI5
 70
     0
  9
$USERR1
 40
0.0
  9
$USERR2
 40
0.0
  9
$USERR3
 40
0.0
  9
$USERR4
 40
0.0
  9
$USERR5
 40
0.0
  9
$WORLDVIEW
 70
     1
  9
$SHADEDGE
 70
     3
  9
$SHADEDIF
 70
    70
  9
$TILEMODE
 70
     1
  9
$MAXACTVP
 70
    15
  9
$PINSBASE
 10
0.1250029802322391
 20
0.0
 30
0.0
  9
$PLIMCHECK
 70
     0
  9
$PEXTMIN
 10
1.000000000000000E+20
 20
1.000000000000000E+20
 30
1.000000000000000E+20
  9
$PEXTMAX
 10
-1.000000000000000E+20
 20
-1.000000000000000E+20
 30
-1.000000000000000E+20
  9
$PLIMMIN
 10
0.0
 20
0.0
  9
$PLIMMAX
 10
12.0
 20
9.0
  9
$UNITMODE
 70
     0
  9
$VISRETAIN
 70
     0
  9
$PLINEGEN
 70
     0
  9
$PSLTSCALE
 70
     1
  9
$TREEDEPTH
 70
  3020
  9
$PICKSTYLE
 70
     1
  9
$CMLSTYLE
  2
STANDARD
  9
$CMLJUST
 70
     0
  9
$CMLSCALE
 40
1.0
  9
$PROXYGRAPHICS
 70
     1
  9
$MEASUREMENT
 70
     0
  0
ENDSEC
  0
SECTION
  2
CLASSES
  0
CLASS
  1
ACDBDICTIONARYWDFLT
  2
AcDbDictionaryWithDefault
  3
AutoCAD 2000
 90
        0
280
     0
281
     0
  0
CLASS
  1
ACDBPLACEHOLDER
  2
AcDbPlaceHolder
  3
AutoCAD 2000
 90
        0
280
     0
281
     0
  0
CLASS
  1
LAYOUT
  2
AcDbLayout
  3
AutoCAD 2000
 90
        0
280
     0
281
     0
  0
CLASS
  1
DICTIONARYVAR
  2
AcDbDictionaryVar
  3
AutoCAD 2000
 90
        0
280
     0
281
     0
  0
CLASS
  1
LONG_TRANSACTION
  2
AcDbLongTransaction
  3
AutoCAD 2000
 90
        0
280
     0
281
     0
  0
CLASS
  1
LWPOLYLINE
  2
AcDbPolyline
  3
AutoCAD 2000
 90
        0
280
     0
281
     1
  0
CLASS
  1
HATCH
  2
AcDbHatch
  3
AutoCAD 2000
 90
        0
280
     0
281
     1
  0
CLASS
  1
XRECORD
  2
AcDbXrecord
  3
AutoCAD 2000
 90
        0
280
     0
281
     0
  0
CLASS
  1
LONG_TRANSACTION
  2
AcDbLongTransaction
  3
AutoCAD 2000
 90
        0
280
     0
281
     0
  0
CLASS
  1
LWPOLYLINE
  2
AcDbPolyline
  3
AutoCAD 2000
 90
        0
280
     0
281
     1
  0
CLASS
  1
HATCH
  2
AcDbHatch
  3
AutoCAD 2000
 90
        0
280
     0
281
     1
  0
CLASS
  1
XRECORD
  2
AcDbXrecord
  3
AutoCAD 2000
 90
        0
280
     0
281
     0
  0
CLASS
  1
LONG_TRANSACTION
  2
AcDbLongTransaction
  3
AutoCAD 2000
 90
        0
280
     0
281
     0
  0
CLASS
  1
LWPOLYLINE
  2
AcDbPolyline
  3
AutoCAD 2000
 90
        0
280
     0
281
     1
  0
CLASS
  1
HATCH
  2
AcDbHatch
  3
AutoCAD 2000
 90
        0
280
     0
281
     1
  0
CLASS
  1
XRECORD
  2
AcDbXrecord
  3
AutoCAD 2000
 90
        0
280
     0
281
     0
  0
CLASS
  1
LONG_TRANSACTION
  2
AcDbLongTransaction
  3
AutoCAD 2000
 90
        0
280
     0
281
     0
  0
CLASS
  1
LWPOLYLINE
  2
AcDbPolyline
  3
AutoCAD 2000
 90
        0
280
     0
281
     1
  0
CLASS
  1
HATCH
  2
AcDbHatch
  3
AutoCAD 2000
 90
        0
280
     0
281
     1
  0
CLASS
  1
XRECORD
  2
AcDbXrecord
  3
AutoCAD 2000
 90
        0
280
     0
281
     0
  0
CLASS
  1
LONG_TRANSACTION
  2
AcDbLongTransaction
  3
AutoCAD 2000
 90
        0
280
     0
281
     0
  0
CLASS
  1
LWPOLYLINE
  2
AcDbPolyline
  3
AutoCAD 2000
 90
        0
280
     0
281
     1
  0
CLASS
  1
HATCH
  2
AcDbHatch
  3
AutoCAD 2000
 90
        0
280
     0
281
     1
  0
CLASS
  1
XRECORD
  2
AcDbXrecord
  3
AutoCAD 2000
 90
        0
280
     0
281
     0
  0
CLASS
  1
LONG_TRANSACTION
  2
AcDbLongTransaction
  3
AutoCAD 2000
 90
        0
280
     0
281
     0
  0
CLASS
  1
LWPOLYLINE
  2
AcDbPolyline
  3
AutoCAD 2000
 90
        0
280
     0
281
     1
  0
CLASS
  1
HATCH
  2
AcDbHatch
  3
AutoCAD 2000
 90
        0
280
     0
281
     1
  0
CLASS
  1
XRECORD
  2
AcDbXrecord
  3
AutoCAD 2000
 90
        0
280
     0
281
     0
  0
ENDSEC
  0
SECTION
  2
TABLES
  0
TABLE
  2
VPORT
  5
8
330
0
100
AcDbSymbolTable
 70
     2
  0
VPORT
  5
23E
330
8
100
AcDbSymbolTableRecord
100
AcDbViewportTableRecord
  2
*ACTIVE
 70
     0
 10
0.0
 20
0.0
 11
1.0
 21
1.0
 12
14.65799332817868
 22
6.292694161986812
 13
0.0
 23
0.0
 14
0.5740882589684922
 24
0.5740882589684922
 15
0.5
 25
0.5
 16
0.0
 26
0.0
 36
1.0
 17
0.0
 27
0.0
 37
0.0
 40
14.63847262384212
 41
1.570528967254408
 42
50.0
 43
0.0
 44
0.0
 50
0.0
 51
0.0
 71
     0
 72
   100
 73
     1
 74
     0
 75
     0
 76
     0
 77
     0
 78
     0
  0
ENDTAB
  0
TABLE
  2
LTYPE
  5
5
330
0
100
AcDbSymbolTable
 70
     2
  0
LTYPE
  5
12
330
5
100
AcDbSymbolTableRecord
100
AcDbLinetypeTableRecord
  2
BYBLOCK
 70
     0
  3

 72
    65
 73
     0
 40
0.0
  0
LTYPE
  5
13
330
5
100
AcDbSymbolTableRecord
100
AcDbLinetypeTableRecord
  2
BYLAYER
 70
     0
  3

 72
    65
 73
     0
 40
0.0
  0
LTYPE
  5
14
330
5
100
AcDbSymbolTableRecord
100
AcDbLinetypeTableRecord
  2
CONTINUOUS
 70
     0
  3
Solid line
 72
    65
 73
     0
 40
0.0
  0
LTYPE
  5
47
330
5
100
AcDbSymbolTableRecord
100
AcDbLinetypeTableRecord
  2
HIDDEN2
 70
     0
  3
_ _ _ _ _ _ _ _ _ _ _ _ _ _ _ _ _ _ _ _ _ _ _ _
 72
    65
 73
     2
 40
0.1875
 49
0.125
 74
     0
 49
-0.0625
 74
     0
  0
ENDTAB
  0
TABLE
  2
LAYER
  5
2
330
0
100
AcDbSymbolTable
 70
     5
  0
LAYER
  5
F
330
2
100
AcDbSymbolTableRecord
100
AcDbLayerTableRecord
  2
0
 70
     0
 62
     7
  6
CONTINUOUS
  0
LAYER
  5
48
330
2
100
AcDbSymbolTableRecord
100
AcDbLayerTableRecord
  2
ADP2DETAIL
 70
     0
 62
     5
  6
CONTINUOUS
  0
LAYER
  5
49
330
2
100
AcDbSymbolTableRecord
100
AcDbLayerTableRecord
  2
ADPDIM
 70
     0
 62
     3
  6
CONTINUOUS
  0
LAYER
  5
4A
330
2
100
AcDbSymbolTableRecord
100
AcDbLayerTableRecord
  2
ADP1DETAIL
 70
     0
 62
     7
  6
CONTINUOUS
  0
LAYER
  5
4B
330
2
100
AcDbSymbolTableRecord
100
AcDbLayerTableRecord
  2
DEFPOINTS
 70
     0
 62
     7
  6
CONTINUOUS
  0
ENDTAB
  0
TABLE
  2
STYLE
  5
3
330
0
100
AcDbSymbolTable
 70
     2
  0
STYLE
  5
10
330
3
100
AcDbSymbolTableRecord
100
AcDbTextStyleTableRecord
  2
STANDARD
 70
     0
 40
0.0
 41
1.0
 50
0.0
 71
     0
 42
0.2
  3
txt
  4

  0
STYLE
  5
CB
330
3
100
AcDbSymbolTableRecord
100
AcDbTextStyleTableRecord
  2
ARIAL_WIDE
 70
     0
 40
0.0
 41
1.25
 50
0.0
 71
     0
 42
0.2
  3
ARIAL.TTF
  4

1001
ACAD
1000
Arial
1071
       34
  0
ENDTAB
  0
TABLE
  2
VIEW
  5
6
330
0
100
AcDbSymbolTable
 70
     0
  0
ENDTAB
  0
TABLE
  2
UCS
  5
7
330
0
100
AcDbSymbolTable
 70
     0
  0
ENDTAB
  0
TABLE
  2
APPID
  5
9
330
0
100
AcDbSymbolTable
 70
     1
  0
APPID
  5
11
330
9
100
AcDbSymbolTableRecord
100
AcDbRegAppTableRecord
  2
ACAD
 70
     0
  0
ENDTAB
  0
TABLE
  2
DIMSTYLE
  5
A
330
0
100
AcDbSymbolTable
 70
     1
  0
DIMSTYLE
105
BF
330
A
100
AcDbSymbolTableRecord
100
AcDbDimStyleTableRecord
  2
STANDARD
 70
     0
  3

  4

  5

  6

  7

 40
1.0
 41
0.18
 42
0.0625
 43
0.38
 44
0.18
 45
0.0
 46
0.0
 47
0.0
 48
0.0
140
0.18
141
0.09
142
0.0
143
25.4
144
1.0
145
0.0
146
1.0
147
0.09
 71
     0
 72
     0
 73
     1
 74
     1
 75
     0
 76
     0
 77
     0
 78
     0
170
     0
171
     2
172
     0
173
     0
174
     0
175
     0
176
     0
177
     0
178
     0
270
     2
271
     4
272
     4
273
     2
274
     2
340
10
275
     0
280
     0
281
     0
282
     0
283
     1
284
     0
285
     0
286
     0
287
     3
288
     0
  0
ENDTAB
  0
TABLE
  2
BLOCK_RECORD
  5
1
330
0
100
AcDbSymbolTable
 70
     2
  0
BLOCK_RECORD
  5
18
102
{ACAD_XDICTIONARY
360
120
102
}
330
1
100
AcDbSymbolTableRecord
100
AcDbBlockTableRecord
  2
*MODEL_SPACE
  0
BLOCK_RECORD
  5
15
102
{ACAD_XDICTIONARY
360
11E
102
}
330
1
100
AcDbSymbolTableRecord
100
AcDbBlockTableRecord
  2
*PAPER_SPACE
  0
BLOCK_RECORD
  5
45
330
1
100
AcDbSymbolTableRecord
100
AcDbBlockTableRecord
  2
*D0
  0
BLOCK_RECORD
  5
46
330
1
100
AcDbSymbolTableRecord
100
AcDbBlockTableRecord
  2
*D1
  0
ENDTAB
  0
ENDSEC
  0
SECTION
  2
BLOCKS
  0
BLOCK
  5
4E
330
18
100
AcDbEntity
  8
0
100
AcDbBlockBegin
  2
*MODEL_SPACE
 70
     0
 10
0.0
 20
0.0
 30
0.0
  3
*MODEL_SPACE
  1

  0
ENDBLK
  5
4F
330
18
100
AcDbEntity
  8
0
100
AcDbBlockEnd
  0
BLOCK
  5
4C
330
15
100
AcDbEntity
 67
     1
  8
0
100
AcDbBlockBegin
  2
*PAPER_SPACE
 70
     0
 10
0.0
 20
0.0
 30
0.0
  3
*PAPER_SPACE
  1

  0
ENDBLK
  5
4D
330
15
100
AcDbEntity
 67
     1
  8
0
100
AcDbBlockEnd
  0
BLOCK
  5
51
330
45
100
AcDbEntity
  8
0
100
AcDbBlockBegin
  2
*D0
 70
     1
 10
0.0
 20
0.0
 30
0.0
  3
*D0
  1

  0
LINE
  5
52
330
45
100
AcDbEntity
  8
0
  6
BYBLOCK
 62
     0
100
AcDbLine
 10
13.76428559578697
 20
2.463787106212405
 30
0.0
 11
13.76428559578697
 21
2.128625794132292
 31
0.0
  0
LINE
  5
53
330
45
100
AcDbEntity
  8
0
  6
BYBLOCK
 62
     0
100
AcDbLine
 10
15.51428559578697
 20
2.463787106212405
 30
0.0
 11
15.51428559578697
 21
2.128625794132292
 31
0.0
  0
LINE
  5
54
330
45
100
AcDbEntity
  8
0
  6
BYBLOCK
 62
     0
100
AcDbLine
 10
13.76428559578697
 20
2.308625794132292
 30
0.0
 11
14.24345226245363
 21
2.308625794132292
 31
0.0
  0
LINE
  5
55
330
45
100
AcDbEntity
  8
0
  6
BYBLOCK
 62
     0
100
AcDbLine
 10
15.51428559578697
 20
2.308625794132292
 30
0.0
 11
15.0351189291203
 21
2.308625794132292
 31
0.0
  0
LINE
  5
56
330
45
100
AcDbEntity
  8
0
  6
BYBLOCK
 62
     0
100
AcDbLine
 10
13.63928559578697
 20
2.183625794132292
 30
0.0
 11
13.88928559578697
 21
2.433625794132292
 31
0.0
  0
LINE
  5
57
330
45
100
AcDbEntity
  8
0
  6
BYBLOCK
 62
     0
100
AcDbLine
 10
15.38928559578697
 20
2.183625794132292
 30
0.0
 11
15.63928559578697
 21
2.433625794132292
 31
0.0
  0
TEXT
  5
58
330
45
100
AcDbEntity
  8
0
  6
BYBLOCK
 62
     0
100
AcDbText
 10
14.36845226245363
 20
2.246125794132292
 30
0.0
 40
0.125
  1
1 3/4
 72
     1
 11
14.63928559578697
 21
2.308625794132292
 31
0.0
100
AcDbText
 73
     2
  0
POINT
  5
59
330
45
100
AcDbEntity
  8
DEFPOINTS
  6
BYBLOCK
 62
     0
100
AcDbPoint
 10
13.76428559578697
 20
2.526287106212405
 30
0.0
  0
POINT
  5
5A
330
45
100
AcDbEntity
  8
DEFPOINTS
  6
BYBLOCK
 62
     0
100
AcDbPoint
 10
15.51428559578697
 20
2.526287106212405
 30
0.0
  0
POINT
  5
5B
330
45
100
AcDbEntity
  8
DEFPOINTS
  6
BYBLOCK
 62
     0
100
AcDbPoint
 10
15.51428559578697
 20
2.308625794132292
 30
0.0
  0
ENDBLK
  5
5C
330
45
100
AcDbEntity
  8
0
100
AcDbBlockEnd
  0
BLOCK
  5
5D
330
46
100
AcDbEntity
  8
0
100
AcDbBlockBegin
  2
*D1
 70
     1
 10
0.0
 20
0.0
 30
0.0
  3
*D1
  1

  0
LINE
  5
5E
330
46
100
AcDbEntity
  8
0
  6
BYBLOCK
 62
     0
100
AcDbLine
 10
13.70178559578697
 20
2.526287106212405
 30
0.0
 11
13.14812178611095
 21
2.526287106212405
 31
0.0
  0
LINE
  5
5F
330
46
100
AcDbEntity
  8
0
  6
BYBLOCK
 62
     0
100
AcDbLine
 10
14.46779588543579
 20
8.707870196134468
 30
0.0
 11
13.14812178611095
 21
8.707870196134468
 31
0.0
  0
LINE
  5
60
330
46
100
AcDbEntity
  8
0
  6
BYBLOCK
 62
     0
100
AcDbLine
 10
13.32812178611095
 20
2.526287106212405
 30
0.0
 11
13.32812178611095
 21
5.158745317840103
 31
0.0
  0
LINE
  5
61
330
46
100
AcDbEntity
  8
0
  6
BYBLOCK
 62
     0
100
AcDbLine
 10
13.32812178611095
 20
8.707870196134468
 30
0.0
 11
13.32812178611095
 21
6.075411984506769
 31
0.0
  0
LINE
  5
62
330
46
100
AcDbEntity
  8
0
  6
BYBLOCK
 62
     0
100
AcDbLine
 10
13.45312178611095
 20
2.401287106212405
 30
0.0
 11
13.20312178611095
 21
2.651287106212405
 31
0.0
  0
LINE
  5
63
330
46
100
AcDbEntity
  8
0
  6
BYBLOCK
 62
     0
100
AcDbLine
 10
13.45312178611095
 20
8.582870196134468
 30
0.0
 11
13.20312178611095
 21
8.832870196134468
 31
0.0
  0
TEXT
  5
64
330
46
100
AcDbEntity
  8
0
  6
BYBLOCK
 62
     0
100
AcDbText
 10
13.39062178611095
 20
5.283745317840103
 30
0.0
 40
0.125
  1
6 3/16
 50
90.0
 72
     1
 11
13.32812178611095
 21
5.617078651173436
 31
0.0
100
AcDbText
 73
     2
  0
POINT
  5
65
330
46
100
AcDbEntity
  8
DEFPOINTS
  6
BYBLOCK
 62
     0
100
AcDbPoint
 10
13.76428559578697
 20
2.526287106212405
 30
0.0
  0
POINT
  5
66
330
46
100
AcDbEntity
  8
DEFPOINTS
  6
BYBLOCK
 62
     0
100
AcDbPoint
 10
14.53029588543579
 20
8.707870196134466
 30
0.0
  0
POINT
  5
67
330
46
100
AcDbEntity
  8
DEFPOINTS
  6
BYBLOCK
 62
     0
100
AcDbPoint
 10
13.32812178611095
 20
8.707870196134468
 30
0.0
  0
ENDBLK
  5
68
330
46
100
AcDbEntity
  8
0
100
AcDbBlockEnd
  0
ENDSEC
  0
SECTION
  2
ENTITIES
  0
DIMENSION
  5
69
330
18
100
AcDbEntity
  8
ADPDIM
100
AcDbDimension
  2
*D1
 10
13.32812178611095
 20
8.707870196134468
 30
0.0
 11
13.32812178611095
 21
5.617078651173436
 31
0.0
100
AcDbAlignedDimension
 13
13.76428559578697
 23
2.526287106212405
 33
0.0
 14
14.53029588543579
 24
8.707870196134466
 34
0.0
 50
90.0
100
AcDbRotatedDimension
  0
LWPOLYLINE
  5
6A
330
18
100
AcDbEntity
  8
ADP1DETAIL
100
AcDbPolyline
 90
        4
 70
     0
 43
0.0
 10
15.64670094094111
 20
6.963787106212405
 42
0.2896896298435388
 10
15.43483638218672
 20
6.576746262647509
 42
0.0032403406186982
 10
15.39511177538659
 20
4.803015781257538
 42
-0.2222167863951622
 10
14.96928559578697
 20
4.338787106212405
 42
-1.494164098029485
  0
LWPOLYLINE
  5
70
330
18
100
AcDbEntity
  8
ADP1DETAIL
100
AcDbPolyline
 90
        4
 70
     0
 43
0.0
 10
13.63187025063283
 20
6.963787106212405
 42
-0.2896896298435388
 10
13.84373480938722
 20
6.576746262647509
 42
-0.0032403406186982
 10
13.88345941618735
 20
4.803015781257538
 42
0.2222167863951622
 10
14.30928559578697
 20
4.338787106212405
 42
1.494164098029485
  0
DIMENSION
  5
76
330
18
100
AcDbEntity
  8
ADPDIM
100
AcDbDimension
  2
*D0
 10
15.51428559578697
 20
2.308625794132292
 30
0.0
 11
14.63928559578697
 21
2.308625794132292
 31
0.0
100
AcDbAlignedDimension
 13
13.76428559578697
 23
2.526287106212405
 33
0.0
 14
15.51428559578697
 24
2.526287106212405
 34
0.0
100
AcDbRotatedDimension
  0
LINE
  5
77
330
18
100
AcDbEntity
  8
ADP1DETAIL
100
AcDbLine
 10
13.83928559578697
 20
3.088787106212405
 30
0.0
 11
15.43928559578697
 21
3.088787106212405
 31
0.0
  0
LINE
  5
78
330
18
100
AcDbEntity
  8
ADP1DETAIL
100
AcDbLine
 10
15.03928559578697
 20
3.776287106212405
 30
0.0
 11
14.23928559578697
 21
3.776287106212405
 31
0.0
  0
LINE
  5
79
330
18
100
AcDbEntity
  8
ADP1DETAIL
100
AcDbLine
 10
15.10803559578697
 20
3.901287106212405
 30
0.0
 11
14.17053559578697
 21
3.901287106212405
 31
0.0
  0
LINE
  5
7A
330
18
100
AcDbEntity
  8
ADP1DETAIL
100
AcDbLine
 10
14.96928559578697
 20
4.213787106212405
 30
0.0
 11
14.30928559578697
 21
4.213787106212405
 31
0.0
  0
LINE
  5
7B
330
18
100
AcDbEntity
  8
ADP1DETAIL
100
AcDbLine
 10
14.96928559578697
 20
4.338787106212405
 30
0.0
 11
14.30928559578697
 21
4.338787106212405
 31
0.0
  0
LWPOLYLINE
  5
7C
330
18
100
AcDbEntity
  8
ADP1DETAIL
100
AcDbPolyline
 90
        3
 70
     0
 43
0.0
 10
15.02434882197056
 20
3.744072204061542
 42
0.3295230229977362
 10
14.89193347681642
 20
3.386678751964554
 42
0.200055849035633
 10
15.43928559578697
 20
3.088787106212405
 42
-19.30404563352969
  0
LINE
  5
81
330
18
100
AcDbEntity
  8
ADP1DETAIL
100
AcDbLine
 10
15.51428559578697
 20
2.526287106212405
 30
0.0
 11
13.76428559578697
 21
2.526287106212405
 31
0.0
  0
LINE
  5
82
330
18
100
AcDbEntity
  8
ADP1DETAIL
100
AcDbLine
 10
13.76428559578697
 20
3.026287106212405
 30
0.0
 11
15.51428559578697
 21
3.026287106212405
 31
0.0
  0
LWPOLYLINE
  5
83
330
18
100
AcDbEntity
  8
ADP1DETAIL
100
AcDbPolyline
 90
        3
 70
     0
 43
0.0
 10
14.25422236960338
 20
3.744072204061542
 42
-0.3295230229977362
 10
14.38663771475752
 20
3.386678751964554
 42
-0.200055849035633
 10
13.83928559578697
 20
3.088787106212405
 42
19.30404563352969
  0
LINE
  5
88
330
18
100
AcDbEntity
  8
ADP1DETAIL
100
AcDbLine
 10
13.83928559578697
 20
3.088787106212405
 30
0.0
 11
13.83928559578697
 21
3.026287106212405
 31
0.0
  0
LINE
  5
89
330
18
100
AcDbEntity
  8
ADP1DETAIL
100
AcDbLine
 10
13.76428559578697
 20
2.526287106212405
 30
0.0
 11
13.76428559578697
 21
3.026287106212405
 31
0.0
  0
ARC
  5
8A
330
18
100
AcDbEntity
  8
ADP1DETAIL
100
AcDbCircle
 10
14.66623817341773
 20
3.868247661744343
 30
0.0
 40
0.4968024258802927
100
AcDbArc
 50
135.9307818660372
 51
176.1867760251039
  0
LINE
  5
8B
330
18
100
AcDbEntity
  8
ADP1DETAIL
100
AcDbLine
 10
14.23928559578697
 20
3.901287106212405
 30
0.0
 11
14.23928559578697
 21
3.776287106212405
 31
0.0
  0
LINE
  5
8C
330
18
100
AcDbEntity
  8
ADP1DETAIL
100
AcDbLine
 10
14.30928559578697
 20
4.338787106212405
 30
0.0
 11
14.30928559578697
 21
4.213787106212405
 31
0.0
  0
LINE
  5
8D
330
18
100
AcDbEntity
  8
ADP1DETAIL
100
AcDbLine
 10
15.43928559578697
 20
3.088787106212405
 30
0.0
 11
15.43928559578697
 21
3.026287106212405
 31
0.0
  0
LINE
  5
8E
330
18
100
AcDbEntity
  8
ADP1DETAIL
100
AcDbLine
 10
15.51428559578697
 20
2.526287106212405
 30
0.0
 11
15.51428559578697
 21
3.026287106212405
 31
0.0
  0
LINE
  5
8F
330
18
100
AcDbEntity
  8
ADP1DETAIL
100
AcDbLine
 10
15.51428559578697
 20
3.026287106212405
 30
0.0
 11
15.51428559578697
 21
2.526287106212405
 31
0.0
  0
LINE
  5
90
330
18
100
AcDbEntity
  8
ADP1DETAIL
100
AcDbLine
 10
14.96928559578697
 20
4.338787106212405
 30
0.0
 11
14.96928559578697
 21
4.213787106212405
 31
0.0
  0
LINE
  5
91
330
18
100
AcDbEntity
  8
ADP1DETAIL
100
AcDbLine
 10
15.03928559578697
 20
3.901287106212405
 30
0.0
 11
15.03928559578697
 21
3.776287106212405
 31
0.0
  0
ARC
  5
92
330
18
100
AcDbEntity
  8
ADP1DETAIL
100
AcDbCircle
 10
14.61233301815621
 20
3.868247661744343
 30
0.0
 40
0.4968024258802927
100
AcDbArc
 50
3.813223974896059
 51
44.06921813396276
  0
LINE
  5
93
330
18
100
AcDbEntity
  8
ADP2DETAIL
  6
HIDDEN2
100
AcDbLine
 10
15.34891799917968
 20
11.02568080811932
 30
0.0
 11
13.92965319239431
 21
11.02568080811931
 31
0.0
  0
LINE
  5
94
330
18
100
AcDbEntity
  8
ADP2DETAIL
  6
HIDDEN2
100
AcDbLine
 10
13.96164029923069
 20
9.250680808119316
 30
0.0
 11
15.3169308923433
 21
9.250680808119314
 31
0.0
  0
CIRCLE
  5
95
330
18
100
AcDbEntity
  8
ADP1DETAIL
100
AcDbCircle
 10
14.639285595787
 20
10.15068080811931
 30
0.0
 40
1.007415345154164
  0
CIRCLE
  5
96
330
18
100
AcDbEntity
  8
ADP2DETAIL
  6
HIDDEN2
100
AcDbCircle
 10
14.639285595787
 20
10.15068080811931
 30
0.0
 40
0.4115463082299833
  0
CIRCLE
  5
97
330
18
100
AcDbEntity
  8
ADP2DETAIL
  6
HIDDEN2
100
AcDbCircle
 10
14.639285595787
 20
10.15068080811931
 30
0.0
 40
0.477753964537623
  0
CIRCLE
  5
98
330
18
100
AcDbEntity
  8
ADP2DETAIL
  6
HIDDEN2
100
AcDbCircle
 10
14.639285595787
 20
10.15068080811931
 30
0.0
 40
0.795550786399776
  0
CIRCLE
  5
99
330
18
100
AcDbEntity
  8
ADP1DETAIL
100
AcDbCircle
 10
14.639285595787
 20
10.15068080811931
 30
0.0
 40
1.126589165554543
  0
CIRCLE
  5
9A
330
18
100
AcDbEntity
  8
ADP1DETAIL
100
AcDbCircle
 10
14.639285595787
 20
10.15068080811931
 30
0.0
 40
0.3453386193834884
  0
LINE
  5
9B
330
18
100
AcDbEntity
  8
ADP1DETAIL
100
AcDbLine
 10
15.64670094094111
 20
7.338787106212405
 30
0.0
 11
13.63828559578697
 21
7.338787106212405
 31
0.0
  0
LINE
  5
9C
330
18
100
AcDbEntity
  8
ADP1DETAIL
100
AcDbLine
 10
15.64670094094111
 20
7.088787106212405
 30
0.0
 11
13.63828559578697
 21
7.088787106212405
 31
0.0
  0
LINE
  5
9D
330
18
100
AcDbEntity
  8
ADP1DETAIL
100
AcDbLine
 10
15.64670094094111
 20
6.963787106212405
 30
0.0
 11
13.63187025063283
 21
6.963787106212405
 31
0.0
  0
LWPOLYLINE
  5
9E
330
18
100
AcDbEntity
  8
ADP1DETAIL
100
AcDbPolyline
 90
        3
 70
     0
 43
0.0
 10
14.75305437187248
 20
8.032793653727308
 42
0.2941600452788732
 10
14.86545039477005
 20
7.728347391516009
 42
0.1443269327013963
 10
15.64670094094111
 20
7.463787106212405
 42
-50.19180810963904
  0
ARC
  5
A3
330
18
100
AcDbEntity
  8
ADP1DETAIL
100
AcDbCircle
 10
14.63928559578697
 20
8.363787106212406
 30
0.0
 40
0.35
100
AcDbArc
 50
288.9688251436777
 51
251.0311748563222
  0
LINE
  5
A4
330
18
100
AcDbEntity
  8
ADP1DETAIL
100
AcDbLine
 10
15.51428559578697
 20
7.463787106212405
 30
0.0
 11
13.63187025063283
 21
7.463787106212405
 31
0.0
  0
ARC
  5
A5
330
18
100
AcDbEntity
  8
ADP1DETAIL
100
AcDbCircle
 10
13.63828559578697
 20
7.212787106212404
 30
0.0
 40
0.124
100
AcDbArc
 50
180.0
 51
270.0
  0
ARC
  5
A6
330
18
100
AcDbEntity
  8
ADP1DETAIL
100
AcDbCircle
 10
13.63828559578697
 20
7.214787106212405
 30
0.0
 40
0.124
100
AcDbArc
 50
90.0
 51
180.0
  0
LINE
  5
A7
330
18
100
AcDbEntity
  8
ADP1DETAIL
100
AcDbLine
 10
13.63187025063283
 20
7.463787106212405
 30
0.0
 11
13.63187025063283
 21
7.338621040764099
 31
0.0
  0
LINE
  5
A8
330
18
100
AcDbEntity
  8
ADP1DETAIL
100
AcDbLine
 10
13.63187025063283
 20
7.08895317166071
 30
0.0
 11
13.63187025063283
 21
6.963787106212405
 31
0.0
  0
LINE
  5
A9
330
18
100
AcDbEntity
  8
ADP1DETAIL
100
AcDbLine
 10
13.51428559578697
 20
7.214787106212405
 30
0.0
 11
13.51428559578697
 21
7.212787106212404
 31
0.0
  0
LWPOLYLINE
  5
AA
330
18
100
AcDbEntity
  8
ADP1DETAIL
100
AcDbPolyline
 90
        3
 70
     0
 43
0.0
 10
14.52551681970146
 20
8.032793653727308
 42
-0.2941600452788732
 10
14.41312079680389
 20
7.728347391516009
 42
-0.1443269327013963
 10
13.63187025063283
 20
7.463787106212405
 42
50.19180810963904
  0
LINE
  5
AF
330
18
100
AcDbEntity
  8
ADP1DETAIL
100
AcDbLine
 10
14.75305437187253
 20
8.032793653727324
 30
0.0
 11
14.52551681970146
 21
8.032793653727324
 31
0.0
  0
LINE
  5
B0
330
18
100
AcDbEntity
  8
ADP2DETAIL
  6
HIDDEN2
100
AcDbLine
 10
13.76218244792903
 20
10.8577120775569
 30
0.0
 11
13.76218244792903
 21
9.443649538681729
 31
0.0
  0
LINE
  5
B1
330
18
100
AcDbEntity
  8
ADP1DETAIL
100
AcDbLine
 10
13.96164029923069
 20
9.250680808119316
 30
0.0
 11
13.76218244792903
 21
9.250680808119316
 31
0.0
  0
LINE
  5
B2
330
18
100
AcDbEntity
  8
ADP1DETAIL
100
AcDbLine
 10
13.76218244792903
 20
9.250680808119316
 30
0.0
 11
13.76218244792903
 21
9.443649538681729
 31
0.0
  0
LINE
  5
B3
330
18
100
AcDbEntity
  8
ADP1DETAIL
100
AcDbLine
 10
13.76218244792903
 20
10.8577120775569
 30
0.0
 11
13.76218244792903
 21
11.02568080811931
 31
0.0
  0
LINE
  5
B4
330
18
100
AcDbEntity
  8
ADP1DETAIL
100
AcDbLine
 10
13.76218244792903
 20
11.02568080811931
 30
0.0
 11
13.92965319239431
 21
11.02568080811931
 31
0.0
  0
LINE
  5
B5
330
18
100
AcDbEntity
  8
ADP1DETAIL
100
AcDbLine
 10
15.64670094094111
 20
7.463787106212405
 30
0.0
 11
15.64670094094111
 21
7.338621040764099
 31
0.0
  0
ARC
  5
B6
330
18
100
AcDbEntity
  8
ADP1DETAIL
100
AcDbCircle
 10
15.64028559578697
 20
7.214787106212405
 30
0.0
 40
0.124
100
AcDbArc
 50
0.000000000000007
 51
90.0
  0
ARC
  5
B7
330
18
100
AcDbEntity
  8
ADP1DETAIL
100
AcDbCircle
 10
15.64028559578697
 20
7.212787106212404
 30
0.0
 40
0.124
100
AcDbArc
 50
270.0
 51
0.000000000000007
  0
LINE
  5
B8
330
18
100
AcDbEntity
  8
ADP1DETAIL
100
AcDbLine
 10
15.76428559578697
 20
7.214787106212405
 30
0.0
 11
15.76428559578697
 21
7.212787106212404
 31
0.0
  0
LINE
  5
B9
330
18
100
AcDbEntity
  8
ADP1DETAIL
100
AcDbLine
 10
15.64670094094111
 20
7.08895317166071
 30
0.0
 11
15.64670094094111
 21
6.963787106212405
 31
0.0
  0
LINE
  5
BA
330
18
100
AcDbEntity
  8
ADP2DETAIL
  6
HIDDEN2
100
AcDbLine
 10
15.51218244792903
 20
9.728971855706513
 30
0.0
 11
15.51218244792903
 21
10.86289863537823
 31
0.0
  0
LINE
  5
BB
330
18
100
AcDbEntity
  8
ADP1DETAIL
100
AcDbLine
 10
15.51218244792903
 20
9.250680808119314
 30
0.0
 11
15.3169308923433
 21
9.250680808119314
 31
0.0
  0
LINE
  5
BC
330
18
100
AcDbEntity
  8
ADP1DETAIL
100
AcDbLine
 10
15.51218244792903
 20
9.4384629808604
 30
0.0
 11
15.51218244792903
 21
9.250680808119314
 31
0.0
  0
LINE
  5
BD
330
18
100
AcDbEntity
  8
ADP1DETAIL
100
AcDbLine
 10
15.51218244792903
 20
11.02568080811932
 30
0.0
 11
15.51218244792903
 21
10.86289863537823
 31
0.0
  0
LINE
  5
BE
330
18
100
AcDbEntity
  8
ADP1DETAIL
100
AcDbLine
 10
15.34891799917968
 20
11.02568080811932
 30
0.0
 11
15.51218244792903
 21
11.02568080811932
 31
0.0
  0
TEXT
  5
CC
330
18
100
AcDbEntity
  8
ADPDIM
100
AcDbText
 10
3.219259802812892
 20
1.372050763320878
 30
0.0
 40
0.21875
  1
J U L I U S  B L U M  &  C O . ,  I N C .      ( 8 0 0 )  5 2 6 - 6 2 9 3        W W W . J U L I U S B L U M . C O M        P A R T  N o .  3 5 2 6
 41
1.25
  7
ARIAL_WIDE
 72
     1
 11
14.63928559578697
 21
1.590800763320878
 31
0.0
100
AcDbText
 73
     3
  0
ENDSEC
  0
SECTION
  2
OBJECTS
  0
DICTIONARY
  5
C
330
0
100
AcDbDictionary
  3
ACAD_GROUP
350
D
  3
ACAD_LAYOUT
350
C5
  3
ACAD_MLINESTYLE
350
E
  3
ACAD_PLOTSETTINGS
350
C6
  3
ACAD_PLOTSTYLENAME
350
C3
  3
ACDBHEADERROUNDTRIPXREC
350
23F
  3
ACDBVARIABLEDICTIONARY
350
126
  0
DICTIONARY
  5
120
330
18
100
AcDbDictionary
280
     1
  3
ACAD_LAYOUTSELFREF
360
260
  0
DICTIONARY
  5
11E
330
15
100
AcDbDictionary
280
     1
  3
ACAD_LAYOUTSELFREF
360
25F
  0
DICTIONARY
  5
D
102
{ACAD_REACTORS
330
C
102
}
330
C
100
AcDbDictionary
  0
DICTIONARY
  5
C5
102
{ACAD_REACTORS
330
C
102
}
330
C
100
AcDbDictionary
  0
DICTIONARY
  5
E
102
{ACAD_REACTORS
330
C
102
}
330
C
100
AcDbDictionary
  3
STANDARD
350
1B
  0
DICTIONARY
  5
C6
102
{ACAD_REACTORS
330
C
102
}
330
C
100
AcDbDictionary
  0
ACDBDICTIONARYWDFLT
  5
C3
102
{ACAD_REACTORS
330
C
102
}
330
C
100
AcDbDictionary
281
     1
  3
Normal
350
C4
100
AcDbDictionaryWithDefault
340
C4
  0
DICTIONARY
  5
23F
102
{ACAD_REACTORS
330
C
102
}
330
C
100
AcDbDictionary
  3
CEPSNTYPE
350
249
  3
FINGERPRINTGUID
350
24A
  3
HYPERLINKBASE
350
242
  3
INSUNITS
350
248
  3
LAYOUTDICT
350
244
  3
LWETCUNION
350
247
  3
PLOTSETDICT
350
245
  3
PLOTSTYLNAMDICT
350
246
  3
PSVPSCALE
350
24C
  3
PUCSBASE
350
24F
  3
PUCSORGBACK
350
255
  3
PUCSORGBOTTOM
350
251
  3
PUCSORGFRONT
350
254
  3
PUCSORGLEFT
350
252
  3
PUCSORGRIGHT
350
253
  3
PUCSORGTOP
350
250
  3
PUCSORTHOREF
350
24D
  3
PUCSORTHOVIEW
350
24E
  3
STYLESHEET
350
243
  3
TSTACKALIGN
350
240
  3
TSTACKSIZE
350
241
  3
UCSBASE
350
258
  3
UCSORGBACK
350
25E
  3
UCSORGBOTTOM
350
25A
  3
UCSORGFRONT
350
25D
  3
UCSORGLEFT
350
25B
  3
UCSORGRIGHT
350
25C
  3
UCSORGTOP
350
259
  3
UCSORTHOREF
350
256
  3
UCSORTHOVIEW
350
257
  3
VERSIONGUID
350
24B
  0
DICTIONARY
  5
126
102
{ACAD_REACTORS
330
C
102
}
330
C
100
AcDbDictionary
  3
DIMASSOC
350
127
  0
XRECORD
  5
260
102
{ACAD_REACTORS
330
120
102
}
330
120
100
AcDbXrecord
340
18
  0
XRECORD
  5
25F
102
{ACAD_REACTORS
330
11E
102
}
330
11E
100
AcDbXrecord
340
15
  0
MLINESTYLE
  5
1B
102
{ACAD_REACTORS
330
E
102
}
330
E
100
AcDbMlineStyle
  2
STANDARD
 70
     0
  3

 62
     0
 51
90.0
 52
90.0
 71
     2
 49
0.5
 62
   256
  6
BYLAYER
 49
-0.5
 62
   256
  6
BYLAYER
  0
ACDBPLACEHOLDER
  5
C4
102
{ACAD_REACTORS
330
C3
102
}
330
C3
100
AcDbPlaceHolder
280
     0
  0
XRECORD
  5
249
102
{ACAD_REACTORS
330
23F
102
}
330
23F
100
AcDbXrecord
 90
        0
  0
XRECORD
  5
24A
102
{ACAD_REACTORS
330
23F
102
}
330
23F
100
AcDbXrecord
  1
{98F0B749-3483-41CC-8B17-2B96F4C803A6}
  0
XRECORD
  5
242
102
{ACAD_REACTORS
330
23F
102
}
330
23F
100
AcDbXrecord
  1

  0
XRECORD
  5
248
102
{ACAD_REACTORS
330
23F
102
}
330
23F
100
AcDbXrecord
 90
        0
  0
XRECORD
  5
244
102
{ACAD_REACTORS
330
23F
102
}
330
23F
100
AcDbXrecord
340
C5
  0
XRECORD
  5
247
102
{ACAD_REACTORS
330
23F
102
}
330
23F
100
AcDbXrecord
 90
    14877
  0
XRECORD
  5
245
102
{ACAD_REACTORS
330
23F
102
}
330
23F
100
AcDbXrecord
340
C6
  0
XRECORD
  5
246
102
{ACAD_REACTORS
330
23F
102
}
330
23F
100
AcDbXrecord
340
C3
  0
XRECORD
  5
24C
102
{ACAD_REACTORS
330
23F
102
}
330
23F
100
AcDbXrecord
 40
0.0
  0
XRECORD
  5
24F
102
{ACAD_REACTORS
330
23F
102
}
330
23F
100
AcDbXrecord
340
0
  0
XRECORD
  5
255
102
{ACAD_REACTORS
330
23F
102
}
330
23F
100
AcDbXrecord
 10
0.0
 20
0.0
 30
0.0
  0
XRECORD
  5
251
102
{ACAD_REACTORS
330
23F
102
}
330
23F
100
AcDbXrecord
 10
0.0
 20
0.0
 30
0.0
  0
XRECORD
  5
254
102
{ACAD_REACTORS
330
23F
102
}
330
23F
100
AcDbXrecord
 10
0.0
 20
0.0
 30
0.0
  0
XRECORD
  5
252
102
{ACAD_REACTORS
330
23F
102
}
330
23F
100
AcDbXrecord
 10
0.0
 20
0.0
 30
0.0
  0
XRECORD
  5
253
102
{ACAD_REACTORS
330
23F
102
}
330
23F
100
AcDbXrecord
 10
0.0
 20
0.0
 30
0.0
  0
XRECORD
  5
250
102
{ACAD_REACTORS
330
23F
102
}
330
23F
100
AcDbXrecord
 10
0.0
 20
0.0
 30
0.0
  0
XRECORD
  5
24D
102
{ACAD_REACTORS
330
23F
102
}
330
23F
100
AcDbXrecord
340
0
  0
XRECORD
  5
24E
102
{ACAD_REACTORS
330
23F
102
}
330
23F
100
AcDbXrecord
 70
     0
  0
XRECORD
  5
243
102
{ACAD_REACTORS
330
23F
102
}
330
23F
100
AcDbXrecord
  1

  0
XRECORD
  5
240
102
{ACAD_REACTORS
330
23F
102
}
330
23F
100
AcDbXrecord
 90
        1
  0
XRECORD
  5
241
102
{ACAD_REACTORS
330
23F
102
}
330
23F
100
AcDbXrecord
 90
       70
  0
XRECORD
  5
258
102
{ACAD_REACTORS
330
23F
102
}
330
23F
100
AcDbXrecord
340
0
  0
XRECORD
  5
25E
102
{ACAD_REACTORS
330
23F
102
}
330
23F
100
AcDbXrecord
 10
0.0
 20
0.0
 30
0.0
  0
XRECORD
  5
25A
102
{ACAD_REACTORS
330
23F
102
}
330
23F
100
AcDbXrecord
 10
0.0
 20
0.0
 30
0.0
  0
XRECORD
  5
25D
102
{ACAD_REACTORS
330
23F
102
}
330
23F
100
AcDbXrecord
 10
0.0
 20
0.0
 30
0.0
  0
XRECORD
  5
25B
102
{ACAD_REACTORS
330
23F
102
}
330
23F
100
AcDbXrecord
 10
0.0
 20
0.0
 30
0.0
  0
XRECORD
  5
25C
102
{ACAD_REACTORS
330
23F
102
}
330
23F
100
AcDbXrecord
 10
0.0
 20
0.0
 30
0.0
  0
XRECORD
  5
259
102
{ACAD_REACTORS
330
23F
102
}
330
23F
100
AcDbXrecord
 10
0.0
 20
0.0
 30
0.0
  0
XRECORD
  5
256
102
{ACAD_REACTORS
330
23F
102
}
330
23F
100
AcDbXrecord
340
0
  0
XRECORD
  5
257
102
{ACAD_REACTORS
330
23F
102
}
330
23F
100
AcDbXrecord
 70
     0
  0
XRECORD
  5
24B
102
{ACAD_REACTORS
330
23F
102
}
330
23F
100
AcDbXrecord
  1
{F015AF1E-74E1-46C2-85FE-5419E3F99977}
  0
DICTIONARYVAR
  5
127
102
{ACAD_REACTORS
330
126
102
}
330
126
100
DictionaryVariables
280
     0
  1
1
  0
ENDSEC
  0
EOF
