  0
SECTION
  2
HEADER
  9
$ACADVER
  1
AC1014
  9
$ACADMAINTVER
 70
     9
  9
$DWGCODEPAGE
  3
ANSI_1252
  9
$INSBASE
 10
10.76903443999017
 20
3.020718859366749
 30
0.0
  9
$EXTMIN
 10
0.2304409031552446
 20
1.982653826582874
 30
0.0
  9
$EXTMAX
 10
19.80762797682509
 20
10.22017163266216
 30
0.0
  9
$LIMMIN
 10
0.0
 20
0.0
  9
$LIMMAX
 10
36.0
 20
36.0
  9
$ORTHOMODE
 70
     1
  9
$REGENMODE
 70
     1
  9
$FILLMODE
 70
     1
  9
$QTEXTMODE
 70
     0
  9
$MIRRTEXT
 70
     1
  9
$DRAGMODE
 70
     0
  9
$LTSCALE
 40
1.0
  9
$OSMODE
 70
    37
  9
$ATTMODE
 70
     1
  9
$TEXTSIZE
 40
0.2
  9
$TRACEWID
 40
0.05
  9
$TEXTSTYLE
  7
STANDARD
  9
$CLAYER
  8
ADP1DETAIL
  9
$CELTYPE
  6
BYLAYER
  9
$CECOLOR
 62
   256
  9
$CELTSCALE
 40
1.0
  9
$DELOBJ
 70
     1
  9
$DISPSILH
 70
     0
  9
$DIMSCALE
 40
1.0
  9
$DIMASZ
 40
0.125
  9
$DIMEXO
 40
0.0625
  9
$DIMDLI
 40
0.38
  9
$DIMRND
 40
0.0
  9
$DIMDLE
 40
0.0
  9
$DIMEXE
 40
0.18
  9
$DIMTP
 40
0.0
  9
$DIMTM
 40
0.0
  9
$DIMTXT
 40
0.125
  9
$DIMCEN
 40
0.1875
  9
$DIMTSZ
 40
0.125
  9
$DIMTOL
 70
     0
  9
$DIMLIM
 70
     0
  9
$DIMTIH
 70
     0
  9
$DIMTOH
 70
     0
  9
$DIMSE1
 70
     0
  9
$DIMSE2
 70
     0
  9
$DIMTAD
 70
     0
  9
$DIMZIN
 70
     3
  9
$DIMBLK
  1

  9
$DIMASO
 70
     1
  9
$DIMSHO
 70
     1
  9
$DIMPOST
  1

  9
$DIMAPOST
  1

  9
$DIMALT
 70
     0
  9
$DIMALTD
 70
     1
  9
$DIMALTF
 40
25.4
  9
$DIMLFAC
 40
1.0
  9
$DIMTOFL
 70
     0
  9
$DIMTVP
 40
0.0
  9
$DIMTIX
 70
     0
  9
$DIMSOXD
 70
     0
  9
$DIMSAH
 70
     0
  9
$DIMBLK1
  1

  9
$DIMBLK2
  1

  9
$DIMSTYLE
  2
STANDARD
  9
$DIMCLRD
 70
     0
  9
$DIMCLRE
 70
     0
  9
$DIMCLRT
 70
     0
  9
$DIMTFAC
 40
1.0
  9
$DIMGAP
 40
0.125
  9
$DIMJUST
 70
     0
  9
$DIMSD1
 70
     0
  9
$DIMSD2
 70
     0
  9
$DIMTOLJ
 70
     1
  9
$DIMTZIN
 70
     0
  9
$DIMALTZ
 70
     0
  9
$DIMALTTZ
 70
     0
  9
$DIMFIT
 70
     3
  9
$DIMUPT
 70
     0
  9
$DIMUNIT
 70
     2
  9
$DIMDEC
 70
     4
  9
$DIMTDEC
 70
     4
  9
$DIMALTU
 70
     2
  9
$DIMALTTD
 70
     2
  9
$DIMTXSTY
  7
STANDARD
  9
$DIMAUNIT
 70
     0
  9
$LUNITS
 70
     5
  9
$LUPREC
 70
     4
  9
$SKETCHINC
 40
0.1
  9
$FILLETRAD
 40
0.0
  9
$AUNITS
 70
     0
  9
$AUPREC
 70
     0
  9
$MENU
  1
acad
  9
$ELEVATION
 40
0.0
  9
$PELEVATION
 40
0.0
  9
$THICKNESS
 40
0.0
  9
$LIMCHECK
 70
     0
  9
$BLIPMODE
 70
     0
  9
$CHAMFERA
 40
0.0
  9
$CHAMFERB
 40
0.0
  9
$CHAMFERC
 40
0.0
  9
$CHAMFERD
 40
0.0
  9
$SKPOLY
 70
     0
  9
$TDCREATE
 40
2450281.575400845
  9
$TDUPDATE
 40
2452297.084711180
  9
$TDINDWG
 40
0.0988874653
  9
$TDUSRTIMER
 40
0.0988874653
  9
$USRTIMER
 70
     1
  9
$ANGBASE
 50
0.0
  9
$ANGDIR
 70
     0
  9
$PDMODE
 70
     0
  9
$PDSIZE
 40
0.0
  9
$PLINEWID
 40
0.0
  9
$COORDS
 70
     2
  9
$SPLFRAME
 70
     0
  9
$SPLINETYPE
 70
     6
  9
$SPLINESEGS
 70
     8
  9
$ATTDIA
 70
     0
  9
$ATTREQ
 70
     1
  9
$HANDLING
 70
 22529
  9
$HANDSEED
  5
23C
  9
$SURFTAB1
 70
     6
  9
$SURFTAB2
 70
     6
  9
$SURFTYPE
 70
     6
  9
$SURFU
 70
     6
  9
$SURFV
 70
     6
  9
$UCSNAME
  2

  9
$UCSORG
 10
0.0
 20
0.0
 30
0.0
  9
$UCSXDIR
 10
1.0
 20
0.0
 30
0.0
  9
$UCSYDIR
 10
0.0
 20
1.0
 30
0.0
  9
$PUCSNAME
  2

  9
$PUCSORG
 10
0.0
 20
0.0
 30
0.0
  9
$PUCSXDIR
 10
1.0
 20
0.0
 30
0.0
  9
$PUCSYDIR
 10
0.0
 20
1.0
 30
0.0
  9
$USERI1
 70
     0
  9
$USERI2
 70
     0
  9
$USERI3
 70
     0
  9
$USERI4
 70
     0
  9
$USERI5
 70
     0
  9
$USERR1
 40
0.0
  9
$USERR2
 40
0.0
  9
$USERR3
 40
0.0
  9
$USERR4
 40
0.0
  9
$USERR5
 40
0.0
  9
$WORLDVIEW
 70
     1
  9
$SHADEDGE
 70
     3
  9
$SHADEDIF
 70
    70
  9
$TILEMODE
 70
     1
  9
$MAXACTVP
 70
    15
  9
$PINSBASE
 10
0.1250029802322391
 20
0.0
 30
0.0
  9
$PLIMCHECK
 70
     0
  9
$PEXTMIN
 10
1.000000000000000E+20
 20
1.000000000000000E+20
 30
1.000000000000000E+20
  9
$PEXTMAX
 10
-1.000000000000000E+20
 20
-1.000000000000000E+20
 30
-1.000000000000000E+20
  9
$PLIMMIN
 10
0.0
 20
0.0
  9
$PLIMMAX
 10
12.0
 20
9.0
  9
$UNITMODE
 70
     0
  9
$VISRETAIN
 70
     0
  9
$PLINEGEN
 70
     0
  9
$PSLTSCALE
 70
     1
  9
$TREEDEPTH
 70
  3020
  9
$PICKSTYLE
 70
     1
  9
$CMLSTYLE
  2
STANDARD
  9
$CMLJUST
 70
     0
  9
$CMLSCALE
 40
1.0
  9
$PROXYGRAPHICS
 70
     1
  9
$MEASUREMENT
 70
     0
  0
ENDSEC
  0
SECTION
  2
CLASSES
  0
CLASS
  1
ACDBDICTIONARYWDFLT
  2
AcDbDictionaryWithDefault
  3
AutoCAD 2000
 90
        0
280
     0
281
     0
  0
CLASS
  1
ACDBPLACEHOLDER
  2
AcDbPlaceHolder
  3
AutoCAD 2000
 90
        0
280
     0
281
     0
  0
CLASS
  1
LAYOUT
  2
AcDbLayout
  3
AutoCAD 2000
 90
        0
280
     0
281
     0
  0
CLASS
  1
DICTIONARYVAR
  2
AcDbDictionaryVar
  3
AutoCAD 2000
 90
        0
280
     0
281
     0
  0
CLASS
  1
LONG_TRANSACTION
  2
AcDbLongTransaction
  3
AutoCAD 2000
 90
        0
280
     0
281
     0
  0
CLASS
  1
LWPOLYLINE
  2
AcDbPolyline
  3
AutoCAD 2000
 90
        0
280
     0
281
     1
  0
CLASS
  1
HATCH
  2
AcDbHatch
  3
AutoCAD 2000
 90
        0
280
     0
281
     1
  0
CLASS
  1
XRECORD
  2
AcDbXrecord
  3
AutoCAD 2000
 90
        0
280
     0
281
     0
  0
CLASS
  1
LONG_TRANSACTION
  2
AcDbLongTransaction
  3
AutoCAD 2000
 90
        0
280
     0
281
     0
  0
CLASS
  1
LWPOLYLINE
  2
AcDbPolyline
  3
AutoCAD 2000
 90
        0
280
     0
281
     1
  0
CLASS
  1
HATCH
  2
AcDbHatch
  3
AutoCAD 2000
 90
        0
280
     0
281
     1
  0
CLASS
  1
XRECORD
  2
AcDbXrecord
  3
AutoCAD 2000
 90
        0
280
     0
281
     0
  0
CLASS
  1
LONG_TRANSACTION
  2
AcDbLongTransaction
  3
AutoCAD 2000
 90
        0
280
     0
281
     0
  0
CLASS
  1
LWPOLYLINE
  2
AcDbPolyline
  3
AutoCAD 2000
 90
        0
280
     0
281
     1
  0
CLASS
  1
HATCH
  2
AcDbHatch
  3
AutoCAD 2000
 90
        0
280
     0
281
     1
  0
CLASS
  1
XRECORD
  2
AcDbXrecord
  3
AutoCAD 2000
 90
        0
280
     0
281
     0
  0
CLASS
  1
LONG_TRANSACTION
  2
AcDbLongTransaction
  3
AutoCAD 2000
 90
        0
280
     0
281
     0
  0
CLASS
  1
LWPOLYLINE
  2
AcDbPolyline
  3
AutoCAD 2000
 90
        0
280
     0
281
     1
  0
CLASS
  1
HATCH
  2
AcDbHatch
  3
AutoCAD 2000
 90
        0
280
     0
281
     1
  0
CLASS
  1
XRECORD
  2
AcDbXrecord
  3
AutoCAD 2000
 90
        0
280
     0
281
     0
  0
CLASS
  1
LONG_TRANSACTION
  2
AcDbLongTransaction
  3
AutoCAD 2000
 90
        0
280
     0
281
     0
  0
CLASS
  1
LWPOLYLINE
  2
AcDbPolyline
  3
AutoCAD 2000
 90
        0
280
     0
281
     1
  0
CLASS
  1
HATCH
  2
AcDbHatch
  3
AutoCAD 2000
 90
        0
280
     0
281
     1
  0
CLASS
  1
XRECORD
  2
AcDbXrecord
  3
AutoCAD 2000
 90
        0
280
     0
281
     0
  0
ENDSEC
  0
SECTION
  2
TABLES
  0
TABLE
  2
VPORT
  5
8
330
0
100
AcDbSymbolTable
 70
     2
  0
VPORT
  5
219
330
8
100
AcDbSymbolTableRecord
100
AcDbViewportTableRecord
  2
*ACTIVE
 70
     0
 10
0.0
 20
0.0
 11
1.0
 21
1.0
 12
10.03560889669072
 22
6.101806710592716
 13
0.0
 23
0.0
 14
0.5740882589684922
 24
0.5740882589684922
 15
0.5
 25
0.5
 16
0.0
 26
0.0
 36
1.0
 17
0.0
 27
0.0
 37
0.0
 40
12.54751368323494
 41
1.570528967254408
 42
50.0
 43
0.0
 44
0.0
 50
0.0
 51
0.0
 71
     0
 72
   100
 73
     1
 74
     0
 75
     0
 76
     0
 77
     0
 78
     0
  0
ENDTAB
  0
TABLE
  2
LTYPE
  5
5
330
0
100
AcDbSymbolTable
 70
     2
  0
LTYPE
  5
12
330
5
100
AcDbSymbolTableRecord
100
AcDbLinetypeTableRecord
  2
BYBLOCK
 70
     0
  3

 72
    65
 73
     0
 40
0.0
  0
LTYPE
  5
13
330
5
100
AcDbSymbolTableRecord
100
AcDbLinetypeTableRecord
  2
BYLAYER
 70
     0
  3

 72
    65
 73
     0
 40
0.0
  0
LTYPE
  5
14
330
5
100
AcDbSymbolTableRecord
100
AcDbLinetypeTableRecord
  2
CONTINUOUS
 70
     0
  3
Solid line
 72
    65
 73
     0
 40
0.0
  0
LTYPE
  5
43
330
5
100
AcDbSymbolTableRecord
100
AcDbLinetypeTableRecord
  2
HIDDEN2
 70
     0
  3
_ _ _ _ _ _ _ _ _ _ _ _ _ _ _ _ _ _ _ _ _ _ _ _
 72
    65
 73
     2
 40
0.1875
 49
0.125
 74
     0
 49
-0.0625
 74
     0
  0
ENDTAB
  0
TABLE
  2
LAYER
  5
2
330
0
100
AcDbSymbolTable
 70
     5
  0
LAYER
  5
F
330
2
100
AcDbSymbolTableRecord
100
AcDbLayerTableRecord
  2
0
 70
     0
 62
     7
  6
CONTINUOUS
  0
LAYER
  5
44
330
2
100
AcDbSymbolTableRecord
100
AcDbLayerTableRecord
  2
ADP2DETAIL
 70
     0
 62
     5
  6
CONTINUOUS
  0
LAYER
  5
45
330
2
100
AcDbSymbolTableRecord
100
AcDbLayerTableRecord
  2
ADPDIM
 70
     0
 62
     3
  6
CONTINUOUS
  0
LAYER
  5
46
330
2
100
AcDbSymbolTableRecord
100
AcDbLayerTableRecord
  2
ADP1DETAIL
 70
     0
 62
     7
  6
CONTINUOUS
  0
LAYER
  5
47
330
2
100
AcDbSymbolTableRecord
100
AcDbLayerTableRecord
  2
DEFPOINTS
 70
     0
 62
     7
  6
CONTINUOUS
  0
ENDTAB
  0
TABLE
  2
STYLE
  5
3
330
0
100
AcDbSymbolTable
 70
     2
  0
STYLE
  5
10
330
3
100
AcDbSymbolTableRecord
100
AcDbTextStyleTableRecord
  2
STANDARD
 70
     0
 40
0.0
 41
1.0
 50
0.0
 71
     0
 42
0.2
  3
txt
  4

  0
STYLE
  5
D5
330
3
100
AcDbSymbolTableRecord
100
AcDbTextStyleTableRecord
  2
ARIAL_WIDE
 70
     0
 40
0.0
 41
1.25
 50
0.0
 71
     0
 42
0.2
  3
ARIAL.TTF
  4

1001
ACAD
1000
Arial
1071
       34
  0
ENDTAB
  0
TABLE
  2
VIEW
  5
6
330
0
100
AcDbSymbolTable
 70
     0
  0
ENDTAB
  0
TABLE
  2
UCS
  5
7
330
0
100
AcDbSymbolTable
 70
     0
  0
ENDTAB
  0
TABLE
  2
APPID
  5
9
330
0
100
AcDbSymbolTable
 70
     1
  0
APPID
  5
11
330
9
100
AcDbSymbolTableRecord
100
AcDbRegAppTableRecord
  2
ACAD
 70
     0
  0
ENDTAB
  0
TABLE
  2
DIMSTYLE
  5
A
330
0
100
AcDbSymbolTable
 70
     1
  0
DIMSTYLE
105
C9
330
A
100
AcDbSymbolTableRecord
100
AcDbDimStyleTableRecord
  2
STANDARD
 70
     0
  3

  4

  5

  6

  7

 40
1.0
 41
0.18
 42
0.0625
 43
0.38
 44
0.18
 45
0.0
 46
0.0
 47
0.0
 48
0.0
140
0.18
141
0.09
142
0.0
143
25.4
144
1.0
145
0.0
146
1.0
147
0.09
 71
     0
 72
     0
 73
     1
 74
     1
 75
     0
 76
     0
 77
     0
 78
     0
170
     0
171
     2
172
     0
173
     0
174
     0
175
     0
176
     0
177
     0
178
     0
270
     2
271
     4
272
     4
273
     2
274
     2
340
10
275
     0
280
     0
281
     0
282
     0
283
     1
284
     0
285
     0
286
     0
287
     3
288
     0
  0
ENDTAB
  0
TABLE
  2
BLOCK_RECORD
  5
1
330
0
100
AcDbSymbolTable
 70
     2
  0
BLOCK_RECORD
  5
18
102
{ACAD_XDICTIONARY
360
12A
102
}
330
1
100
AcDbSymbolTableRecord
100
AcDbBlockTableRecord
  2
*MODEL_SPACE
  0
BLOCK_RECORD
  5
15
102
{ACAD_XDICTIONARY
360
128
102
}
330
1
100
AcDbSymbolTableRecord
100
AcDbBlockTableRecord
  2
*PAPER_SPACE
  0
BLOCK_RECORD
  5
41
330
1
100
AcDbSymbolTableRecord
100
AcDbBlockTableRecord
  2
*D0
  0
BLOCK_RECORD
  5
42
330
1
100
AcDbSymbolTableRecord
100
AcDbBlockTableRecord
  2
*D1
  0
ENDTAB
  0
ENDSEC
  0
SECTION
  2
BLOCKS
  0
BLOCK
  5
4A
330
18
100
AcDbEntity
  8
0
100
AcDbBlockBegin
  2
*MODEL_SPACE
 70
     0
 10
0.0
 20
0.0
 30
0.0
  3
*MODEL_SPACE
  1

  0
ENDBLK
  5
4B
330
18
100
AcDbEntity
  8
0
100
AcDbBlockEnd
  0
BLOCK
  5
48
330
15
100
AcDbEntity
 67
     1
  8
0
100
AcDbBlockBegin
  2
*PAPER_SPACE
 70
     0
 10
0.0
 20
0.0
 30
0.0
  3
*PAPER_SPACE
  1

  0
ENDBLK
  5
49
330
15
100
AcDbEntity
 67
     1
  8
0
100
AcDbBlockEnd
  0
BLOCK
  5
4D
330
41
100
AcDbEntity
  8
0
100
AcDbBlockBegin
  2
*D0
 70
     1
 10
0.0
 20
0.0
 30
0.0
  3
*D0
  1

  0
LINE
  5
4E
330
41
100
AcDbEntity
  8
0
  6
BYBLOCK
 62
     0
100
AcDbLine
 10
9.20653443999017
 20
3.020718859366749
 30
0.0
 11
8.652870630314154
 21
3.020718859366749
 31
0.0
  0
LINE
  5
4F
330
41
100
AcDbEntity
  8
0
  6
BYBLOCK
 62
     0
100
AcDbLine
 10
9.972544729638988
 20
8.213038840899802
 30
0.0
 11
8.652870630314154
 21
8.213038840899802
 31
0.0
  0
LINE
  5
50
330
41
100
AcDbEntity
  8
0
  6
BYBLOCK
 62
     0
100
AcDbLine
 10
8.832870630314154
 20
3.020718859366749
 30
0.0
 11
8.832870630314154
 21
5.158545516799941
 31
0.0
  0
LINE
  5
51
330
41
100
AcDbEntity
  8
0
  6
BYBLOCK
 62
     0
100
AcDbLine
 10
8.832870630314154
 20
8.213038840899802
 30
0.0
 11
8.832870630314154
 21
6.075212183466607
 31
0.0
  0
LINE
  5
52
330
41
100
AcDbEntity
  8
0
  6
BYBLOCK
 62
     0
100
AcDbLine
 10
8.957870630314154
 20
2.895718859366749
 30
0.0
 11
8.707870630314154
 21
3.145718859366749
 31
0.0
  0
LINE
  5
53
330
41
100
AcDbEntity
  8
0
  6
BYBLOCK
 62
     0
100
AcDbLine
 10
8.957870630314154
 20
8.088038840899802
 30
0.0
 11
8.707870630314154
 21
8.338038840899802
 31
0.0
  0
TEXT
  5
54
330
41
100
AcDbEntity
  8
0
  6
BYBLOCK
 62
     0
100
AcDbText
 10
8.895370630314154
 20
5.283545516799941
 30
0.0
 40
0.125
  1
5 3/16
 50
90.0
 72
     1
 11
8.832870630314154
 21
5.616878850133274
 31
0.0
100
AcDbText
 73
     2
  0
POINT
  5
55
330
41
100
AcDbEntity
  8
DEFPOINTS
  6
BYBLOCK
 62
     0
100
AcDbPoint
 10
9.26903443999017
 20
3.020718859366749
 30
0.0
  0
POINT
  5
56
330
41
100
AcDbEntity
  8
DEFPOINTS
  6
BYBLOCK
 62
     0
100
AcDbPoint
 10
10.03504472963898
 20
8.213038840899802
 30
0.0
  0
POINT
  5
57
330
41
100
AcDbEntity
  8
DEFPOINTS
  6
BYBLOCK
 62
     0
100
AcDbPoint
 10
8.832870630314154
 20
8.213038840899802
 30
0.0
  0
ENDBLK
  5
58
330
41
100
AcDbEntity
  8
0
100
AcDbBlockEnd
  0
BLOCK
  5
59
330
42
100
AcDbEntity
  8
0
100
AcDbBlockBegin
  2
*D1
 70
     1
 10
0.0
 20
0.0
 30
0.0
  3
*D1
  1

  0
LINE
  5
5A
330
42
100
AcDbEntity
  8
0
  6
BYBLOCK
 62
     0
100
AcDbLine
 10
9.26903443999017
 20
2.958218859366749
 30
0.0
 11
9.26903443999017
 21
2.623057547286636
 31
0.0
  0
LINE
  5
5B
330
42
100
AcDbEntity
  8
0
  6
BYBLOCK
 62
     0
100
AcDbLine
 10
10.76903443999017
 20
2.958218859366749
 30
0.0
 11
10.76903443999017
 21
2.623057547286636
 31
0.0
  0
LINE
  5
5C
330
42
100
AcDbEntity
  8
0
  6
BYBLOCK
 62
     0
100
AcDbLine
 10
9.26903443999017
 20
2.803057547286636
 30
0.0
 11
9.64403443999017
 21
2.803057547286636
 31
0.0
  0
LINE
  5
5D
330
42
100
AcDbEntity
  8
0
  6
BYBLOCK
 62
     0
100
AcDbLine
 10
10.76903443999017
 20
2.803057547286636
 30
0.0
 11
10.39403443999016
 21
2.803057547286636
 31
0.0
  0
LINE
  5
5E
330
42
100
AcDbEntity
  8
0
  6
BYBLOCK
 62
     0
100
AcDbLine
 10
9.14403443999017
 20
2.678057547286636
 30
0.0
 11
9.39403443999017
 21
2.928057547286636
 31
0.0
  0
LINE
  5
5F
330
42
100
AcDbEntity
  8
0
  6
BYBLOCK
 62
     0
100
AcDbLine
 10
10.64403443999017
 20
2.678057547286636
 30
0.0
 11
10.89403443999017
 21
2.928057547286636
 31
0.0
  0
TEXT
  5
60
330
42
100
AcDbEntity
  8
0
  6
BYBLOCK
 62
     0
100
AcDbText
 10
9.76903443999017
 20
2.740557547286636
 30
0.0
 40
0.125
  1
1 1/2
 72
     1
 11
10.01903443999017
 21
2.803057547286636
 31
0.0
100
AcDbText
 73
     2
  0
POINT
  5
61
330
42
100
AcDbEntity
  8
DEFPOINTS
  6
BYBLOCK
 62
     0
100
AcDbPoint
 10
9.26903443999017
 20
3.020718859366749
 30
0.0
  0
POINT
  5
62
330
42
100
AcDbEntity
  8
DEFPOINTS
  6
BYBLOCK
 62
     0
100
AcDbPoint
 10
10.76903443999017
 20
3.020718859366749
 30
0.0
  0
POINT
  5
63
330
42
100
AcDbEntity
  8
DEFPOINTS
  6
BYBLOCK
 62
     0
100
AcDbPoint
 10
10.76903443999017
 20
2.803057547286636
 30
0.0
  0
ENDBLK
  5
64
330
42
100
AcDbEntity
  8
0
100
AcDbBlockEnd
  0
ENDSEC
  0
SECTION
  2
ENTITIES
  0
LWPOLYLINE
  5
65
330
18
100
AcDbEntity
  8
ADP1DETAIL
100
AcDbPolyline
 90
        4
 70
     0
 43
0.0
 10
9.14403443999017
 20
6.676968859366748
 42
-0.5015511936515457
 10
9.373967369752552
 20
6.419328304497686
 42
-0.0017430658660128
 10
9.447420420586219
 20
4.58365962316774
 42
0.2018970196179151
 10
9.70653443999017
 20
4.270718859366748
 42
0.24512889333403
  0
LWPOLYLINE
  5
6B
330
18
100
AcDbEntity
  8
ADP1DETAIL
100
AcDbPolyline
 90
        4
 70
     0
 43
0.0
 10
10.89403443999016
 20
6.676968859366748
 42
0.5015511936515457
 10
10.66410151022778
 20
6.419328304497686
 42
0.0017430658660128
 10
10.59064845939411
 20
4.58365962316774
 42
-0.2018970196179151
 10
10.33153443999016
 20
4.270718859366748
 42
-0.24512889333403
  0
DIMENSION
  5
71
330
18
100
AcDbEntity
  8
ADPDIM
100
AcDbDimension
  2
*D0
 10
8.832870630314154
 20
8.213038840899802
 30
0.0
 11
8.832870630314154
 21
5.616878850133274
 31
0.0
100
AcDbAlignedDimension
 13
9.26903443999017
 23
3.020718859366749
 33
0.0
 14
10.03504472963898
 24
8.213038840899802
 34
0.0
 50
90.0
100
AcDbRotatedDimension
  0
DIMENSION
  5
72
330
18
100
AcDbEntity
  8
ADPDIM
100
AcDbDimension
  2
*D1
 10
10.76903443999017
 20
2.803057547286636
 30
0.0
 11
10.01903443999017
 21
2.803057547286636
 31
0.0
100
AcDbAlignedDimension
 13
9.26903443999017
 23
3.020718859366749
 33
0.0
 14
10.76903443999017
 24
3.020718859366749
 34
0.0
100
AcDbRotatedDimension
  0
LINE
  5
73
330
18
100
AcDbEntity
  8
ADP1DETAIL
100
AcDbLine
 10
9.26903443999017
 20
3.020718859366749
 30
0.0
 11
9.26903443999017
 21
3.395718859366749
 31
0.0
  0
LINE
  5
74
330
18
100
AcDbEntity
  8
ADP1DETAIL
100
AcDbLine
 10
10.76903443999017
 20
3.395718859366749
 30
0.0
 11
10.76903443999017
 21
3.020718859366749
 31
0.0
  0
LINE
  5
75
330
18
100
AcDbEntity
  8
ADP1DETAIL
100
AcDbLine
 10
10.76903443999016
 20
3.020718859366749
 30
0.0
 11
10.76903443999016
 21
3.395718859366749
 31
0.0
  0
LINE
  5
76
330
18
100
AcDbEntity
  8
ADP1DETAIL
100
AcDbLine
 10
10.76903443999017
 20
3.020718859366749
 30
0.0
 11
9.26903443999017
 21
3.020718859366749
 31
0.0
  0
LINE
  5
77
330
18
100
AcDbEntity
  8
ADP1DETAIL
100
AcDbLine
 10
9.26903443999017
 20
3.395718859366749
 30
0.0
 11
10.76903443999017
 21
3.395718859366749
 31
0.0
  0
LINE
  5
78
330
18
100
AcDbEntity
  8
ADP1DETAIL
100
AcDbLine
 10
10.33153443999016
 20
4.270718859366748
 30
0.0
 11
9.70653443999017
 21
4.270718859366748
 31
0.0
  0
LINE
  5
79
330
18
100
AcDbEntity
  8
ADP1DETAIL
100
AcDbLine
 10
10.41903443999016
 20
4.083218859366748
 30
0.0
 11
9.619034439990169
 21
4.083218859366748
 31
0.0
  0
LINE
  5
7A
330
18
100
AcDbEntity
  8
ADP1DETAIL
100
AcDbLine
 10
10.33153443999016
 20
4.020718859366748
 30
0.0
 11
9.70653443999017
 21
4.020718859366748
 31
0.0
  0
LINE
  5
7B
330
18
100
AcDbEntity
  8
ADP1DETAIL
100
AcDbLine
 10
9.39403443999017
 20
3.458218859366749
 30
0.0
 11
10.64403443999016
 21
3.458218859366749
 31
0.0
  0
LWPOLYLINE
  5
7C
330
18
100
AcDbEntity
  8
ADP1DETAIL
100
AcDbPolyline
 90
        3
 70
     0
 43
0.0
 10
9.70653443999017
 20
4.020718859366748
 42
-0.2754392264233862
 10
9.77271243777189
 20
3.817923539489696
 42
-0.337821572941093
 10
9.39403443999017
 20
3.458218859366749
 42
18.47668757394973
  0
LINE
  5
81
330
18
100
AcDbEntity
  8
ADP1DETAIL
100
AcDbLine
 10
9.39403443999017
 20
3.395718859366749
 30
0.0
 11
9.39403443999017
 21
3.458218859366749
 31
0.0
  0
LWPOLYLINE
  5
82
330
18
100
AcDbEntity
  8
ADP1DETAIL
100
AcDbPolyline
 90
        2
 70
     0
 43
0.0
 10
9.70653443999017
 20
4.270718859366748
 42
0.1731385743363178
 10
9.619034439990169
 20
4.083218859366748
 42
-0.9103857938815156
  0
LINE
  5
86
330
18
100
AcDbEntity
  8
ADP1DETAIL
100
AcDbLine
 10
9.70653443999017
 20
4.020718859366748
 30
0.0
 11
9.70653443999017
 21
4.083218859366748
 31
0.0
  0
LWPOLYLINE
  5
87
330
18
100
AcDbEntity
  8
ADP1DETAIL
100
AcDbPolyline
 90
        3
 70
     0
 43
0.0
 10
10.33153443999016
 20
4.020718859366748
 42
0.2754392264233862
 10
10.26535644220844
 20
3.817923539489696
 42
0.337821572941093
 10
10.64403443999016
 20
3.458218859366749
 42
-18.47668757394973
  0
LINE
  5
8C
330
18
100
AcDbEntity
  8
ADP1DETAIL
100
AcDbLine
 10
10.64403443999016
 20
3.395718859366749
 30
0.0
 11
10.64403443999016
 21
3.458218859366749
 31
0.0
  0
LINE
  5
8D
330
18
100
AcDbEntity
  8
ADP1DETAIL
100
AcDbLine
 10
10.33153443999016
 20
4.020718859366748
 30
0.0
 11
10.33153443999016
 21
4.083218859366748
 31
0.0
  0
LWPOLYLINE
  5
8E
330
18
100
AcDbEntity
  8
ADP1DETAIL
100
AcDbPolyline
 90
        2
 70
     0
 43
0.0
 10
10.33153443999016
 20
4.270718859366748
 42
-0.1731385743363178
 10
10.41903443999016
 20
4.083218859366748
 42
0.9103857938815156
  0
CIRCLE
  5
92
330
18
100
AcDbEntity
  8
ADP1DETAIL
100
AcDbCircle
 10
10.01903443999017
 20
9.361575020748825
 30
0.0
 40
0.8585966119133399
  0
LINE
  5
93
330
18
100
AcDbEntity
  8
ADP1DETAIL
100
AcDbLine
 10
10.76903443999017
 20
7.083218859366748
 30
0.0
 11
9.14403443999017
 21
7.083218859366748
 31
0.0
  0
ARC
  5
94
330
18
100
AcDbEntity
  8
ADP1DETAIL
100
AcDbCircle
 10
9.173034350002655
 20
7.776649771328903
 30
0.0
 40
0.6940370483233575
100
AcDbArc
 50
267.6052339947108
 51
343.8171284973913
  0
LINE
  5
95
330
18
100
AcDbEntity
  8
ADP1DETAIL
100
AcDbLine
 10
10.92603443999016
 20
6.989468859366748
 30
0.0
 11
9.11203443999017
 21
6.989468859366748
 31
0.0
  0
LINE
  5
96
330
18
100
AcDbEntity
  8
ADP1DETAIL
100
AcDbLine
 10
10.87349463478031
 20
6.677788471562005
 30
0.0
 11
9.14403443999017
 21
6.676968859366748
 31
0.0
  0
LINE
  5
97
330
18
100
AcDbEntity
  8
ADP1DETAIL
100
AcDbLine
 10
10.92603443999017
 20
6.739468859366748
 30
0.0
 11
9.112034439990168
 21
6.739468859366748
 31
0.0
  0
ARC
  5
98
330
18
100
AcDbEntity
  8
ADP1DETAIL
100
AcDbCircle
 10
9.11203443999017
 20
6.866468859366748
 30
0.0
 40
0.123
100
AcDbArc
 50
90.0
 51
180.0
  0
LINE
  5
99
330
18
100
AcDbEntity
  8
ADP1DETAIL
100
AcDbLine
 10
8.989034439990168
 20
6.862468859366749
 30
0.0
 11
8.98903443999017
 21
6.866468859366748
 31
0.0
  0
ARC
  5
9A
330
18
100
AcDbEntity
  8
ADP1DETAIL
100
AcDbCircle
 10
9.112034439990168
 20
6.862468859366749
 30
0.0
 40
0.123
100
AcDbArc
 50
180.0
 51
270.0
  0
LINE
  5
9B
330
18
100
AcDbEntity
  8
ADP1DETAIL
100
AcDbLine
 10
9.14403443999017
 20
6.676968859366748
 30
0.0
 11
9.14403443999017
 21
6.739468859366747
 31
0.0
  0
LINE
  5
9C
330
18
100
AcDbEntity
  8
ADP1DETAIL
100
AcDbLine
 10
9.14403443999017
 20
6.989468859366748
 30
0.0
 11
9.14403443999017
 21
7.083218859366748
 31
0.0
  0
LINE
  5
9D
330
18
100
AcDbEntity
  8
ADP1DETAIL
100
AcDbLine
 10
10.7669312921322
 20
8.939866068336019
 30
0.0
 11
10.7669312921322
 21
8.611575020748823
 31
0.0
  0
LINE
  5
9E
330
18
100
AcDbEntity
  8
ADP1DETAIL
100
AcDbLine
 10
9.266931292132202
 20
8.611575020748823
 30
0.0
 11
9.266931292132202
 21
8.947414427535029
 31
0.0
  0
CIRCLE
  5
9F
330
18
100
AcDbEntity
  8
ADP2DETAIL
  6
HIDDEN2
100
AcDbCircle
 10
10.01903443999017
 20
9.361575020748825
 30
0.0
 40
0.7526643162667189
  0
CIRCLE
  5
A0
330
18
100
AcDbEntity
  8
ADP2DETAIL
  6
HIDDEN2
100
AcDbCircle
 10
10.01903443999017
 20
9.361575020748825
 30
0.0
 40
0.6202489711125825
  0
CIRCLE
  5
A1
330
18
100
AcDbEntity
  8
ADP2DETAIL
  6
HIDDEN2
100
AcDbCircle
 10
10.01903443999017
 20
9.361575020748825
 30
0.0
 40
0.7526643162667189
  0
LINE
  5
A2
330
18
100
AcDbEntity
  8
ADP1DETAIL
100
AcDbLine
 10
10.7669312921322
 20
8.611575020748823
 30
0.0
 11
10.4369915454317
 21
8.611575020748823
 31
0.0
  0
ARC
  5
A3
330
18
100
AcDbEntity
  8
ADP1DETAIL
100
AcDbCircle
 10
10.86503452997768
 20
7.776649771328903
 30
0.0
 40
0.6940370483233575
100
AcDbArc
 50
196.1828715026086
 51
272.3947660052891
  0
LINE
  5
A4
330
18
100
AcDbEntity
  8
ADP2DETAIL
  6
HIDDEN2
100
AcDbLine
 10
9.601077334548637
 20
8.611575020748823
 30
0.0
 11
10.4369915454317
 21
8.611575020748823
 31
0.0
  0
LWPOLYLINE
  5
A5
330
18
100
AcDbEntity
  8
ADP1DETAIL
100
AcDbPolyline
 90
       12
 70
     0
 43
0.0
 10
10.33153443999017
 20
7.864468859366748
 42
0.0902779909807675
 10
10.30731880427652
 20
7.997492840189606
 42
0.0947014321919344
 10
10.24000530911096
 20
8.107536815399624
 42
0.10171138869009
 10
10.13713493994751
 20
8.182581403834403
 42
0.1072913810645613
 10
10.01903443999017
 20
8.208218859366748
 42
0.1072913810645617
 10
9.900933940032825
 20
8.182581403834401
 42
0.1017113886900844
 10
9.798063570869373
 20
8.107536815399624
 42
0.0947014321919346
 10
9.730750075703811
 20
7.997492840189606
 42
0.0902779909807675
 10
9.70653443999017
 20
7.864468859366748
 42
0.0902779909807705
 10
9.730750075703811
 20
7.731444878543896
 42
0.0947014321919432
 10
9.798063570869373
 20
7.621400903333872
 42
0.0446773957577236
 10
9.83957160083181
 20
7.583218859366748
 42
0.1072913810645638
  0
LINE
  5
B3
330
18
100
AcDbEntity
  8
ADP1DETAIL
100
AcDbLine
 10
10.19849727914853
 20
7.583218859366748
 30
0.0
 11
9.83957160083181
 21
7.583218859366748
 31
0.0
  0
LINE
  5
B4
330
18
100
AcDbEntity
  8
ADP1DETAIL
100
AcDbLine
 10
9.601077334548637
 20
8.611575020748823
 30
0.0
 11
9.266931292132202
 21
8.611575020748823
 31
0.0
  0
LWPOLYLINE
  5
B5
330
18
100
AcDbEntity
  8
ADP1DETAIL
100
AcDbPolyline
 90
        4
 70
     0
 43
0.0
 10
10.19849727914853
 20
7.583218859366748
 42
0.0446773957577232
 10
10.24000530911096
 20
7.621400903333872
 42
0.0947014321919363
 10
10.30731880427652
 20
7.731444878543892
 42
0.0902779909807681
 10
10.33153443999017
 20
7.864468859366748
 42
0.0902779909807675
  0
ARC
  5
BB
330
18
100
AcDbEntity
  8
ADP1DETAIL
100
AcDbCircle
 10
10.92603443999017
 20
6.862468859366749
 30
0.0
 40
0.123
100
AcDbArc
 50
270.0
 51
0.000000000000007
  0
ARC
  5
BC
330
18
100
AcDbEntity
  8
ADP1DETAIL
100
AcDbCircle
 10
10.92603443999016
 20
6.866468859366748
 30
0.0
 40
0.123
100
AcDbArc
 50
0.000000000000007
 51
90.0
  0
LINE
  5
BD
330
18
100
AcDbEntity
  8
ADP1DETAIL
100
AcDbLine
 10
10.89403443999016
 20
6.989468859366748
 30
0.0
 11
10.89403443999016
 21
7.083218859366748
 31
0.0
  0
LINE
  5
BE
330
18
100
AcDbEntity
  8
ADP1DETAIL
100
AcDbLine
 10
10.89403443999016
 20
6.676968859366748
 30
0.0
 11
10.89403443999016
 21
6.739468859366747
 31
0.0
  0
LINE
  5
BF
330
18
100
AcDbEntity
  8
ADP1DETAIL
100
AcDbLine
 10
11.04903443999017
 20
6.862468859366749
 30
0.0
 11
11.04903443999016
 21
6.866468859366748
 31
0.0
  0
LINE
  5
C0
330
18
100
AcDbEntity
  8
ADP1DETAIL
100
AcDbLine
 10
10.4369915454317
 20
10.11157502074882
 30
0.0
 11
10.7669312921322
 21
10.11157502074882
 31
0.0
  0
LINE
  5
C1
330
18
100
AcDbEntity
  8
ADP2DETAIL
  6
HIDDEN2
100
AcDbLine
 10
10.4369915454317
 20
10.11157502074882
 30
0.0
 11
9.601077334548635
 21
10.11157502074882
 31
0.0
  0
CIRCLE
  5
C2
330
18
100
AcDbEntity
  8
ADP1DETAIL
100
AcDbCircle
 10
10.01903443999017
 20
9.361575020748825
 30
0.0
 40
0.3156937065430423
  0
CIRCLE
  5
C3
330
18
100
AcDbEntity
  8
ADP2DETAIL
  6
HIDDEN2
100
AcDbCircle
 10
10.01903443999017
 20
9.361575020748825
 30
0.0
 40
0.3951428876044378
  0
LINE
  5
C4
330
18
100
AcDbEntity
  8
ADP2DETAIL
  6
HIDDEN2
100
AcDbLine
 10
9.266931292132202
 20
9.77573561396262
 30
0.0
 11
9.266931292132202
 21
8.947414427535029
 31
0.0
  0
LINE
  5
C5
330
18
100
AcDbEntity
  8
ADP1DETAIL
100
AcDbLine
 10
9.266931292132202
 20
10.11157502074882
 30
0.0
 11
9.601077334548635
 21
10.11157502074882
 31
0.0
  0
LINE
  5
C6
330
18
100
AcDbEntity
  8
ADP1DETAIL
100
AcDbLine
 10
9.266931292132202
 20
9.77573561396262
 30
0.0
 11
9.266931292132202
 21
10.11157502074882
 31
0.0
  0
LINE
  5
C7
330
18
100
AcDbEntity
  8
ADP2DETAIL
  6
HIDDEN2
100
AcDbLine
 10
10.7669312921322
 20
8.939866068336019
 30
0.0
 11
10.7669312921322
 21
9.78328397316163
 31
0.0
  0
LINE
  5
C8
330
18
100
AcDbEntity
  8
ADP1DETAIL
100
AcDbLine
 10
10.7669312921322
 20
10.11157502074882
 30
0.0
 11
10.7669312921322
 21
9.78328397316163
 31
0.0
  0
TEXT
  5
D6
330
18
100
AcDbEntity
  8
ADPDIM
100
AcDbText
 10
0.2304409031552446
 20
2.038162012121755
 30
0.0
 40
0.1875
  1
J U L I U S  B L U M  &  C O . ,  I N C .      ( 8 0 0 )  5 2 6 - 6 2 9 3        W W W . J U L I U S B L U M . C O M        P A R T  N o .  3 5 2 5
 41
1.25
  7
ARIAL_WIDE
 72
     1
 11
10.01903443999017
 21
2.225662012121755
 31
0.0
100
AcDbText
 73
     3
  0
ENDSEC
  0
SECTION
  2
OBJECTS
  0
DICTIONARY
  5
C
330
0
100
AcDbDictionary
  3
ACAD_GROUP
350
D
  3
ACAD_LAYOUT
350
CF
  3
ACAD_MLINESTYLE
350
E
  3
ACAD_PLOTSETTINGS
350
D0
  3
ACAD_PLOTSTYLENAME
350
CD
  3
ACDBHEADERROUNDTRIPXREC
350
21A
  3
ACDBVARIABLEDICTIONARY
350
130
  0
DICTIONARY
  5
12A
330
18
100
AcDbDictionary
280
     1
  3
ACAD_LAYOUTSELFREF
360
23B
  0
DICTIONARY
  5
128
330
15
100
AcDbDictionary
280
     1
  3
ACAD_LAYOUTSELFREF
360
23A
  0
DICTIONARY
  5
D
102
{ACAD_REACTORS
330
C
102
}
330
C
100
AcDbDictionary
  0
DICTIONARY
  5
CF
102
{ACAD_REACTORS
330
C
102
}
330
C
100
AcDbDictionary
  0
DICTIONARY
  5
E
102
{ACAD_REACTORS
330
C
102
}
330
C
100
AcDbDictionary
  3
STANDARD
350
1B
  0
DICTIONARY
  5
D0
102
{ACAD_REACTORS
330
C
102
}
330
C
100
AcDbDictionary
  0
ACDBDICTIONARYWDFLT
  5
CD
102
{ACAD_REACTORS
330
C
102
}
330
C
100
AcDbDictionary
281
     1
  3
Normal
350
CE
100
AcDbDictionaryWithDefault
340
CE
  0
DICTIONARY
  5
21A
102
{ACAD_REACTORS
330
C
102
}
330
C
100
AcDbDictionary
  3
CEPSNTYPE
350
224
  3
FINGERPRINTGUID
350
225
  3
HYPERLINKBASE
350
21D
  3
INSUNITS
350
223
  3
LAYOUTDICT
350
21F
  3
LWETCUNION
350
222
  3
PLOTSETDICT
350
220
  3
PLOTSTYLNAMDICT
350
221
  3
PSVPSCALE
350
227
  3
PUCSBASE
350
22A
  3
PUCSORGBACK
350
230
  3
PUCSORGBOTTOM
350
22C
  3
PUCSORGFRONT
350
22F
  3
PUCSORGLEFT
350
22D
  3
PUCSORGRIGHT
350
22E
  3
PUCSORGTOP
350
22B
  3
PUCSORTHOREF
350
228
  3
PUCSORTHOVIEW
350
229
  3
STYLESHEET
350
21E
  3
TSTACKALIGN
350
21B
  3
TSTACKSIZE
350
21C
  3
UCSBASE
350
233
  3
UCSORGBACK
350
239
  3
UCSORGBOTTOM
350
235
  3
UCSORGFRONT
350
238
  3
UCSORGLEFT
350
236
  3
UCSORGRIGHT
350
237
  3
UCSORGTOP
350
234
  3
UCSORTHOREF
350
231
  3
UCSORTHOVIEW
350
232
  3
VERSIONGUID
350
226
  0
DICTIONARY
  5
130
102
{ACAD_REACTORS
330
C
102
}
330
C
100
AcDbDictionary
  3
DIMASSOC
350
131
  0
XRECORD
  5
23B
102
{ACAD_REACTORS
330
12A
102
}
330
12A
100
AcDbXrecord
340
18
  0
XRECORD
  5
23A
102
{ACAD_REACTORS
330
128
102
}
330
128
100
AcDbXrecord
340
15
  0
MLINESTYLE
  5
1B
102
{ACAD_REACTORS
330
E
102
}
330
E
100
AcDbMlineStyle
  2
STANDARD
 70
     0
  3

 62
     0
 51
90.0
 52
90.0
 71
     2
 49
0.5
 62
   256
  6
BYLAYER
 49
-0.5
 62
   256
  6
BYLAYER
  0
ACDBPLACEHOLDER
  5
CE
102
{ACAD_REACTORS
330
CD
102
}
330
CD
100
AcDbPlaceHolder
280
     0
  0
XRECORD
  5
224
102
{ACAD_REACTORS
330
21A
102
}
330
21A
100
AcDbXrecord
 90
        0
  0
XRECORD
  5
225
102
{ACAD_REACTORS
330
21A
102
}
330
21A
100
AcDbXrecord
  1
{EC5FDEA6-8E9D-4FAC-B50C-B01AC9A5B0C4}
  0
XRECORD
  5
21D
102
{ACAD_REACTORS
330
21A
102
}
330
21A
100
AcDbXrecord
  1

  0
XRECORD
  5
223
102
{ACAD_REACTORS
330
21A
102
}
330
21A
100
AcDbXrecord
 90
        0
  0
XRECORD
  5
21F
102
{ACAD_REACTORS
330
21A
102
}
330
21A
100
AcDbXrecord
340
CF
  0
XRECORD
  5
222
102
{ACAD_REACTORS
330
21A
102
}
330
21A
100
AcDbXrecord
 90
    14877
  0
XRECORD
  5
220
102
{ACAD_REACTORS
330
21A
102
}
330
21A
100
AcDbXrecord
340
D0
  0
XRECORD
  5
221
102
{ACAD_REACTORS
330
21A
102
}
330
21A
100
AcDbXrecord
340
CD
  0
XRECORD
  5
227
102
{ACAD_REACTORS
330
21A
102
}
330
21A
100
AcDbXrecord
 40
0.0
  0
XRECORD
  5
22A
102
{ACAD_REACTORS
330
21A
102
}
330
21A
100
AcDbXrecord
340
0
  0
XRECORD
  5
230
102
{ACAD_REACTORS
330
21A
102
}
330
21A
100
AcDbXrecord
 10
0.0
 20
0.0
 30
0.0
  0
XRECORD
  5
22C
102
{ACAD_REACTORS
330
21A
102
}
330
21A
100
AcDbXrecord
 10
0.0
 20
0.0
 30
0.0
  0
XRECORD
  5
22F
102
{ACAD_REACTORS
330
21A
102
}
330
21A
100
AcDbXrecord
 10
0.0
 20
0.0
 30
0.0
  0
XRECORD
  5
22D
102
{ACAD_REACTORS
330
21A
102
}
330
21A
100
AcDbXrecord
 10
0.0
 20
0.0
 30
0.0
  0
XRECORD
  5
22E
102
{ACAD_REACTORS
330
21A
102
}
330
21A
100
AcDbXrecord
 10
0.0
 20
0.0
 30
0.0
  0
XRECORD
  5
22B
102
{ACAD_REACTORS
330
21A
102
}
330
21A
100
AcDbXrecord
 10
0.0
 20
0.0
 30
0.0
  0
XRECORD
  5
228
102
{ACAD_REACTORS
330
21A
102
}
330
21A
100
AcDbXrecord
340
0
  0
XRECORD
  5
229
102
{ACAD_REACTORS
330
21A
102
}
330
21A
100
AcDbXrecord
 70
     0
  0
XRECORD
  5
21E
102
{ACAD_REACTORS
330
21A
102
}
330
21A
100
AcDbXrecord
  1

  0
XRECORD
  5
21B
102
{ACAD_REACTORS
330
21A
102
}
330
21A
100
AcDbXrecord
 90
        1
  0
XRECORD
  5
21C
102
{ACAD_REACTORS
330
21A
102
}
330
21A
100
AcDbXrecord
 90
       70
  0
XRECORD
  5
233
102
{ACAD_REACTORS
330
21A
102
}
330
21A
100
AcDbXrecord
340
0
  0
XRECORD
  5
239
102
{ACAD_REACTORS
330
21A
102
}
330
21A
100
AcDbXrecord
 10
0.0
 20
0.0
 30
0.0
  0
XRECORD
  5
235
102
{ACAD_REACTORS
330
21A
102
}
330
21A
100
AcDbXrecord
 10
0.0
 20
0.0
 30
0.0
  0
XRECORD
  5
238
102
{ACAD_REACTORS
330
21A
102
}
330
21A
100
AcDbXrecord
 10
0.0
 20
0.0
 30
0.0
  0
XRECORD
  5
236
102
{ACAD_REACTORS
330
21A
102
}
330
21A
100
AcDbXrecord
 10
0.0
 20
0.0
 30
0.0
  0
XRECORD
  5
237
102
{ACAD_REACTORS
330
21A
102
}
330
21A
100
AcDbXrecord
 10
0.0
 20
0.0
 30
0.0
  0
XRECORD
  5
234
102
{ACAD_REACTORS
330
21A
102
}
330
21A
100
AcDbXrecord
 10
0.0
 20
0.0
 30
0.0
  0
XRECORD
  5
231
102
{ACAD_REACTORS
330
21A
102
}
330
21A
100
AcDbXrecord
340
0
  0
XRECORD
  5
232
102
{ACAD_REACTORS
330
21A
102
}
330
21A
100
AcDbXrecord
 70
     0
  0
XRECORD
  5
226
102
{ACAD_REACTORS
330
21A
102
}
330
21A
100
AcDbXrecord
  1
{285F1EA2-43A8-4257-A930-13CBEA07DC7E}
  0
DICTIONARYVAR
  5
131
102
{ACAD_REACTORS
330
130
102
}
330
130
100
DictionaryVariables
280
     0
  1
1
  0
ENDSEC
  0
EOF
