  0
SECTION
  2
HEADER
  9
$ACADVER
  1
AC1015
  9
$ACADMAINTVER
 70
    20
  9
$DWGCODEPAGE
  3
ANSI_1252
  9
$INSBASE
 10
15.32470578518698
 20
16.03030053896625
 30
0.0
  9
$EXTMIN
 10
9.281492178784148
 20
14.66518614367205
 30
0.0
  9
$EXTMAX
 10
18.93355348505972
 20
21.01860365482554
 30
0.0
  9
$LIMMIN
 10
0.0
 20
0.0
  9
$LIMMAX
 10
36.0
 20
36.0
  9
$ORTHOMODE
 70
     0
  9
$REGENMODE
 70
     1
  9
$FILLMODE
 70
     1
  9
$QTEXTMODE
 70
     0
  9
$MIRRTEXT
 70
     1
  9
$LTSCALE
 40
1.0
  9
$ATTMODE
 70
     1
  9
$TEXTSIZE
 40
0.2
  9
$TRACEWID
 40
0.05
  9
$TEXTSTYLE
  7
STANDARD
  9
$CLAYER
  8
0
  9
$CELTYPE
  6
BYLAYER
  9
$CECOLOR
 62
   256
  9
$CELTSCALE
 40
1.0
  9
$DISPSILH
 70
     0
  9
$DIMSCALE
 40
1.0
  9
$DIMASZ
 40
0.125
  9
$DIMEXO
 40
0.0625
  9
$DIMDLI
 40
0.38
  9
$DIMRND
 40
0.0
  9
$DIMDLE
 40
0.0
  9
$DIMEXE
 40
0.18
  9
$DIMTP
 40
0.0
  9
$DIMTM
 40
0.0
  9
$DIMTXT
 40
0.125
  9
$DIMCEN
 40
0.1875
  9
$DIMTSZ
 40
0.125
  9
$DIMTOL
 70
     0
  9
$DIMLIM
 70
     0
  9
$DIMTIH
 70
     0
  9
$DIMTOH
 70
     0
  9
$DIMSE1
 70
     0
  9
$DIMSE2
 70
     0
  9
$DIMTAD
 70
     0
  9
$DIMZIN
 70
     3
  9
$DIMBLK
  1

  9
$DIMASO
 70
     1
  9
$DIMSHO
 70
     1
  9
$DIMPOST
  1

  9
$DIMAPOST
  1

  9
$DIMALT
 70
     0
  9
$DIMALTD
 70
     1
  9
$DIMALTF
 40
25.4
  9
$DIMLFAC
 40
1.0
  9
$DIMTOFL
 70
     0
  9
$DIMTVP
 40
0.0
  9
$DIMTIX
 70
     0
  9
$DIMSOXD
 70
     0
  9
$DIMSAH
 70
     0
  9
$DIMBLK1
  1

  9
$DIMBLK2
  1

  9
$DIMSTYLE
  2
STANDARD
  9
$DIMCLRD
 70
     0
  9
$DIMCLRE
 70
     0
  9
$DIMCLRT
 70
     0
  9
$DIMTFAC
 40
1.0
  9
$DIMGAP
 40
0.125
  9
$DIMJUST
 70
     0
  9
$DIMSD1
 70
     0
  9
$DIMSD2
 70
     0
  9
$DIMTOLJ
 70
     1
  9
$DIMTZIN
 70
     0
  9
$DIMALTZ
 70
     0
  9
$DIMALTTZ
 70
     0
  9
$DIMUPT
 70
     0
  9
$DIMDEC
 70
     4
  9
$DIMTDEC
 70
     4
  9
$DIMALTU
 70
     2
  9
$DIMALTTD
 70
     2
  9
$DIMTXSTY
  7
STANDARD
  9
$DIMAUNIT
 70
     0
  9
$DIMADEC
 70
     0
  9
$DIMALTRND
 40
0.0
  9
$DIMAZIN
 70
     0
  9
$DIMDSEP
 70
    46
  9
$DIMATFIT
 70
     3
  9
$DIMFRAC
 70
     0
  9
$DIMLDRBLK
  1

  9
$DIMLUNIT
 70
     2
  9
$DIMLWD
 70
    -2
  9
$DIMLWE
 70
    -2
  9
$DIMTMOVE
 70
     0
  9
$LUNITS
 70
     5
  9
$LUPREC
 70
     4
  9
$SKETCHINC
 40
0.1
  9
$FILLETRAD
 40
0.0
  9
$AUNITS
 70
     0
  9
$AUPREC
 70
     0
  9
$MENU
  1
acad
  9
$ELEVATION
 40
0.0
  9
$PELEVATION
 40
0.0
  9
$THICKNESS
 40
0.0
  9
$LIMCHECK
 70
     0
  9
$CHAMFERA
 40
0.0
  9
$CHAMFERB
 40
0.0
  9
$CHAMFERC
 40
0.0
  9
$CHAMFERD
 40
0.0
  9
$SKPOLY
 70
     0
  9
$TDCREATE
 40
2450374.572570209
  9
$TDUCREATE
 40
2450374.739236875
  9
$TDUPDATE
 40
2453954.624533866
  9
$TDUUPDATE
 40
2453954.791200533
  9
$TDINDWG
 40
0.0841842477
  9
$TDUSRTIMER
 40
0.0841842477
  9
$USRTIMER
 70
     1
  9
$ANGBASE
 50
0.0
  9
$ANGDIR
 70
     0
  9
$PDMODE
 70
     0
  9
$PDSIZE
 40
0.0
  9
$PLINEWID
 40
0.0
  9
$SPLFRAME
 70
     0
  9
$SPLINETYPE
 70
     6
  9
$SPLINESEGS
 70
     8
  9
$HANDSEED
  5
78F
  9
$SURFTAB1
 70
     6
  9
$SURFTAB2
 70
     6
  9
$SURFTYPE
 70
     6
  9
$SURFU
 70
     6
  9
$SURFV
 70
     6
  9
$UCSBASE
  2

  9
$UCSNAME
  2

  9
$UCSORG
 10
0.0
 20
0.0
 30
0.0
  9
$UCSXDIR
 10
1.0
 20
0.0
 30
0.0
  9
$UCSYDIR
 10
0.0
 20
1.0
 30
0.0
  9
$UCSORTHOREF
  2

  9
$UCSORTHOVIEW
 70
     0
  9
$UCSORGTOP
 10
0.0
 20
0.0
 30
0.0
  9
$UCSORGBOTTOM
 10
0.0
 20
0.0
 30
0.0
  9
$UCSORGLEFT
 10
0.0
 20
0.0
 30
0.0
  9
$UCSORGRIGHT
 10
0.0
 20
0.0
 30
0.0
  9
$UCSORGFRONT
 10
0.0
 20
0.0
 30
0.0
  9
$UCSORGBACK
 10
0.0
 20
0.0
 30
0.0
  9
$PUCSBASE
  2

  9
$PUCSNAME
  2

  9
$PUCSORG
 10
0.0
 20
0.0
 30
0.0
  9
$PUCSXDIR
 10
1.0
 20
0.0
 30
0.0
  9
$PUCSYDIR
 10
0.0
 20
1.0
 30
0.0
  9
$PUCSORTHOREF
  2

  9
$PUCSORTHOVIEW
 70
     0
  9
$PUCSORGTOP
 10
0.0
 20
0.0
 30
0.0
  9
$PUCSORGBOTTOM
 10
0.0
 20
0.0
 30
0.0
  9
$PUCSORGLEFT
 10
0.0
 20
0.0
 30
0.0
  9
$PUCSORGRIGHT
 10
0.0
 20
0.0
 30
0.0
  9
$PUCSORGFRONT
 10
0.0
 20
0.0
 30
0.0
  9
$PUCSORGBACK
 10
0.0
 20
0.0
 30
0.0
  9
$USERI1
 70
     0
  9
$USERI2
 70
     0
  9
$USERI3
 70
     0
  9
$USERI4
 70
     0
  9
$USERI5
 70
     0
  9
$USERR1
 40
0.0
  9
$USERR2
 40
0.0
  9
$USERR3
 40
0.0
  9
$USERR4
 40
0.0
  9
$USERR5
 40
0.0
  9
$WORLDVIEW
 70
     1
  9
$SHADEDGE
 70
     3
  9
$SHADEDIF
 70
    70
  9
$TILEMODE
 70
     1
  9
$MAXACTVP
 70
    15
  9
$PINSBASE
 10
0.0
 20
0.0
 30
0.0
  9
$PLIMCHECK
 70
     0
  9
$PEXTMIN
 10
1.000000000000000E+20
 20
1.000000000000000E+20
 30
1.000000000000000E+20
  9
$PEXTMAX
 10
-1.000000000000000E+20
 20
-1.000000000000000E+20
 30
-1.000000000000000E+20
  9
$PLIMMIN
 10
0.0
 20
0.0
  9
$PLIMMAX
 10
12.0
 20
9.0
  9
$UNITMODE
 70
     0
  9
$VISRETAIN
 70
     0
  9
$PLINEGEN
 70
     0
  9
$PSLTSCALE
 70
     1
  9
$TREEDEPTH
 70
  3020
  9
$CMLSTYLE
  2
STANDARD
  9
$CMLJUST
 70
     0
  9
$CMLSCALE
 40
1.0
  9
$PROXYGRAPHICS
 70
     1
  9
$MEASUREMENT
 70
     0
  9
$CELWEIGHT
370
    -1
  9
$ENDCAPS
280
     0
  9
$JOINSTYLE
280
     0
  9
$LWDISPLAY
290
     0
  9
$INSUNITS
 70
     0
  9
$HYPERLINKBASE
  1

  9
$STYLESHEET
  1

  9
$XEDIT
290
     1
  9
$CEPSNTYPE
380
     0
  9
$PSTYLEMODE
290
     1
  9
$FINGERPRINTGUID
  2
{13C0E46E-9FE7-489A-AA25-6A1C0EBA5D53}
  9
$VERSIONGUID
  2
{5188A2D7-3A18-4180-88E6-E6783A3F8C3A}
  9
$EXTNAMES
290
     1
  9
$PSVPSCALE
 40
0.0
  9
$OLESTARTUP
290
     0
  0
ENDSEC
  0
SECTION
  2
CLASSES
  0
CLASS
  1
ACDBDICTIONARYWDFLT
  2
AcDbDictionaryWithDefault
  3
ObjectDBX Classes
 90
        0
280
     0
281
     0
  0
CLASS
  1
ACDBPLACEHOLDER
  2
AcDbPlaceHolder
  3
ObjectDBX Classes
 90
        0
280
     0
281
     0
  0
CLASS
  1
LAYOUT
  2
AcDbLayout
  3
ObjectDBX Classes
 90
        0
280
     0
281
     0
  0
CLASS
  1
DICTIONARYVAR
  2
AcDbDictionaryVar
  3
ObjectDBX Classes
 90
        0
280
     0
281
     0
  0
CLASS
  1
MATERIAL
  2
AcDbMaterial
  3
ObjectDBX Classes
 90
     1024
280
     0
281
     0
  0
CLASS
  1
VISUALSTYLE
  2
AcDbVisualStyle
  3
ObjectDBX Classes
 90
     4095
280
     0
281
     0
  0
CLASS
  1
TABLESTYLE
  2
AcDbTableStyle
  3
ObjectDBX Classes
 90
     4095
280
     0
281
     0
  0
CLASS
  1
ACAD_EVALUATION_GRAPH
  2
AcDbEvalGraph
  3
ObjectDBX Classes
 90
     1153
280
     0
281
     0
  0
CLASS
  1
ACAECUSTOBJ
  2
AcAeEditorObj
  3
AcAeEditorObj
 90
     1024
280
     0
281
     0
  0
ENDSEC
  0
SECTION
  2
TABLES
  0
TABLE
  2
VPORT
  5
8
102
{ACAD_XDICTIONARY
360
45D
102
}
330
0
100
AcDbSymbolTable
 70
     1
  0
VPORT
  5
38A
330
8
100
AcDbSymbolTableRecord
100
AcDbViewportTableRecord
  2
*Active
 70
     0
 10
0.0
 20
0.0
 11
1.0
 21
1.0
 12
13.8850850657576
 22
17.74564312095845
 13
0.0
 23
0.0
 14
0.5740882589684922
 24
0.5740882589684922
 15
0.5
 25
0.5
 16
0.0
 26
0.0
 36
1.0
 17
0.0
 27
0.0
 37
0.0
 40
6.837989237969995
 41
1.774011299435028
 42
50.0
 43
0.0
 44
0.0
 50
0.0
 51
0.0
 71
     0
 72
   100
 73
     1
 74
     0
 75
     0
 76
     0
 77
     0
 78
     0
281
     0
 65
     1
110
0.0
120
0.0
130
0.0
111
1.0
121
0.0
131
0.0
112
0.0
122
1.0
132
0.0
 79
     0
146
0.0
  0
ENDTAB
  0
TABLE
  2
LTYPE
  5
5
330
0
100
AcDbSymbolTable
 70
     5
  0
LTYPE
  5
12
330
5
100
AcDbSymbolTableRecord
100
AcDbLinetypeTableRecord
  2
BYBLOCK
 70
     0
  3

 72
    65
 73
     0
 40
0.0
  0
LTYPE
  5
13
330
5
100
AcDbSymbolTableRecord
100
AcDbLinetypeTableRecord
  2
BYLAYER
 70
     0
  3

 72
    65
 73
     0
 40
0.0
  0
LTYPE
  5
14
330
5
100
AcDbSymbolTableRecord
100
AcDbLinetypeTableRecord
  2
CONTINUOUS
 70
     0
  3
Solid line
 72
    65
 73
     0
 40
0.0
  0
LTYPE
  5
16A
330
5
100
AcDbSymbolTableRecord
100
AcDbLinetypeTableRecord
  2
HIDDEN2
 70
     0
  3
_ _ _ _ _ _ _ _ _ _ _ _ _ _ _ _ _ _ _ _ _ _ _ _
 72
    65
 73
     2
 40
0.1875
 49
0.125
 74
     0
 49
-0.0625
 74
     0
  0
LTYPE
  5
16D
330
5
100
AcDbSymbolTableRecord
100
AcDbLinetypeTableRecord
  2
DASHED2
 70
     0
  3
_ _ _ _ _ _ _ _ _ _ _ _ _ _ _ _ _ _ _ _ _ _ _ _
 72
    65
 73
     2
 40
0.375
 49
0.25
 74
     0
 49
-0.125
 74
     0
  0
LTYPE
  5
5E8
330
5
100
AcDbSymbolTableRecord
100
AcDbLinetypeTableRecord
  2
AI9-LType1
 70
     0
  3
Illustrator Dash Style No.1
 72
    65
 73
     2
 40
2.822222222222221
 49
1.41111111111111
 74
     0
 49
-1.41111111111111
 74
     0
  0
ENDTAB
  0
TABLE
  2
LAYER
  5
2
330
0
100
AcDbSymbolTable
 70
     5
  0
LAYER
  5
F
330
2
100
AcDbSymbolTableRecord
100
AcDbLayerTableRecord
  2
0
 70
     0
 62
     7
  6
CONTINUOUS
370
    -3
390
20F
  0
LAYER
  5
173
330
2
100
AcDbSymbolTableRecord
100
AcDbLayerTableRecord
  2
DEFPOINTS
 70
     0
 62
     7
  6
CONTINUOUS
290
     0
370
    -3
390
20F
  0
LAYER
  5
174
330
2
100
AcDbSymbolTableRecord
100
AcDbLayerTableRecord
  2
ADPDIM
 70
     0
 62
     3
  6
CONTINUOUS
370
    -3
390
20F
  0
LAYER
  5
175
330
2
100
AcDbSymbolTableRecord
100
AcDbLayerTableRecord
  2
ADP2DETAIL
 70
     0
 62
     5
  6
HIDDEN2
370
    -3
390
20F
  0
LAYER
  5
5E9
330
2
100
AcDbSymbolTableRecord
100
AcDbLayerTableRecord
  2
LAYER_1
 70
     0
 62
   160
  6
CONTINUOUS
370
    -3
390
20F
  0
ENDTAB
  0
TABLE
  2
STYLE
  5
3
330
0
100
AcDbSymbolTable
 70
     2
  0
STYLE
  5
10
330
3
100
AcDbSymbolTableRecord
100
AcDbTextStyleTableRecord
  2
STANDARD
 70
     0
 40
0.0
 41
1.0
 50
0.0
 71
     0
 42
0.2
  3
txt
  4

  0
STYLE
  5
216
330
3
100
AcDbSymbolTableRecord
100
AcDbTextStyleTableRecord
  2
ARIAL_WIDE
 70
     0
 40
0.0
 41
1.25
 50
0.0
 71
     0
 42
0.2
  3
ARIAL.TTF
  4

1001
ACAD
1000
Arial
1071
       34
  0
ENDTAB
  0
TABLE
  2
VIEW
  5
6
330
0
100
AcDbSymbolTable
 70
     0
  0
ENDTAB
  0
TABLE
  2
UCS
  5
7
330
0
100
AcDbSymbolTable
 70
     0
  0
ENDTAB
  0
TABLE
  2
APPID
  5
9
330
0
100
AcDbSymbolTable
 70
     2
  0
APPID
  5
11
330
9
100
AcDbSymbolTableRecord
100
AcDbRegAppTableRecord
  2
ACAD
 70
     0
  0
APPID
  5
6E4
330
9
100
AcDbSymbolTableRecord
100
AcDbRegAppTableRecord
  2
ACAUTHENVIRON
 70
     0
  0
ENDTAB
  0
TABLE
  2
DIMSTYLE
  5
A
330
0
100
AcDbSymbolTable
 70
     2
100
AcDbDimStyleTable
 71
     1
340
20A
  0
DIMSTYLE
105
20A
102
{ACAD_REACTORS
330
632
330
66E
330
6A4
330
6B2
102
}
330
A
100
AcDbSymbolTableRecord
100
AcDbDimStyleTableRecord
  2
STANDARD
 70
     0
340
10
  0
ENDTAB
  0
TABLE
  2
BLOCK_RECORD
  5
1
330
0
100
AcDbSymbolTable
 70
    22
  0
BLOCK_RECORD
  5
18
102
{ACAD_XDICTIONARY
360
26B
102
}
330
1
100
AcDbSymbolTableRecord
100
AcDbBlockTableRecord
  2
*MODEL_SPACE
340
212
  0
BLOCK_RECORD
  5
15
102
{ACAD_XDICTIONARY
360
269
102
}
330
1
100
AcDbSymbolTableRecord
100
AcDbBlockTableRecord
  2
*PAPER_SPACE
340
213
  0
BLOCK_RECORD
  5
165
330
1
100
AcDbSymbolTableRecord
100
AcDbBlockTableRecord
  2
*D1
340
0
  0
BLOCK_RECORD
  5
166
330
1
100
AcDbSymbolTableRecord
100
AcDbBlockTableRecord
  2
*D2
340
0
  0
BLOCK_RECORD
  5
167
330
1
100
AcDbSymbolTableRecord
100
AcDbBlockTableRecord
  2
*D3
340
0
  0
BLOCK_RECORD
  5
404
330
1
100
AcDbSymbolTableRecord
100
AcDbBlockTableRecord
  2
*D5
340
0
  0
BLOCK_RECORD
  5
449
330
1
100
AcDbSymbolTableRecord
100
AcDbBlockTableRecord
  2
*D6
340
0
  0
BLOCK_RECORD
  5
5A7
330
1
100
AcDbSymbolTableRecord
100
AcDbBlockTableRecord
  2
AI9-BLK2
340
0
102
{BLKREFS
331
5ED
102
}
  0
BLOCK_RECORD
  5
5AE
330
1
100
AcDbSymbolTableRecord
100
AcDbBlockTableRecord
  2
AI9-BLK3
340
0
102
{BLKREFS
331
5F6
102
}
  0
BLOCK_RECORD
  5
5B7
330
1
100
AcDbSymbolTableRecord
100
AcDbBlockTableRecord
  2
AI9-BLK4
340
0
102
{BLKREFS
331
5FD
102
}
  0
BLOCK_RECORD
  5
5BB
330
1
100
AcDbSymbolTableRecord
100
AcDbBlockTableRecord
  2
AI9-BLK5
340
0
102
{BLKREFS
331
5B9
102
}
  0
BLOCK_RECORD
  5
5C4
330
1
100
AcDbSymbolTableRecord
100
AcDbBlockTableRecord
  2
AI9-BLK6
340
0
102
{BLKREFS
331
5FE
102
}
  0
BLOCK_RECORD
  5
5C8
330
1
100
AcDbSymbolTableRecord
100
AcDbBlockTableRecord
  2
AI9-BLK7
340
0
102
{BLKREFS
331
5C6
102
}
  0
BLOCK_RECORD
  5
5D1
330
1
100
AcDbSymbolTableRecord
100
AcDbBlockTableRecord
  2
AI9-BLK8
340
0
102
{BLKREFS
331
5FF
331
624
102
}
  0
BLOCK_RECORD
  5
5E1
330
1
100
AcDbSymbolTableRecord
100
AcDbBlockTableRecord
  2
AI9-BLK9
340
0
102
{BLKREFS
331
600
331
625
102
}
  0
BLOCK_RECORD
  5
633
330
1
100
AcDbSymbolTableRecord
100
AcDbBlockTableRecord
  2
*D16
340
0
  0
BLOCK_RECORD
  5
66F
330
1
100
AcDbSymbolTableRecord
100
AcDbBlockTableRecord
  2
*D18
340
0
  0
BLOCK_RECORD
  5
6A5
330
1
100
AcDbSymbolTableRecord
100
AcDbBlockTableRecord
  2
*D19
340
0
  0
BLOCK_RECORD
  5
6B3
330
1
100
AcDbSymbolTableRecord
100
AcDbBlockTableRecord
  2
*D20
340
0
  0
ENDTAB
  0
ENDSEC
  0
SECTION
  2
BLOCKS
  0
BLOCK
  5
178
330
18
100
AcDbEntity
  8
0
100
AcDbBlockBegin
  2
*MODEL_SPACE
 70
     0
 10
0.0
 20
0.0
 30
0.0
  3
*MODEL_SPACE
  1

  0
ENDBLK
  5
179
330
18
100
AcDbEntity
  8
0
100
AcDbBlockEnd
  0
BLOCK
  5
176
330
15
100
AcDbEntity
 67
     1
  8
0
100
AcDbBlockBegin
  2
*PAPER_SPACE
 70
     0
 10
0.0
 20
0.0
 30
0.0
  3
*PAPER_SPACE
  1

  0
ENDBLK
  5
177
330
15
100
AcDbEntity
 67
     1
  8
0
100
AcDbBlockEnd
  0
BLOCK
  5
187
330
165
100
AcDbEntity
  8
0
100
AcDbBlockBegin
  2
*D1
 70
     1
 10
0.0
 20
0.0
 30
0.0
  3
*D1
  1

  0
LINE
  5
188
330
165
100
AcDbEntity
  8
0
  6
ByBlock
 62
     0
100
AcDbLine
 10
13.57619773467721
 20
15.96780053896625
 30
0.0
 11
13.57619773467721
 21
15.64260237069168
 31
0.0
  0
LINE
  5
189
330
165
100
AcDbEntity
  8
0
  6
ByBlock
 62
     0
100
AcDbLine
 10
14.70134792916666
 20
15.96780053896625
 30
0.0
 11
14.70134792916666
 21
15.64260237069168
 31
0.0
  0
LINE
  5
18A
330
165
100
AcDbEntity
  8
0
  6
ByBlock
 62
     0
100
AcDbLine
 10
13.57619773467721
 20
15.82260237069168
 30
0.0
 11
13.32619773467721
 21
15.82260237069168
 31
0.0
  0
LINE
  5
18B
330
165
100
AcDbEntity
  8
0
  6
ByBlock
 62
     0
100
AcDbLine
 10
14.70134792916666
 20
15.82260237069168
 30
0.0
 11
14.95134792916666
 21
15.82260237069168
 31
0.0
  0
LINE
  5
18C
330
165
100
AcDbEntity
  8
0
  6
ByBlock
 62
     0
100
AcDbLine
 10
13.45119773467721
 20
15.69760237069168
 30
0.0
 11
13.70119773467721
 21
15.94760237069168
 31
0.0
  0
LINE
  5
18D
330
165
100
AcDbEntity
  8
0
  6
ByBlock
 62
     0
100
AcDbLine
 10
14.57634792916666
 20
15.69760237069168
 30
0.0
 11
14.82634792916666
 21
15.94760237069168
 31
0.0
  0
TEXT
  5
18E
330
165
100
AcDbEntity
  8
0
  6
ByBlock
 62
     0
100
AcDbText
 10
15.07634792916666
 20
15.76010237069168
 30
0.0
 40
0.125
  1
1 1/8
 72
     1
 11
15.32634792916666
 21
15.82260237069168
 31
0.0
100
AcDbText
 73
     2
  0
POINT
  5
18F
330
165
100
AcDbEntity
  8
DEFPOINTS
  6
ByBlock
 62
     0
100
AcDbPoint
 10
13.57619773467721
 20
16.03030053896625
 30
0.0
  0
POINT
  5
190
330
165
100
AcDbEntity
  8
DEFPOINTS
  6
ByBlock
 62
     0
100
AcDbPoint
 10
14.70134792916666
 20
16.03030053896625
 30
0.0
  0
POINT
  5
191
330
165
100
AcDbEntity
  8
DEFPOINTS
  6
ByBlock
 62
     0
100
AcDbPoint
 10
14.70134792916666
 20
15.82260237069168
 30
0.0
  0
ENDBLK
  5
192
330
165
100
AcDbEntity
  8
0
100
AcDbBlockEnd
  0
BLOCK
  5
193
330
166
100
AcDbEntity
  8
0
100
AcDbBlockBegin
  2
*D2
 70
     1
 10
0.0
 20
0.0
 30
0.0
  3
*D2
  1

  0
LINE
  5
194
330
166
100
AcDbEntity
  8
0
  6
ByBlock
 62
     0
100
AcDbLine
 10
13.57472163759055
 20
19.0781314397059
 30
0.0
 11
13.57472163759055
 21
19.33317775801421
 31
0.0
  0
LINE
  5
195
330
166
100
AcDbEntity
  8
0
  6
ByBlock
 62
     0
100
AcDbLine
 10
12.94972163759055
 20
18.6406314397059
 30
0.0
 11
12.94972163759055
 21
19.33317775801421
 31
0.0
  0
LINE
  5
196
330
166
100
AcDbEntity
  8
0
  6
ByBlock
 62
     0
100
AcDbLine
 10
13.57472163759055
 20
19.15317775801421
 30
0.0
 11
13.82472163759055
 21
19.15317775801421
 31
0.0
  0
LINE
  5
197
330
166
100
AcDbEntity
  8
0
  6
ByBlock
 62
     0
100
AcDbLine
 10
12.94972163759055
 20
19.15317775801421
 30
0.0
 11
12.69972163759055
 21
19.15317775801421
 31
0.0
  0
LINE
  5
198
330
166
100
AcDbEntity
  8
0
  6
ByBlock
 62
     0
100
AcDbLine
 10
13.44972163759055
 20
19.02817775801421
 30
0.0
 11
13.69972163759055
 21
19.27817775801421
 31
0.0
  0
LINE
  5
199
330
166
100
AcDbEntity
  8
0
  6
ByBlock
 62
     0
100
AcDbLine
 10
12.82472163759055
 20
19.02817775801421
 30
0.0
 11
13.07472163759055
 21
19.27817775801421
 31
0.0
  0
TEXT
  5
19A
330
166
100
AcDbEntity
  8
0
  6
ByBlock
 62
     0
100
AcDbText
 10
12.24138830425722
 20
19.09067775801421
 30
0.0
 40
0.125
  1
5/8
 72
     1
 11
12.40805497092388
 21
19.15317775801421
 31
0.0
100
AcDbText
 73
     2
  0
POINT
  5
19B
330
166
100
AcDbEntity
  8
DEFPOINTS
  6
ByBlock
 62
     0
100
AcDbPoint
 10
13.57472163759055
 20
19.0156314397059
 30
0.0
  0
POINT
  5
19C
330
166
100
AcDbEntity
  8
DEFPOINTS
  6
ByBlock
 62
     0
100
AcDbPoint
 10
12.94972163759055
 20
18.5781314397059
 30
0.0
  0
POINT
  5
19D
330
166
100
AcDbEntity
  8
DEFPOINTS
  6
ByBlock
 62
     0
100
AcDbPoint
 10
12.94972163759055
 20
19.15317775801421
 30
0.0
  0
ENDBLK
  5
19E
330
166
100
AcDbEntity
  8
0
100
AcDbBlockEnd
  0
BLOCK
  5
19F
330
167
100
AcDbEntity
  8
0
100
AcDbBlockBegin
  2
*D3
 70
     1
 10
0.0
 20
0.0
 30
0.0
  3
*D3
  1

  0
LINE
  5
1A0
330
167
100
AcDbEntity
  8
0
  6
ByBlock
 62
     0
100
AcDbLine
 10
15.26222163759055
 20
18.8281314397059
 30
0.0
 11
15.76132392682512
 21
18.8281314397059
 31
0.0
  0
LINE
  5
1A1
330
167
100
AcDbEntity
  8
0
  6
ByBlock
 62
     0
100
AcDbLine
 10
15.26222163759055
 20
18.0781314397059
 30
0.0
 11
15.76132392682512
 21
18.0781314397059
 31
0.0
  0
LINE
  5
1A2
330
167
100
AcDbEntity
  8
0
  6
ByBlock
 62
     0
100
AcDbLine
 10
15.58132392682512
 20
18.8281314397059
 30
0.0
 11
15.58132392682512
 21
19.0781314397059
 31
0.0
  0
LINE
  5
1A3
330
167
100
AcDbEntity
  8
0
  6
ByBlock
 62
     0
100
AcDbLine
 10
15.58132392682512
 20
18.0781314397059
 30
0.0
 11
15.58132392682512
 21
17.8281314397059
 31
0.0
  0
LINE
  5
1A4
330
167
100
AcDbEntity
  8
0
  6
ByBlock
 62
     0
100
AcDbLine
 10
15.70632392682512
 20
18.7031314397059
 30
0.0
 11
15.45632392682512
 21
18.9531314397059
 31
0.0
  0
LINE
  5
1A5
330
167
100
AcDbEntity
  8
0
  6
ByBlock
 62
     0
100
AcDbLine
 10
15.70632392682512
 20
17.9531314397059
 30
0.0
 11
15.45632392682512
 21
18.2031314397059
 31
0.0
  0
TEXT
  5
1A6
330
167
100
AcDbEntity
  8
0
  6
ByBlock
 62
     0
100
AcDbText
 10
15.64382392682512
 20
17.36979810637256
 30
0.0
 40
0.125
  1
3/4
 50
90.0
 72
     1
 11
15.58132392682512
 21
17.53646477303923
 31
0.0
100
AcDbText
 73
     2
  0
POINT
  5
1A7
330
167
100
AcDbEntity
  8
DEFPOINTS
  6
ByBlock
 62
     0
100
AcDbPoint
 10
15.19972163759055
 20
18.8281314397059
 30
0.0
  0
POINT
  5
1A8
330
167
100
AcDbEntity
  8
DEFPOINTS
  6
ByBlock
 62
     0
100
AcDbPoint
 10
15.19972163759055
 20
18.0781314397059
 30
0.0
  0
POINT
  5
1A9
330
167
100
AcDbEntity
  8
DEFPOINTS
  6
ByBlock
 62
     0
100
AcDbPoint
 10
15.58132392682512
 20
18.0781314397059
 30
0.0
  0
ENDBLK
  5
1AA
330
167
100
AcDbEntity
  8
0
100
AcDbBlockEnd
  0
BLOCK
  5
40F
330
404
100
AcDbEntity
  8
0
 62
     3
100
AcDbBlockBegin
  2
*D5
 70
     1
 10
0.0
 20
0.0
 30
0.0
  3
*D5
  1

  0
LINE
  5
41B
330
404
100
AcDbEntity
  8
ADPDIM
 62
     0
370
    -2
100
AcDbLine
 10
12.89033987865688
 20
16.03030053896625
 30
0.0
 11
12.45080719189187
 21
16.03030053896625
 31
0.0
  0
LINE
  5
41C
330
404
100
AcDbEntity
  8
ADPDIM
 62
     0
370
    -2
100
AcDbLine
 10
13.8048336508877
 20
17.15530053896625
 30
0.0
 11
12.45080719189187
 21
17.15530053896625
 31
0.0
  0
LINE
  5
41D
330
404
100
AcDbEntity
  8
ADPDIM
 62
     0
370
    -2
100
AcDbLine
 10
12.63080719189187
 20
16.03030053896625
 30
0.0
 11
12.63080719189187
 21
16.38446720563292
 31
0.0
  0
LINE
  5
41E
330
404
100
AcDbEntity
  8
ADPDIM
 62
     0
370
    -2
100
AcDbLine
 10
12.63080719189187
 20
17.15530053896625
 30
0.0
 11
12.63080719189187
 21
16.80113387229958
 31
0.0
  0
LINE
  5
41F
330
404
100
AcDbEntity
  8
ADPDIM
 62
     0
370
    -2
100
AcDbLine
 10
12.75580719189187
 20
17.03030053896625
 30
0.0
 11
12.50580719189187
 21
17.28030053896625
 31
0.0
  0
LINE
  5
420
330
404
100
AcDbEntity
  8
ADPDIM
 62
     0
370
    -2
100
AcDbLine
 10
12.75580719189187
 20
15.90530053896625
 30
0.0
 11
12.50580719189187
 21
16.15530053896625
 31
0.0
  0
MTEXT
  5
421
330
404
100
AcDbEntity
  8
ADPDIM
 62
     0
100
AcDbMText
 10
12.63080719189187
 20
16.59280053896626
 30
0.0
 40
0.125
 41
0.0
 71
     5
 72
     1
  1
\A1;1{\H1.000000x;\S1/8;}
 11
0.0000000000000001
 21
1.0
 31
0.0
 73
     1
 44
1.0
1001
ACAD
1000
MTEXTBEGIN
1070
    73
1070
     1
1070
    44
1040
1.0
1070
    74
1070
     0
1000
MTEXTEND
  0
POINT
  5
422
330
404
100
AcDbEntity
  8
DEFPOINTS
 62
     0
100
AcDbPoint
 10
12.95283987865688
 20
16.03030053896625
 30
0.0
  0
POINT
  5
423
330
404
100
AcDbEntity
  8
DEFPOINTS
 62
     0
100
AcDbPoint
 10
13.86733365088769
 20
17.15530053896625
 30
0.0
  0
POINT
  5
424
330
404
100
AcDbEntity
  8
DEFPOINTS
 62
     0
100
AcDbPoint
 10
12.63080719189187
 20
17.15530053896625
 30
0.0
  0
ENDBLK
  5
410
330
404
100
AcDbEntity
  8
0
 62
     3
100
AcDbBlockEnd
  0
BLOCK
  5
454
330
449
100
AcDbEntity
  8
0
100
AcDbBlockBegin
  2
*D6
 70
     1
 10
0.0
 20
0.0
 30
0.0
  3
*D6
  1

  0
LINE
  5
44A
330
449
100
AcDbEntity
  8
ADPDIM
 62
     0
370
    -2
100
AcDbLine
 10
13.86733365088769
 20
17.21113886242072
 30
0.0
 11
13.86733365088769
 21
17.47187105865091
 31
0.0
  0
LINE
  5
44B
330
449
100
AcDbEntity
  8
ADPDIM
 62
     0
370
    -2
100
AcDbLine
 10
14.40099946965093
 20
17.21113886242072
 30
0.0
 11
14.40099946965093
 21
17.47187105865091
 31
0.0
  0
LINE
  5
44C
330
449
100
AcDbEntity
  8
ADPDIM
 62
     0
370
    -2
100
AcDbLine
 10
13.86733365088769
 20
17.29187105865091
 30
0.0
 11
14.40099946965093
 21
17.29187105865091
 31
0.0
  0
LINE
  5
44D
330
449
100
AcDbEntity
  8
ADPDIM
 62
     0
370
    -2
100
AcDbLine
 10
14.40099946965093
 20
17.29187105865091
 30
0.0
 11
14.65099946965093
 21
17.29187105865091
 31
0.0
  0
LINE
  5
44E
330
449
100
AcDbEntity
  8
ADPDIM
 62
     0
370
    -2
100
AcDbLine
 10
14.27599946965093
 20
17.16687105865091
 30
0.0
 11
14.52599946965093
 21
17.41687105865091
 31
0.0
  0
LINE
  5
44F
330
449
100
AcDbEntity
  8
ADPDIM
 62
     0
370
    -2
100
AcDbLine
 10
13.74233365088769
 20
17.16687105865091
 30
0.0
 11
13.99233365088769
 21
17.41687105865091
 31
0.0
  0
MTEXT
  5
450
330
449
100
AcDbEntity
  8
ADPDIM
 62
     0
100
AcDbMText
 10
14.92183280298426
 20
17.29187105865091
 30
0.0
 40
0.125
 41
0.0
 71
     5
 72
     1
  1
\A1;1/2
 73
     1
 44
1.0
1001
ACAD
1000
MTEXTBEGIN
1070
    73
1070
     1
1070
    44
1040
1.0
1070
    74
1070
     0
1000
MTEXTEND
  0
POINT
  5
451
330
449
100
AcDbEntity
  8
DEFPOINTS
 62
     0
100
AcDbPoint
 10
13.86733365088769
 20
17.14863886242072
 30
0.0
  0
POINT
  5
452
330
449
100
AcDbEntity
  8
DEFPOINTS
 62
     0
100
AcDbPoint
 10
14.40099946965093
 20
17.14863886242072
 30
0.0
  0
POINT
  5
453
330
449
100
AcDbEntity
  8
DEFPOINTS
 62
     0
100
AcDbPoint
 10
14.40099946965093
 20
17.29187105865091
 30
0.0
  0
ENDBLK
  5
455
330
449
100
AcDbEntity
  8
0
100
AcDbBlockEnd
  0
BLOCK
  5
5A8
330
5A7
100
AcDbEntity
  8
LAYER_1
 62
     7
100
AcDbBlockBegin
  2
AI9-BLK2
 70
     0
 10
0.0
 20
0.0
 30
0.0
  3
AI9-BLK2
  1

  0
HATCH
  5
5A9
330
5A7
100
AcDbEntity
  8
LAYER_1
 62
     3
100
AcDbHatch
 10
0.0
 20
0.0
 30
0.0
210
0.0
220
0.0
230
1.0
  2
SOLID
 70
     1
 71
     0
 91
        1
 92
        1
 93
        1
 72
     4
 94
        3
 73
     0
 74
     0
 95
       62
 96
       58
 40
0.0
 40
0.0
 40
0.0
 40
0.0
 40
1.0
 40
1.0
 40
1.0
 40
2.0
 40
2.0
 40
2.0
 40
3.0
 40
3.0
 40
3.0
 40
4.0
 40
4.0
 40
4.0
 40
5.0
 40
5.0
 40
5.0
 40
6.0
 40
6.0
 40
6.0
 40
7.0
 40
7.0
 40
7.0
 40
8.0
 40
8.0
 40
8.0
 40
9.0
 40
9.0
 40
9.0
 40
10.0
 40
10.0
 40
10.0
 40
11.0
 40
11.0
 40
11.0
 40
12.0
 40
12.0
 40
12.0
 40
13.0
 40
13.0
 40
13.0
 40
14.0
 40
14.0
 40
14.0
 40
15.0
 40
15.0
 40
15.0
 40
16.0
 40
16.0
 40
16.0
 40
17.0
 40
17.0
 40
17.0
 40
18.0
 40
18.0
 40
18.0
 40
19.0
 40
19.0
 40
19.0
 40
19.0
 10
-2.668915473090277
 20
0.1732883029513889
 10
-2.605525716145832
 20
0.1691541883680555
 10
-2.538001844618055
 20
0.1650200737847222
 10
-2.474267578124999
 20
0.1650200737847222
 10
-2.186602105034721
 20
0.1650200737847222
 10
-1.907204861111111
 20
0.2793972439236111
 10
-1.907204861111111
 20
0.6518120659722222
 10
-1.907204861111111
 20
0.8295789930555555
 10
-2.012969292534722
 20
1.121723090277777
 10
-2.457386610243055
 20
1.121723090277777
 10
-2.986553276909722
 20
1.121723090277777
 10
-3.02031521267361
 20
0.6900526258680556
 10
-3.037540690104166
 20
0.4826578776041666
 10
-3.037540690104166
 20
0.4826578776041666
 10
-3.401342773437499
 20
0.4826578776041666
 10
-3.401342773437499
 20
0.4826578776041666
 10
-3.401342773437499
 20
0.9184624565972221
 10
-3.223575846354166
 20
1.456241861979166
 10
-2.44050564236111
 20
1.456241861979166
 10
-1.864830186631944
 20
1.456241861979166
 10
-1.521698676215277
 20
1.125857204861111
 10
-1.521698676215277
 20
0.6728271484375
 10
-1.521698676215277
 20
0.2917995876736111
 10
-1.741840277777777
 20
0.1098985460069444
 10
-1.902726236979166
 20
0.0589111328125
 10
-1.902726236979166
 20
0.0589111328125
 10
-1.902726236979166
 20
0.0506429036458333
 10
-1.902726236979166
 20
0.0506429036458333
 10
-1.615060763888888
 20
-0.0423746744791667
 10
-1.407666015624999
 20
-0.2456353081597222
 10
-1.407666015624999
 20
-0.6438883463541666
 10
-1.407666015624999
 20
-1.130335828993055
 10
-1.720825195312499
 20
-1.60024685329861
 10
-2.478746202256944
 20
-1.60024685329861
 10
-2.698887803819444
 20
-1.60024685329861
 10
-2.884922960069444
 20
-1.545125325520833
 10
-3.028927951388888
 20
-1.469333224826388
 10
-3.358968098958333
 20
-1.295700412326388
 10
-3.447851562499999
 20
-0.9525689019097221
 10
-3.473345269097221
 20
-0.6097819010416666
 10
-3.473345269097221
 20
-0.6097819010416666
 10
-3.088183593749999
 20
-0.6097819010416666
 10
-3.088183593749999
 20
-0.6097819010416666
 10
-3.075436740451388
 20
-0.8891791449652776
 10
-3.00791286892361
 20
-1.266072591145833
 10
-2.453252495659722
 20
-1.266072591145833
 10
-2.072224934895833
 20
-1.266072591145833
 10
-1.805574544270833
 20
-1.033184136284722
 10
-1.805574544270833
 20
-0.6900526258680556
 10
-1.805574544270833
 20
-0.1905137803819444
 10
-2.245857747395833
 20
-0.1443495008680555
 10
-2.499761284722222
 20
-0.1443495008680555
 10
-2.554882812499999
 20
-0.1443495008680555
 10
-2.614138454861111
 20
-0.1484836154513889
 10
-2.668915473090277
 20
-0.1484836154513889
 10
-2.668915473090277
 20
-0.1484836154513889
 10
-2.668915473090277
 20
0.1732883029513889
 10
-2.668915473090277
 20
0.1732883029513889
 97
        0
 75
     2
 76
     1
 98
        1
 10
0.0
 20
0.0
  0
HATCH
  5
5AA
330
5A7
100
AcDbEntity
  8
LAYER_1
 62
     3
100
AcDbHatch
 10
0.0
 20
0.0
 30
0.0
210
0.0
220
0.0
230
1.0
  2
SOLID
 70
     1
 71
     0
 91
        1
 92
        1
 93
        1
 72
     4
 94
        3
 73
     0
 74
     0
 95
       17
 96
       13
 40
0.0
 40
0.0
 40
0.0
 40
0.0
 40
1.0
 40
1.0
 40
1.0
 40
2.0
 40
2.0
 40
2.0
 40
3.0
 40
3.0
 40
3.0
 40
4.0
 40
4.0
 40
4.0
 40
4.0
 10
-1.052132161458333
 20
-1.60024685329861
 10
-1.052132161458333
 20
-1.60024685329861
 10
-1.335663519965277
 20
-1.60024685329861
 10
-1.335663519965277
 20
-1.60024685329861
 10
-1.335663519965277
 20
-1.60024685329861
 10
-0.2942111545138888
 20
1.60024685329861
 10
-0.2942111545138888
 20
1.60024685329861
 10
-0.2942111545138888
 20
1.60024685329861
 10
-0.0148139105902778
 20
1.60024685329861
 10
-0.0148139105902778
 20
1.60024685329861
 10
-0.0148139105902778
 20
1.60024685329861
 10
-1.052132161458333
 20
-1.60024685329861
 10
-1.052132161458333
 20
-1.60024685329861
 97
        0
 75
     2
 76
     1
 98
        1
 10
0.0
 20
0.0
  0
HATCH
  5
5AB
330
5A7
100
AcDbEntity
  8
LAYER_1
 62
     3
100
AcDbHatch
 10
0.0
 20
0.0
 30
0.0
210
0.0
220
0.0
230
1.0
  2
SOLID
 70
     1
 71
     0
 91
        2
 92
       16
 93
        1
 72
     4
 94
        3
 73
     0
 74
     0
 95
       17
 96
       13
 40
0.0
 40
0.0
 40
0.0
 40
0.0
 40
1.0
 40
1.0
 40
1.0
 40
2.0
 40
2.0
 40
2.0
 40
3.0
 40
3.0
 40
3.0
 40
4.0
 40
4.0
 40
4.0
 40
4.0
 10
0.3620795355902777
 20
-0.4743896484375
 10
0.3620795355902777
 20
-0.4743896484375
 10
1.318782552083333
 20
-0.4743896484375
 10
1.318782552083333
 20
-0.4743896484375
 10
1.318782552083333
 20
-0.4743896484375
 10
1.318782552083333
 20
0.8760877821180555
 10
1.318782552083333
 20
0.8760877821180555
 10
1.318782552083333
 20
0.8760877821180555
 10
1.310169813368055
 20
0.8760877821180555
 10
1.310169813368055
 20
0.8760877821180555
 10
1.310169813368055
 20
0.8760877821180555
 10
0.3620795355902777
 20
-0.4743896484375
 10
0.3620795355902777
 20
-0.4743896484375
 97
        0
 92
        1
 93
        1
 72
     4
 94
        3
 73
     0
 74
     0
 95
       38
 96
       34
 40
0.0
 40
0.0
 40
0.0
 40
0.0
 40
1.0
 40
1.0
 40
1.0
 40
2.0
 40
2.0
 40
2.0
 40
3.0
 40
3.0
 40
3.0
 40
4.0
 40
4.0
 40
4.0
 40
5.0
 40
5.0
 40
5.0
 40
6.0
 40
6.0
 40
6.0
 40
7.0
 40
7.0
 40
7.0
 40
8.0
 40
8.0
 40
8.0
 40
9.0
 40
9.0
 40
9.0
 40
10.0
 40
10.0
 40
10.0
 40
11.0
 40
11.0
 40
11.0
 40
11.0
 10
1.691197374131944
 20
-0.7961615668402777
 10
1.691197374131944
 20
-0.7961615668402777
 10
1.691197374131944
 20
-1.519976128472222
 10
1.691197374131944
 20
-1.519976128472222
 10
1.691197374131944
 20
-1.519976128472222
 10
1.318782552083333
 20
-1.519976128472222
 10
1.318782552083333
 20
-1.519976128472222
 10
1.318782552083333
 20
-1.519976128472222
 10
1.318782552083333
 20
-0.7961615668402777
 10
1.318782552083333
 20
-0.7961615668402777
 10
1.318782552083333
 20
-0.7961615668402777
 10
0.0189480251736111
 20
-0.7961615668402777
 10
0.0189480251736111
 20
-0.7961615668402777
 10
0.0189480251736111
 20
-0.7961615668402777
 10
0.0189480251736111
 20
-0.4320149739583333
 10
0.0189480251736111
 20
-0.4320149739583333
 10
0.0189480251736111
 20
-0.4320149739583333
 10
1.382172309027777
 20
1.456241861979166
 10
1.382172309027777
 20
1.456241861979166
 10
1.382172309027777
 20
1.456241861979166
 10
1.691197374131944
 20
1.456241861979166
 10
1.691197374131944
 20
1.456241861979166
 10
1.691197374131944
 20
1.456241861979166
 10
1.691197374131944
 20
-0.4743896484375
 10
1.691197374131944
 20
-0.4743896484375
 10
1.691197374131944
 20
-0.4743896484375
 10
2.12734646267361
 20
-0.4743896484375
 10
2.12734646267361
 20
-0.4743896484375
 10
2.12734646267361
 20
-0.4743896484375
 10
2.12734646267361
 20
-0.7961615668402777
 10
2.12734646267361
 20
-0.7961615668402777
 10
2.12734646267361
 20
-0.7961615668402777
 10
1.691197374131944
 20
-0.7961615668402777
 10
1.691197374131944
 20
-0.7961615668402777
 97
        0
 75
     2
 76
     1
 98
        1
 10
0.0
 20
0.0
  0
HATCH
  5
5AC
330
5A7
100
AcDbEntity
  8
LAYER_1
 62
     3
100
AcDbHatch
 10
0.0
 20
0.0
 30
0.0
210
0.0
220
0.0
230
1.0
  2
SOLID
 70
     1
 71
     0
 91
        2
 92
        1
 93
        1
 72
     4
 94
        3
 73
     0
 74
     0
 95
       17
 96
       13
 40
0.0
 40
0.0
 40
0.0
 40
0.0
 40
1.0
 40
1.0
 40
1.0
 40
2.0
 40
2.0
 40
2.0
 40
3.0
 40
3.0
 40
3.0
 40
4.0
 40
4.0
 40
4.0
 40
4.0
 10
3.164320203993055
 20
1.51963161892361
 10
3.164320203993055
 20
1.51963161892361
 10
3.473345269097221
 20
1.51963161892361
 10
3.473345269097221
 20
1.51963161892361
 10
3.473345269097221
 20
1.51963161892361
 10
3.473345269097221
 20
0.4399386935763889
 10
3.473345269097221
 20
0.4399386935763889
 10
3.473345269097221
 20
0.4399386935763889
 10
3.164320203993055
 20
0.4399386935763889
 10
3.164320203993055
 20
0.4399386935763889
 10
3.164320203993055
 20
0.4399386935763889
 10
3.164320203993055
 20
1.51963161892361
 10
3.164320203993055
 20
1.51963161892361
 97
        0
 92
        1
 93
        1
 72
     4
 94
        3
 73
     0
 74
     0
 95
       17
 96
       13
 40
0.0
 40
0.0
 40
0.0
 40
0.0
 40
1.0
 40
1.0
 40
1.0
 40
2.0
 40
2.0
 40
2.0
 40
3.0
 40
3.0
 40
3.0
 40
4.0
 40
4.0
 40
4.0
 40
4.0
 10
2.563151041666666
 20
1.51963161892361
 10
2.563151041666666
 20
1.51963161892361
 10
2.872176106770833
 20
1.51963161892361
 10
2.872176106770833
 20
1.51963161892361
 10
2.872176106770833
 20
1.51963161892361
 10
2.872176106770833
 20
0.4399386935763889
 10
2.872176106770833
 20
0.4399386935763889
 10
2.872176106770833
 20
0.4399386935763889
 10
2.563151041666666
 20
0.4399386935763889
 10
2.563151041666666
 20
0.4399386935763889
 10
2.563151041666666
 20
0.4399386935763889
 10
2.563151041666666
 20
1.51963161892361
 10
2.563151041666666
 20
1.51963161892361
 97
        0
 75
     2
 76
     1
 98
        1
 10
0.0
 20
0.0
  0
ENDBLK
  5
5AD
330
5A7
100
AcDbEntity
  8
LAYER_1
100
AcDbBlockEnd
  0
BLOCK
  5
5AF
330
5AE
100
AcDbEntity
  8
LAYER_1
 62
     7
100
AcDbBlockBegin
  2
AI9-BLK3
 70
     0
 10
0.0
 20
0.0
 30
0.0
  3
AI9-BLK3
  1

  0
HATCH
  5
5B0
330
5AE
100
AcDbEntity
  8
LAYER_1
 62
     3
100
AcDbHatch
 10
0.0
 20
0.0
 30
0.0
210
0.0
220
0.0
230
1.0
  2
SOLID
 70
     1
 71
     0
 91
        1
 92
        1
 93
        1
 72
     4
 94
        3
 73
     0
 74
     0
 95
       26
 96
       22
 40
0.0
 40
0.0
 40
0.0
 40
0.0
 40
1.0
 40
1.0
 40
1.0
 40
2.0
 40
2.0
 40
2.0
 40
3.0
 40
3.0
 40
3.0
 40
4.0
 40
4.0
 40
4.0
 40
5.0
 40
5.0
 40
5.0
 40
6.0
 40
6.0
 40
6.0
 40
7.0
 40
7.0
 40
7.0
 40
7.0
 10
-4.121109347873263
 20
-1.519803873697916
 10
-4.121109347873263
 20
-1.519803873697916
 10
-4.519017876519097
 20
-1.519803873697916
 10
-4.519017876519097
 20
-1.519803873697916
 10
-4.519017876519097
 20
-1.519803873697916
 10
-4.519017876519097
 20
0.5927286783854166
 10
-4.519017876519097
 20
0.5927286783854166
 10
-4.519017876519097
 20
0.5927286783854166
 10
-5.213376871744791
 20
0.5927286783854166
 10
-5.213376871744791
 20
0.5927286783854166
 10
-5.213376871744791
 20
0.5927286783854166
 10
-5.213376871744791
 20
0.8890068901909721
 10
-5.213376871744791
 20
0.8890068901909721
 10
-4.730718994140624
 20
0.922768825954861
 10
-4.531764729817707
 20
0.969277615017361
 10
-4.413253445095485
 20
1.456414116753472
 10
-4.413253445095485
 20
1.456414116753472
 10
-4.121109347873263
 20
1.456414116753472
 10
-4.121109347873263
 20
1.456414116753472
 10
-4.121109347873263
 20
1.456414116753472
 10
-4.121109347873263
 20
-1.519803873697916
 10
-4.121109347873263
 20
-1.519803873697916
 97
        0
 75
     2
 76
     1
 98
        1
 10
0.0
 20
0.0
  0
HATCH
  5
5B1
330
5AE
100
AcDbEntity
  8
LAYER_1
 62
     3
100
AcDbHatch
 10
0.0
 20
0.0
 30
0.0
210
0.0
220
0.0
230
1.0
  2
SOLID
 70
     1
 71
     0
 91
        1
 92
        1
 93
        1
 72
     4
 94
        3
 73
     0
 74
     0
 95
       17
 96
       13
 40
0.0
 40
0.0
 40
0.0
 40
0.0
 40
1.0
 40
1.0
 40
1.0
 40
2.0
 40
2.0
 40
2.0
 40
3.0
 40
3.0
 40
3.0
 40
4.0
 40
4.0
 40
4.0
 40
4.0
 10
-2.063698323567708
 20
-0.5376071506076389
 10
-2.063698323567708
 20
-0.5376071506076389
 10
-3.100844319661458
 20
-0.5376071506076389
 10
-3.100844319661458
 20
-0.5376071506076389
 10
-3.100844319661458
 20
-0.5376071506076389
 10
-3.100844319661458
 20
-0.15657958984375
 10
-3.100844319661458
 20
-0.15657958984375
 10
-3.100844319661458
 20
-0.15657958984375
 10
-2.063698323567708
 20
-0.15657958984375
 10
-2.063698323567708
 20
-0.15657958984375
 10
-2.063698323567708
 20
-0.15657958984375
 10
-2.063698323567708
 20
-0.5376071506076389
 10
-2.063698323567708
 20
-0.5376071506076389
 97
        0
 75
     2
 76
     1
 98
        1
 10
0.0
 20
0.0
  0
HATCH
  5
5B2
330
5AE
100
AcDbEntity
  8
LAYER_1
 62
     3
100
AcDbHatch
 10
0.0
 20
0.0
 30
0.0
210
0.0
220
0.0
230
1.0
  2
SOLID
 70
     1
 71
     0
 91
        1
 92
        1
 93
        1
 72
     4
 94
        3
 73
     0
 74
     0
 95
       50
 96
       46
 40
0.0
 40
0.0
 40
0.0
 40
0.0
 40
1.0
 40
1.0
 40
1.0
 40
2.0
 40
2.0
 40
2.0
 40
3.0
 40
3.0
 40
3.0
 40
4.0
 40
4.0
 40
4.0
 40
5.0
 40
5.0
 40
5.0
 40
6.0
 40
6.0
 40
6.0
 40
7.0
 40
7.0
 40
7.0
 40
8.0
 40
8.0
 40
8.0
 40
9.0
 40
9.0
 40
9.0
 40
10.0
 40
10.0
 40
10.0
 40
11.0
 40
11.0
 40
11.0
 40
12.0
 40
12.0
 40
12.0
 40
13.0
 40
13.0
 40
13.0
 40
14.0
 40
14.0
 40
14.0
 40
15.0
 40
15.0
 40
15.0
 40
15.0
 10
-1.25513441297743
 20
0.2117011176215278
 10
-1.128182644314235
 20
0.3088528103298611
 10
-0.9461093478732639
 20
0.3980807834201388
 10
-0.6794589572482638
 20
0.3980807834201388
 10
-0.1968010796440972
 20
0.3980807834201388
 10
0.298431396484375
 20
0.0590833875868056
 10
0.298431396484375
 20
-0.5544881184895833
 10
0.298431396484375
 20
-0.8848727756076387
 10
0.1502922905815972
 20
-1.600074598524305
 10
-0.7810892740885416
 20
-1.600074598524305
 10
-1.170557318793402
 20
-1.600074598524305
 10
-1.670096164279513
 20
-1.443667263454861
 10
-1.742098659939235
 20
-0.7791083441840278
 10
-1.742098659939235
 20
-0.7791083441840278
 10
-1.356764729817708
 20
-0.7791083441840278
 10
-1.356764729817708
 20
-0.7791083441840278
 10
-1.31869642469618
 20
-1.126029459635416
 10
-1.060486518012152
 20
-1.278647189670138
 10
-0.7259677463107638
 20
-1.278647189670138
 10
-0.3408060709635416
 20
-1.278647189670138
 10
-0.0994771321614583
 20
-0.9696221245659721
 10
-0.0994771321614583
 20
-0.59686279296875
 10
-0.0994771321614583
 20
-0.1693264431423611
 10
-0.3916212293836805
 20
0.06356201171875
 10
-0.7599019368489583
 20
0.06356201171875
 10
-0.9757371690538192
 20
0.06356201171875
 10
-1.170557318793402
 20
-0.0380683051215278
 10
-1.310255940755208
 20
-0.2203138563368055
 10
-1.310255940755208
 20
-0.2203138563368055
 10
-1.632027859157985
 20
-0.20308837890625
 10
-1.632027859157985
 20
-0.20308837890625
 10
-1.632027859157985
 20
-0.20308837890625
 10
-1.407579888237847
 20
1.392679850260416
 10
-1.407579888237847
 20
1.392679850260416
 10
-1.407579888237847
 20
1.392679850260416
 10
0.1334113226996528
 20
1.392679850260416
 10
0.1334113226996528
 20
1.392679850260416
 10
0.1334113226996528
 20
1.392679850260416
 10
0.1334113226996528
 20
1.028533257378472
 10
0.1334113226996528
 20
1.028533257378472
 10
0.1334113226996528
 20
1.028533257378472
 10
-1.128182644314235
 20
1.028533257378472
 10
-1.128182644314235
 20
1.028533257378472
 10
-1.128182644314235
 20
1.028533257378472
 10
-1.25513441297743
 20
0.2117011176215278
 10
-1.25513441297743
 20
0.2117011176215278
 97
        0
 75
     2
 76
     1
 98
        1
 10
0.0
 20
0.0
  0
HATCH
  5
5B3
330
5AE
100
AcDbEntity
  8
LAYER_1
 62
     3
100
AcDbHatch
 10
0.0
 20
0.0
 30
0.0
210
0.0
220
0.0
230
1.0
  2
SOLID
 70
     1
 71
     0
 91
        1
 92
        1
 93
        1
 72
     4
 94
        3
 73
     0
 74
     0
 95
       17
 96
       13
 40
0.0
 40
0.0
 40
0.0
 40
0.0
 40
1.0
 40
1.0
 40
1.0
 40
2.0
 40
2.0
 40
2.0
 40
3.0
 40
3.0
 40
3.0
 40
4.0
 40
4.0
 40
4.0
 40
4.0
 10
0.6878994411892361
 20
-1.600074598524305
 10
0.6878994411892361
 20
-1.600074598524305
 10
0.4041958279079861
 20
-1.600074598524305
 10
0.4041958279079861
 20
-1.600074598524305
 10
0.4041958279079861
 20
-1.600074598524305
 10
1.445648193359374
 20
1.600074598524305
 10
1.445648193359374
 20
1.600074598524305
 10
1.445648193359374
 20
1.600074598524305
 10
1.725045437282985
 20
1.600074598524305
 10
1.725045437282985
 20
1.600074598524305
 10
1.725045437282985
 20
1.600074598524305
 10
0.6878994411892361
 20
-1.600074598524305
 10
0.6878994411892361
 20
-1.600074598524305
 97
        0
 75
     2
 76
     1
 98
        1
 10
0.0
 20
0.0
  0
HATCH
  5
5B4
330
5AE
100
AcDbEntity
  8
LAYER_1
 62
     3
100
AcDbHatch
 10
0.0
 20
0.0
 30
0.0
210
0.0
220
0.0
230
1.0
  2
SOLID
 70
     1
 71
     0
 91
        3
 92
       16
 93
        1
 72
     4
 94
        3
 73
     0
 74
     0
 95
       17
 96
       13
 40
0.0
 40
0.0
 40
0.0
 40
0.0
 40
1.0
 40
1.0
 40
1.0
 40
2.0
 40
2.0
 40
2.0
 40
3.0
 40
3.0
 40
3.0
 40
4.0
 40
4.0
 40
4.0
 40
4.0
 10
3.350613742404513
 20
0.67747802734375
 10
3.350613742404513
 20
0.8593790690104166
 10
3.232102457682291
 20
1.121895345052083
 10
2.79612562391493
 20
1.121895345052083
 10
2.398217095269096
 20
1.121895345052083
 10
2.300893147786458
 20
0.8466322157118055
 10
2.300893147786458
 20
0.6561184353298611
 10
2.300893147786458
 20
0.3725870768229166
 10
2.550662570529513
 20
0.1989542643229166
 10
2.821447075737847
 20
0.1989542643229166
 10
3.143218994140624
 20
0.1989542643229166
 10
3.350613742404513
 20
0.4063490125868056
 10
3.350613742404513
 20
0.67747802734375
 97
        0
 92
       16
 93
        1
 72
     4
 94
        3
 73
     0
 74
     0
 95
       17
 96
       13
 40
0.0
 40
0.0
 40
0.0
 40
0.0
 40
1.0
 40
1.0
 40
1.0
 40
2.0
 40
2.0
 40
2.0
 40
3.0
 40
3.0
 40
3.0
 40
4.0
 40
4.0
 40
4.0
 40
4.0
 10
2.211837429470485
 20
-0.6729994032118056
 10
2.211837429470485
 20
-0.910366482204861
 10
2.330520968967013
 20
-1.265900336371527
 10
2.846940782335069
 20
-1.265900336371527
 10
3.117897542317708
 20
-1.265900336371527
 10
3.443803575303819
 20
-1.168404134114583
 10
3.443803575303819
 20
-0.7026272243923611
 10
3.443803575303819
 20
-0.3005845811631944
 10
3.164406331380208
 20
-0.1228176540798611
 10
2.825753445095486
 20
-0.1228176540798611
 10
2.406657579210069
 20
-0.1228176540798611
 10
2.211837429470485
 20
-0.3980807834201388
 10
2.211837429470485
 20
-0.6729994032118056
 97
        0
 92
        1
 93
        1
 72
     4
 94
        3
 73
     0
 74
     0
 95
       32
 96
       28
 40
0.0
 40
0.0
 40
0.0
 40
0.0
 40
1.0
 40
1.0
 40
1.0
 40
2.0
 40
2.0
 40
2.0
 40
3.0
 40
3.0
 40
3.0
 40
4.0
 40
4.0
 40
4.0
 40
5.0
 40
5.0
 40
5.0
 40
6.0
 40
6.0
 40
6.0
 40
7.0
 40
7.0
 40
7.0
 40
8.0
 40
8.0
 40
8.0
 40
9.0
 40
9.0
 40
9.0
 40
9.0
 10
3.354920111762152
 20
0.06356201171875
 10
3.757135009765624
 20
-0.1059366861979166
 10
3.841712103949652
 20
-0.4359768337673611
 10
3.841712103949652
 20
-0.6605970594618055
 10
3.841712103949652
 20
-1.138776312934027
 10
3.536993408203124
 20
-1.600074598524305
 10
2.834193929036457
 20
-1.600074598524305
 10
2.669173855251735
 20
-1.600074598524305
 10
2.35584242078993
 20
-1.558044433593749
 10
2.118819851345485
 20
-1.371664767795138
 10
1.813928900824652
 20
-1.130163574218749
 10
1.813928900824652
 20
-0.8087361653645832
 10
1.813928900824652
 20
-0.6647311740451389
 10
1.813928900824652
 20
-0.3005845811631944
 10
2.004442681206596
 20
-0.0676961263020833
 10
2.317774115668402
 20
0.0590833875868056
 10
2.063698323567708
 20
0.15657958984375
 10
1.91555921766493
 20
0.3598402235243055
 10
1.91555921766493
 20
0.6392374674479166
 10
1.91555921766493
 20
0.9482625325520832
 10
2.106072998046874
 20
1.456414116753472
 10
2.817312961154513
 20
1.456414116753472
 10
3.477737765842013
 20
1.456414116753472
 10
3.735947672526041
 20
1.037145996093749
 10
3.735947672526041
 20
0.68988037109375
 10
3.735947672526041
 20
0.2623440212673611
 10
3.486178249782985
 20
0.1310858832465278
 10
3.354920111762152
 20
0.06356201171875
 97
        0
 75
     2
 76
     1
 98
        1
 10
0.0
 20
0.0
  0
HATCH
  5
5B5
330
5AE
100
AcDbEntity
  8
LAYER_1
 62
     3
100
AcDbHatch
 10
0.0
 20
0.0
 30
0.0
210
0.0
220
0.0
230
1.0
  2
SOLID
 70
     1
 71
     0
 91
        2
 92
        1
 93
        1
 72
     4
 94
        3
 73
     0
 74
     0
 95
       17
 96
       13
 40
0.0
 40
0.0
 40
0.0
 40
0.0
 40
1.0
 40
1.0
 40
1.0
 40
2.0
 40
2.0
 40
2.0
 40
3.0
 40
3.0
 40
3.0
 40
4.0
 40
4.0
 40
4.0
 40
4.0
 10
4.904351806640624
 20
1.519803873697916
 10
4.904351806640624
 20
1.519803873697916
 10
5.213376871744791
 20
1.519803873697916
 10
5.213376871744791
 20
1.519803873697916
 10
5.213376871744791
 20
1.519803873697916
 10
5.213376871744791
 20
0.4401109483506945
 10
5.213376871744791
 20
0.4401109483506945
 10
5.213376871744791
 20
0.4401109483506945
 10
4.904351806640624
 20
0.4401109483506945
 10
4.904351806640624
 20
0.4401109483506945
 10
4.904351806640624
 20
0.4401109483506945
 10
4.904351806640624
 20
1.519803873697916
 10
4.904351806640624
 20
1.519803873697916
 97
        0
 92
        1
 93
        1
 72
     4
 94
        3
 73
     0
 74
     0
 95
       17
 96
       13
 40
0.0
 40
0.0
 40
0.0
 40
0.0
 40
1.0
 40
1.0
 40
1.0
 40
2.0
 40
2.0
 40
2.0
 40
3.0
 40
3.0
 40
3.0
 40
4.0
 40
4.0
 40
4.0
 40
4.0
 10
4.303182644314235
 20
1.519803873697916
 10
4.303182644314235
 20
1.519803873697916
 10
4.612207709418401
 20
1.519803873697916
 10
4.612207709418401
 20
1.519803873697916
 10
4.612207709418401
 20
1.519803873697916
 10
4.612207709418401
 20
0.4401109483506945
 10
4.612207709418401
 20
0.4401109483506945
 10
4.612207709418401
 20
0.4401109483506945
 10
4.303182644314235
 20
0.4401109483506945
 10
4.303182644314235
 20
0.4401109483506945
 10
4.303182644314235
 20
0.4401109483506945
 10
4.303182644314235
 20
1.519803873697916
 10
4.303182644314235
 20
1.519803873697916
 97
        0
 75
     2
 76
     1
 98
        1
 10
0.0
 20
0.0
  0
ENDBLK
  5
5B6
330
5AE
100
AcDbEntity
  8
LAYER_1
100
AcDbBlockEnd
  0
BLOCK
  5
5B8
330
5B7
100
AcDbEntity
  8
LAYER_1
 62
     7
100
AcDbBlockBegin
  2
AI9-BLK4
 70
     0
 10
0.0
 20
0.0
 30
0.0
  3
AI9-BLK4
  1

  0
INSERT
  5
5B9
330
5B7
100
AcDbEntity
  8
LAYER_1
 62
     7
100
AcDbBlockReference
  2
AI9-BLK5
 10
0.0656290690104167
 20
0.1779391818576389
 30
0.0
  0
ENDBLK
  5
5BA
330
5B7
100
AcDbEntity
  8
LAYER_1
100
AcDbBlockEnd
  0
BLOCK
  5
5BC
330
5BB
100
AcDbEntity
  8
LAYER_1
 62
     7
100
AcDbBlockBegin
  2
AI9-BLK5
 70
     0
 10
0.0
 20
0.0
 30
0.0
  3
AI9-BLK5
  1

  0
HATCH
  5
5BD
330
5BB
100
AcDbEntity
  8
LAYER_1
 62
     3
100
AcDbHatch
 10
0.0
 20
0.0
 30
0.0
210
0.0
220
0.0
230
1.0
  2
SOLID
 70
     1
 71
     0
 91
        1
 92
        1
 93
        1
 72
     4
 94
        3
 73
     0
 74
     0
 95
       26
 96
       22
 40
0.0
 40
0.0
 40
0.0
 40
0.0
 40
1.0
 40
1.0
 40
1.0
 40
2.0
 40
2.0
 40
2.0
 40
3.0
 40
3.0
 40
3.0
 40
4.0
 40
4.0
 40
4.0
 40
5.0
 40
5.0
 40
5.0
 40
6.0
 40
6.0
 40
6.0
 40
7.0
 40
7.0
 40
7.0
 40
7.0
 10
-4.121109347873263
 20
-1.519803873697916
 10
-4.121109347873263
 20
-1.519803873697916
 10
-4.519017876519097
 20
-1.519803873697916
 10
-4.519017876519097
 20
-1.519803873697916
 10
-4.519017876519097
 20
-1.519803873697916
 10
-4.519017876519097
 20
0.5927286783854166
 10
-4.519017876519097
 20
0.5927286783854166
 10
-4.519017876519097
 20
0.5927286783854166
 10
-5.213376871744791
 20
0.5927286783854166
 10
-5.213376871744791
 20
0.5927286783854166
 10
-5.213376871744791
 20
0.5927286783854166
 10
-5.213376871744791
 20
0.8890068901909721
 10
-5.213376871744791
 20
0.8890068901909721
 10
-4.730718994140624
 20
0.922768825954861
 10
-4.531764729817707
 20
0.969277615017361
 10
-4.413253445095485
 20
1.456414116753472
 10
-4.413253445095485
 20
1.456414116753472
 10
-4.121109347873263
 20
1.456414116753472
 10
-4.121109347873263
 20
1.456414116753472
 10
-4.121109347873263
 20
1.456414116753472
 10
-4.121109347873263
 20
-1.519803873697916
 10
-4.121109347873263
 20
-1.519803873697916
 97
        0
 75
     2
 76
     1
 98
        1
 10
0.0
 20
0.0
  0
HATCH
  5
5BE
330
5BB
100
AcDbEntity
  8
LAYER_1
 62
     3
100
AcDbHatch
 10
0.0
 20
0.0
 30
0.0
210
0.0
220
0.0
230
1.0
  2
SOLID
 70
     1
 71
     0
 91
        1
 92
        1
 93
        1
 72
     4
 94
        3
 73
     0
 74
     0
 95
       17
 96
       13
 40
0.0
 40
0.0
 40
0.0
 40
0.0
 40
1.0
 40
1.0
 40
1.0
 40
2.0
 40
2.0
 40
2.0
 40
3.0
 40
3.0
 40
3.0
 40
4.0
 40
4.0
 40
4.0
 40
4.0
 10
-2.063698323567708
 20
-0.5376071506076389
 10
-2.063698323567708
 20
-0.5376071506076389
 10
-3.100844319661458
 20
-0.5376071506076389
 10
-3.100844319661458
 20
-0.5376071506076389
 10
-3.100844319661458
 20
-0.5376071506076389
 10
-3.100844319661458
 20
-0.15657958984375
 10
-3.100844319661458
 20
-0.15657958984375
 10
-3.100844319661458
 20
-0.15657958984375
 10
-2.063698323567708
 20
-0.15657958984375
 10
-2.063698323567708
 20
-0.15657958984375
 10
-2.063698323567708
 20
-0.15657958984375
 10
-2.063698323567708
 20
-0.5376071506076389
 10
-2.063698323567708
 20
-0.5376071506076389
 97
        0
 75
     2
 76
     1
 98
        1
 10
0.0
 20
0.0
  0
HATCH
  5
5BF
330
5BB
100
AcDbEntity
  8
LAYER_1
 62
     3
100
AcDbHatch
 10
0.0
 20
0.0
 30
0.0
210
0.0
220
0.0
230
1.0
  2
SOLID
 70
     1
 71
     0
 91
        1
 92
        1
 93
        1
 72
     4
 94
        3
 73
     0
 74
     0
 95
       26
 96
       22
 40
0.0
 40
0.0
 40
0.0
 40
0.0
 40
1.0
 40
1.0
 40
1.0
 40
2.0
 40
2.0
 40
2.0
 40
3.0
 40
3.0
 40
3.0
 40
4.0
 40
4.0
 40
4.0
 40
5.0
 40
5.0
 40
5.0
 40
6.0
 40
6.0
 40
6.0
 40
7.0
 40
7.0
 40
7.0
 40
7.0
 10
-0.3576870388454861
 20
-1.519803873697916
 10
-0.3576870388454861
 20
-1.519803873697916
 10
-0.7555955674913194
 20
-1.519803873697916
 10
-0.7555955674913194
 20
-1.519803873697916
 10
-0.7555955674913194
 20
-1.519803873697916
 10
-0.7555955674913194
 20
0.5927286783854166
 10
-0.7555955674913194
 20
0.5927286783854166
 10
-0.7555955674913194
 20
0.5927286783854166
 10
-1.449954562717013
 20
0.5927286783854166
 10
-1.449954562717013
 20
0.5927286783854166
 10
-1.449954562717013
 20
0.5927286783854166
 10
-1.449954562717013
 20
0.8890068901909721
 10
-1.449954562717013
 20
0.8890068901909721
 10
-0.9672966851128471
 20
0.922768825954861
 10
-0.7683424207899306
 20
0.969277615017361
 10
-0.6498311360677083
 20
1.456414116753472
 10
-0.6498311360677083
 20
1.456414116753472
 10
-0.3576870388454861
 20
1.456414116753472
 10
-0.3576870388454861
 20
1.456414116753472
 10
-0.3576870388454861
 20
1.456414116753472
 10
-0.3576870388454861
 20
-1.519803873697916
 10
-0.3576870388454861
 20
-1.519803873697916
 97
        0
 75
     2
 76
     1
 98
        1
 10
0.0
 20
0.0
  0
HATCH
  5
5C0
330
5BB
100
AcDbEntity
  8
LAYER_1
 62
     3
100
AcDbHatch
 10
0.0
 20
0.0
 30
0.0
210
0.0
220
0.0
230
1.0
  2
SOLID
 70
     1
 71
     0
 91
        1
 92
        1
 93
        1
 72
     4
 94
        3
 73
     0
 74
     0
 95
       17
 96
       13
 40
0.0
 40
0.0
 40
0.0
 40
0.0
 40
1.0
 40
1.0
 40
1.0
 40
2.0
 40
2.0
 40
2.0
 40
3.0
 40
3.0
 40
3.0
 40
4.0
 40
4.0
 40
4.0
 40
4.0
 10
0.6878994411892361
 20
-1.600074598524305
 10
0.6878994411892361
 20
-1.600074598524305
 10
0.4041958279079861
 20
-1.600074598524305
 10
0.4041958279079861
 20
-1.600074598524305
 10
0.4041958279079861
 20
-1.600074598524305
 10
1.445648193359374
 20
1.600074598524305
 10
1.445648193359374
 20
1.600074598524305
 10
1.445648193359374
 20
1.600074598524305
 10
1.725045437282985
 20
1.600074598524305
 10
1.725045437282985
 20
1.600074598524305
 10
1.725045437282985
 20
1.600074598524305
 10
0.6878994411892361
 20
-1.600074598524305
 10
0.6878994411892361
 20
-1.600074598524305
 97
        0
 75
     2
 76
     1
 98
        1
 10
0.0
 20
0.0
  0
HATCH
  5
5C1
330
5BB
100
AcDbEntity
  8
LAYER_1
 62
     3
100
AcDbHatch
 10
0.0
 20
0.0
 30
0.0
210
0.0
220
0.0
230
1.0
  2
SOLID
 70
     1
 71
     0
 91
        1
 92
        1
 93
        1
 72
     4
 94
        3
 73
     0
 74
     0
 95
       47
 96
       43
 40
0.0
 40
0.0
 40
0.0
 40
0.0
 40
1.0
 40
1.0
 40
1.0
 40
2.0
 40
2.0
 40
2.0
 40
3.0
 40
3.0
 40
3.0
 40
4.0
 40
4.0
 40
4.0
 40
5.0
 40
5.0
 40
5.0
 40
6.0
 40
6.0
 40
6.0
 40
7.0
 40
7.0
 40
7.0
 40
8.0
 40
8.0
 40
8.0
 40
9.0
 40
9.0
 40
9.0
 40
10.0
 40
10.0
 40
10.0
 40
11.0
 40
11.0
 40
11.0
 40
12.0
 40
12.0
 40
12.0
 40
13.0
 40
13.0
 40
13.0
 40
14.0
 40
14.0
 40
14.0
 40
14.0
 10
1.839422607421875
 20
0.3894680447048611
 10
1.839422607421875
 20
1.358917914496527
 10
2.546356201171874
 20
1.456414116753472
 10
2.868128119574652
 20
1.456414116753472
 10
3.384547932942707
 20
1.456414116753472
 10
3.799337429470485
 20
1.121895345052083
 10
3.799337429470485
 20
0.5672349717881944
 10
3.799337429470485
 20
0.0339341905381945
 10
3.448109944661458
 20
-0.19068603515625
 10
3.003520372178819
 20
-0.4277086046006945
 10
3.003520372178819
 20
-0.4277086046006945
 10
2.694495307074652
 20
-0.59686279296875
 10
2.694495307074652
 20
-0.59686279296875
 10
2.288146294487847
 20
-0.8211385091145832
 10
2.19926283094618
 20
-1.054026963975694
 10
2.18220960828993
 20
-1.168404134114583
 10
2.18220960828993
 20
-1.168404134114583
 10
3.799337429470485
 20
-1.168404134114583
 10
3.799337429470485
 20
-1.168404134114583
 10
3.799337429470485
 20
-1.168404134114583
 10
3.799337429470485
 20
-1.519803873697916
 10
3.799337429470485
 20
-1.519803873697916
 10
3.799337429470485
 20
-1.519803873697916
 10
1.763113742404513
 20
-1.519803873697916
 10
1.763113742404513
 20
-1.519803873697916
 10
1.784301079644096
 20
-0.9017537434895832
 10
2.063698323567708
 20
-0.5713690863715277
 10
2.461606852213541
 20
-0.3388251410590277
 10
2.461606852213541
 20
-0.3388251410590277
 10
2.855381266276041
 20
-0.11007080078125
 10
2.855381266276041
 20
-0.11007080078125
 10
3.17284681532118
 20
0.0718302408854167
 10
3.401428900824652
 20
0.1948201497395833
 10
3.401428900824652
 20
0.5841159396701389
 10
3.401428900824652
 20
0.8211385091145832
 10
3.249155680338541
 20
1.121895345052083
 10
2.813006591796874
 20
1.121895345052083
 10
2.250077989366319
 20
1.121895345052083
 10
2.224584282769097
 20
0.59686279296875
 10
2.211837429470485
 20
0.3894680447048611
 10
2.211837429470485
 20
0.3894680447048611
 10
1.839422607421875
 20
0.3894680447048611
 10
1.839422607421875
 20
0.3894680447048611
 97
        0
 75
     2
 76
     1
 98
        1
 10
0.0
 20
0.0
  0
HATCH
  5
5C2
330
5BB
100
AcDbEntity
  8
LAYER_1
 62
     3
100
AcDbHatch
 10
0.0
 20
0.0
 30
0.0
210
0.0
220
0.0
230
1.0
  2
SOLID
 70
     1
 71
     0
 91
        2
 92
        1
 93
        1
 72
     4
 94
        3
 73
     0
 74
     0
 95
       17
 96
       13
 40
0.0
 40
0.0
 40
0.0
 40
0.0
 40
1.0
 40
1.0
 40
1.0
 40
2.0
 40
2.0
 40
2.0
 40
3.0
 40
3.0
 40
3.0
 40
4.0
 40
4.0
 40
4.0
 40
4.0
 10
4.904351806640624
 20
1.519803873697916
 10
4.904351806640624
 20
1.519803873697916
 10
5.213376871744791
 20
1.519803873697916
 10
5.213376871744791
 20
1.519803873697916
 10
5.213376871744791
 20
1.519803873697916
 10
5.213376871744791
 20
0.4401109483506945
 10
5.213376871744791
 20
0.4401109483506945
 10
5.213376871744791
 20
0.4401109483506945
 10
4.904351806640624
 20
0.4401109483506945
 10
4.904351806640624
 20
0.4401109483506945
 10
4.904351806640624
 20
0.4401109483506945
 10
4.904351806640624
 20
1.519803873697916
 10
4.904351806640624
 20
1.519803873697916
 97
        0
 92
        1
 93
        1
 72
     4
 94
        3
 73
     0
 74
     0
 95
       17
 96
       13
 40
0.0
 40
0.0
 40
0.0
 40
0.0
 40
1.0
 40
1.0
 40
1.0
 40
2.0
 40
2.0
 40
2.0
 40
3.0
 40
3.0
 40
3.0
 40
4.0
 40
4.0
 40
4.0
 40
4.0
 10
4.303182644314235
 20
1.519803873697916
 10
4.303182644314235
 20
1.519803873697916
 10
4.612207709418401
 20
1.519803873697916
 10
4.612207709418401
 20
1.519803873697916
 10
4.612207709418401
 20
1.519803873697916
 10
4.612207709418401
 20
0.4401109483506945
 10
4.612207709418401
 20
0.4401109483506945
 10
4.612207709418401
 20
0.4401109483506945
 10
4.303182644314235
 20
0.4401109483506945
 10
4.303182644314235
 20
0.4401109483506945
 10
4.303182644314235
 20
0.4401109483506945
 10
4.303182644314235
 20
1.519803873697916
 10
4.303182644314235
 20
1.519803873697916
 97
        0
 75
     2
 76
     1
 98
        1
 10
0.0
 20
0.0
  0
ENDBLK
  5
5C3
330
5BB
100
AcDbEntity
  8
LAYER_1
100
AcDbBlockEnd
  0
BLOCK
  5
5C5
330
5C4
100
AcDbEntity
  8
LAYER_1
 62
     7
100
AcDbBlockBegin
  2
AI9-BLK6
 70
     0
 10
0.0
 20
0.0
 30
0.0
  3
AI9-BLK6
  1

  0
INSERT
  5
5C6
330
5C4
100
AcDbEntity
  8
LAYER_1
 62
     7
100
AcDbBlockReference
  2
AI9-BLK7
 10
-0.0931037055121528
 20
0.1778530544704861
 30
0.0
  0
ENDBLK
  5
5C7
330
5C4
100
AcDbEntity
  8
LAYER_1
100
AcDbBlockEnd
  0
BLOCK
  5
5C9
330
5C8
100
AcDbEntity
  8
LAYER_1
 62
     7
100
AcDbBlockBegin
  2
AI9-BLK7
 70
     0
 10
0.0
 20
0.0
 30
0.0
  3
AI9-BLK7
  1

  0
HATCH
  5
5CA
330
5C8
100
AcDbEntity
  8
LAYER_1
 62
     3
100
AcDbHatch
 10
0.0
 20
0.0
 30
0.0
210
0.0
220
0.0
230
1.0
  2
SOLID
 70
     1
 71
     0
 91
        1
 92
        1
 93
        1
 72
     4
 94
        3
 73
     0
 74
     0
 95
       47
 96
       43
 40
0.0
 40
0.0
 40
0.0
 40
0.0
 40
1.0
 40
1.0
 40
1.0
 40
2.0
 40
2.0
 40
2.0
 40
3.0
 40
3.0
 40
3.0
 40
4.0
 40
4.0
 40
4.0
 40
5.0
 40
5.0
 40
5.0
 40
6.0
 40
6.0
 40
6.0
 40
7.0
 40
7.0
 40
7.0
 40
8.0
 40
8.0
 40
8.0
 40
9.0
 40
9.0
 40
9.0
 40
10.0
 40
10.0
 40
10.0
 40
11.0
 40
11.0
 40
11.0
 40
12.0
 40
12.0
 40
12.0
 40
13.0
 40
13.0
 40
13.0
 40
14.0
 40
14.0
 40
14.0
 40
14.0
 10
-5.295973036024305
 20
0.3894680447048611
 10
-5.295973036024305
 20
1.358917914496527
 10
-4.5888671875
 20
1.456241861979166
 10
-4.267267523871526
 20
1.456241861979166
 10
-3.750675455729166
 20
1.456241861979166
 10
-3.335885959201388
 20
1.121895345052083
 10
-3.335885959201388
 20
0.5672349717881944
 10
-3.335885959201388
 20
0.0337619357638889
 10
-3.687285698784721
 20
-0.1905137803819444
 10
-4.131703016493054
 20
-0.4275363498263889
 10
-4.131703016493054
 20
-0.4275363498263889
 10
-4.440728081597221
 20
-0.59686279296875
 10
-4.440728081597221
 20
-0.59686279296875
 10
-4.847077094184027
 20
-0.8213107638888887
 10
-4.936132812499999
 20
-1.05419921875
 10
-4.953013780381944
 20
-1.168404134114583
 10
-4.953013780381944
 20
-1.168404134114583
 10
-3.335885959201388
 20
-1.168404134114583
 10
-3.335885959201388
 20
-1.168404134114583
 10
-3.335885959201388
 20
-1.168404134114583
 10
-3.335885959201388
 20
-1.519803873697916
 10
-3.335885959201388
 20
-1.519803873697916
 10
-3.335885959201388
 20
-1.519803873697916
 10
-5.37210964626736
 20
-1.519803873697916
 10
-5.37210964626736
 20
-1.519803873697916
 10
-5.350922309027777
 20
-0.9017537434895832
 10
-5.071525065104165
 20
-0.5715413411458333
 10
-4.673616536458332
 20
-0.3386528862847222
 10
-4.673616536458332
 20
-0.3386528862847222
 10
-4.279842122395832
 20
-0.11007080078125
 10
-4.279842122395832
 20
-0.11007080078125
 10
-3.962376573350693
 20
0.0720024956597222
 10
-3.733794487847221
 20
0.1946478949652778
 10
-3.733794487847221
 20
0.5841159396701389
 10
-3.733794487847221
 20
0.8213107638888887
 10
-3.886239963107638
 20
1.121895345052083
 10
-4.322216796874999
 20
1.121895345052083
 10
-4.885317654079861
 20
1.121895345052083
 10
-4.910639105902776
 20
0.59686279296875
 10
-4.923385959201388
 20
0.3894680447048611
 10
-4.923385959201388
 20
0.3894680447048611
 10
-5.295973036024305
 20
0.3894680447048611
 10
-5.295973036024305
 20
0.3894680447048611
 97
        0
 75
     2
 76
     1
 98
        1
 10
0.0
 20
0.0
  0
HATCH
  5
5CB
330
5C8
100
AcDbEntity
  8
LAYER_1
 62
     3
100
AcDbHatch
 10
0.0
 20
0.0
 30
0.0
210
0.0
220
0.0
230
1.0
  2
SOLID
 70
     1
 71
     0
 91
        1
 92
        1
 93
        1
 72
     4
 94
        3
 73
     0
 74
     0
 95
       17
 96
       13
 40
0.0
 40
0.0
 40
0.0
 40
0.0
 40
1.0
 40
1.0
 40
1.0
 40
2.0
 40
2.0
 40
2.0
 40
3.0
 40
3.0
 40
3.0
 40
4.0
 40
4.0
 40
4.0
 40
4.0
 10
-1.904965549045138
 20
-0.5376071506076389
 10
-1.904965549045138
 20
-0.5376071506076389
 10
-2.942111545138888
 20
-0.5376071506076389
 10
-2.942111545138888
 20
-0.5376071506076389
 10
-2.942111545138888
 20
-0.5376071506076389
 10
-2.942111545138888
 20
-0.15657958984375
 10
-2.942111545138888
 20
-0.15657958984375
 10
-2.942111545138888
 20
-0.15657958984375
 10
-1.904965549045138
 20
-0.15657958984375
 10
-1.904965549045138
 20
-0.15657958984375
 10
-1.904965549045138
 20
-0.15657958984375
 10
-1.904965549045138
 20
-0.5376071506076389
 10
-1.904965549045138
 20
-0.5376071506076389
 97
        0
 75
     2
 76
     1
 98
        1
 10
0.0
 20
0.0
  0
HATCH
  5
5CC
330
5C8
100
AcDbEntity
  8
LAYER_1
 62
     3
100
AcDbHatch
 10
0.0
 20
0.0
 30
0.0
210
0.0
220
0.0
230
1.0
  2
SOLID
 70
     1
 71
     0
 91
        1
 92
        1
 93
        1
 72
     4
 94
        3
 73
     0
 74
     0
 95
       26
 96
       22
 40
0.0
 40
0.0
 40
0.0
 40
0.0
 40
1.0
 40
1.0
 40
1.0
 40
2.0
 40
2.0
 40
2.0
 40
3.0
 40
3.0
 40
3.0
 40
4.0
 40
4.0
 40
4.0
 40
5.0
 40
5.0
 40
5.0
 40
6.0
 40
6.0
 40
6.0
 40
7.0
 40
7.0
 40
7.0
 40
7.0
 10
-0.1989542643229166
 20
-1.519803873697916
 10
-0.1989542643229166
 20
-1.519803873697916
 10
-0.59686279296875
 20
-1.519803873697916
 10
-0.59686279296875
 20
-1.519803873697916
 10
-0.59686279296875
 20
-1.519803873697916
 10
-0.59686279296875
 20
0.5927286783854166
 10
-0.59686279296875
 20
0.5927286783854166
 10
-0.59686279296875
 20
0.5927286783854166
 10
-1.291221788194444
 20
0.5927286783854166
 10
-1.291221788194444
 20
0.5927286783854166
 10
-1.291221788194444
 20
0.5927286783854166
 10
-1.291221788194444
 20
0.8890068901909721
 10
-1.291221788194444
 20
0.8890068901909721
 10
-0.8085639105902776
 20
0.922768825954861
 10
-0.6096096462673611
 20
0.9694498697916666
 10
-0.4910983615451389
 20
1.456241861979166
 10
-0.4910983615451389
 20
1.456241861979166
 10
-0.1989542643229166
 20
1.456241861979166
 10
-0.1989542643229166
 20
1.456241861979166
 10
-0.1989542643229166
 20
1.456241861979166
 10
-0.1989542643229166
 20
-1.519803873697916
 10
-0.1989542643229166
 20
-1.519803873697916
 97
        0
 75
     2
 76
     1
 98
        1
 10
0.0
 20
0.0
  0
HATCH
  5
5CD
330
5C8
100
AcDbEntity
  8
LAYER_1
 62
     3
100
AcDbHatch
 10
0.0
 20
0.0
 30
0.0
210
0.0
220
0.0
230
1.0
  2
SOLID
 70
     1
 71
     0
 91
        1
 92
        1
 93
        1
 72
     4
 94
        3
 73
     0
 74
     0
 95
       17
 96
       13
 40
0.0
 40
0.0
 40
0.0
 40
0.0
 40
1.0
 40
1.0
 40
1.0
 40
2.0
 40
2.0
 40
2.0
 40
3.0
 40
3.0
 40
3.0
 40
4.0
 40
4.0
 40
4.0
 40
4.0
 10
0.8466322157118055
 20
-1.60024685329861
 10
0.8466322157118055
 20
-1.60024685329861
 10
0.5629286024305556
 20
-1.60024685329861
 10
0.5629286024305556
 20
-1.60024685329861
 10
0.5629286024305556
 20
-1.60024685329861
 10
1.604380967881944
 20
1.60024685329861
 10
1.604380967881944
 20
1.60024685329861
 10
1.604380967881944
 20
1.60024685329861
 10
1.883778211805555
 20
1.60024685329861
 10
1.883778211805555
 20
1.60024685329861
 10
1.883778211805555
 20
1.60024685329861
 10
0.8466322157118055
 20
-1.60024685329861
 10
0.8466322157118055
 20
-1.60024685329861
 97
        0
 75
     2
 76
     1
 98
        1
 10
0.0
 20
0.0
  0
HATCH
  5
5CE
330
5C8
100
AcDbEntity
  8
LAYER_1
 62
     3
100
AcDbHatch
 10
0.0
 20
0.0
 30
0.0
210
0.0
220
0.0
230
1.0
  2
SOLID
 70
     1
 71
     0
 91
        2
 92
       16
 93
        1
 72
     4
 94
        3
 73
     0
 74
     0
 95
       17
 96
       13
 40
0.0
 40
0.0
 40
0.0
 40
0.0
 40
1.0
 40
1.0
 40
1.0
 40
2.0
 40
2.0
 40
2.0
 40
3.0
 40
3.0
 40
3.0
 40
4.0
 40
4.0
 40
4.0
 40
4.0
 10
2.260499403211805
 20
-0.4742173936631944
 10
2.260499403211805
 20
-0.4742173936631944
 10
3.217374674479166
 20
-0.4742173936631944
 10
3.217374674479166
 20
-0.4742173936631944
 10
3.217374674479166
 20
-0.4742173936631944
 10
3.217374674479166
 20
0.876260036892361
 10
3.217374674479166
 20
0.876260036892361
 10
3.217374674479166
 20
0.876260036892361
 10
3.208934190538194
 20
0.876260036892361
 10
3.208934190538194
 20
0.876260036892361
 10
3.208934190538194
 20
0.876260036892361
 10
2.260499403211805
 20
-0.4742173936631944
 10
2.260499403211805
 20
-0.4742173936631944
 97
        0
 92
        1
 93
        1
 72
     4
 94
        3
 73
     0
 74
     0
 95
       38
 96
       34
 40
0.0
 40
0.0
 40
0.0
 40
0.0
 40
1.0
 40
1.0
 40
1.0
 40
2.0
 40
2.0
 40
2.0
 40
3.0
 40
3.0
 40
3.0
 40
4.0
 40
4.0
 40
4.0
 40
5.0
 40
5.0
 40
5.0
 40
6.0
 40
6.0
 40
6.0
 40
7.0
 40
7.0
 40
7.0
 40
8.0
 40
8.0
 40
8.0
 40
9.0
 40
9.0
 40
9.0
 40
10.0
 40
10.0
 40
10.0
 40
11.0
 40
11.0
 40
11.0
 40
11.0
 10
3.589789496527777
 20
-0.7958170572916666
 10
3.589789496527777
 20
-0.7958170572916666
 10
3.589789496527777
 20
-1.519803873697916
 10
3.589789496527777
 20
-1.519803873697916
 10
3.589789496527777
 20
-1.519803873697916
 10
3.217374674479166
 20
-1.519803873697916
 10
3.217374674479166
 20
-1.519803873697916
 10
3.217374674479166
 20
-1.519803873697916
 10
3.217374674479166
 20
-0.7958170572916666
 10
3.217374674479166
 20
-0.7958170572916666
 10
3.217374674479166
 20
-0.7958170572916666
 10
1.917712402343749
 20
-0.7958170572916666
 10
1.917712402343749
 20
-0.7958170572916666
 10
1.917712402343749
 20
-0.7958170572916666
 10
1.917712402343749
 20
-0.4318427191840277
 10
1.917712402343749
 20
-0.4318427191840277
 10
1.917712402343749
 20
-0.4318427191840277
 10
3.28076443142361
 20
1.456241861979166
 10
3.28076443142361
 20
1.456241861979166
 10
3.28076443142361
 20
1.456241861979166
 10
3.589789496527777
 20
1.456241861979166
 10
3.589789496527777
 20
1.456241861979166
 10
3.589789496527777
 20
1.456241861979166
 10
3.589789496527777
 20
-0.4742173936631944
 10
3.589789496527777
 20
-0.4742173936631944
 10
3.589789496527777
 20
-0.4742173936631944
 10
4.025938585069444
 20
-0.4742173936631944
 10
4.025938585069444
 20
-0.4742173936631944
 10
4.025938585069444
 20
-0.4742173936631944
 10
4.025938585069444
 20
-0.7958170572916666
 10
4.025938585069444
 20
-0.7958170572916666
 10
4.025938585069444
 20
-0.7958170572916666
 10
3.589789496527777
 20
-0.7958170572916666
 10
3.589789496527777
 20
-0.7958170572916666
 97
        0
 75
     2
 76
     1
 98
        1
 10
0.0
 20
0.0
  0
HATCH
  5
5CF
330
5C8
100
AcDbEntity
  8
LAYER_1
 62
     3
100
AcDbHatch
 10
0.0
 20
0.0
 30
0.0
210
0.0
220
0.0
230
1.0
  2
SOLID
 70
     1
 71
     0
 91
        2
 92
        1
 93
        1
 72
     4
 94
        3
 73
     0
 74
     0
 95
       17
 96
       13
 40
0.0
 40
0.0
 40
0.0
 40
0.0
 40
1.0
 40
1.0
 40
1.0
 40
2.0
 40
2.0
 40
2.0
 40
3.0
 40
3.0
 40
3.0
 40
4.0
 40
4.0
 40
4.0
 40
4.0
 10
5.063084581163193
 20
1.519803873697916
 10
5.063084581163193
 20
1.519803873697916
 10
5.37210964626736
 20
1.519803873697916
 10
5.37210964626736
 20
1.519803873697916
 10
5.37210964626736
 20
1.519803873697916
 10
5.37210964626736
 20
0.440283203125
 10
5.37210964626736
 20
0.440283203125
 10
5.37210964626736
 20
0.440283203125
 10
5.063084581163193
 20
0.440283203125
 10
5.063084581163193
 20
0.440283203125
 10
5.063084581163193
 20
0.440283203125
 10
5.063084581163193
 20
1.519803873697916
 10
5.063084581163193
 20
1.519803873697916
 97
        0
 92
        1
 93
        1
 72
     4
 94
        3
 73
     0
 74
     0
 95
       17
 96
       13
 40
0.0
 40
0.0
 40
0.0
 40
0.0
 40
1.0
 40
1.0
 40
1.0
 40
2.0
 40
2.0
 40
2.0
 40
3.0
 40
3.0
 40
3.0
 40
4.0
 40
4.0
 40
4.0
 40
4.0
 10
4.461915418836805
 20
1.519803873697916
 10
4.461915418836805
 20
1.519803873697916
 10
4.770940483940972
 20
1.519803873697916
 10
4.770940483940972
 20
1.519803873697916
 10
4.770940483940972
 20
1.519803873697916
 10
4.770940483940972
 20
0.440283203125
 10
4.770940483940972
 20
0.440283203125
 10
4.770940483940972
 20
0.440283203125
 10
4.461915418836805
 20
0.440283203125
 10
4.461915418836805
 20
0.440283203125
 10
4.461915418836805
 20
0.440283203125
 10
4.461915418836805
 20
1.519803873697916
 10
4.461915418836805
 20
1.519803873697916
 97
        0
 75
     2
 76
     1
 98
        1
 10
0.0
 20
0.0
  0
ENDBLK
  5
5D0
330
5C8
100
AcDbEntity
  8
LAYER_1
100
AcDbBlockEnd
  0
BLOCK
  5
5D2
330
5D1
100
AcDbEntity
  8
LAYER_1
 62
     7
100
AcDbBlockBegin
  2
AI9-BLK8
 70
     0
 10
0.0
 20
0.0
 30
0.0
  3
AI9-BLK8
  1

  0
POLYLINE
  5
5D3
330
5D1
100
AcDbEntity
  8
LAYER_1
 62
     7
100
AcDb2dPolyline
 66
     1
 10
0.0
 20
0.0
 30
0.0
 70
     1
  0
VERTEX
  5
5D4
330
5D3
100
AcDbEntity
  8
LAYER_1
 62
     7
100
AcDbVertex
100
AcDb2dVertex
 10
27.78133612738715
 20
-9.488137478298609
 30
0.0
  0
VERTEX
  5
5D5
330
5D3
100
AcDbEntity
  8
LAYER_1
 62
     7
100
AcDbVertex
100
AcDb2dVertex
 10
-27.78133612738715
 20
-9.488137478298609
 30
0.0
  0
VERTEX
  5
5D6
330
5D3
100
AcDbEntity
  8
LAYER_1
 62
     7
100
AcDbVertex
100
AcDb2dVertex
 10
-27.78133612738715
 20
-4.72563747829861
 30
0.0
  0
VERTEX
  5
5D7
330
5D3
100
AcDbEntity
  8
LAYER_1
 62
     7
100
AcDbVertex
100
AcDb2dVertex
 10
27.78133612738715
 20
-4.72563747829861
 30
0.0
  0
SEQEND
  5
5D8
330
5D3
100
AcDbEntity
  8
LAYER_1
 62
     7
  0
POLYLINE
  5
5D9
330
5D1
100
AcDbEntity
  8
LAYER_1
 62
     7
100
AcDb2dPolyline
 66
     1
 10
0.0
 20
0.0
 30
0.0
 70
     1
  0
VERTEX
  5
5DA
330
5D9
100
AcDbEntity
  8
LAYER_1
 62
     7
100
AcDbVertex
100
AcDb2dVertex
 10
-24.60633612738715
 20
-4.740106879340276
 30
0.0
  0
VERTEX
  5
5DB
330
5D9
100
AcDbEntity
  8
LAYER_1
 62
     7
100
AcDbVertex
100
AcDb2dVertex
 10
24.60633612738715
 20
-4.740106879340276
 30
0.0
  0
VERTEX
  5
5DC
330
5D9
100
AcDbEntity
  8
LAYER_1
 62
     7
100
AcDbVertex
100
AcDb2dVertex
 10
24.60633612738715
 20
-1.330151367187499
 30
0.0
  0
VERTEX
  5
5DD
330
5D9
100
AcDbEntity
  8
LAYER_1
 62
     7
100
AcDbVertex
100
AcDb2dVertex
 10
-24.60633612738715
 20
-1.330151367187499
 30
0.0
  0
SEQEND
  5
5DE
330
5D9
100
AcDbEntity
  8
LAYER_1
 62
     7
  0
SPLINE
  5
5DF
330
5D1
100
AcDbEntity
  8
LAYER_1
 62
     7
100
AcDbSpline
210
0.0
220
0.0
230
1.0
 70
    11
 71
     3
 72
    23
 73
    19
 74
     0
 42
0.0000000001
 43
0.0000000001
 40
0.0
 40
0.0
 40
0.0
 40
0.0
 40
1.0
 40
1.0
 40
1.0
 40
2.0
 40
2.0
 40
2.0
 40
3.0
 40
3.0
 40
3.0
 40
4.0
 40
4.0
 40
4.0
 40
5.0
 40
5.0
 40
5.0
 40
6.0
 40
6.0
 40
6.0
 40
6.0
 10
20.63758612738715
 20
2.464276801215277
 30
0.0
 10
20.63758612738715
 20
0.6142605251736111
 30
0.0
 10
22.30983547634548
 20
-1.330151367187499
 30
0.0
 10
24.60633612738715
 20
-1.330151367187499
 30
0.0
 10
22.61851603190104
 20
-1.330151367187499
 30
0.0
 10
-22.9273688422309
 20
-1.330151367187499
 30
0.0
 10
-24.60633612738715
 20
-1.330151367187499
 30
0.0
 10
-22.49294230143229
 20
-1.330151367187499
 30
0.0
 10
-20.64085896809896
 20
0.1732883029513889
 30
0.0
 10
-20.63758612738715
 20
2.464276801215277
 30
0.0
 10
-20.6360358344184
 20
3.581176757812499
 30
0.0
 10
-20.63758612738715
 20
9.488137478298609
 30
0.0
 10
-20.63758612738715
 20
9.488137478298609
 30
0.0
 10
-20.63758612738715
 20
9.488137478298609
 30
0.0
 10
20.63758612738715
 20
9.488137478298609
 30
0.0
 10
20.63758612738715
 20
9.488137478298609
 30
0.0
 10
20.63758612738715
 20
9.488137478298609
 30
0.0
 10
20.63758612738715
 20
3.581865776909721
 30
0.0
 10
20.63758612738715
 20
2.464276801215277
 30
0.0
  0
ENDBLK
  5
5E0
330
5D1
100
AcDbEntity
  8
LAYER_1
100
AcDbBlockEnd
  0
BLOCK
  5
5E2
330
5E1
100
AcDbEntity
  8
LAYER_1
 62
     7
100
AcDbBlockBegin
  2
AI9-BLK9
 70
     0
 10
0.0
 20
0.0
 30
0.0
  3
AI9-BLK9
  1

  0
CIRCLE
  5
5E3
330
5E1
100
AcDbEntity
  8
LAYER_1
 62
     7
100
AcDbCircle
 10
0.0
 20
0.0
 30
0.0
 40
27.78133612738715
  0
CIRCLE
  5
5E4
330
5E1
100
AcDbEntity
  8
LAYER_1
 62
     7
100
AcDbCircle
 10
-0.0000861273871528
 20
0.0001722547743056
 30
0.0
 40
19.05
  0
CIRCLE
  5
5E5
330
5E1
100
AcDbEntity
  8
LAYER_1
 62
     7
100
AcDbCircle
 10
0.0
 20
0.0001722547743056
 30
0.0
 40
20.63758612738715
  0
CIRCLE
  5
5E6
330
5E1
100
AcDbEntity
  8
LAYER_1
 62
     7
100
AcDbCircle
 10
0.0
 20
0.0
 30
0.0
 40
24.60633612738715
  0
ENDBLK
  5
5E7
330
5E1
100
AcDbEntity
  8
LAYER_1
100
AcDbBlockEnd
  0
BLOCK
  5
63E
330
633
100
AcDbEntity
  8
0
 62
     3
100
AcDbBlockBegin
  2
*D16
 70
     1
 10
0.0
 20
0.0
 30
0.0
  3
*D16
  1

  0
LINE
  5
760
330
633
100
AcDbEntity
  8
ADPDIM
 62
     0
370
    -2
100
AcDbLine
 10
15.36915799123699
 20
19.6036845087701
 30
0.0
 11
15.36915799123699
 21
21.01860365482554
 31
0.0
  0
LINE
  5
761
330
633
100
AcDbEntity
  8
ADPDIM
 62
     0
370
    -2
100
AcDbLine
 10
13.11915799123699
 20
19.4318773559915
 30
0.0
 11
13.11915799123699
 21
21.01860365482554
 31
0.0
  0
LINE
  5
762
330
633
100
AcDbEntity
  8
ADPDIM
 62
     0
370
    -2
100
AcDbLine
 10
15.36915799123699
 20
20.83860365482554
 30
0.0
 11
14.63999132457033
 21
20.83860365482554
 31
0.0
  0
LINE
  5
763
330
633
100
AcDbEntity
  8
ADPDIM
 62
     0
370
    -2
100
AcDbLine
 10
13.11915799123699
 20
20.83860365482554
 30
0.0
 11
13.84832465790366
 21
20.83860365482554
 31
0.0
  0
LINE
  5
764
330
633
100
AcDbEntity
  8
ADPDIM
 62
     0
370
    -2
100
AcDbLine
 10
12.99415799123699
 20
20.71360365482554
 30
0.0
 11
13.24415799123699
 21
20.96360365482554
 31
0.0
  0
LINE
  5
765
330
633
100
AcDbEntity
  8
ADPDIM
 62
     0
370
    -2
100
AcDbLine
 10
15.24415799123699
 20
20.71360365482554
 30
0.0
 11
15.49415799123699
 21
20.96360365482554
 31
0.0
  0
MTEXT
  5
766
330
633
100
AcDbEntity
  8
ADPDIM
 62
     0
100
AcDbMText
 10
14.24415799123699
 20
20.83860365482554
 30
0.0
 40
0.125
 41
0.0
 71
     5
 72
     1
  1
\A1;2 1/4
 73
     1
 44
1.0
1001
ACAD
1000
MTEXTBEGIN
1070
    73
1070
     1
1070
    44
1040
1.0
1070
    74
1070
     0
1000
MTEXTEND
  0
POINT
  5
767
330
633
100
AcDbEntity
  8
DEFPOINTS
 62
     0
100
AcDbPoint
 10
15.36915799123699
 20
19.54118450877009
 30
0.0
  0
POINT
  5
768
330
633
100
AcDbEntity
  8
DEFPOINTS
 62
     0
100
AcDbPoint
 10
13.11915799123699
 20
19.3693773559915
 30
0.0
  0
POINT
  5
769
330
633
100
AcDbEntity
  8
DEFPOINTS
 62
     0
100
AcDbPoint
 10
13.11915799123699
 20
20.83860365482554
 30
0.0
  0
ENDBLK
  5
63F
330
633
100
AcDbEntity
  8
0
 62
     3
100
AcDbBlockEnd
  0
BLOCK
  5
67A
330
66F
100
AcDbEntity
  8
0
 62
     3
100
AcDbBlockBegin
  2
*D18
 70
     1
 10
0.0
 20
0.0
 30
0.0
  3
*D18
  1

  0
LINE
  5
74C
330
66F
100
AcDbEntity
  8
ADPDIM
 62
     0
370
    -2
100
AcDbLine
 10
13.47244480281659
 20
16.67346961284136
 30
0.0
 11
13.47244480281659
 21
16.13627415343479
 31
0.0
  0
LINE
  5
74D
330
66F
100
AcDbEntity
  8
ADPDIM
 62
     0
370
    -2
100
AcDbLine
 10
14.97244480281659
 20
16.67346961284136
 30
0.0
 11
14.97244480281659
 21
16.13627415343479
 31
0.0
  0
LINE
  5
74E
330
66F
100
AcDbEntity
  8
ADPDIM
 62
     0
370
    -2
100
AcDbLine
 10
13.47244480281659
 20
16.31627415343479
 30
0.0
 11
13.84744480281659
 21
16.31627415343479
 31
0.0
  0
LINE
  5
74F
330
66F
100
AcDbEntity
  8
ADPDIM
 62
     0
370
    -2
100
AcDbLine
 10
14.97244480281659
 20
16.31627415343479
 30
0.0
 11
14.59744480281659
 21
16.31627415343479
 31
0.0
  0
LINE
  5
750
330
66F
100
AcDbEntity
  8
ADPDIM
 62
     0
370
    -2
100
AcDbLine
 10
14.84744480281659
 20
16.1912741534348
 30
0.0
 11
15.09744480281659
 21
16.44127415343479
 31
0.0
  0
LINE
  5
751
330
66F
100
AcDbEntity
  8
ADPDIM
 62
     0
370
    -2
100
AcDbLine
 10
13.34744480281659
 20
16.1912741534348
 30
0.0
 11
13.59744480281659
 21
16.44127415343479
 31
0.0
  0
MTEXT
  5
752
330
66F
100
AcDbEntity
  8
ADPDIM
 62
     0
100
AcDbMText
 10
14.22244480281659
 20
16.31627415343479
 30
0.0
 40
0.125
 41
0.0
 71
     5
 72
     1
  1
\A1;1 1/2
 73
     1
 44
1.0
1001
ACAD
1000
MTEXTBEGIN
1070
    73
1070
     1
1070
    44
1040
1.0
1070
    74
1070
     0
1000
MTEXTEND
  0
POINT
  5
753
330
66F
100
AcDbEntity
  8
DEFPOINTS
 62
     0
100
AcDbPoint
 10
13.47244480281659
 20
16.73596961284136
 30
0.0
  0
POINT
  5
754
330
66F
100
AcDbEntity
  8
DEFPOINTS
 62
     0
100
AcDbPoint
 10
14.97244480281659
 20
16.73596961284136
 30
0.0
  0
POINT
  5
755
330
66F
100
AcDbEntity
  8
DEFPOINTS
 62
     0
100
AcDbPoint
 10
14.97244480281659
 20
16.31627415343479
 30
0.0
  0
ENDBLK
  5
67B
330
66F
100
AcDbEntity
  8
0
 62
     3
100
AcDbBlockEnd
  0
BLOCK
  5
6B0
330
6A5
100
AcDbEntity
  8
0
 62
     3
100
AcDbBlockBegin
  2
*D19
 70
     1
 10
0.0
 20
0.0
 30
0.0
  3
*D19
  1

  0
LINE
  5
742
330
6A5
100
AcDbEntity
  8
ADPDIM
 62
     0
370
    -2
100
AcDbLine
 10
13.39782962155267
 20
17.67751983407269
 30
0.0
 11
13.39782962155267
 21
17.95129863406842
 31
0.0
  0
LINE
  5
743
330
6A5
100
AcDbEntity
  8
ADPDIM
 62
     0
370
    -2
100
AcDbLine
 10
15.02282962155266
 20
17.67751983407269
 30
0.0
 11
15.02282962155266
 21
17.95129863406842
 31
0.0
  0
LINE
  5
744
330
6A5
100
AcDbEntity
  8
ADPDIM
 62
     0
370
    -2
100
AcDbLine
 10
13.39782962155267
 20
17.77129863406842
 30
0.0
 11
13.81449628821933
 21
17.77129863406842
 31
0.0
  0
LINE
  5
745
330
6A5
100
AcDbEntity
  8
ADPDIM
 62
     0
370
    -2
100
AcDbLine
 10
15.02282962155266
 20
17.77129863406842
 30
0.0
 11
14.606162954886
 21
17.77129863406842
 31
0.0
  0
LINE
  5
746
330
6A5
100
AcDbEntity
  8
ADPDIM
 62
     0
370
    -2
100
AcDbLine
 10
14.89782962155266
 20
17.64629863406842
 30
0.0
 11
15.14782962155267
 21
17.89629863406842
 31
0.0
  0
LINE
  5
747
330
6A5
100
AcDbEntity
  8
ADPDIM
 62
     0
370
    -2
100
AcDbLine
 10
13.27282962155267
 20
17.64629863406842
 30
0.0
 11
13.52282962155266
 21
17.89629863406842
 31
0.0
  0
MTEXT
  5
748
330
6A5
100
AcDbEntity
  8
ADPDIM
 62
     0
100
AcDbMText
 10
14.21032962155267
 20
17.77129863406842
 30
0.0
 40
0.125
 41
0.0
 71
     5
 72
     1
  1
\A1;1 5/8
 73
     1
 44
1.0
1001
ACAD
1000
MTEXTBEGIN
1070
    73
1070
     1
1070
    44
1040
1.0
1070
    74
1070
     0
1000
MTEXTEND
  0
POINT
  5
749
330
6A5
100
AcDbEntity
  8
DEFPOINTS
 62
     0
100
AcDbPoint
 10
13.39782962155267
 20
17.61501983407269
 30
0.0
  0
POINT
  5
74A
330
6A5
100
AcDbEntity
  8
DEFPOINTS
 62
     0
100
AcDbPoint
 10
15.02282962155266
 20
17.61501983407269
 30
0.0
  0
POINT
  5
74B
330
6A5
100
AcDbEntity
  8
DEFPOINTS
 62
     0
100
AcDbPoint
 10
15.02282962155266
 20
17.77129863406842
 30
0.0
  0
ENDBLK
  5
6B1
330
6A5
100
AcDbEntity
  8
0
 62
     3
100
AcDbBlockEnd
  0
BLOCK
  5
6BE
330
6B3
100
AcDbEntity
  8
0
 62
     3
100
AcDbBlockBegin
  2
*D20
 70
     1
 10
0.0
 20
0.0
 30
0.0
  3
*D20
  1

  0
LINE
  5
738
330
6B3
100
AcDbEntity
  8
ADPDIM
 62
     0
370
    -2
100
AcDbLine
 10
15.31674278805807
 20
16.75963763930063
 30
0.0
 11
15.93820369780024
 21
16.75963763930063
 31
0.0
  0
LINE
  5
739
330
6B3
100
AcDbEntity
  8
ADPDIM
 62
     0
370
    -2
100
AcDbLine
 10
15.02699252829612
 20
17.50963763930063
 30
0.0
 11
15.93820369780024
 21
17.50963763930063
 31
0.0
  0
LINE
  5
73A
330
6B3
100
AcDbEntity
  8
ADPDIM
 62
     0
370
    -2
100
AcDbLine
 10
15.75820369780024
 20
16.75963763930063
 30
0.0
 11
15.75820369780024
 21
16.50963763930063
 31
0.0
  0
LINE
  5
73B
330
6B3
100
AcDbEntity
  8
ADPDIM
 62
     0
370
    -2
100
AcDbLine
 10
15.75820369780024
 20
17.50963763930063
 30
0.0
 11
15.75820369780024
 21
17.75963763930063
 31
0.0
  0
LINE
  5
73C
330
6B3
100
AcDbEntity
  8
ADPDIM
 62
     0
370
    -2
100
AcDbLine
 10
15.88320369780024
 20
17.38463763930063
 30
0.0
 11
15.63320369780024
 21
17.63463763930063
 31
0.0
  0
LINE
  5
73D
330
6B3
100
AcDbEntity
  8
ADPDIM
 62
     0
370
    -2
100
AcDbLine
 10
15.88320369780024
 20
16.63463763930063
 30
0.0
 11
15.63320369780024
 21
16.88463763930063
 31
0.0
  0
MTEXT
  5
73E
330
6B3
100
AcDbEntity
  8
ADPDIM
 62
     0
100
AcDbMText
 10
15.75820369780024
 20
17.13463763930063
 30
0.0
 40
0.125
 41
0.0
 71
     5
 72
     1
  1
\A1;3/4
 11
0.0000000000000001
 21
1.0
 31
0.0
 73
     1
 44
1.0
1001
ACAD
1000
MTEXTBEGIN
1070
    73
1070
     1
1070
    44
1040
1.0
1070
    74
1070
     0
1000
MTEXTEND
  0
POINT
  5
73F
330
6B3
100
AcDbEntity
  8
DEFPOINTS
 62
     0
100
AcDbPoint
 10
15.25424278805807
 20
16.75963763930063
 30
0.0
  0
POINT
  5
740
330
6B3
100
AcDbEntity
  8
DEFPOINTS
 62
     0
100
AcDbPoint
 10
14.96449252829612
 20
17.50963763930063
 30
0.0
  0
POINT
  5
741
330
6B3
100
AcDbEntity
  8
DEFPOINTS
 62
     0
100
AcDbPoint
 10
15.75820369780024
 20
17.50963763930063
 30
0.0
  0
ENDBLK
  5
6BF
330
6B3
100
AcDbEntity
  8
0
 62
     3
100
AcDbBlockEnd
  0
ENDSEC
  0
SECTION
  2
ENTITIES
  0
TEXT
  5
217
330
18
100
AcDbEntity
  8
ADPDIM
100
AcDbText
 10
9.281492178784148
 20
14.6929402364415
 30
0.0
 40
0.09375
  1
J U L I U S  B L U M  &  C O . ,  I N C .      ( 8 0 0 )  5 2 6 - 6 2 9 3        W W W . J U L I U S B L U M . C O M        P A R T  N o .  3 4 7
 41
1.25
  7
ARIAL_WIDE
 72
     1
 11
14.10752283192193
 21
14.78669023644149
 31
0.0
100
AcDbText
 73
     3
  0
LINE
  5
610
330
18
100
AcDbEntity
  8
ADP2DETAIL
  6
AI9-LType1
100
AcDbLine
 10
14.96212922712934
 20
17.47811114454968
 30
0.0
 11
14.96212922712934
 21
16.7754084054731
 31
0.0
  0
LINE
  5
611
330
18
100
AcDbEntity
  8
ADP2DETAIL
  6
AI9-LType1
100
AcDbLine
 10
13.47469998647294
 20
17.51279631328936
 30
0.0
 11
13.47469998647294
 21
16.7754084054731
 31
0.0
  0
INSERT
  5
624
330
18
100
AcDbEntity
  8
LAYER_1
 62
     7
100
AcDbBlockReference
  2
AI9-BLK8
 10
14.22547969211907
 20
17.13663413073919
 30
0.0
 41
0.0390149476317732
 42
0.0390149476317732
 43
0.0390149476317718
  0
INSERT
  5
625
330
18
100
AcDbEntity
  8
LAYER_1
 62
     7
100
AcDbBlockReference
  2
AI9-BLK9
 10
14.25736511939614
 20
19.35783369929924
 30
0.0
 41
0.0405599663708771
 42
0.0405599663708771
 43
0.0405599663708756
  0
DIMENSION
  5
632
330
18
100
AcDbEntity
  8
ADPDIM
 62
     3
100
AcDbDimension
  2
*D16
 10
13.11915799123699
 20
20.83860365482554
 30
0.0
 11
14.24415799123699
 21
20.83860365482554
 31
0.0
 70
   160
 71
     5
 42
2.25
  3
STANDARD
100
AcDbAlignedDimension
 13
15.36915799123699
 23
19.54118450877009
 33
0.0
 14
13.11915799123699
 24
19.3693773559915
 34
0.0
100
AcDbRotatedDimension
1001
ACAD
1000
DSTYLE
1002
{
1070
   276
1070
     2
1070
   277
1070
     5
1070
    41
1040
0.125
1070
    73
1070
     0
1070
    74
1070
     0
1070
    78
1070
     3
1070
   140
1040
0.125
1070
   141
1040
0.1875
1070
   142
1040
0.125
1070
   147
1040
0.125
1070
   171
1070
     1
1002
}
  0
DIMENSION
  5
66E
330
18
100
AcDbEntity
  8
ADPDIM
 62
     3
100
AcDbDimension
  2
*D18
 10
14.97244480281659
 20
16.31627415343479
 30
0.0
 11
14.22244480281659
 21
16.31627415343479
 31
0.0
 70
   160
 71
     5
 42
1.5
  3
STANDARD
100
AcDbAlignedDimension
 13
13.47244480281659
 23
16.73596961284136
 33
0.0
 14
14.97244480281659
 24
16.73596961284136
 34
0.0
100
AcDbRotatedDimension
1001
ACAD
1000
DSTYLE
1002
{
1070
   276
1070
     2
1070
   277
1070
     5
1070
    41
1040
0.125
1070
    73
1070
     0
1070
    74
1070
     0
1070
    78
1070
     3
1070
   140
1040
0.125
1070
   141
1040
0.1875
1070
   142
1040
0.125
1070
   147
1040
0.125
1070
   171
1070
     1
1002
}
  0
DIMENSION
  5
6A4
330
18
100
AcDbEntity
  8
ADPDIM
 62
     3
100
AcDbDimension
  2
*D19
 10
15.02282962155266
 20
17.77129863406842
 30
0.0
 11
14.21032962155267
 21
17.77129863406842
 31
0.0
 70
    32
 71
     5
 42
1.625
  3
STANDARD
100
AcDbAlignedDimension
 13
13.39782962155267
 23
17.61501983407269
 33
0.0
 14
15.02282962155266
 24
17.61501983407269
 34
0.0
100
AcDbRotatedDimension
1001
ACAD
1000
DSTYLE
1002
{
1070
   276
1070
     2
1070
   277
1070
     5
1070
    41
1040
0.125
1070
    73
1070
     0
1070
    74
1070
     0
1070
    78
1070
     3
1070
   140
1040
0.125
1070
   141
1040
0.1875
1070
   142
1040
0.125
1070
   147
1040
0.125
1070
   171
1070
     1
1002
}
  0
DIMENSION
  5
6B2
330
18
100
AcDbEntity
  8
ADPDIM
 62
     3
100
AcDbDimension
  2
*D20
 10
15.75820369780024
 20
17.50963763930063
 30
0.0
 11
15.75820369780024
 21
17.13463763930063
 31
0.0
 70
    32
 71
     5
 42
0.75
  3
STANDARD
100
AcDbAlignedDimension
 13
15.25424278805807
 23
16.75963763930063
 33
0.0
 14
14.96449252829612
 24
17.50963763930063
 34
0.0
 50
90.0
100
AcDbRotatedDimension
1001
ACAD
1000
DSTYLE
1002
{
1070
   276
1070
     2
1070
   277
1070
     5
1070
    41
1040
0.125
1070
    73
1070
     0
1070
    74
1070
     0
1070
    78
1070
     3
1070
   140
1040
0.125
1070
   141
1040
0.1875
1070
   142
1040
0.125
1070
   147
1040
0.125
1070
   171
1070
     1
1002
}
  0
ENDSEC
  0
SECTION
  2
OBJECTS
  0
DICTIONARY
  5
C
330
0
100
AcDbDictionary
281
     1
  3
ACAD_COLOR
350
3CB
  3
ACAD_GROUP
350
D
  3
ACAD_LAYOUT
350
210
  3
ACAD_MATERIAL
350
3B6
  3
ACAD_MLINESTYLE
350
E
  3
ACAD_PLOTSETTINGS
350
211
  3
ACAD_PLOTSTYLENAME
350
20E
  3
ACAD_TABLESTYLE
350
3CC
  3
ACAD_VISUALSTYLE
350
3BA
  3
AcDbVariableDictionary
350
271
  3
DWGPROPS
350
782
  0
DICTIONARY
  5
45D
330
8
100
AcDbDictionary
280
     1
281
     1
  0
DICTIONARY
  5
26B
330
18
100
AcDbDictionary
280
     1
281
     1
  3
ACAD_LAYOUTSELFREF
360
3B0
  0
DICTIONARY
  5
269
330
15
100
AcDbDictionary
280
     1
281
     1
  3
ACAD_LAYOUTSELFREF
360
3AF
  0
DICTIONARY
  5
3CB
102
{ACAD_REACTORS
330
C
102
}
330
C
100
AcDbDictionary
281
     1
  0
DICTIONARY
  5
D
102
{ACAD_REACTORS
330
C
102
}
330
C
100
AcDbDictionary
281
     1
  0
DICTIONARY
  5
210
102
{ACAD_REACTORS
330
C
102
}
330
C
100
AcDbDictionary
281
     1
  3
Layout1
350
213
  3
Model
350
212
  0
DICTIONARY
  5
3B6
102
{ACAD_REACTORS
330
C
102
}
330
C
100
AcDbDictionary
281
     1
  3
ByBlock
350
3B8
  3
ByLayer
350
3B7
  3
Global
350
3B9
  0
DICTIONARY
  5
E
102
{ACAD_REACTORS
330
C
102
}
330
C
100
AcDbDictionary
281
     1
  3
STANDARD
350
1B
  0
DICTIONARY
  5
211
102
{ACAD_REACTORS
330
C
102
}
330
C
100
AcDbDictionary
281
     1
  0
ACDBDICTIONARYWDFLT
  5
20E
102
{ACAD_REACTORS
330
C
102
}
330
C
100
AcDbDictionary
281
     1
  3
Normal
350
20F
100
AcDbDictionaryWithDefault
340
20F
  0
DICTIONARY
  5
3CC
102
{ACAD_REACTORS
330
C
102
}
330
C
100
AcDbDictionary
281
     1
  3
Standard
350
3CD
  0
DICTIONARY
  5
3BA
102
{ACAD_REACTORS
330
C
102
}
330
C
100
AcDbDictionary
281
     1
  3
2dWireframe
350
3C0
  3
3D Hidden
350
3C2
  3
3dWireframe
350
3C1
  3
Basic
350
3BF
  3
Brighten
350
3C6
  3
ColorChange
350
3CA
  3
Conceptual
350
3C3
  3
Dim
350
3C5
  3
Facepattern
350
3C9
  3
Flat
350
3BB
  3
FlatWithEdges
350
3BC
  3
Gouraud
350
3BD
  3
GouraudWithEdges
350
3BE
  3
Linepattern
350
3C8
  3
Realistic
350
3C4
  3
Thicken
350
3C7
  0
DICTIONARY
  5
271
102
{ACAD_REACTORS
330
C
102
}
330
C
100
AcDbDictionary
281
     1
  3
CTABLESTYLE
350
473
  3
DIMASSOC
350
272
  3
INDEXCTL
350
475
  3
SORTENTS
350
474
  0
XRECORD
  5
782
102
{ACAD_REACTORS
330
C
102
}
330
C
100
AcDbXrecord
280
     1
  1
DWGPROPS COOKIE
  2

  3

  4

  6

  7

  8
Yu Hu
  9

300
=
301
=
302
=
303
=
304
=
305
=
306
=
307
=
308
=
309
=
 40
0.0841841319444445
 41
2450374.572570209
 42
2453954.624533866
  1

 90
        0
  0
XRECORD
  5
3B0
102
{ACAD_REACTORS
330
26B
102
}
330
26B
100
AcDbXrecord
280
     1
340
18
  0
XRECORD
  5
3AF
102
{ACAD_REACTORS
330
269
102
}
330
269
100
AcDbXrecord
280
     1
340
15
  0
LAYOUT
  5
213
102
{ACAD_XDICTIONARY
360
785
102
}
102
{ACAD_REACTORS
330
210
102
}
330
210
100
AcDbPlotSettings
  1

  2
Fax
  4

  6

 40
0.0
 41
0.0
 42
0.0
 43
0.0
 44
0.0
 45
0.0
 46
0.0
 47
0.0
 48
0.0
 49
0.0
140
0.0
141
0.0
142
1.0
143
1.0
 70
   688
 72
     0
 73
     0
 74
     5
  7
Default R14 pen assignments.ctb
 75
    16
147
1.0
148
0.0
149
0.0
100
AcDbLayout
  1
Layout1
 70
     1
 71
     1
 10
0.0
 20
0.0
 11
12.0
 21
9.0
 12
0.0
 22
0.0
 32
0.0
 14
1.000000000000000E+20
 24
1.000000000000000E+20
 34
1.000000000000000E+20
 15
-1.000000000000000E+20
 25
-1.000000000000000E+20
 35
-1.000000000000000E+20
146
0.0
 13
0.0
 23
0.0
 33
0.0
 16
1.0
 26
0.0
 36
0.0
 17
0.0
 27
1.0
 37
0.0
 76
     0
330
15
  0
LAYOUT
  5
212
102
{ACAD_XDICTIONARY
360
783
102
}
102
{ACAD_REACTORS
330
210
102
}
330
210
100
AcDbPlotSettings
  1

  2
Fax
  4

  6

 40
0.0
 41
0.0
 42
0.0
 43
0.0
 44
0.0
 45
0.0
 46
0.0
 47
0.0
 48
0.0
 49
0.0
140
0.0
141
0.0
142
1.0
143
1.0
 70
  1712
 72
     0
 73
     0
 74
     0
  7
Default R14 pen assignments.ctb
 75
     0
147
1.0
148
0.0
149
0.0
100
AcDbLayout
  1
Model
 70
     1
 71
     0
 10
0.0
 20
0.0
 11
12.0
 21
9.0
 12
0.0
 22
0.0
 32
0.0
 14
0.0
 24
0.0
 34
0.0
 15
0.0
 25
0.0
 35
0.0
146
0.0
 13
0.0
 23
0.0
 33
0.0
 16
1.0
 26
0.0
 36
0.0
 17
0.0
 27
1.0
 37
0.0
 76
     0
330
18
331
38A
  0
MATERIAL
  5
3B8
102
{ACAD_XDICTIONARY
360
789
102
}
102
{ACAD_REACTORS
330
3B6
102
}
330
3B6
100
AcDbMaterial
  1
ByBlock
  0
MATERIAL
  5
3B7
102
{ACAD_XDICTIONARY
360
787
102
}
102
{ACAD_REACTORS
330
3B6
102
}
330
3B6
100
AcDbMaterial
  1
ByLayer
  0
MATERIAL
  5
3B9
102
{ACAD_XDICTIONARY
360
78B
102
}
102
{ACAD_REACTORS
330
3B6
102
}
330
3B6
100
AcDbMaterial
  1
Global
  0
MLINESTYLE
  5
1B
102
{ACAD_REACTORS
330
E
102
}
330
E
100
AcDbMlineStyle
  2
STANDARD
 70
     0
  3

 62
     0
 51
90.0
 52
90.0
 71
     2
 49
0.5
 62
   256
  6
BYLAYER
 49
-0.5
 62
   256
  6
BYLAYER
  0
ACDBPLACEHOLDER
  5
20F
102
{ACAD_REACTORS
330
20E
102
}
330
20E
  0
TABLESTYLE
  5
3CD
102
{ACAD_XDICTIONARY
360
78D
102
}
102
{ACAD_REACTORS
330
3CC
102
}
330
3CC
100
AcDbTableStyle
  3
Standard
 70
     0
 71
     0
 40
0.06
 41
0.06
280
     0
281
     0
  7
STANDARD
140
0.18
170
     2
 62
     0
 63
     7
283
     0
274
    -2
284
     1
 64
     0
275
    -2
285
     1
 65
     0
276
    -2
286
     1
 66
     0
277
    -2
287
     1
 67
     0
278
    -2
288
     1
 68
     0
279
    -2
289
     1
 69
     0
  7
STANDARD
140
0.25
170
     5
 62
     0
 63
     7
283
     0
274
    -2
284
     1
 64
     0
275
    -2
285
     1
 65
     0
276
    -2
286
     1
 66
     0
277
    -2
287
     1
 67
     0
278
    -2
288
     1
 68
     0
279
    -2
289
     1
 69
     0
  7
STANDARD
140
0.18
170
     5
 62
     0
 63
     7
283
     0
274
    -2
284
     1
 64
     0
275
    -2
285
     1
 65
     0
276
    -2
286
     1
 66
     0
277
    -2
287
     1
 67
     0
278
    -2
288
     1
 68
     0
279
    -2
289
     1
 69
     0
  0
VISUALSTYLE
  5
3C0
102
{ACAD_REACTORS
330
3BA
102
}
330
3BA
100
AcDbVisualStyle
  2
2dWireframe
 70
     4
 71
     0
 72
     2
 73
     0
 90
        0
 40
-0.6
 41
-30.0
 62
     5
 63
     7
 74
     1
 91
        4
 64
     7
 65
   257
 75
     1
175
     1
 42
1.0
 92
        0
 66
   257
 43
1.0
 76
     1
 77
     6
 78
     2
 67
     7
 79
     5
170
     0
171
     0
290
     0
174
     0
 93
        1
 44
0.0
173
     0
291
     0
 45
0.0
1001
ACAD
1000
AcDbSavedByObjectVersion
1070
     0
  0
VISUALSTYLE
  5
3C2
102
{ACAD_REACTORS
330
3BA
102
}
330
3BA
100
AcDbVisualStyle
  2
3D Hidden
 70
     6
 71
     1
 72
     2
 73
     2
 90
        0
 40
-0.6
 41
-30.0
 62
     5
 63
     7
 74
     2
 91
        2
 64
     7
 65
   257
 75
     2
175
     1
 42
40.0
 92
        0
 66
   257
 43
1.0
 76
     1
 77
     6
 78
     2
 67
     7
 79
     3
170
     0
171
     0
290
     0
174
     0
 93
        1
 44
0.0
173
     0
291
     0
 45
0.0
1001
ACAD
1000
AcDbSavedByObjectVersion
1070
     0
  0
VISUALSTYLE
  5
3C1
102
{ACAD_REACTORS
330
3BA
102
}
330
3BA
100
AcDbVisualStyle
  2
3dWireframe
 70
     5
 71
     0
 72
     2
 73
     0
 90
        0
 40
-0.6
 41
-30.0
 62
     5
 63
     7
 74
     1
 91
        4
 64
     7
 65
   257
 75
     1
175
     1
 42
1.0
 92
        0
 66
   257
 43
1.0
 76
     1
 77
     6
 78
     2
 67
     7
 79
     5
170
     0
171
     0
290
     0
174
     0
 93
        1
 44
0.0
173
     0
291
     0
 45
0.0
1001
ACAD
1000
AcDbSavedByObjectVersion
1070
     0
  0
VISUALSTYLE
  5
3BF
102
{ACAD_REACTORS
330
3BA
102
}
330
3BA
100
AcDbVisualStyle
  2
Basic
 70
     7
 71
     1
 72
     0
 73
     1
 90
        0
 40
-0.6
 41
-30.0
 62
     5
 63
     7
 74
     0
 91
        4
 64
     7
 65
   257
 75
     1
175
     1
 42
1.0
 92
        8
 66
     7
 43
1.0
 76
     1
 77
     6
 78
     2
 67
     7
 79
     5
170
     0
171
     0
290
     0
174
     0
 93
        1
 44
0.0
173
     0
291
     1
 45
0.0
1001
ACAD
1000
AcDbSavedByObjectVersion
1070
     0
  0
VISUALSTYLE
  5
3C6
102
{ACAD_REACTORS
330
3BA
102
}
330
3BA
100
AcDbVisualStyle
  2
Brighten
 70
    12
 71
     2
 72
     2
 73
     0
 90
        0
 40
-0.6
 41
-30.0
 62
     5
 63
     7
 74
     1
 91
        4
 64
     7
 65
   257
 75
     1
175
     1
 42
1.0
 92
        8
 66
     7
 43
1.0
 76
     1
 77
     6
 78
     2
 67
     7
 79
     5
170
     0
171
     0
290
     0
174
     0
 93
        1
 44
50.0
173
     0
291
     1
 45
0.0
1001
ACAD
1000
AcDbSavedByObjectVersion
1070
     0
  0
VISUALSTYLE
  5
3CA
102
{ACAD_REACTORS
330
3BA
102
}
330
3BA
100
AcDbVisualStyle
  2
ColorChange
 70
    16
 71
     2
 72
     2
 73
     3
 90
        0
 40
-0.6
 41
-30.0
 62
     5
 63
     8
 74
     1
 91
        4
 64
     7
 65
   257
 75
     1
175
     1
 42
1.0
 92
        8
 66
     8
 43
1.0
 76
     1
 77
     6
 78
     2
 67
     7
 79
     5
170
     0
171
     0
290
     0
174
     0
 93
        1
 44
0.0
173
     0
291
     1
 45
0.0
1001
ACAD
1000
AcDbSavedByObjectVersion
1070
     0
  0
VISUALSTYLE
  5
3C3
102
{ACAD_REACTORS
330
3BA
102
}
330
3BA
100
AcDbVisualStyle
  2
Conceptual
 70
     9
 71
     3
 72
     2
 73
     0
 90
        0
 40
-0.6
 41
-30.0
 62
     5
 63
     7
 74
     2
 91
        2
 64
     7
 65
   257
 75
     1
175
     1
 42
40.0
 92
        8
 66
     7
 43
1.0
 76
     1
 77
     6
 78
     2
 67
     7
 79
     3
170
     0
171
     0
290
     0
174
     0
 93
        1
 44
0.0
173
     0
291
     0
 45
0.0
1001
ACAD
1000
AcDbSavedByObjectVersion
1070
     0
  0
VISUALSTYLE
  5
3C5
102
{ACAD_REACTORS
330
3BA
102
}
330
3BA
100
AcDbVisualStyle
  2
Dim
 70
    11
 71
     2
 72
     2
 73
     0
 90
        0
 40
-0.6
 41
-30.0
 62
     5
 63
     7
 74
     1
 91
        4
 64
     7
 65
   257
 75
     1
175
     1
 42
1.0
 92
        8
 66
     7
 43
1.0
 76
     1
 77
     6
 78
     2
 67
     7
 79
     5
170
     0
171
     0
290
     0
174
     0
 93
        1
 44
-50.0
173
     0
291
     1
 45
0.0
1001
ACAD
1000
AcDbSavedByObjectVersion
1070
     0
  0
VISUALSTYLE
  5
3C9
102
{ACAD_REACTORS
330
3BA
102
}
330
3BA
100
AcDbVisualStyle
  2
Facepattern
 70
    15
 71
     2
 72
     2
 73
     0
 90
        0
 40
-0.6
 41
-30.0
 62
     5
 63
     7
 74
     1
 91
        4
 64
     7
 65
   257
 75
     1
175
     1
 42
1.0
 92
        8
 66
     7
 43
1.0
 76
     1
 77
     6
 78
     2
 67
     7
 79
     5
170
     0
171
     0
290
     0
174
     0
 93
        1
 44
0.0
173
     0
291
     1
 45
0.0
1001
ACAD
1000
AcDbSavedByObjectVersion
1070
     0
  0
VISUALSTYLE
  5
3BB
102
{ACAD_REACTORS
330
3BA
102
}
330
3BA
100
AcDbVisualStyle
  2
Flat
 70
     0
 71
     2
 72
     1
 73
     1
 90
        2
 40
-0.6
 41
30.0
 62
     5
 63
     7
 74
     0
 91
        4
 64
     7
 65
   257
 75
     1
175
     1
 42
1.0
 92
        8
 66
     7
 43
1.0
 76
     1
 77
     6
 78
     2
 67
     7
 79
     5
170
     0
171
     0
290
     0
174
     0
 93
       13
 44
0.0
173
     0
291
     1
 45
0.0
1001
ACAD
1000
AcDbSavedByObjectVersion
1070
     0
  0
VISUALSTYLE
  5
3BC
102
{ACAD_REACTORS
330
3BA
102
}
330
3BA
100
AcDbVisualStyle
  2
FlatWithEdges
 70
     1
 71
     2
 72
     1
 73
     1
 90
        2
 40
-0.6
 41
30.0
 62
     5
 63
     7
 74
     1
 91
        4
 64
     7
 65
   257
 75
     1
175
     1
 42
1.0
 92
        0
 66
   257
 43
1.0
 76
     1
 77
     6
 78
     2
 67
     7
 79
     5
170
     0
171
     0
290
     0
174
     0
 93
       13
 44
0.0
173
     0
291
     1
 45
0.0
1001
ACAD
1000
AcDbSavedByObjectVersion
1070
     0
  0
VISUALSTYLE
  5
3BD
102
{ACAD_REACTORS
330
3BA
102
}
330
3BA
100
AcDbVisualStyle
  2
Gouraud
 70
     2
 71
     2
 72
     2
 73
     1
 90
        2
 40
-0.6
 41
30.0
 62
     5
 63
     7
 74
     0
 91
        4
 64
     7
 65
   257
 75
     1
175
     1
 42
1.0
 92
        0
 66
     7
 43
1.0
 76
     1
 77
     6
 78
     2
 67
     7
 79
     5
170
     0
171
     0
290
     0
174
     0
 93
       13
 44
0.0
173
     0
291
     1
 45
0.0
1001
ACAD
1000
AcDbSavedByObjectVersion
1070
     0
  0
VISUALSTYLE
  5
3BE
102
{ACAD_REACTORS
330
3BA
102
}
330
3BA
100
AcDbVisualStyle
  2
GouraudWithEdges
 70
     3
 71
     2
 72
     2
 73
     1
 90
        2
 40
-0.6
 41
30.0
 62
     5
 63
     7
 74
     1
 91
        4
 64
     7
 65
   257
 75
     1
175
     1
 42
1.0
 92
        0
 66
   257
 43
1.0
 76
     1
 77
     6
 78
     2
 67
     7
 79
     5
170
     0
171
     0
290
     0
174
     0
 93
       13
 44
0.0
173
     0
291
     1
 45
0.0
1001
ACAD
1000
AcDbSavedByObjectVersion
1070
     0
  0
VISUALSTYLE
  5
3C8
102
{ACAD_REACTORS
330
3BA
102
}
330
3BA
100
AcDbVisualStyle
  2
Linepattern
 70
    14
 71
     2
 72
     2
 73
     0
 90
        0
 40
-0.6
 41
-30.0
 62
     5
 63
     7
 74
     1
 91
        4
 64
     7
 65
   257
 75
     7
175
     7
 42
1.0
 92
        8
 66
     7
 43
1.0
 76
     1
 77
     6
 78
     2
 67
     7
 79
     5
170
     0
171
     0
290
     0
174
     0
 93
        1
 44
0.0
173
     0
291
     1
 45
0.0
1001
ACAD
1000
AcDbSavedByObjectVersion
1070
     0
  0
VISUALSTYLE
  5
3C4
102
{ACAD_REACTORS
330
3BA
102
}
330
3BA
100
AcDbVisualStyle
  2
Realistic
 70
     8
 71
     2
 72
     2
 73
     0
 90
        0
 40
-0.6
 41
-30.0
 62
     5
 63
     7
 74
     1
 91
        0
 64
     7
 65
   257
 75
     1
175
     1
 42
1.0
 92
        8
 66
     8
 43
1.0
 76
     1
 77
     6
 78
     2
 67
     7
 79
     5
170
     0
171
     0
290
     0
174
     0
 93
       13
 44
0.0
173
     0
291
     0
 45
0.0
1001
ACAD
1000
AcDbSavedByObjectVersion
1070
     0
  0
VISUALSTYLE
  5
3C7
102
{ACAD_REACTORS
330
3BA
102
}
330
3BA
100
AcDbVisualStyle
  2
Thicken
 70
    13
 71
     2
 72
     2
 73
     0
 90
        0
 40
-0.6
 41
-30.0
 62
     5
 63
     7
 74
     1
 91
        4
 64
     7
 65
   257
 75
     1
175
     1
 42
1.0
 92
       12
 66
     7
 43
1.0
 76
     1
 77
     6
 78
     2
 67
     7
 79
     5
170
     0
171
     0
290
     0
174
     0
 93
        1
 44
0.0
173
     0
291
     1
 45
0.0
1001
ACAD
1000
AcDbSavedByObjectVersion
1070
     0
  0
DICTIONARYVAR
  5
473
102
{ACAD_REACTORS
330
271
102
}
330
271
100
DictionaryVariables
280
     0
  1
STANDARD
  0
DICTIONARYVAR
  5
272
102
{ACAD_REACTORS
330
271
102
}
330
271
100
DictionaryVariables
280
     0
  1
1
  0
DICTIONARYVAR
  5
475
102
{ACAD_REACTORS
330
271
102
}
330
271
100
DictionaryVariables
280
     0
  1
0
  0
DICTIONARYVAR
  5
474
102
{ACAD_REACTORS
330
271
102
}
330
271
100
DictionaryVariables
280
     0
  1
127
  0
DICTIONARY
  5
785
330
213
100
AcDbDictionary
280
     1
281
     1
  3
ACAD_XREC_ROUNDTRIP
360
786
  0
DICTIONARY
  5
783
330
212
100
AcDbDictionary
280
     1
281
     1
  3
ACAD_XREC_ROUNDTRIP
360
784
  0
DICTIONARY
  5
789
330
3B8
100
AcDbDictionary
280
     1
281
     1
  3
ACAD_XREC_ROUNDTRIP
360
78A
  0
DICTIONARY
  5
787
330
3B7
100
AcDbDictionary
280
     1
281
     1
  3
ACAD_XREC_ROUNDTRIP
360
788
  0
DICTIONARY
  5
78B
330
3B9
100
AcDbDictionary
280
     1
281
     1
  3
ACAD_XREC_ROUNDTRIP
360
78C
  0
DICTIONARY
  5
78D
330
3CD
100
AcDbDictionary
280
     1
281
     1
  3
ACAD_XREC_ROUNDTRIP
360
78E
  0
XRECORD
  5
786
102
{ACAD_REACTORS
330
785
102
}
330
785
100
AcDbXrecord
280
     1
102
SHADEPLOT
 70
     0
102
SHADEPLOTRESLEVEL
 70
     2
102
SHADEPLOTCUSTOMDPI
 70
   300
  0
XRECORD
  5
784
102
{ACAD_REACTORS
330
783
102
}
330
783
100
AcDbXrecord
280
     1
102
SHADEPLOT
 70
     0
102
SHADEPLOTRESLEVEL
 70
     2
102
SHADEPLOTCUSTOMDPI
 70
   300
  0
XRECORD
  5
78A
102
{ACAD_REACTORS
330
789
102
}
330
789
100
AcDbXrecord
280
     1
102
MATERIAL
148
0.0
149
0.0
149
0.0
 93
        0
 94
       63
282
     0
 72
     1
 77
     1
171
     1
175
     1
179
     1
273
     0
  0
XRECORD
  5
788
102
{ACAD_REACTORS
330
787
102
}
330
787
100
AcDbXrecord
280
     1
102
MATERIAL
148
0.0
149
0.0
149
0.0
 93
        0
 94
       63
282
     0
 72
     1
 77
     1
171
     1
175
     1
179
     1
273
     0
  0
XRECORD
  5
78C
102
{ACAD_REACTORS
330
78B
102
}
330
78B
100
AcDbXrecord
280
     1
102
MATERIAL
148
0.0
149
0.0
149
0.0
 93
        0
 94
       63
282
     0
 72
     1
 77
     1
171
     1
175
     1
179
     1
273
     0
  0
XRECORD
  5
78E
102
{ACAD_REACTORS
330
78D
102
}
330
78D
100
AcDbXrecord
280
     1
102
ACAD_ROUNDTRIP_PRE2007_TABLESTYLE
 90
      512
 91
        0
  1

 92
      512
 93
        0
  2

 94
      512
 95
        0
  3

  0
ENDSEC
  0
EOF
