  0
SECTION
  2
HEADER
  9
$ACADVER
  1
AC1015
  9
$ACADMAINTVER
 70
    20
  9
$DWGCODEPAGE
  3
ANSI_1252
  9
$INSBASE
 10
62.0286568887209
 20
2.617789019900658
 30
0.0
  9
$EXTMIN
 10
22.24928274138121
 20
-4.046667541546133
 30
0.0
  9
$EXTMAX
 10
100.5580310360606
 20
40.74274008373046
 30
0.0
  9
$LIMMIN
 10
0.0
 20
0.0
  9
$LIMMAX
 10
36.0
 20
36.0
  9
$ORTHOMODE
 70
     0
  9
$REGENMODE
 70
     1
  9
$FILLMODE
 70
     1
  9
$QTEXTMODE
 70
     0
  9
$MIRRTEXT
 70
     1
  9
$LTSCALE
 40
1.0
  9
$ATTMODE
 70
     1
  9
$TEXTSIZE
 40
0.2
  9
$TRACEWID
 40
0.05
  9
$TEXTSTYLE
  7
STANDARD
  9
$CLAYER
  8
ADPDIM
  9
$CELTYPE
  6
BYLAYER
  9
$CECOLOR
 62
   256
  9
$CELTSCALE
 40
1.0
  9
$DISPSILH
 70
     0
  9
$DIMSCALE
 40
1.0
  9
$DIMASZ
 40
0.25
  9
$DIMEXO
 40
0.0625
  9
$DIMDLI
 40
0.38
  9
$DIMRND
 40
0.0
  9
$DIMDLE
 40
0.0
  9
$DIMEXE
 40
0.18
  9
$DIMTP
 40
0.0
  9
$DIMTM
 40
0.0
  9
$DIMTXT
 40
0.125
  9
$DIMCEN
 40
0.1875
  9
$DIMTSZ
 40
0.0
  9
$DIMTOL
 70
     0
  9
$DIMLIM
 70
     0
  9
$DIMTIH
 70
     0
  9
$DIMTOH
 70
     0
  9
$DIMSE1
 70
     0
  9
$DIMSE2
 70
     0
  9
$DIMTAD
 70
     0
  9
$DIMZIN
 70
     3
  9
$DIMBLK
  1

  9
$DIMASO
 70
     1
  9
$DIMSHO
 70
     1
  9
$DIMPOST
  1

  9
$DIMAPOST
  1

  9
$DIMALT
 70
     0
  9
$DIMALTD
 70
     1
  9
$DIMALTF
 40
25.4
  9
$DIMLFAC
 40
1.0
  9
$DIMTOFL
 70
     0
  9
$DIMTVP
 40
0.0
  9
$DIMTIX
 70
     0
  9
$DIMSOXD
 70
     0
  9
$DIMSAH
 70
     1
  9
$DIMBLK1
  1
Oblique
  9
$DIMBLK2
  1
Oblique
  9
$DIMSTYLE
  2
STANDARD
  9
$DIMCLRD
 70
     0
  9
$DIMCLRE
 70
     0
  9
$DIMCLRT
 70
     0
  9
$DIMTFAC
 40
1.0
  9
$DIMGAP
 40
0.125
  9
$DIMJUST
 70
     0
  9
$DIMSD1
 70
     0
  9
$DIMSD2
 70
     0
  9
$DIMTOLJ
 70
     1
  9
$DIMTZIN
 70
     0
  9
$DIMALTZ
 70
     0
  9
$DIMALTTZ
 70
     0
  9
$DIMUPT
 70
     0
  9
$DIMDEC
 70
     4
  9
$DIMTDEC
 70
     4
  9
$DIMALTU
 70
     2
  9
$DIMALTTD
 70
     1
  9
$DIMTXSTY
  7
STANDARD
  9
$DIMAUNIT
 70
     0
  9
$DIMADEC
 70
     0
  9
$DIMALTRND
 40
0.0
  9
$DIMAZIN
 70
     0
  9
$DIMDSEP
 70
    46
  9
$DIMATFIT
 70
     3
  9
$DIMFRAC
 70
     0
  9
$DIMLDRBLK
  1

  9
$DIMLUNIT
 70
     5
  9
$DIMLWD
 70
    -2
  9
$DIMLWE
 70
    -2
  9
$DIMTMOVE
 70
     0
  9
$LUNITS
 70
     5
  9
$LUPREC
 70
     4
  9
$SKETCHINC
 40
0.1
  9
$FILLETRAD
 40
0.062
  9
$AUNITS
 70
     0
  9
$AUPREC
 70
     0
  9
$MENU
  1
acad
  9
$ELEVATION
 40
0.0
  9
$PELEVATION
 40
0.0
  9
$THICKNESS
 40
0.0
  9
$LIMCHECK
 70
     0
  9
$CHAMFERA
 40
0.0
  9
$CHAMFERB
 40
0.0
  9
$CHAMFERC
 40
0.0
  9
$CHAMFERD
 40
0.0
  9
$SKPOLY
 70
     0
  9
$TDCREATE
 40
2450374.487074260
  9
$TDUCREATE
 40
2450374.653740926
  9
$TDUPDATE
 40
2453954.594983276
  9
$TDUUPDATE
 40
2453954.761649942
  9
$TDINDWG
 40
0.0857531713
  9
$TDUSRTIMER
 40
0.0857531713
  9
$USRTIMER
 70
     1
  9
$ANGBASE
 50
0.0
  9
$ANGDIR
 70
     0
  9
$PDMODE
 70
     0
  9
$PDSIZE
 40
0.0
  9
$PLINEWID
 40
0.0
  9
$SPLFRAME
 70
     0
  9
$SPLINETYPE
 70
     6
  9
$SPLINESEGS
 70
     8
  9
$HANDSEED
  5
71F
  9
$SURFTAB1
 70
     6
  9
$SURFTAB2
 70
     6
  9
$SURFTYPE
 70
     6
  9
$SURFU
 70
     6
  9
$SURFV
 70
     6
  9
$UCSBASE
  2

  9
$UCSNAME
  2

  9
$UCSORG
 10
0.0
 20
0.0
 30
0.0
  9
$UCSXDIR
 10
1.0
 20
0.0
 30
0.0
  9
$UCSYDIR
 10
0.0
 20
1.0
 30
0.0
  9
$UCSORTHOREF
  2

  9
$UCSORTHOVIEW
 70
     0
  9
$UCSORGTOP
 10
0.0
 20
0.0
 30
0.0
  9
$UCSORGBOTTOM
 10
0.0
 20
0.0
 30
0.0
  9
$UCSORGLEFT
 10
0.0
 20
0.0
 30
0.0
  9
$UCSORGRIGHT
 10
0.0
 20
0.0
 30
0.0
  9
$UCSORGFRONT
 10
0.0
 20
0.0
 30
0.0
  9
$UCSORGBACK
 10
0.0
 20
0.0
 30
0.0
  9
$PUCSBASE
  2

  9
$PUCSNAME
  2

  9
$PUCSORG
 10
0.0
 20
0.0
 30
0.0
  9
$PUCSXDIR
 10
1.0
 20
0.0
 30
0.0
  9
$PUCSYDIR
 10
0.0
 20
1.0
 30
0.0
  9
$PUCSORTHOREF
  2

  9
$PUCSORTHOVIEW
 70
     0
  9
$PUCSORGTOP
 10
0.0
 20
0.0
 30
0.0
  9
$PUCSORGBOTTOM
 10
0.0
 20
0.0
 30
0.0
  9
$PUCSORGLEFT
 10
0.0
 20
0.0
 30
0.0
  9
$PUCSORGRIGHT
 10
0.0
 20
0.0
 30
0.0
  9
$PUCSORGFRONT
 10
0.0
 20
0.0
 30
0.0
  9
$PUCSORGBACK
 10
0.0
 20
0.0
 30
0.0
  9
$USERI1
 70
     0
  9
$USERI2
 70
     0
  9
$USERI3
 70
     0
  9
$USERI4
 70
     0
  9
$USERI5
 70
     0
  9
$USERR1
 40
0.0
  9
$USERR2
 40
0.0
  9
$USERR3
 40
0.0
  9
$USERR4
 40
0.0
  9
$USERR5
 40
0.0
  9
$WORLDVIEW
 70
     1
  9
$SHADEDGE
 70
     3
  9
$SHADEDIF
 70
    70
  9
$TILEMODE
 70
     1
  9
$MAXACTVP
 70
    15
  9
$PINSBASE
 10
0.0
 20
0.0
 30
0.0
  9
$PLIMCHECK
 70
     0
  9
$PEXTMIN
 10
1.000000000000000E+20
 20
1.000000000000000E+20
 30
1.000000000000000E+20
  9
$PEXTMAX
 10
-1.000000000000000E+20
 20
-1.000000000000000E+20
 30
-1.000000000000000E+20
  9
$PLIMMIN
 10
0.0
 20
0.0
  9
$PLIMMAX
 10
12.0
 20
9.0
  9
$UNITMODE
 70
     0
  9
$VISRETAIN
 70
     0
  9
$PLINEGEN
 70
     0
  9
$PSLTSCALE
 70
     1
  9
$TREEDEPTH
 70
  3020
  9
$CMLSTYLE
  2
STANDARD
  9
$CMLJUST
 70
     0
  9
$CMLSCALE
 40
1.0
  9
$PROXYGRAPHICS
 70
     1
  9
$MEASUREMENT
 70
     0
  9
$CELWEIGHT
370
    -1
  9
$ENDCAPS
280
     0
  9
$JOINSTYLE
280
     0
  9
$LWDISPLAY
290
     0
  9
$INSUNITS
 70
     0
  9
$HYPERLINKBASE
  1

  9
$STYLESHEET
  1

  9
$XEDIT
290
     1
  9
$CEPSNTYPE
380
     0
  9
$PSTYLEMODE
290
     1
  9
$FINGERPRINTGUID
  2
{4983A4F9-E6BA-49D7-AD8A-FD9C472FD5D4}
  9
$VERSIONGUID
  2
{57DBF5EC-F7FD-4717-869C-D4B6F820DEE2}
  9
$EXTNAMES
290
     1
  9
$PSVPSCALE
 40
0.0
  9
$OLESTARTUP
290
     0
  0
ENDSEC
  0
SECTION
  2
CLASSES
  0
CLASS
  1
ACDBDICTIONARYWDFLT
  2
AcDbDictionaryWithDefault
  3
ObjectDBX Classes
 90
        0
280
     0
281
     0
  0
CLASS
  1
ACDBPLACEHOLDER
  2
AcDbPlaceHolder
  3
ObjectDBX Classes
 90
        0
280
     0
281
     0
  0
CLASS
  1
LAYOUT
  2
AcDbLayout
  3
ObjectDBX Classes
 90
        0
280
     0
281
     0
  0
CLASS
  1
DICTIONARYVAR
  2
AcDbDictionaryVar
  3
ObjectDBX Classes
 90
        0
280
     0
281
     0
  0
CLASS
  1
MATERIAL
  2
AcDbMaterial
  3
ObjectDBX Classes
 90
     1024
280
     0
281
     0
  0
CLASS
  1
VISUALSTYLE
  2
AcDbVisualStyle
  3
ObjectDBX Classes
 90
     4095
280
     0
281
     0
  0
CLASS
  1
TABLESTYLE
  2
AcDbTableStyle
  3
ObjectDBX Classes
 90
     4095
280
     0
281
     0
  0
ENDSEC
  0
SECTION
  2
TABLES
  0
TABLE
  2
VPORT
  5
8
330
0
100
AcDbSymbolTable
 70
     1
  0
VPORT
  5
5F4
330
8
100
AcDbSymbolTableRecord
100
AcDbViewportTableRecord
  2
*Active
 70
     0
 10
0.0
 20
0.0
 11
1.0
 21
1.0
 12
67.40508678772193
 22
16.56540240865624
 13
0.0
 23
0.0
 14
0.5740882589684922
 24
0.5740882589684922
 15
0.5
 25
0.5
 16
0.0
 26
0.0
 36
1.0
 17
0.0
 27
0.0
 37
0.0
 40
37.78701246447113
 41
1.774011299435028
 42
50.0
 43
0.0
 44
0.0
 50
0.0
 51
0.0
 71
     0
 72
   100
 73
     1
 74
     0
 75
     0
 76
     0
 77
     0
 78
     0
281
     0
 65
     1
110
0.0
120
0.0
130
0.0
111
1.0
121
0.0
131
0.0
112
0.0
122
1.0
132
0.0
 79
     0
146
0.0
  0
ENDTAB
  0
TABLE
  2
LTYPE
  5
5
330
0
100
AcDbSymbolTable
 70
     2
  0
LTYPE
  5
12
330
5
100
AcDbSymbolTableRecord
100
AcDbLinetypeTableRecord
  2
BYBLOCK
 70
     0
  3

 72
    65
 73
     0
 40
0.0
  0
LTYPE
  5
13
330
5
100
AcDbSymbolTableRecord
100
AcDbLinetypeTableRecord
  2
BYLAYER
 70
     0
  3

 72
    65
 73
     0
 40
0.0
  0
LTYPE
  5
14
330
5
100
AcDbSymbolTableRecord
100
AcDbLinetypeTableRecord
  2
CONTINUOUS
 70
     0
  3
Solid line
 72
    65
 73
     0
 40
0.0
  0
ENDTAB
  0
TABLE
  2
LAYER
  5
2
330
0
100
AcDbSymbolTable
 70
     4
  0
LAYER
  5
F
330
2
100
AcDbSymbolTableRecord
100
AcDbLayerTableRecord
  2
0
 70
     0
 62
     7
  6
CONTINUOUS
370
    -3
390
159
  0
LAYER
  5
B2
330
2
100
AcDbSymbolTableRecord
100
AcDbLayerTableRecord
  2
ADPDIM
 70
     0
 62
     3
  6
CONTINUOUS
370
    -3
390
159
  0
LAYER
  5
B4
330
2
100
AcDbSymbolTableRecord
100
AcDbLayerTableRecord
  2
ADP1DETAIL
 70
     0
 62
     7
  6
CONTINUOUS
370
    -3
390
159
  0
LAYER
  5
B6
330
2
100
AcDbSymbolTableRecord
100
AcDbLayerTableRecord
  2
DEFPOINTS
 70
     0
 62
     7
  6
CONTINUOUS
290
     0
370
    -3
390
159
  0
ENDTAB
  0
TABLE
  2
STYLE
  5
3
330
0
100
AcDbSymbolTable
 70
     2
  0
STYLE
  5
10
330
3
100
AcDbSymbolTableRecord
100
AcDbTextStyleTableRecord
  2
STANDARD
 70
     0
 40
0.0
 41
1.0
 50
0.0
 71
     0
 42
0.2
  3
txt
  4

  0
STYLE
  5
160
330
3
100
AcDbSymbolTableRecord
100
AcDbTextStyleTableRecord
  2
ARIAL_WIDE
 70
     0
 40
0.0
 41
1.25
 50
0.0
 71
     0
 42
0.2
  3
ARIAL.TTF
  4

1001
ACAD
1000
Arial
1071
       34
  0
ENDTAB
  0
TABLE
  2
VIEW
  5
6
330
0
100
AcDbSymbolTable
 70
     0
  0
ENDTAB
  0
TABLE
  2
UCS
  5
7
330
0
100
AcDbSymbolTable
 70
     0
  0
ENDTAB
  0
TABLE
  2
APPID
  5
9
330
0
100
AcDbSymbolTable
 70
     2
  0
APPID
  5
11
330
9
100
AcDbSymbolTableRecord
100
AcDbRegAppTableRecord
  2
ACAD
 70
     0
  0
APPID
  5
695
330
9
100
AcDbSymbolTableRecord
100
AcDbRegAppTableRecord
  2
ACAD_EXEMPT_FROM_CAD_STANDARDS
 70
     0
  0
ENDTAB
  0
TABLE
  2
DIMSTYLE
  5
A
330
0
100
AcDbSymbolTable
 70
     2
100
AcDbDimStyleTable
 71
     1
340
154
  0
DIMSTYLE
105
154
102
{ACAD_REACTORS
330
D4
330
11A
330
66E
330
67C
102
}
330
A
100
AcDbSymbolTableRecord
100
AcDbDimStyleTableRecord
  2
STANDARD
 70
     0
340
10
  0
ENDTAB
  0
TABLE
  2
BLOCK_RECORD
  5
1
330
0
100
AcDbSymbolTable
 70
     8
  0
BLOCK_RECORD
  5
18
102
{ACAD_XDICTIONARY
360
1B5
102
}
330
1
100
AcDbSymbolTableRecord
100
AcDbBlockTableRecord
  2
*MODEL_SPACE
340
15C
  0
BLOCK_RECORD
  5
15
102
{ACAD_XDICTIONARY
360
1B3
102
}
330
1
100
AcDbSymbolTableRecord
100
AcDbBlockTableRecord
  2
*PAPER_SPACE
340
15D
  0
BLOCK_RECORD
  5
32D
330
1
100
AcDbSymbolTableRecord
100
AcDbBlockTableRecord
  2
*D0
340
0
  0
BLOCK_RECORD
  5
33A
330
1
100
AcDbSymbolTableRecord
100
AcDbBlockTableRecord
  2
*D1
340
0
  0
BLOCK_RECORD
  5
366
330
1
100
AcDbSymbolTableRecord
100
AcDbBlockTableRecord
  2
_Oblique
340
0
102
{BLKREFS
331
62E
331
62F
331
658
331
659
331
666
331
667
331
6DB
331
6DC
331
6E5
331
6E6
331
6EF
331
6F0
102
}
  0
BLOCK_RECORD
  5
653
330
1
100
AcDbSymbolTableRecord
100
AcDbBlockTableRecord
  2
*D3
340
0
  0
BLOCK_RECORD
  5
661
330
1
100
AcDbSymbolTableRecord
100
AcDbBlockTableRecord
  2
*D4
340
0
  0
BLOCK_RECORD
  5
66F
330
1
100
AcDbSymbolTableRecord
100
AcDbBlockTableRecord
  2
*D5
340
0
  0
BLOCK_RECORD
  5
67D
330
1
100
AcDbSymbolTableRecord
100
AcDbBlockTableRecord
  2
*D6
340
0
  0
ENDTAB
  0
ENDSEC
  0
SECTION
  2
BLOCKS
  0
BLOCK
  5
B9
330
18
100
AcDbEntity
  8
0
100
AcDbBlockBegin
  2
*MODEL_SPACE
 70
     0
 10
0.0
 20
0.0
 30
0.0
  3
*MODEL_SPACE
  1

  0
ENDBLK
  5
BA
330
18
100
AcDbEntity
  8
0
100
AcDbBlockEnd
  0
BLOCK
  5
B7
330
15
100
AcDbEntity
 67
     1
  8
0
100
AcDbBlockBegin
  2
*PAPER_SPACE
 70
     0
 10
0.0
 20
0.0
 30
0.0
  3
*PAPER_SPACE
  1

  0
ENDBLK
  5
B8
330
15
100
AcDbEntity
 67
     1
  8
0
100
AcDbBlockEnd
  0
BLOCK
  5
338
330
32D
100
AcDbEntity
  8
0
100
AcDbBlockBegin
  2
*D0
 70
     1
 10
0.0
 20
0.0
 30
0.0
  3
*D0
  1

  0
LINE
  5
6E1
330
32D
100
AcDbEntity
  8
ADPDIM
 62
     0
370
    -2
100
AcDbLine
 10
60.71615688872091
 20
0.6177890199006583
 30
0.0
 11
59.73171329891813
 21
0.6177890199006586
 31
0.0
  0
LINE
  5
6E2
330
32D
100
AcDbEntity
  8
ADPDIM
 62
     0
370
    -2
100
AcDbLine
 10
60.71615688872091
 20
40.61774008373046
 30
0.0
 11
59.73171329891814
 21
40.61774008373046
 31
0.0
  0
LINE
  5
6E3
330
32D
100
AcDbEntity
  8
ADPDIM
 62
     0
370
    -2
100
AcDbLine
 10
59.91171329891813
 20
0.6177890199006584
 30
0.0
 11
59.91171329891813
 21
20.11776455181556
 31
0.0
  0
LINE
  5
6E4
330
32D
100
AcDbEntity
  8
ADPDIM
 62
     0
370
    -2
100
AcDbLine
 10
59.91171329891813
 20
40.61774008373046
 30
0.0
 11
59.91171329891813
 21
21.11776455181556
 31
0.0
  0
INSERT
  5
6E5
330
32D
100
AcDbEntity
  8
ADPDIM
 62
     0
370
    -2
100
AcDbBlockReference
  2
_Oblique
 10
59.91171329891813
 20
0.6177890199006584
 30
0.0
 41
0.25
 42
0.25
 43
0.25
 50
270.0
  0
INSERT
  5
6E6
330
32D
100
AcDbEntity
  8
ADPDIM
 62
     0
370
    -2
100
AcDbBlockReference
  2
_Oblique
 10
59.91171329891813
 20
40.61774008373046
 30
0.0
 41
0.25
 42
0.25
 43
0.25
 50
90.0
  0
MTEXT
  5
6E7
330
32D
100
AcDbEntity
  8
ADPDIM
 62
     0
100
AcDbMText
 10
59.91171329891813
 20
20.61776455181557
 30
0.0
 40
0.5
 41
0.0
 71
     5
 72
     1
  1
\A1;40
 11
0.0000000000000001
 21
1.0
 31
0.0
 73
     1
 44
1.0
1001
ACAD
1000
MTEXTBEGIN
1070
    73
1070
     1
1070
    44
1040
1.0
1070
    74
1070
     0
1000
MTEXTEND
  0
POINT
  5
6E8
330
32D
100
AcDbEntity
  8
DEFPOINTS
 62
     0
100
AcDbPoint
 10
60.7786568887209
 20
0.6177890199006582
 30
0.0
  0
POINT
  5
6E9
330
32D
100
AcDbEntity
  8
DEFPOINTS
 62
     0
100
AcDbPoint
 10
60.7786568887209
 20
40.61774008373046
 30
0.0
  0
POINT
  5
6EA
330
32D
100
AcDbEntity
  8
DEFPOINTS
 62
     0
100
AcDbPoint
 10
59.91171329891813
 20
40.61774008373046
 30
0.0
  0
ENDBLK
  5
339
330
32D
100
AcDbEntity
  8
0
100
AcDbBlockEnd
  0
BLOCK
  5
345
330
33A
100
AcDbEntity
  8
0
100
AcDbBlockBegin
  2
*D1
 70
     1
 10
0.0
 20
0.0
 30
0.0
  3
*D1
  1

  0
LINE
  5
62A
330
33A
100
AcDbEntity
  8
ADPDIM
 62
     0
100
AcDbLine
 10
60.7786568887209
 20
0.5552890199006582
 30
0.0
 11
60.7786568887209
 21
-0.1253663196418107
 31
0.0
  0
LINE
  5
62B
330
33A
100
AcDbEntity
  8
ADPDIM
 62
     0
100
AcDbLine
 10
62.0286568887209
 20
0.5552890199006582
 30
0.0
 11
62.0286568887209
 21
-0.1253663196418107
 31
0.0
  0
LINE
  5
62C
330
33A
100
AcDbEntity
  8
ADPDIM
 62
     0
100
AcDbLine
 10
60.7786568887209
 20
0.0546336803581893
 30
0.0
 11
61.19532355538757
 21
0.0546336803581893
 31
0.0
  0
LINE
  5
62D
330
33A
100
AcDbEntity
  8
ADPDIM
 62
     0
100
AcDbLine
 10
62.0286568887209
 20
0.0546336803581893
 30
0.0
 11
61.61199022205424
 21
0.0546336803581893
 31
0.0
  0
INSERT
  5
62E
330
33A
100
AcDbEntity
  8
ADPDIM
 62
     0
100
AcDbBlockReference
  2
_Oblique
 10
60.7786568887209
 20
0.0546336803581893
 30
0.0
 41
0.25
 42
0.25
 43
0.25
 50
180.0
  0
INSERT
  5
62F
330
33A
100
AcDbEntity
  8
ADPDIM
 62
     0
100
AcDbBlockReference
  2
_Oblique
 10
62.0286568887209
 20
0.0546336803581893
 30
0.0
 41
0.25
 42
0.25
 43
0.25
  0
MTEXT
  5
630
330
33A
100
AcDbEntity
  8
ADPDIM
 62
     0
100
AcDbMText
 10
61.4036568887209
 20
0.0546336803581893
 30
0.0
 40
0.125
 41
0.0
 71
     5
 72
     1
  1
\A1;1{\H1.000000x;\S1/4;}
 73
     1
 44
1.0
1001
ACAD
1000
MTEXTBEGIN
1070
    73
1070
     1
1070
    44
1040
1.0
1070
    74
1070
     0
1000
MTEXTEND
  0
POINT
  5
631
330
33A
100
AcDbEntity
  8
DEFPOINTS
 62
     0
100
AcDbPoint
 10
60.7786568887209
 20
0.6177890199006582
 30
0.0
  0
POINT
  5
632
330
33A
100
AcDbEntity
  8
DEFPOINTS
 62
     0
100
AcDbPoint
 10
62.0286568887209
 20
0.6177890199006582
 30
0.0
  0
POINT
  5
633
330
33A
100
AcDbEntity
  8
DEFPOINTS
 62
     0
100
AcDbPoint
 10
62.0286568887209
 20
0.0546336803581893
 30
0.0
  0
ENDBLK
  5
346
330
33A
100
AcDbEntity
  8
0
100
AcDbBlockEnd
  0
BLOCK
  5
368
330
366
100
AcDbEntity
  8
0
100
AcDbBlockBegin
  2
_Oblique
 70
     0
 10
0.0
 20
0.0
 30
0.0
  3
_Oblique
  1

  0
LINE
  5
367
330
366
100
AcDbEntity
  8
0
  6
ByBlock
 62
     0
370
    -2
100
AcDbLine
 10
-0.5
 20
-0.5
 30
0.0
 11
0.5
 21
0.5
 31
0.0
  0
ENDBLK
  5
369
330
366
100
AcDbEntity
  8
0
100
AcDbBlockEnd
  0
BLOCK
  5
65E
330
653
100
AcDbEntity
  8
0
 62
     3
100
AcDbBlockBegin
  2
*D3
 70
     1
 10
0.0
 20
0.0
 30
0.0
  3
*D3
  1

  0
LINE
  5
654
330
653
100
AcDbEntity
  8
ADPDIM
 62
     0
370
    -2
100
AcDbLine
 10
62.09115688872091
 20
40.61774008373046
 30
0.0
 11
63.22775056662404
 21
40.61774008373046
 31
0.0
  0
LINE
  5
655
330
653
100
AcDbEntity
  8
ADPDIM
 62
     0
370
    -2
100
AcDbLine
 10
62.09115688872091
 20
29.36774008373046
 30
0.0
 11
63.22775056662404
 21
29.36774008373046
 31
0.0
  0
LINE
  5
656
330
653
100
AcDbEntity
  8
ADPDIM
 62
     0
370
    -2
100
AcDbLine
 10
63.04775056662404
 20
40.61774008373046
 30
0.0
 11
63.04775056662404
 21
35.24274008373046
 31
0.0
  0
LINE
  5
657
330
653
100
AcDbEntity
  8
ADPDIM
 62
     0
370
    -2
100
AcDbLine
 10
63.04775056662404
 20
29.36774008373046
 30
0.0
 11
63.04775056662404
 21
34.74274008373046
 31
0.0
  0
INSERT
  5
658
330
653
100
AcDbEntity
  8
ADPDIM
 62
     0
370
    -2
100
AcDbBlockReference
  2
_Oblique
 10
63.04775056662404
 20
40.61774008373046
 30
0.0
 41
0.25
 42
0.25
 43
0.25
 50
90.0
  0
INSERT
  5
659
330
653
100
AcDbEntity
  8
ADPDIM
 62
     0
370
    -2
100
AcDbBlockReference
  2
_Oblique
 10
63.04775056662404
 20
29.36774008373046
 30
0.0
 41
0.25
 42
0.25
 43
0.25
 50
270.0
  0
MTEXT
  5
65A
330
653
100
AcDbEntity
  8
ADPDIM
 62
     0
100
AcDbMText
 10
63.04775056662403
 20
34.99274008373047
 30
0.0
 40
0.125
 41
0.0
 71
     5
 72
     1
  1
\A1;11{\H1.000000x;\S1/4;}
 11
0.0000000000000001
 21
1.0
 31
0.0
 73
     1
 44
1.0
1001
ACAD
1000
MTEXTBEGIN
1070
    73
1070
     1
1070
    44
1040
1.0
1070
    74
1070
     0
1000
MTEXTEND
  0
POINT
  5
65B
330
653
100
AcDbEntity
  8
DEFPOINTS
 62
     0
100
AcDbPoint
 10
62.0286568887209
 20
40.61774008373046
 30
0.0
  0
POINT
  5
65C
330
653
100
AcDbEntity
  8
DEFPOINTS
 62
     0
100
AcDbPoint
 10
62.0286568887209
 20
29.36774008373046
 30
0.0
  0
POINT
  5
65D
330
653
100
AcDbEntity
  8
DEFPOINTS
 62
     0
100
AcDbPoint
 10
63.04775056662404
 20
29.36774008373046
 30
0.0
  0
ENDBLK
  5
65F
330
653
100
AcDbEntity
  8
0
 62
     3
100
AcDbBlockEnd
  0
BLOCK
  5
66C
330
661
100
AcDbEntity
  8
0
 62
     3
100
AcDbBlockBegin
  2
*D4
 70
     1
 10
0.0
 20
0.0
 30
0.0
  3
*D4
  1

  0
LINE
  5
662
330
661
100
AcDbEntity
  8
ADPDIM
 62
     0
370
    -2
100
AcDbLine
 10
62.09115688872091
 20
0.6177890199006582
 30
0.0
 11
63.17003035031071
 21
0.6177890199006578
 31
0.0
  0
LINE
  5
663
330
661
100
AcDbEntity
  8
ADPDIM
 62
     0
370
    -2
100
AcDbLine
 10
62.09115688872091
 20
15.86778901990066
 30
0.0
 11
63.17003035031071
 21
15.86778901990066
 31
0.0
  0
LINE
  5
664
330
661
100
AcDbEntity
  8
ADPDIM
 62
     0
370
    -2
100
AcDbLine
 10
62.99003035031072
 20
0.6177890199006578
 30
0.0
 11
62.99003035031072
 21
7.971955686567326
 31
0.0
  0
LINE
  5
665
330
661
100
AcDbEntity
  8
ADPDIM
 62
     0
370
    -2
100
AcDbLine
 10
62.99003035031072
 20
15.86778901990066
 30
0.0
 11
62.99003035031072
 21
8.513622353233992
 31
0.0
  0
INSERT
  5
666
330
661
100
AcDbEntity
  8
ADPDIM
 62
     0
370
    -2
100
AcDbBlockReference
  2
_Oblique
 10
62.99003035031072
 20
0.6177890199006578
 30
0.0
 41
0.25
 42
0.25
 43
0.25
 50
270.0
  0
INSERT
  5
667
330
661
100
AcDbEntity
  8
ADPDIM
 62
     0
370
    -2
100
AcDbBlockReference
  2
_Oblique
 10
62.99003035031072
 20
15.86778901990066
 30
0.0
 41
0.25
 42
0.25
 43
0.25
 50
90.0
  0
MTEXT
  5
668
330
661
100
AcDbEntity
  8
ADPDIM
 62
     0
100
AcDbMText
 10
62.99003035031072
 20
8.242789019900669
 30
0.0
 40
0.125
 41
0.0
 71
     5
 72
     1
  1
\A1;15{\H1.000000x;\S1/4;}
 11
0.0000000000000001
 21
1.0
 31
0.0
 73
     1
 44
1.0
1001
ACAD
1000
MTEXTBEGIN
1070
    73
1070
     1
1070
    44
1040
1.0
1070
    74
1070
     0
1000
MTEXTEND
  0
POINT
  5
669
330
661
100
AcDbEntity
  8
DEFPOINTS
 62
     0
100
AcDbPoint
 10
62.0286568887209
 20
0.6177890199006582
 30
0.0
  0
POINT
  5
66A
330
661
100
AcDbEntity
  8
DEFPOINTS
 62
     0
100
AcDbPoint
 10
62.0286568887209
 20
15.86778901990066
 30
0.0
  0
POINT
  5
66B
330
661
100
AcDbEntity
  8
DEFPOINTS
 62
     0
100
AcDbPoint
 10
62.99003035031072
 20
15.86778901990066
 30
0.0
  0
ENDBLK
  5
66D
330
661
100
AcDbEntity
  8
0
 62
     3
100
AcDbBlockEnd
  0
BLOCK
  5
67A
330
66F
100
AcDbEntity
  8
0
 62
     3
100
AcDbBlockBegin
  2
*D5
 70
     1
 10
0.0
 20
0.0
 30
0.0
  3
*D5
  1

  0
LINE
  5
6EB
330
66F
100
AcDbEntity
  8
ADPDIM
 62
     0
370
    -2
100
AcDbLine
 10
62.09115688872091
 20
40.61774008373046
 30
0.0
 11
63.15610911483582
 21
40.61774008373046
 31
0.0
  0
LINE
  5
6EC
330
66F
100
AcDbEntity
  8
ADPDIM
 62
     0
370
    -2
100
AcDbLine
 10
62.0911568887209
 20
28.86774008373046
 30
0.0
 11
63.15610911483582
 21
28.86774008373046
 31
0.0
  0
LINE
  5
6ED
330
66F
100
AcDbEntity
  8
ADPDIM
 62
     0
370
    -2
100
AcDbLine
 10
62.97610911483582
 20
40.61774008373046
 30
0.0
 11
62.97610911483582
 21
36.11774008373046
 31
0.0
  0
LINE
  5
6EE
330
66F
100
AcDbEntity
  8
ADPDIM
 62
     0
370
    -2
100
AcDbLine
 10
62.97610911483582
 20
28.86774008373046
 30
0.0
 11
62.97610911483582
 21
33.36774008373046
 31
0.0
  0
INSERT
  5
6EF
330
66F
100
AcDbEntity
  8
ADPDIM
 62
     0
370
    -2
100
AcDbBlockReference
  2
_Oblique
 10
62.97610911483582
 20
40.61774008373046
 30
0.0
 41
0.25
 42
0.25
 43
0.25
 50
90.0
  0
INSERT
  5
6F0
330
66F
100
AcDbEntity
  8
ADPDIM
 62
     0
370
    -2
100
AcDbBlockReference
  2
_Oblique
 10
62.97610911483582
 20
28.86774008373046
 30
0.0
 41
0.25
 42
0.25
 43
0.25
 50
270.0
  0
MTEXT
  5
6F1
330
66F
100
AcDbEntity
  8
ADPDIM
 62
     0
100
AcDbMText
 10
62.97610911483581
 20
34.74274008373047
 30
0.0
 40
0.5
 41
0.0
 71
     5
 72
     1
  1
\A1;11 3/4
 11
0.0000000000000001
 21
1.0
 31
0.0
 73
     1
 44
1.0
1001
ACAD
1000
MTEXTBEGIN
1070
    73
1070
     1
1070
    44
1040
1.0
1070
    74
1070
     0
1000
MTEXTEND
  0
POINT
  5
6F2
330
66F
100
AcDbEntity
  8
DEFPOINTS
 62
     0
100
AcDbPoint
 10
62.0286568887209
 20
40.61774008373046
 30
0.0
  0
POINT
  5
6F3
330
66F
100
AcDbEntity
  8
DEFPOINTS
 62
     0
100
AcDbPoint
 10
62.0286568887209
 20
28.86774008373046
 30
0.0
  0
POINT
  5
6F4
330
66F
100
AcDbEntity
  8
DEFPOINTS
 62
     0
100
AcDbPoint
 10
62.97610911483582
 20
28.86774008373046
 30
0.0
  0
ENDBLK
  5
67B
330
66F
100
AcDbEntity
  8
0
 62
     3
100
AcDbBlockEnd
  0
BLOCK
  5
688
330
67D
100
AcDbEntity
  8
0
 62
     3
100
AcDbBlockBegin
  2
*D6
 70
     1
 10
0.0
 20
0.0
 30
0.0
  3
*D6
  1

  0
LINE
  5
6D7
330
67D
100
AcDbEntity
  8
ADPDIM
 62
     0
370
    -2
100
AcDbLine
 10
62.09115688872091
 20
0.6177890199006582
 30
0.0
 11
63.194273052889
 21
0.6177890199006578
 31
0.0
  0
LINE
  5
6D8
330
67D
100
AcDbEntity
  8
ADPDIM
 62
     0
370
    -2
100
AcDbLine
 10
62.09115688872091
 20
16.11778901990066
 30
0.0
 11
63.194273052889
 21
16.11778901990066
 31
0.0
  0
LINE
  5
6D9
330
67D
100
AcDbEntity
  8
ADPDIM
 62
     0
370
    -2
100
AcDbLine
 10
63.014273052889
 20
0.6177890199006578
 30
0.0
 11
63.014273052889
 21
6.992789019900659
 31
0.0
  0
LINE
  5
6DA
330
67D
100
AcDbEntity
  8
ADPDIM
 62
     0
370
    -2
100
AcDbLine
 10
63.014273052889
 20
16.11778901990066
 30
0.0
 11
63.014273052889
 21
9.742789019900659
 31
0.0
  0
INSERT
  5
6DB
330
67D
100
AcDbEntity
  8
ADPDIM
 62
     0
370
    -2
100
AcDbBlockReference
  2
_Oblique
 10
63.014273052889
 20
0.6177890199006578
 30
0.0
 41
0.25
 42
0.25
 43
0.25
 50
270.0
  0
INSERT
  5
6DC
330
67D
100
AcDbEntity
  8
ADPDIM
 62
     0
370
    -2
100
AcDbBlockReference
  2
_Oblique
 10
63.014273052889
 20
16.11778901990066
 30
0.0
 41
0.25
 42
0.25
 43
0.25
 50
90.0
  0
MTEXT
  5
6DD
330
67D
100
AcDbEntity
  8
ADPDIM
 62
     0
100
AcDbMText
 10
63.014273052889
 20
8.367789019900669
 30
0.0
 40
0.5
 41
0.0
 71
     5
 72
     1
  1
\A1;15 1/2
 11
0.0000000000000001
 21
1.0
 31
0.0
 73
     1
 44
1.0
1001
ACAD
1000
MTEXTBEGIN
1070
    73
1070
     1
1070
    44
1040
1.0
1070
    74
1070
     0
1000
MTEXTEND
  0
POINT
  5
6DE
330
67D
100
AcDbEntity
  8
DEFPOINTS
 62
     0
100
AcDbPoint
 10
62.0286568887209
 20
0.6177890199006582
 30
0.0
  0
POINT
  5
6DF
330
67D
100
AcDbEntity
  8
DEFPOINTS
 62
     0
100
AcDbPoint
 10
62.0286568887209
 20
16.11778901990066
 30
0.0
  0
POINT
  5
6E0
330
67D
100
AcDbEntity
  8
DEFPOINTS
 62
     0
100
AcDbPoint
 10
63.014273052889
 20
16.11778901990066
 30
0.0
  0
ENDBLK
  5
689
330
67D
100
AcDbEntity
  8
0
 62
     3
100
AcDbBlockEnd
  0
ENDSEC
  0
SECTION
  2
ENTITIES
  0
DIMENSION
  5
D4
330
18
100
AcDbEntity
  8
ADPDIM
100
AcDbDimension
  2
*D0
 10
59.91171329891813
 20
40.61774008373046
 30
0.0
 11
59.91171329891813
 21
20.61776455181557
 31
0.0
 70
    32
 71
     5
 42
39.99995106382981
  3
STANDARD
100
AcDbAlignedDimension
 13
60.7786568887209
 23
0.6177890199006582
 33
0.0
 14
60.7786568887209
 24
40.61774008373046
 34
0.0
 50
90.0
100
AcDbRotatedDimension
1001
ACAD
1000
DSTYLE
1002
{
1070
   276
1070
     2
1070
    41
1040
0.25
1070
    73
1070
     0
1070
    74
1070
     0
1070
    78
1070
     3
1070
   140
1040
0.5
1070
   141
1040
0.1875
1070
   147
1040
0.125
1070
   171
1070
     1
1070
   173
1070
     1
1070
   270
1070
     5
1070
   274
1070
     1
1070
   277
1070
     5
1070
   343
1005
366
1070
   344
1005
366
1002
}
  0
LWPOLYLINE
  5
D5
330
18
100
AcDbEntity
  8
ADP1DETAIL
100
AcDbPolyline
 90
        4
 70
     0
 43
0.0
 10
61.93161440678558
 20
16.41436054670014
 42
0.226563410084469
 10
61.95821015146644
 20
19.98766371237033
 10
60.81459313018984
 20
22.67383392513629
 42
-0.2314826483485492
 10
60.76140164082814
 20
25.46638711662565
 42
-6.977354703921901
  0
LWPOLYLINE
  5
DB
330
18
100
AcDbEntity
  8
ADP1DETAIL
100
AcDbPolyline
 90
        4
 70
     0
 43
0.0
 10
60.7786568887209
 20
28.86774008373046
 42
0.1886517035829728
 10
60.76140164082814
 20
25.46638711662565
 10
61.93161440678558
 20
22.72702541449799
 42
-0.276143105809412
 10
61.95821015146644
 20
19.93447222300862
 42
-2.767485475577418
  0
LWPOLYLINE
  5
E1
330
18
100
AcDbEntity
  8
ADP1DETAIL
100
AcDbPolyline
 90
        7
 70
     0
 43
0.0
 10
60.7786568887209
 20
28.86774008373046
 42
0.129689387290629
 10
60.81459313018984
 20
26.8493658400299
 10
61.82523142806218
 20
24.32277009534905
 42
-0.1427751657445905
 10
61.93161440678558
 20
22.80681264854055
 42
0.1319381905553812
 10
62.01140164082814
 20
24.18979137194479
 10
60.78799738550898
 20
27.24830201024267
 42
-0.029196237249405
 10
60.7786568887209
 20
28.86774008373046
 42
0.3450341257383449
  0
LWPOLYLINE
  5
EA
330
18
100
AcDbEntity
  8
ADP1DETAIL
100
AcDbPolyline
 90
        7
 70
     0
 43
0.0
 10
60.73480589614728
 20
25.3865998825831
 42
0.1683075688229619
 10
60.78799738550898
 20
24.11000413790223
 10
61.79863568338133
 20
21.58340839322139
 42
-0.1427751657445905
 10
61.90501866210474
 20
20.06745094641289
 42
0.1319381905553812
 10
61.98480589614728
 20
21.45042966981713
 10
60.76140164082814
 20
24.50894030811501
 42
-0.0954525911004406
 10
60.78799738550898
 20
25.3334083932214
 42
0.3450341257383449
  0
LWPOLYLINE
  5
F3
330
18
100
AcDbEntity
  8
ADP1DETAIL
100
AcDbPolyline
 90
        3
 70
     0
 43
0.0
 10
61.93161440678558
 20
22.72702541449799
 42
0.2714307972684713
 10
61.95821015146644
 20
25.57277009534905
 10
60.7786568887209
 20
28.86774008373046
  0
LINE
  5
F8
330
18
100
AcDbEntity
  8
ADP1DETAIL
100
AcDbLine
 10
61.47014625042303
 20
16.11778901990066
 30
0.0
 11
61.47014625042303
 21
0.6177890199006582
 31
0.0
  0
LINE
  5
F9
330
18
100
AcDbEntity
  8
ADP1DETAIL
100
AcDbLine
 10
61.30854715873429
 20
16.11778901990066
 30
0.0
 11
61.31057178233793
 21
0.6177890199006582
 31
0.0
  0
LINE
  5
FA
330
18
100
AcDbEntity
  8
ADP1DETAIL
100
AcDbLine
 10
60.7786568887209
 20
16.11778901990066
 30
0.0
 11
60.7786568887209
 21
0.6177890199006582
 31
0.0
  0
LINE
  5
FB
330
18
100
AcDbEntity
  8
ADP1DETAIL
100
AcDbLine
 10
62.0286568887209
 20
0.6177890199006582
 30
0.0
 11
62.0286568887209
 21
16.11778901990066
 31
0.0
  0
LINE
  5
FC
330
18
100
AcDbEntity
  8
ADP1DETAIL
100
AcDbLine
 10
60.7786568887209
 20
-0.9810405534346033
 30
0.0
 11
60.7786568887209
 21
-0.4383272465327642
 31
0.0
  0
LINE
  5
FD
330
18
100
AcDbEntity
  8
ADP1DETAIL
100
AcDbLine
 10
62.0286568887209
 20
-0.4383272465327642
 30
0.0
 11
62.0286568887209
 21
-0.9810405534346038
 31
0.0
  0
LINE
  5
FE
330
18
100
AcDbEntity
  8
ADP1DETAIL
100
AcDbLine
 10
62.0286568887209
 20
-1.688327246532764
 30
0.0
 11
61.48594358181907
 21
-1.688327246532764
 31
0.0
  0
LINE
  5
FF
330
18
100
AcDbEntity
  8
ADP1DETAIL
100
AcDbLine
 10
60.7786568887209
 20
-1.688327246532764
 30
0.0
 11
60.7786568887209
 21
-1.145613939630924
 31
0.0
  0
LINE
  5
100
330
18
100
AcDbEntity
  8
ADP1DETAIL
100
AcDbLine
 10
61.32137019562275
 20
-1.688327246532764
 30
0.0
 11
60.7786568887209
 21
-1.688327246532764
 31
0.0
  0
LWPOLYLINE
  5
101
330
18
100
AcDbEntity
  8
ADP1DETAIL
100
AcDbPolyline
 90
        2
 70
     0
 43
0.0
 10
61.4036568887209
 20
-1.606040553434603
 10
61.48594358181907
 20
-1.688327246532764
  0
LWPOLYLINE
  5
105
330
18
100
AcDbEntity
  8
ADP1DETAIL
100
AcDbPolyline
 90
        2
 70
     0
 43
0.0
 10
61.32137019562275
 20
-1.688327246532764
 10
61.4036568887209
 20
-1.606040553434603
  0
LWPOLYLINE
  5
109
330
18
100
AcDbEntity
  8
ADP1DETAIL
100
AcDbPolyline
 90
        2
 70
     0
 43
0.0
 10
60.86094358181907
 20
-1.063327246532764
 10
60.7786568887209
 20
-1.145613939630924
  0
LWPOLYLINE
  5
10D
330
18
100
AcDbEntity
  8
ADP1DETAIL
100
AcDbPolyline
 90
        2
 70
     0
 43
0.0
 10
60.7786568887209
 20
-0.9810405534346035
 10
60.86094358181907
 20
-1.063327246532764
  0
LINE
  5
111
330
18
100
AcDbEntity
  8
ADP1DETAIL
100
AcDbLine
 10
62.0286568887209
 20
-1.145613939630924
 30
0.0
 11
62.0286568887209
 21
-1.688327246532764
 31
0.0
  0
LWPOLYLINE
  5
112
330
18
100
AcDbEntity
  8
ADP1DETAIL
100
AcDbPolyline
 90
        2
 70
     0
 43
0.0
 10
62.0286568887209
 20
-1.145613939630924
 10
61.94637019562275
 20
-1.063327246532764
  0
LWPOLYLINE
  5
116
330
18
100
AcDbEntity
  8
ADP1DETAIL
100
AcDbPolyline
 90
        2
 70
     0
 43
0.0
 10
61.94637019562275
 20
-1.063327246532764
 10
62.0286568887209
 20
-0.9810405534346035
  0
DIMENSION
  5
11A
330
18
100
AcDbEntity
  8
ADPDIM
100
AcDbDimension
  2
*D1
 10
62.0286568887209
 20
0.0546336803581893
 30
0.0
 11
61.4036568887209
 21
0.0546336803581893
 31
0.0
 70
    32
 71
     5
 42
-1.0
  3
STANDARD
100
AcDbAlignedDimension
 13
60.7786568887209
 23
0.6177890199006582
 33
0.0
 14
62.0286568887209
 24
0.6177890199006582
 34
0.0
100
AcDbRotatedDimension
1001
ACAD
1000
DSTYLE
1002
{
1070
   270
1070
     5
1070
   270
1070
     5
1070
   270
1070
     5
1070
   270
1070
     5
1070
   270
1070
     5
1070
    41
1040
0.25
1070
    73
1070
     0
1070
    74
1070
     0
1070
    78
1070
     3
1070
   140
1040
0.125
1070
   141
1040
0.1875
1070
   147
1040
0.125
1070
   171
1070
     1
1070
   173
1070
     1
1070
   274
1070
     1
1070
   277
1070
     5
1070
     6
1000
OBLIQUE
1070
     7
1000
OBLIQUE
1002
}
  0
LINE
  5
11B
330
18
100
AcDbEntity
  8
ADP1DETAIL
100
AcDbLine
 10
61.48594358181907
 20
-0.4383272465327642
 30
0.0
 11
62.0286568887209
 21
-0.4383272465327642
 31
0.0
  0
LINE
  5
11C
330
18
100
AcDbEntity
  8
ADP1DETAIL
100
AcDbLine
 10
60.7786568887209
 20
0.6177890199006582
 30
0.0
 11
62.0286568887209
 21
0.6177890199006582
 31
0.0
  0
LINE
  5
11D
330
18
100
AcDbEntity
  8
ADP1DETAIL
100
AcDbLine
 10
60.7786568887209
 20
-0.4383272465327642
 30
0.0
 11
61.32137019562275
 21
-0.4383272465327642
 31
0.0
  0
LWPOLYLINE
  5
11E
330
18
100
AcDbEntity
  8
ADP1DETAIL
100
AcDbPolyline
 90
        2
 70
     0
 43
0.0
 10
61.48594358181907
 20
-0.4383272465327642
 10
61.4036568887209
 20
-0.5206139396309249
  0
LWPOLYLINE
  5
122
330
18
100
AcDbEntity
  8
ADP1DETAIL
100
AcDbPolyline
 90
        2
 70
     0
 43
0.0
 10
61.4036568887209
 20
-0.5206139396309249
 10
61.32137019562275
 20
-0.4383272465327642
  0
LWPOLYLINE
  5
126
330
18
100
AcDbEntity
  8
ADP1DETAIL
100
AcDbPolyline
 90
        7
 70
     0
 43
0.0
 10
60.76140164082814
 20
22.59404669109373
 42
0.1683075688229619
 10
60.81459313018984
 20
21.31745094641287
 10
61.82523142806218
 20
18.79085520173202
 42
-0.1234744645474168
 10
61.93161440678558
 20
16.41436054670014
 42
0.0792277863527916
 10
62.01140164082814
 20
18.65787647832776
 10
60.78799738550898
 20
21.71638711662564
 42
-0.0954525911004406
 10
60.81459313018984
 20
22.54085520173203
 42
0.3450341257383449
  0
LWPOLYLINE
  5
12F
330
18
100
AcDbEntity
  8
ADP1DETAIL
100
AcDbPolyline
 90
        4
 70
     0
 43
0.0
 10
62.0286568887209
 20
16.11778901990066
 10
60.81459313018984
 20
19.82808924428523
 42
-0.2332718804743521
 10
60.76140164082814
 20
22.59404669109373
 42
0.0012999499009872
 10
60.80625878318144
 20
22.69019627345421
 42
0.2795739439715642
  0
LWPOLYLINE
  5
135
330
18
100
AcDbEntity
  8
ADP1DETAIL
100
AcDbPolyline
 90
        3
 70
     0
 43
0.0
 10
61.47014625042303
 20
16.11778901990066
 10
60.78799738550898
 20
18.89723818045543
 42
-0.0954525911004406
 10
60.81459313018984
 20
19.72170626556182
 42
0.3450341257383449
  0
LWPOLYLINE
  5
13A
330
18
100
AcDbEntity
  8
ADP1DETAIL
100
AcDbPolyline
 90
        3
 70
     0
 43
0.0
 10
60.76140164082814
 20
19.77489775492352
 42
0.1683075688229619
 10
60.81459313018984
 20
18.49830201024266
 10
61.30854715873429
 20
16.11778901990066
 42
-0.1427751657445905
  0
LWPOLYLINE
  5
13F
330
18
100
AcDbEntity
  8
ADP1DETAIL
100
AcDbPolyline
 90
        2
 70
     0
 43
0.0
 10
60.7786568887209
 20
16.11778901990066
 42
-0.1904312984891985
 10
60.81459313018984
 20
19.82808924428523
 42
0.0152326203449897
  0
LINE
  5
143
330
18
100
AcDbEntity
  8
ADP1DETAIL
100
AcDbLine
 10
60.7786568887209
 20
40.61774008373046
 30
0.0
 11
60.7786568887209
 21
28.86774008373046
 31
0.0
  0
LINE
  5
144
330
18
100
AcDbEntity
  8
ADP1DETAIL
100
AcDbLine
 10
61.31057178233793
 20
40.61774008373046
 30
0.0
 11
61.31057178233793
 21
28.86774008373046
 31
0.0
  0
LINE
  5
145
330
18
100
AcDbEntity
  8
ADP1DETAIL
100
AcDbLine
 10
62.0286568887209
 20
28.86774008373046
 30
0.0
 11
62.0286568887209
 21
40.61774008373046
 31
0.0
  0
LINE
  5
146
330
18
100
AcDbEntity
  8
ADP1DETAIL
100
AcDbLine
 10
61.47014625042303
 20
28.86774008373046
 30
0.0
 11
61.47014625042303
 21
40.61774008373046
 31
0.0
  0
LINE
  5
147
330
18
100
AcDbEntity
  8
ADP1DETAIL
100
AcDbLine
 10
61.47014625042303
 20
35.71089965819854
 30
0.0
 11
61.47014625042303
 21
28.86774008373046
 31
0.0
  0
LWPOLYLINE
  5
148
330
18
100
AcDbEntity
  8
ADP1DETAIL
100
AcDbPolyline
 90
        5
 70
     0
 43
0.0
 10
61.31057178233793
 20
28.86774008373046
 42
0.0023916749854514
 10
61.95821015146644
 20
26.61000413790224
 42
-0.1126899721613453
 10
61.95821015146644
 20
25.57277009534905
 42
0.1165458517905772
 10
62.01140164082814
 20
26.98234456343416
 42
-0.0073982094453667
 10
61.47014625042303
 20
28.86774008373046
 42
-198.0131942315293
  0
LWPOLYLINE
  5
14F
330
18
100
AcDbEntity
  8
ADP1DETAIL
100
AcDbPolyline
 90
        2
 70
     0
 43
0.0
 10
61.97338897381051
 20
25.54596661300275
 42
0.2144370259805719
 10
62.0286568887209
 20
28.86774008373046
 42
-1.567032339644884
  0
LINE
  5
153
330
18
100
AcDbEntity
  8
ADP1DETAIL
100
AcDbLine
 10
62.0286568887209
 20
40.61774008373046
 30
0.0
 11
60.7786568887209
 21
40.61774008373046
 31
0.0
  0
TEXT
  5
161
330
18
100
AcDbEntity
  8
ADPDIM
100
AcDbText
 10
22.24928274138121
 20
-3.824634799390608
 30
0.0
 40
0.75
  1
J U L I U S  B L U M  &  C O . ,  I N C .      ( 8 0 0 )  5 2 6 - 6 2 9 3        W W W . J U L I U S B L U M . C O M        P A R T  N o .  3 4 3 L
 41
1.25
  7
ARIAL_WIDE
 72
     1
 11
61.4036568887209
 21
-3.074634799390608
 31
0.0
100
AcDbText
 73
     3
  0
DIMENSION
  5
66E
330
18
100
AcDbEntity
  8
ADPDIM
 62
     3
100
AcDbDimension
  2
*D5
 10
62.97610911483582
 20
28.86774008373046
 30
0.0
 11
62.97610911483581
 21
34.74274008373047
 31
0.0
 70
    32
 71
     5
 42
11.75
  3
STANDARD
100
AcDbAlignedDimension
 13
62.0286568887209
 23
40.61774008373046
 33
0.0
 14
62.0286568887209
 24
28.86774008373046
 34
0.0
 50
90.0
100
AcDbRotatedDimension
1001
ACAD
1000
DSTYLE
1002
{
1070
   276
1070
     2
1070
    41
1040
0.25
1070
    73
1070
     0
1070
    74
1070
     0
1070
    78
1070
     3
1070
   140
1040
0.5
1070
   141
1040
0.1875
1070
   147
1040
0.125
1070
   171
1070
     1
1070
   173
1070
     1
1070
   274
1070
     1
1070
   277
1070
     5
1070
   343
1005
366
1070
   344
1005
366
1002
}
  0
DIMENSION
  5
67C
330
18
100
AcDbEntity
  8
ADPDIM
 62
     3
100
AcDbDimension
  2
*D6
 10
63.014273052889
 20
16.11778901990066
 30
0.0
 11
63.014273052889
 21
8.367789019900669
 31
0.0
 70
    32
 71
     5
 42
15.5
  3
STANDARD
100
AcDbAlignedDimension
 13
62.0286568887209
 23
0.6177890199006582
 33
0.0
 14
62.0286568887209
 24
16.11778901990066
 34
0.0
 50
90.0
100
AcDbRotatedDimension
1001
ACAD
1000
DSTYLE
1002
{
1070
   276
1070
     2
1070
    41
1040
0.25
1070
    73
1070
     0
1070
    74
1070
     0
1070
    78
1070
     3
1070
   140
1040
0.5
1070
   141
1040
0.1875
1070
   147
1040
0.125
1070
   171
1070
     1
1070
   173
1070
     1
1070
   274
1070
     1
1070
   277
1070
     5
1070
   343
1005
366
1070
   344
1005
366
1002
}
  0
ENDSEC
  0
SECTION
  2
OBJECTS
  0
DICTIONARY
  5
C
330
0
100
AcDbDictionary
281
     1
  3
ACAD_COLOR
350
64C
  3
ACAD_GROUP
350
D
  3
ACAD_LAYOUT
350
15A
  3
ACAD_MATERIAL
350
637
  3
ACAD_MLINESTYLE
350
E
  3
ACAD_PLOTSETTINGS
350
15B
  3
ACAD_PLOTSTYLENAME
350
158
  3
ACAD_TABLESTYLE
350
64D
  3
ACAD_VISUALSTYLE
350
63B
  3
AcDbVariableDictionary
350
1BB
  3
DWGPROPS
350
712
  0
DICTIONARY
  5
1B5
330
18
100
AcDbDictionary
280
     1
281
     1
  3
ACAD_LAYOUTSELFREF
360
61D
  0
DICTIONARY
  5
1B3
330
15
100
AcDbDictionary
280
     1
281
     1
  3
ACAD_LAYOUTSELFREF
360
61C
  0
DICTIONARY
  5
64C
102
{ACAD_REACTORS
330
C
102
}
330
C
100
AcDbDictionary
281
     1
  0
DICTIONARY
  5
D
102
{ACAD_REACTORS
330
C
102
}
330
C
100
AcDbDictionary
281
     1
  0
DICTIONARY
  5
15A
102
{ACAD_REACTORS
330
C
102
}
330
C
100
AcDbDictionary
281
     1
  3
Layout1
350
15D
  3
Model
350
15C
  0
DICTIONARY
  5
637
102
{ACAD_REACTORS
330
C
102
}
330
C
100
AcDbDictionary
281
     1
  3
ByBlock
350
639
  3
ByLayer
350
638
  3
Global
350
63A
  0
DICTIONARY
  5
E
102
{ACAD_REACTORS
330
C
102
}
330
C
100
AcDbDictionary
281
     1
  3
STANDARD
350
1B
  0
DICTIONARY
  5
15B
102
{ACAD_REACTORS
330
C
102
}
330
C
100
AcDbDictionary
281
     1
  0
ACDBDICTIONARYWDFLT
  5
158
102
{ACAD_REACTORS
330
C
102
}
330
C
100
AcDbDictionary
281
     1
  3
Normal
350
159
100
AcDbDictionaryWithDefault
340
159
  0
DICTIONARY
  5
64D
102
{ACAD_REACTORS
330
C
102
}
330
C
100
AcDbDictionary
281
     1
  3
Standard
350
64E
  0
DICTIONARY
  5
63B
102
{ACAD_REACTORS
330
C
102
}
330
C
100
AcDbDictionary
281
     1
  3
2dWireframe
350
641
  3
3D Hidden
350
643
  3
3dWireframe
350
642
  3
Basic
350
640
  3
Brighten
350
647
  3
ColorChange
350
64B
  3
Conceptual
350
644
  3
Dim
350
646
  3
Facepattern
350
64A
  3
Flat
350
63C
  3
FlatWithEdges
350
63D
  3
Gouraud
350
63E
  3
GouraudWithEdges
350
63F
  3
Linepattern
350
649
  3
Realistic
350
645
  3
Thicken
350
648
  0
DICTIONARY
  5
1BB
102
{ACAD_REACTORS
330
C
102
}
330
C
100
AcDbDictionary
281
     1
  3
CTABLESTYLE
350
70F
  3
DIMASSOC
350
1BC
  3
INDEXCTL
350
711
  3
SORTENTS
350
710
  0
XRECORD
  5
712
102
{ACAD_REACTORS
330
C
102
}
330
C
100
AcDbXrecord
280
     1
  1
DWGPROPS COOKIE
  2

  3

  4

  6

  7

  8
Yu Hu
  9

300
=
301
=
302
=
303
=
304
=
305
=
306
=
307
=
308
=
309
=
 40
0.0857530555555556
 41
2450374.48707426
 42
2453954.594983276
  1

 90
        0
  0
XRECORD
  5
61D
102
{ACAD_REACTORS
330
1B5
102
}
330
1B5
100
AcDbXrecord
280
     1
340
18
  0
XRECORD
  5
61C
102
{ACAD_REACTORS
330
1B3
102
}
330
1B3
100
AcDbXrecord
280
     1
340
15
  0
LAYOUT
  5
15D
102
{ACAD_XDICTIONARY
360
715
102
}
102
{ACAD_REACTORS
330
15A
102
}
330
15A
100
AcDbPlotSettings
  1

  2
Fax
  4

  6

 40
0.0
 41
0.0
 42
0.0
 43
0.0
 44
0.0
 45
0.0
 46
0.0
 47
0.0
 48
0.0
 49
0.0
140
0.0
141
0.0
142
1.0
143
1.0
 70
   688
 72
     0
 73
     0
 74
     5
  7
Default R14 pen assignments.ctb
 75
    16
147
1.0
148
0.0
149
0.0
100
AcDbLayout
  1
Layout1
 70
     1
 71
     1
 10
0.0
 20
0.0
 11
12.0
 21
9.0
 12
0.0
 22
0.0
 32
0.0
 14
1.000000000000000E+20
 24
1.000000000000000E+20
 34
1.000000000000000E+20
 15
-1.000000000000000E+20
 25
-1.000000000000000E+20
 35
-1.000000000000000E+20
146
0.0
 13
0.0
 23
0.0
 33
0.0
 16
1.0
 26
0.0
 36
0.0
 17
0.0
 27
1.0
 37
0.0
 76
     0
330
15
  0
LAYOUT
  5
15C
102
{ACAD_XDICTIONARY
360
713
102
}
102
{ACAD_REACTORS
330
15A
102
}
330
15A
100
AcDbPlotSettings
  1

  2
Fax
  4

  6

 40
0.0
 41
0.0
 42
0.0
 43
0.0
 44
0.0
 45
0.0
 46
0.0
 47
0.0
 48
0.0
 49
0.0
140
0.0
141
0.0
142
1.0
143
1.0
 70
  1712
 72
     0
 73
     0
 74
     0
  7
Default R14 pen assignments.ctb
 75
     0
147
1.0
148
0.0
149
0.0
100
AcDbLayout
  1
Model
 70
     1
 71
     0
 10
0.0
 20
0.0
 11
12.0
 21
9.0
 12
0.0
 22
0.0
 32
0.0
 14
0.0
 24
0.0
 34
0.0
 15
0.0
 25
0.0
 35
0.0
146
0.0
 13
0.0
 23
0.0
 33
0.0
 16
1.0
 26
0.0
 36
0.0
 17
0.0
 27
1.0
 37
0.0
 76
     0
330
18
331
5F4
  0
MATERIAL
  5
639
102
{ACAD_XDICTIONARY
360
719
102
}
102
{ACAD_REACTORS
330
637
102
}
330
637
100
AcDbMaterial
  1
ByBlock
  0
MATERIAL
  5
638
102
{ACAD_XDICTIONARY
360
717
102
}
102
{ACAD_REACTORS
330
637
102
}
330
637
100
AcDbMaterial
  1
ByLayer
  0
MATERIAL
  5
63A
102
{ACAD_XDICTIONARY
360
71B
102
}
102
{ACAD_REACTORS
330
637
102
}
330
637
100
AcDbMaterial
  1
Global
  0
MLINESTYLE
  5
1B
102
{ACAD_REACTORS
330
E
102
}
330
E
100
AcDbMlineStyle
  2
STANDARD
 70
     0
  3

 62
     0
 51
90.0
 52
90.0
 71
     2
 49
0.5
 62
   256
  6
BYLAYER
 49
-0.5
 62
   256
  6
BYLAYER
  0
ACDBPLACEHOLDER
  5
159
102
{ACAD_REACTORS
330
158
102
}
330
158
  0
TABLESTYLE
  5
64E
102
{ACAD_XDICTIONARY
360
71D
102
}
102
{ACAD_REACTORS
330
64D
102
}
330
64D
100
AcDbTableStyle
  3
Standard
 70
     0
 71
     0
 40
0.06
 41
0.06
280
     0
281
     0
  7
STANDARD
140
0.18
170
     2
 62
     0
 63
     7
283
     0
274
    -2
284
     1
 64
     0
275
    -2
285
     1
 65
     0
276
    -2
286
     1
 66
     0
277
    -2
287
     1
 67
     0
278
    -2
288
     1
 68
     0
279
    -2
289
     1
 69
     0
  7
STANDARD
140
0.25
170
     5
 62
     0
 63
     7
283
     0
274
    -2
284
     1
 64
     0
275
    -2
285
     1
 65
     0
276
    -2
286
     1
 66
     0
277
    -2
287
     1
 67
     0
278
    -2
288
     1
 68
     0
279
    -2
289
     1
 69
     0
  7
STANDARD
140
0.18
170
     5
 62
     0
 63
     7
283
     0
274
    -2
284
     1
 64
     0
275
    -2
285
     1
 65
     0
276
    -2
286
     1
 66
     0
277
    -2
287
     1
 67
     0
278
    -2
288
     1
 68
     0
279
    -2
289
     1
 69
     0
  0
VISUALSTYLE
  5
641
102
{ACAD_REACTORS
330
63B
102
}
330
63B
100
AcDbVisualStyle
  2
2dWireframe
 70
     4
 71
     0
 72
     2
 73
     0
 90
        0
 40
-0.6
 41
-30.0
 62
     5
 63
     7
 74
     1
 91
        4
 64
     7
 65
   257
 75
     1
175
     1
 42
1.0
 92
        0
 66
   257
 43
1.0
 76
     1
 77
     6
 78
     2
 67
     7
 79
     5
170
     0
171
     0
290
     0
174
     0
 93
        1
 44
0.0
173
     0
291
     0
 45
0.0
1001
ACAD
1000
AcDbSavedByObjectVersion
1070
     0
  0
VISUALSTYLE
  5
643
102
{ACAD_REACTORS
330
63B
102
}
330
63B
100
AcDbVisualStyle
  2
3D Hidden
 70
     6
 71
     1
 72
     2
 73
     2
 90
        0
 40
-0.6
 41
-30.0
 62
     5
 63
     7
 74
     2
 91
        2
 64
     7
 65
   257
 75
     2
175
     1
 42
40.0
 92
        0
 66
   257
 43
1.0
 76
     1
 77
     6
 78
     2
 67
     7
 79
     3
170
     0
171
     0
290
     0
174
     0
 93
        1
 44
0.0
173
     0
291
     0
 45
0.0
1001
ACAD
1000
AcDbSavedByObjectVersion
1070
     0
  0
VISUALSTYLE
  5
642
102
{ACAD_REACTORS
330
63B
102
}
330
63B
100
AcDbVisualStyle
  2
3dWireframe
 70
     5
 71
     0
 72
     2
 73
     0
 90
        0
 40
-0.6
 41
-30.0
 62
     5
 63
     7
 74
     1
 91
        4
 64
     7
 65
   257
 75
     1
175
     1
 42
1.0
 92
        0
 66
   257
 43
1.0
 76
     1
 77
     6
 78
     2
 67
     7
 79
     5
170
     0
171
     0
290
     0
174
     0
 93
        1
 44
0.0
173
     0
291
     0
 45
0.0
1001
ACAD
1000
AcDbSavedByObjectVersion
1070
     0
  0
VISUALSTYLE
  5
640
102
{ACAD_REACTORS
330
63B
102
}
330
63B
100
AcDbVisualStyle
  2
Basic
 70
     7
 71
     1
 72
     0
 73
     1
 90
        0
 40
-0.6
 41
-30.0
 62
     5
 63
     7
 74
     0
 91
        4
 64
     7
 65
   257
 75
     1
175
     1
 42
1.0
 92
        8
 66
     7
 43
1.0
 76
     1
 77
     6
 78
     2
 67
     7
 79
     5
170
     0
171
     0
290
     0
174
     0
 93
        1
 44
0.0
173
     0
291
     1
 45
0.0
1001
ACAD
1000
AcDbSavedByObjectVersion
1070
     0
  0
VISUALSTYLE
  5
647
102
{ACAD_REACTORS
330
63B
102
}
330
63B
100
AcDbVisualStyle
  2
Brighten
 70
    12
 71
     2
 72
     2
 73
     0
 90
        0
 40
-0.6
 41
-30.0
 62
     5
 63
     7
 74
     1
 91
        4
 64
     7
 65
   257
 75
     1
175
     1
 42
1.0
 92
        8
 66
     7
 43
1.0
 76
     1
 77
     6
 78
     2
 67
     7
 79
     5
170
     0
171
     0
290
     0
174
     0
 93
        1
 44
50.0
173
     0
291
     1
 45
0.0
1001
ACAD
1000
AcDbSavedByObjectVersion
1070
     0
  0
VISUALSTYLE
  5
64B
102
{ACAD_REACTORS
330
63B
102
}
330
63B
100
AcDbVisualStyle
  2
ColorChange
 70
    16
 71
     2
 72
     2
 73
     3
 90
        0
 40
-0.6
 41
-30.0
 62
     5
 63
     8
 74
     1
 91
        4
 64
     7
 65
   257
 75
     1
175
     1
 42
1.0
 92
        8
 66
     8
 43
1.0
 76
     1
 77
     6
 78
     2
 67
     7
 79
     5
170
     0
171
     0
290
     0
174
     0
 93
        1
 44
0.0
173
     0
291
     1
 45
0.0
1001
ACAD
1000
AcDbSavedByObjectVersion
1070
     0
  0
VISUALSTYLE
  5
644
102
{ACAD_REACTORS
330
63B
102
}
330
63B
100
AcDbVisualStyle
  2
Conceptual
 70
     9
 71
     3
 72
     2
 73
     0
 90
        0
 40
-0.6
 41
-30.0
 62
     5
 63
     7
 74
     2
 91
        2
 64
     7
 65
   257
 75
     1
175
     1
 42
40.0
 92
        8
 66
     7
 43
1.0
 76
     1
 77
     6
 78
     2
 67
     7
 79
     3
170
     0
171
     0
290
     0
174
     0
 93
        1
 44
0.0
173
     0
291
     0
 45
0.0
1001
ACAD
1000
AcDbSavedByObjectVersion
1070
     0
  0
VISUALSTYLE
  5
646
102
{ACAD_REACTORS
330
63B
102
}
330
63B
100
AcDbVisualStyle
  2
Dim
 70
    11
 71
     2
 72
     2
 73
     0
 90
        0
 40
-0.6
 41
-30.0
 62
     5
 63
     7
 74
     1
 91
        4
 64
     7
 65
   257
 75
     1
175
     1
 42
1.0
 92
        8
 66
     7
 43
1.0
 76
     1
 77
     6
 78
     2
 67
     7
 79
     5
170
     0
171
     0
290
     0
174
     0
 93
        1
 44
-50.0
173
     0
291
     1
 45
0.0
1001
ACAD
1000
AcDbSavedByObjectVersion
1070
     0
  0
VISUALSTYLE
  5
64A
102
{ACAD_REACTORS
330
63B
102
}
330
63B
100
AcDbVisualStyle
  2
Facepattern
 70
    15
 71
     2
 72
     2
 73
     0
 90
        0
 40
-0.6
 41
-30.0
 62
     5
 63
     7
 74
     1
 91
        4
 64
     7
 65
   257
 75
     1
175
     1
 42
1.0
 92
        8
 66
     7
 43
1.0
 76
     1
 77
     6
 78
     2
 67
     7
 79
     5
170
     0
171
     0
290
     0
174
     0
 93
        1
 44
0.0
173
     0
291
     1
 45
0.0
1001
ACAD
1000
AcDbSavedByObjectVersion
1070
     0
  0
VISUALSTYLE
  5
63C
102
{ACAD_REACTORS
330
63B
102
}
330
63B
100
AcDbVisualStyle
  2
Flat
 70
     0
 71
     2
 72
     1
 73
     1
 90
        2
 40
-0.6
 41
30.0
 62
     5
 63
     7
 74
     0
 91
        4
 64
     7
 65
   257
 75
     1
175
     1
 42
1.0
 92
        8
 66
     7
 43
1.0
 76
     1
 77
     6
 78
     2
 67
     7
 79
     5
170
     0
171
     0
290
     0
174
     0
 93
       13
 44
0.0
173
     0
291
     1
 45
0.0
1001
ACAD
1000
AcDbSavedByObjectVersion
1070
     0
  0
VISUALSTYLE
  5
63D
102
{ACAD_REACTORS
330
63B
102
}
330
63B
100
AcDbVisualStyle
  2
FlatWithEdges
 70
     1
 71
     2
 72
     1
 73
     1
 90
        2
 40
-0.6
 41
30.0
 62
     5
 63
     7
 74
     1
 91
        4
 64
     7
 65
   257
 75
     1
175
     1
 42
1.0
 92
        0
 66
   257
 43
1.0
 76
     1
 77
     6
 78
     2
 67
     7
 79
     5
170
     0
171
     0
290
     0
174
     0
 93
       13
 44
0.0
173
     0
291
     1
 45
0.0
1001
ACAD
1000
AcDbSavedByObjectVersion
1070
     0
  0
VISUALSTYLE
  5
63E
102
{ACAD_REACTORS
330
63B
102
}
330
63B
100
AcDbVisualStyle
  2
Gouraud
 70
     2
 71
     2
 72
     2
 73
     1
 90
        2
 40
-0.6
 41
30.0
 62
     5
 63
     7
 74
     0
 91
        4
 64
     7
 65
   257
 75
     1
175
     1
 42
1.0
 92
        0
 66
     7
 43
1.0
 76
     1
 77
     6
 78
     2
 67
     7
 79
     5
170
     0
171
     0
290
     0
174
     0
 93
       13
 44
0.0
173
     0
291
     1
 45
0.0
1001
ACAD
1000
AcDbSavedByObjectVersion
1070
     0
  0
VISUALSTYLE
  5
63F
102
{ACAD_REACTORS
330
63B
102
}
330
63B
100
AcDbVisualStyle
  2
GouraudWithEdges
 70
     3
 71
     2
 72
     2
 73
     1
 90
        2
 40
-0.6
 41
30.0
 62
     5
 63
     7
 74
     1
 91
        4
 64
     7
 65
   257
 75
     1
175
     1
 42
1.0
 92
        0
 66
   257
 43
1.0
 76
     1
 77
     6
 78
     2
 67
     7
 79
     5
170
     0
171
     0
290
     0
174
     0
 93
       13
 44
0.0
173
     0
291
     1
 45
0.0
1001
ACAD
1000
AcDbSavedByObjectVersion
1070
     0
  0
VISUALSTYLE
  5
649
102
{ACAD_REACTORS
330
63B
102
}
330
63B
100
AcDbVisualStyle
  2
Linepattern
 70
    14
 71
     2
 72
     2
 73
     0
 90
        0
 40
-0.6
 41
-30.0
 62
     5
 63
     7
 74
     1
 91
        4
 64
     7
 65
   257
 75
     7
175
     7
 42
1.0
 92
        8
 66
     7
 43
1.0
 76
     1
 77
     6
 78
     2
 67
     7
 79
     5
170
     0
171
     0
290
     0
174
     0
 93
        1
 44
0.0
173
     0
291
     1
 45
0.0
1001
ACAD
1000
AcDbSavedByObjectVersion
1070
     0
  0
VISUALSTYLE
  5
645
102
{ACAD_REACTORS
330
63B
102
}
330
63B
100
AcDbVisualStyle
  2
Realistic
 70
     8
 71
     2
 72
     2
 73
     0
 90
        0
 40
-0.6
 41
-30.0
 62
     5
 63
     7
 74
     1
 91
        0
 64
     7
 65
   257
 75
     1
175
     1
 42
1.0
 92
        8
 66
     8
 43
1.0
 76
     1
 77
     6
 78
     2
 67
     7
 79
     5
170
     0
171
     0
290
     0
174
     0
 93
       13
 44
0.0
173
     0
291
     0
 45
0.0
1001
ACAD
1000
AcDbSavedByObjectVersion
1070
     0
  0
VISUALSTYLE
  5
648
102
{ACAD_REACTORS
330
63B
102
}
330
63B
100
AcDbVisualStyle
  2
Thicken
 70
    13
 71
     2
 72
     2
 73
     0
 90
        0
 40
-0.6
 41
-30.0
 62
     5
 63
     7
 74
     1
 91
        4
 64
     7
 65
   257
 75
     1
175
     1
 42
1.0
 92
       12
 66
     7
 43
1.0
 76
     1
 77
     6
 78
     2
 67
     7
 79
     5
170
     0
171
     0
290
     0
174
     0
 93
        1
 44
0.0
173
     0
291
     1
 45
0.0
1001
ACAD
1000
AcDbSavedByObjectVersion
1070
     0
  0
DICTIONARYVAR
  5
70F
102
{ACAD_REACTORS
330
1BB
102
}
330
1BB
100
DictionaryVariables
280
     0
  1
STANDARD
  0
DICTIONARYVAR
  5
1BC
102
{ACAD_REACTORS
330
1BB
102
}
330
1BB
100
DictionaryVariables
280
     0
  1
1
  0
DICTIONARYVAR
  5
711
102
{ACAD_REACTORS
330
1BB
102
}
330
1BB
100
DictionaryVariables
280
     0
  1
0
  0
DICTIONARYVAR
  5
710
102
{ACAD_REACTORS
330
1BB
102
}
330
1BB
100
DictionaryVariables
280
     0
  1
127
  0
DICTIONARY
  5
715
330
15D
100
AcDbDictionary
280
     1
281
     1
  3
ACAD_XREC_ROUNDTRIP
360
716
  0
DICTIONARY
  5
713
330
15C
100
AcDbDictionary
280
     1
281
     1
  3
ACAD_XREC_ROUNDTRIP
360
714
  0
DICTIONARY
  5
719
330
639
100
AcDbDictionary
280
     1
281
     1
  3
ACAD_XREC_ROUNDTRIP
360
71A
  0
DICTIONARY
  5
717
330
638
100
AcDbDictionary
280
     1
281
     1
  3
ACAD_XREC_ROUNDTRIP
360
718
  0
DICTIONARY
  5
71B
330
63A
100
AcDbDictionary
280
     1
281
     1
  3
ACAD_XREC_ROUNDTRIP
360
71C
  0
DICTIONARY
  5
71D
330
64E
100
AcDbDictionary
280
     1
281
     1
  3
ACAD_XREC_ROUNDTRIP
360
71E
  0
XRECORD
  5
716
102
{ACAD_REACTORS
330
715
102
}
330
715
100
AcDbXrecord
280
     1
102
SHADEPLOT
 70
     0
102
SHADEPLOTRESLEVEL
 70
     2
102
SHADEPLOTCUSTOMDPI
 70
   300
  0
XRECORD
  5
714
102
{ACAD_REACTORS
330
713
102
}
330
713
100
AcDbXrecord
280
     1
102
SHADEPLOT
 70
     0
102
SHADEPLOTRESLEVEL
 70
     2
102
SHADEPLOTCUSTOMDPI
 70
   300
  0
XRECORD
  5
71A
102
{ACAD_REACTORS
330
719
102
}
330
719
100
AcDbXrecord
280
     1
102
MATERIAL
148
0.0
149
0.0
149
0.0
 93
        0
 94
       63
282
     0
 72
     1
 77
     1
171
     1
175
     1
179
     1
273
     0
  0
XRECORD
  5
718
102
{ACAD_REACTORS
330
717
102
}
330
717
100
AcDbXrecord
280
     1
102
MATERIAL
148
0.0
149
0.0
149
0.0
 93
        0
 94
       63
282
     0
 72
     1
 77
     1
171
     1
175
     1
179
     1
273
     0
  0
XRECORD
  5
71C
102
{ACAD_REACTORS
330
71B
102
}
330
71B
100
AcDbXrecord
280
     1
102
MATERIAL
148
0.0
149
0.0
149
0.0
 93
        0
 94
       63
282
     0
 72
     1
 77
     1
171
     1
175
     1
179
     1
273
     0
  0
XRECORD
  5
71E
102
{ACAD_REACTORS
330
71D
102
}
330
71D
100
AcDbXrecord
280
     1
102
ACAD_ROUNDTRIP_PRE2007_TABLESTYLE
 90
      512
 91
        0
  1

 92
      512
 93
        0
  2

 94
      512
 95
        0
  3

  0
ENDSEC
  0
EOF
