  0
SECTION
  2
HEADER
  9
$ACADVER
  1
AC1015
  9
$ACADMAINTVER
 70
    20
  9
$DWGCODEPAGE
  3
ANSI_1252
  9
$INSBASE
 10
15.32470578518698
 20
16.03030053896625
 30
0.0
  9
$EXTMIN
 10
9.281492178784146
 20
14.66518614367205
 30
0.0
  9
$EXTMAX
 10
18.93355348505972
 20
19.33317775801421
 30
0.3125
  9
$LIMMIN
 10
0.0
 20
0.0
  9
$LIMMAX
 10
36.0
 20
36.0
  9
$ORTHOMODE
 70
     0
  9
$REGENMODE
 70
     1
  9
$FILLMODE
 70
     1
  9
$QTEXTMODE
 70
     0
  9
$MIRRTEXT
 70
     1
  9
$LTSCALE
 40
1.0
  9
$ATTMODE
 70
     1
  9
$TEXTSIZE
 40
0.2
  9
$TRACEWID
 40
0.05
  9
$TEXTSTYLE
  7
STANDARD
  9
$CLAYER
  8
0
  9
$CELTYPE
  6
BYLAYER
  9
$CECOLOR
 62
   256
  9
$CELTSCALE
 40
1.0
  9
$DISPSILH
 70
     0
  9
$DIMSCALE
 40
1.0
  9
$DIMASZ
 40
0.125
  9
$DIMEXO
 40
0.0625
  9
$DIMDLI
 40
0.38
  9
$DIMRND
 40
0.0
  9
$DIMDLE
 40
0.0
  9
$DIMEXE
 40
0.18
  9
$DIMTP
 40
0.0
  9
$DIMTM
 40
0.0
  9
$DIMTXT
 40
0.125
  9
$DIMCEN
 40
0.1875
  9
$DIMTSZ
 40
0.125
  9
$DIMTOL
 70
     0
  9
$DIMLIM
 70
     0
  9
$DIMTIH
 70
     0
  9
$DIMTOH
 70
     0
  9
$DIMSE1
 70
     0
  9
$DIMSE2
 70
     0
  9
$DIMTAD
 70
     0
  9
$DIMZIN
 70
     3
  9
$DIMBLK
  1

  9
$DIMASO
 70
     1
  9
$DIMSHO
 70
     1
  9
$DIMPOST
  1

  9
$DIMAPOST
  1

  9
$DIMALT
 70
     0
  9
$DIMALTD
 70
     1
  9
$DIMALTF
 40
25.4
  9
$DIMLFAC
 40
1.0
  9
$DIMTOFL
 70
     0
  9
$DIMTVP
 40
0.0
  9
$DIMTIX
 70
     0
  9
$DIMSOXD
 70
     0
  9
$DIMSAH
 70
     0
  9
$DIMBLK1
  1

  9
$DIMBLK2
  1

  9
$DIMSTYLE
  2
STANDARD
  9
$DIMCLRD
 70
     0
  9
$DIMCLRE
 70
     0
  9
$DIMCLRT
 70
     0
  9
$DIMTFAC
 40
1.0
  9
$DIMGAP
 40
0.125
  9
$DIMJUST
 70
     0
  9
$DIMSD1
 70
     0
  9
$DIMSD2
 70
     0
  9
$DIMTOLJ
 70
     1
  9
$DIMTZIN
 70
     0
  9
$DIMALTZ
 70
     0
  9
$DIMALTTZ
 70
     0
  9
$DIMUPT
 70
     0
  9
$DIMDEC
 70
     4
  9
$DIMTDEC
 70
     4
  9
$DIMALTU
 70
     2
  9
$DIMALTTD
 70
     2
  9
$DIMTXSTY
  7
STANDARD
  9
$DIMAUNIT
 70
     0
  9
$DIMADEC
 70
     0
  9
$DIMALTRND
 40
0.0
  9
$DIMAZIN
 70
     0
  9
$DIMDSEP
 70
    46
  9
$DIMATFIT
 70
     3
  9
$DIMFRAC
 70
     0
  9
$DIMLDRBLK
  1

  9
$DIMLUNIT
 70
     2
  9
$DIMLWD
 70
    -2
  9
$DIMLWE
 70
    -2
  9
$DIMTMOVE
 70
     0
  9
$LUNITS
 70
     5
  9
$LUPREC
 70
     4
  9
$SKETCHINC
 40
0.1
  9
$FILLETRAD
 40
0.0
  9
$AUNITS
 70
     0
  9
$AUPREC
 70
     0
  9
$MENU
  1
acad
  9
$ELEVATION
 40
0.0
  9
$PELEVATION
 40
0.0
  9
$THICKNESS
 40
0.0
  9
$LIMCHECK
 70
     0
  9
$CHAMFERA
 40
0.0
  9
$CHAMFERB
 40
0.0
  9
$CHAMFERC
 40
0.0
  9
$CHAMFERD
 40
0.0
  9
$SKPOLY
 70
     0
  9
$TDCREATE
 40
2450374.572570209
  9
$TDUCREATE
 40
2450374.739236875
  9
$TDUPDATE
 40
2453954.579853067
  9
$TDUUPDATE
 40
2453954.746519734
  9
$TDINDWG
 40
0.0708856134
  9
$TDUSRTIMER
 40
0.0708856134
  9
$USRTIMER
 70
     1
  9
$ANGBASE
 50
0.0
  9
$ANGDIR
 70
     0
  9
$PDMODE
 70
     0
  9
$PDSIZE
 40
0.0
  9
$PLINEWID
 40
0.0
  9
$SPLFRAME
 70
     0
  9
$SPLINETYPE
 70
     6
  9
$SPLINESEGS
 70
     8
  9
$HANDSEED
  5
486
  9
$SURFTAB1
 70
     6
  9
$SURFTAB2
 70
     6
  9
$SURFTYPE
 70
     6
  9
$SURFU
 70
     6
  9
$SURFV
 70
     6
  9
$UCSBASE
  2

  9
$UCSNAME
  2

  9
$UCSORG
 10
0.0
 20
0.0
 30
0.0
  9
$UCSXDIR
 10
1.0
 20
0.0
 30
0.0
  9
$UCSYDIR
 10
0.0
 20
1.0
 30
0.0
  9
$UCSORTHOREF
  2

  9
$UCSORTHOVIEW
 70
     0
  9
$UCSORGTOP
 10
0.0
 20
0.0
 30
0.0
  9
$UCSORGBOTTOM
 10
0.0
 20
0.0
 30
0.0
  9
$UCSORGLEFT
 10
0.0
 20
0.0
 30
0.0
  9
$UCSORGRIGHT
 10
0.0
 20
0.0
 30
0.0
  9
$UCSORGFRONT
 10
0.0
 20
0.0
 30
0.0
  9
$UCSORGBACK
 10
0.0
 20
0.0
 30
0.0
  9
$PUCSBASE
  2

  9
$PUCSNAME
  2

  9
$PUCSORG
 10
0.0
 20
0.0
 30
0.0
  9
$PUCSXDIR
 10
1.0
 20
0.0
 30
0.0
  9
$PUCSYDIR
 10
0.0
 20
1.0
 30
0.0
  9
$PUCSORTHOREF
  2

  9
$PUCSORTHOVIEW
 70
     0
  9
$PUCSORGTOP
 10
0.0
 20
0.0
 30
0.0
  9
$PUCSORGBOTTOM
 10
0.0
 20
0.0
 30
0.0
  9
$PUCSORGLEFT
 10
0.0
 20
0.0
 30
0.0
  9
$PUCSORGRIGHT
 10
0.0
 20
0.0
 30
0.0
  9
$PUCSORGFRONT
 10
0.0
 20
0.0
 30
0.0
  9
$PUCSORGBACK
 10
0.0
 20
0.0
 30
0.0
  9
$USERI1
 70
     0
  9
$USERI2
 70
     0
  9
$USERI3
 70
     0
  9
$USERI4
 70
     0
  9
$USERI5
 70
     0
  9
$USERR1
 40
0.0
  9
$USERR2
 40
0.0
  9
$USERR3
 40
0.0
  9
$USERR4
 40
0.0
  9
$USERR5
 40
0.0
  9
$WORLDVIEW
 70
     1
  9
$SHADEDGE
 70
     3
  9
$SHADEDIF
 70
    70
  9
$TILEMODE
 70
     1
  9
$MAXACTVP
 70
    15
  9
$PINSBASE
 10
0.0
 20
0.0
 30
0.0
  9
$PLIMCHECK
 70
     0
  9
$PEXTMIN
 10
1.000000000000000E+20
 20
1.000000000000000E+20
 30
1.000000000000000E+20
  9
$PEXTMAX
 10
-1.000000000000000E+20
 20
-1.000000000000000E+20
 30
-1.000000000000000E+20
  9
$PLIMMIN
 10
0.0
 20
0.0
  9
$PLIMMAX
 10
12.0
 20
9.0
  9
$UNITMODE
 70
     0
  9
$VISRETAIN
 70
     0
  9
$PLINEGEN
 70
     0
  9
$PSLTSCALE
 70
     1
  9
$TREEDEPTH
 70
  3020
  9
$CMLSTYLE
  2
STANDARD
  9
$CMLJUST
 70
     0
  9
$CMLSCALE
 40
1.0
  9
$PROXYGRAPHICS
 70
     1
  9
$MEASUREMENT
 70
     0
  9
$CELWEIGHT
370
    -1
  9
$ENDCAPS
280
     0
  9
$JOINSTYLE
280
     0
  9
$LWDISPLAY
290
     0
  9
$INSUNITS
 70
     0
  9
$HYPERLINKBASE
  1

  9
$STYLESHEET
  1

  9
$XEDIT
290
     1
  9
$CEPSNTYPE
380
     0
  9
$PSTYLEMODE
290
     1
  9
$FINGERPRINTGUID
  2
{13C0E46E-9FE7-489A-AA25-6A1C0EBA5D53}
  9
$VERSIONGUID
  2
{544D69A1-24E9-46C2-9A04-1FBD7DC61EB1}
  9
$EXTNAMES
290
     1
  9
$PSVPSCALE
 40
0.0
  9
$OLESTARTUP
290
     0
  0
ENDSEC
  0
SECTION
  2
CLASSES
  0
CLASS
  1
ACDBDICTIONARYWDFLT
  2
AcDbDictionaryWithDefault
  3
ObjectDBX Classes
 90
        0
280
     0
281
     0
  0
CLASS
  1
ACDBPLACEHOLDER
  2
AcDbPlaceHolder
  3
ObjectDBX Classes
 90
        0
280
     0
281
     0
  0
CLASS
  1
LAYOUT
  2
AcDbLayout
  3
ObjectDBX Classes
 90
        0
280
     0
281
     0
  0
CLASS
  1
DICTIONARYVAR
  2
AcDbDictionaryVar
  3
ObjectDBX Classes
 90
        0
280
     0
281
     0
  0
CLASS
  1
MATERIAL
  2
AcDbMaterial
  3
ObjectDBX Classes
 90
     1024
280
     0
281
     0
  0
CLASS
  1
VISUALSTYLE
  2
AcDbVisualStyle
  3
ObjectDBX Classes
 90
     4095
280
     0
281
     0
  0
CLASS
  1
TABLESTYLE
  2
AcDbTableStyle
  3
ObjectDBX Classes
 90
     4095
280
     0
281
     0
  0
ENDSEC
  0
SECTION
  2
TABLES
  0
TABLE
  2
VPORT
  5
8
330
0
100
AcDbSymbolTable
 70
     1
  0
VPORT
  5
38A
330
8
100
AcDbSymbolTableRecord
100
AcDbViewportTableRecord
  2
*Active
 70
     0
 10
0.0
 20
0.0
 11
1.0
 21
1.0
 12
14.32610212152823
 22
16.76611551066579
 13
0.0
 23
0.0
 14
0.5740882589684922
 24
0.5740882589684922
 15
0.5
 25
0.5
 16
0.0
 26
0.0
 36
1.0
 17
0.0
 27
0.0
 37
0.0
 40
4.897288989149082
 41
1.774011299435028
 42
50.0
 43
0.0
 44
0.0
 50
0.0
 51
0.0
 71
     0
 72
   100
 73
     1
 74
     0
 75
     0
 76
     0
 77
     0
 78
     0
281
     0
 65
     1
110
0.0
120
0.0
130
0.0
111
1.0
121
0.0
131
0.0
112
0.0
122
1.0
132
0.0
 79
     0
146
0.0
  0
ENDTAB
  0
TABLE
  2
LTYPE
  5
5
330
0
100
AcDbSymbolTable
 70
     4
  0
LTYPE
  5
12
330
5
100
AcDbSymbolTableRecord
100
AcDbLinetypeTableRecord
  2
BYBLOCK
 70
     0
  3

 72
    65
 73
     0
 40
0.0
  0
LTYPE
  5
13
330
5
100
AcDbSymbolTableRecord
100
AcDbLinetypeTableRecord
  2
BYLAYER
 70
     0
  3

 72
    65
 73
     0
 40
0.0
  0
LTYPE
  5
14
330
5
100
AcDbSymbolTableRecord
100
AcDbLinetypeTableRecord
  2
CONTINUOUS
 70
     0
  3
Solid line
 72
    65
 73
     0
 40
0.0
  0
LTYPE
  5
16A
330
5
100
AcDbSymbolTableRecord
100
AcDbLinetypeTableRecord
  2
HIDDEN2
 70
     0
  3
_ _ _ _ _ _ _ _ _ _ _ _ _ _ _ _ _ _ _ _ _ _ _ _
 72
    65
 73
     2
 40
0.1875
 49
0.125
 74
     0
 49
-0.0625
 74
     0
  0
LTYPE
  5
16D
330
5
100
AcDbSymbolTableRecord
100
AcDbLinetypeTableRecord
  2
DASHED2
 70
     0
  3
_ _ _ _ _ _ _ _ _ _ _ _ _ _ _ _ _ _ _ _ _ _ _ _
 72
    65
 73
     2
 40
0.375
 49
0.25
 74
     0
 49
-0.125
 74
     0
  0
ENDTAB
  0
TABLE
  2
LAYER
  5
2
330
0
100
AcDbSymbolTable
 70
     4
  0
LAYER
  5
F
330
2
100
AcDbSymbolTableRecord
100
AcDbLayerTableRecord
  2
0
 70
     0
 62
     7
  6
CONTINUOUS
370
    -3
390
20F
  0
LAYER
  5
173
330
2
100
AcDbSymbolTableRecord
100
AcDbLayerTableRecord
  2
DEFPOINTS
 70
     0
 62
     7
  6
CONTINUOUS
290
     0
370
    -3
390
20F
  0
LAYER
  5
174
330
2
100
AcDbSymbolTableRecord
100
AcDbLayerTableRecord
  2
ADPDIM
 70
     0
 62
     3
  6
CONTINUOUS
370
    -3
390
20F
  0
LAYER
  5
175
330
2
100
AcDbSymbolTableRecord
100
AcDbLayerTableRecord
  2
ADP2DETAIL
 70
     0
 62
     5
  6
HIDDEN2
370
    -3
390
20F
  0
ENDTAB
  0
TABLE
  2
STYLE
  5
3
330
0
100
AcDbSymbolTable
 70
     2
  0
STYLE
  5
10
330
3
100
AcDbSymbolTableRecord
100
AcDbTextStyleTableRecord
  2
STANDARD
 70
     0
 40
0.0
 41
1.0
 50
0.0
 71
     0
 42
0.2
  3
txt
  4

  0
STYLE
  5
216
330
3
100
AcDbSymbolTableRecord
100
AcDbTextStyleTableRecord
  2
ARIAL_WIDE
 70
     0
 40
0.0
 41
1.25
 50
0.0
 71
     0
 42
0.2
  3
ARIAL.TTF
  4

1001
ACAD
1000
Arial
1071
       34
  0
ENDTAB
  0
TABLE
  2
VIEW
  5
6
330
0
100
AcDbSymbolTable
 70
     0
  0
ENDTAB
  0
TABLE
  2
UCS
  5
7
330
0
100
AcDbSymbolTable
 70
     0
  0
ENDTAB
  0
TABLE
  2
APPID
  5
9
330
0
100
AcDbSymbolTable
 70
     1
  0
APPID
  5
11
330
9
100
AcDbSymbolTableRecord
100
AcDbRegAppTableRecord
  2
ACAD
 70
     0
  0
ENDTAB
  0
TABLE
  2
DIMSTYLE
  5
A
330
0
100
AcDbSymbolTable
 70
     2
100
AcDbDimStyleTable
 71
     1
340
20A
  0
DIMSTYLE
105
20A
102
{ACAD_REACTORS
330
403
330
205
102
}
330
A
100
AcDbSymbolTableRecord
100
AcDbDimStyleTableRecord
  2
STANDARD
 70
     0
340
10
  0
ENDTAB
  0
TABLE
  2
BLOCK_RECORD
  5
1
330
0
100
AcDbSymbolTable
 70
     8
  0
BLOCK_RECORD
  5
18
102
{ACAD_XDICTIONARY
360
26B
102
}
330
1
100
AcDbSymbolTableRecord
100
AcDbBlockTableRecord
  2
*MODEL_SPACE
340
212
  0
BLOCK_RECORD
  5
15
102
{ACAD_XDICTIONARY
360
269
102
}
330
1
100
AcDbSymbolTableRecord
100
AcDbBlockTableRecord
  2
*PAPER_SPACE
340
213
  0
BLOCK_RECORD
  5
164
330
1
100
AcDbSymbolTableRecord
100
AcDbBlockTableRecord
  2
*D0
340
0
  0
BLOCK_RECORD
  5
165
330
1
100
AcDbSymbolTableRecord
100
AcDbBlockTableRecord
  2
*D1
340
0
  0
BLOCK_RECORD
  5
166
330
1
100
AcDbSymbolTableRecord
100
AcDbBlockTableRecord
  2
*D2
340
0
  0
BLOCK_RECORD
  5
167
330
1
100
AcDbSymbolTableRecord
100
AcDbBlockTableRecord
  2
*D3
340
0
  0
BLOCK_RECORD
  5
168
330
1
100
AcDbSymbolTableRecord
100
AcDbBlockTableRecord
  2
*D4
340
0
  0
BLOCK_RECORD
  5
404
330
1
100
AcDbSymbolTableRecord
100
AcDbBlockTableRecord
  2
*D5
340
0
  0
BLOCK_RECORD
  5
449
330
1
100
AcDbSymbolTableRecord
100
AcDbBlockTableRecord
  2
*D6
340
0
  0
ENDTAB
  0
ENDSEC
  0
SECTION
  2
BLOCKS
  0
BLOCK
  5
178
330
18
100
AcDbEntity
  8
0
100
AcDbBlockBegin
  2
*MODEL_SPACE
 70
     0
 10
0.0
 20
0.0
 30
0.0
  3
*MODEL_SPACE
  1

  0
ENDBLK
  5
179
330
18
100
AcDbEntity
  8
0
100
AcDbBlockEnd
  0
BLOCK
  5
176
330
15
100
AcDbEntity
 67
     1
  8
0
100
AcDbBlockBegin
  2
*PAPER_SPACE
 70
     0
 10
0.0
 20
0.0
 30
0.0
  3
*PAPER_SPACE
  1

  0
ENDBLK
  5
177
330
15
100
AcDbEntity
 67
     1
  8
0
100
AcDbBlockEnd
  0
BLOCK
  5
17B
330
164
100
AcDbEntity
  8
0
100
AcDbBlockBegin
  2
*D0
 70
     1
 10
0.0
 20
0.0
 30
0.0
  3
*D0
  1

  0
LINE
  5
17C
330
164
100
AcDbEntity
  8
0
  6
ByBlock
 62
     0
100
AcDbLine
 10
13.76209180509929
 20
16.81470618001674
 30
0.0
 11
12.61763954920299
 21
16.81470618001674
 31
0.0
  0
LINE
  5
17D
330
164
100
AcDbEntity
  8
0
  6
ByBlock
 62
     0
100
AcDbLine
 10
12.89033987865688
 20
16.03030053896625
 30
0.0
 11
12.61763954920299
 21
16.03030053896625
 31
0.0
  0
LINE
  5
17E
330
164
100
AcDbEntity
  8
0
  6
ByBlock
 62
     0
100
AcDbLine
 10
12.79763954920299
 20
16.81470618001674
 30
0.0
 11
12.79763954920299
 21
17.06470618001674
 31
0.0
  0
LINE
  5
17F
330
164
100
AcDbEntity
  8
0
  6
ByBlock
 62
     0
100
AcDbLine
 10
12.79763954920299
 20
16.03030053896625
 30
0.0
 11
12.79763954920299
 21
15.78030053896625
 31
0.0
  0
LINE
  5
180
330
164
100
AcDbEntity
  8
0
  6
ByBlock
 62
     0
100
AcDbLine
 10
12.92263954920299
 20
16.68970618001674
 30
0.0
 11
12.67263954920299
 21
16.93970618001674
 31
0.0
  0
LINE
  5
181
330
164
100
AcDbEntity
  8
0
  6
ByBlock
 62
     0
100
AcDbLine
 10
12.92263954920299
 20
15.90530053896625
 30
0.0
 11
12.67263954920299
 21
16.15530053896625
 31
0.0
  0
TEXT
  5
182
330
164
100
AcDbEntity
  8
0
  6
ByBlock
 62
     0
100
AcDbText
 10
12.860139549203
 20
15.15530053896625
 30
0.0
 40
0.125
  1
13/16
 50
90.0
 72
     1
 11
12.79763954920299
 21
15.40530053896625
 31
0.0
100
AcDbText
 73
     2
  0
POINT
  5
183
330
164
100
AcDbEntity
  8
DEFPOINTS
  6
ByBlock
 62
     0
100
AcDbPoint
 10
13.82459180509929
 20
16.81470618001674
 30
0.0
  0
POINT
  5
184
330
164
100
AcDbEntity
  8
DEFPOINTS
  6
ByBlock
 62
     0
100
AcDbPoint
 10
12.95283987865688
 20
16.03030053896625
 30
-0.3125
  0
POINT
  5
185
330
164
100
AcDbEntity
  8
DEFPOINTS
  6
ByBlock
 62
     0
100
AcDbPoint
 10
12.79763954920299
 20
16.03030053896625
 30
0.0
  0
ENDBLK
  5
186
330
164
100
AcDbEntity
  8
0
100
AcDbBlockEnd
  0
BLOCK
  5
187
330
165
100
AcDbEntity
  8
0
100
AcDbBlockBegin
  2
*D1
 70
     1
 10
0.0
 20
0.0
 30
0.0
  3
*D1
  1

  0
LINE
  5
188
330
165
100
AcDbEntity
  8
0
  6
ByBlock
 62
     0
100
AcDbLine
 10
13.57619773467721
 20
15.96780053896625
 30
0.0
 11
13.57619773467721
 21
15.64260237069168
 31
0.0
  0
LINE
  5
189
330
165
100
AcDbEntity
  8
0
  6
ByBlock
 62
     0
100
AcDbLine
 10
14.70134792916666
 20
15.96780053896625
 30
0.0
 11
14.70134792916666
 21
15.64260237069168
 31
0.0
  0
LINE
  5
18A
330
165
100
AcDbEntity
  8
0
  6
ByBlock
 62
     0
100
AcDbLine
 10
13.57619773467721
 20
15.82260237069168
 30
0.0
 11
13.32619773467721
 21
15.82260237069168
 31
0.0
  0
LINE
  5
18B
330
165
100
AcDbEntity
  8
0
  6
ByBlock
 62
     0
100
AcDbLine
 10
14.70134792916666
 20
15.82260237069168
 30
0.0
 11
14.95134792916666
 21
15.82260237069168
 31
0.0
  0
LINE
  5
18C
330
165
100
AcDbEntity
  8
0
  6
ByBlock
 62
     0
100
AcDbLine
 10
13.45119773467721
 20
15.69760237069168
 30
0.0
 11
13.70119773467721
 21
15.94760237069168
 31
0.0
  0
LINE
  5
18D
330
165
100
AcDbEntity
  8
0
  6
ByBlock
 62
     0
100
AcDbLine
 10
14.57634792916666
 20
15.69760237069168
 30
0.0
 11
14.82634792916666
 21
15.94760237069168
 31
0.0
  0
TEXT
  5
18E
330
165
100
AcDbEntity
  8
0
  6
ByBlock
 62
     0
100
AcDbText
 10
15.07634792916666
 20
15.76010237069168
 30
0.0
 40
0.125
  1
1 1/8
 72
     1
 11
15.32634792916666
 21
15.82260237069168
 31
0.0
100
AcDbText
 73
     2
  0
POINT
  5
18F
330
165
100
AcDbEntity
  8
DEFPOINTS
  6
ByBlock
 62
     0
100
AcDbPoint
 10
13.57619773467721
 20
16.03030053896625
 30
0.0
  0
POINT
  5
190
330
165
100
AcDbEntity
  8
DEFPOINTS
  6
ByBlock
 62
     0
100
AcDbPoint
 10
14.70134792916666
 20
16.03030053896625
 30
0.0
  0
POINT
  5
191
330
165
100
AcDbEntity
  8
DEFPOINTS
  6
ByBlock
 62
     0
100
AcDbPoint
 10
14.70134792916666
 20
15.82260237069168
 30
0.0
  0
ENDBLK
  5
192
330
165
100
AcDbEntity
  8
0
100
AcDbBlockEnd
  0
BLOCK
  5
193
330
166
100
AcDbEntity
  8
0
100
AcDbBlockBegin
  2
*D2
 70
     1
 10
0.0
 20
0.0
 30
0.0
  3
*D2
  1

  0
LINE
  5
194
330
166
100
AcDbEntity
  8
0
  6
ByBlock
 62
     0
100
AcDbLine
 10
13.57472163759055
 20
19.0781314397059
 30
0.0
 11
13.57472163759055
 21
19.33317775801421
 31
0.0
  0
LINE
  5
195
330
166
100
AcDbEntity
  8
0
  6
ByBlock
 62
     0
100
AcDbLine
 10
12.94972163759055
 20
18.6406314397059
 30
0.0
 11
12.94972163759055
 21
19.33317775801421
 31
0.0
  0
LINE
  5
196
330
166
100
AcDbEntity
  8
0
  6
ByBlock
 62
     0
100
AcDbLine
 10
13.57472163759055
 20
19.15317775801421
 30
0.0
 11
13.82472163759055
 21
19.15317775801421
 31
0.0
  0
LINE
  5
197
330
166
100
AcDbEntity
  8
0
  6
ByBlock
 62
     0
100
AcDbLine
 10
12.94972163759055
 20
19.15317775801421
 30
0.0
 11
12.69972163759055
 21
19.15317775801421
 31
0.0
  0
LINE
  5
198
330
166
100
AcDbEntity
  8
0
  6
ByBlock
 62
     0
100
AcDbLine
 10
13.44972163759055
 20
19.02817775801421
 30
0.0
 11
13.69972163759055
 21
19.27817775801421
 31
0.0
  0
LINE
  5
199
330
166
100
AcDbEntity
  8
0
  6
ByBlock
 62
     0
100
AcDbLine
 10
12.82472163759055
 20
19.02817775801421
 30
0.0
 11
13.07472163759055
 21
19.27817775801421
 31
0.0
  0
TEXT
  5
19A
330
166
100
AcDbEntity
  8
0
  6
ByBlock
 62
     0
100
AcDbText
 10
12.24138830425722
 20
19.09067775801421
 30
0.0
 40
0.125
  1
5/8
 72
     1
 11
12.40805497092388
 21
19.15317775801421
 31
0.0
100
AcDbText
 73
     2
  0
POINT
  5
19B
330
166
100
AcDbEntity
  8
DEFPOINTS
  6
ByBlock
 62
     0
100
AcDbPoint
 10
13.57472163759055
 20
19.0156314397059
 30
0.0
  0
POINT
  5
19C
330
166
100
AcDbEntity
  8
DEFPOINTS
  6
ByBlock
 62
     0
100
AcDbPoint
 10
12.94972163759055
 20
18.5781314397059
 30
0.0
  0
POINT
  5
19D
330
166
100
AcDbEntity
  8
DEFPOINTS
  6
ByBlock
 62
     0
100
AcDbPoint
 10
12.94972163759055
 20
19.15317775801421
 30
0.0
  0
ENDBLK
  5
19E
330
166
100
AcDbEntity
  8
0
100
AcDbBlockEnd
  0
BLOCK
  5
19F
330
167
100
AcDbEntity
  8
0
100
AcDbBlockBegin
  2
*D3
 70
     1
 10
0.0
 20
0.0
 30
0.0
  3
*D3
  1

  0
LINE
  5
1A0
330
167
100
AcDbEntity
  8
0
  6
ByBlock
 62
     0
100
AcDbLine
 10
15.26222163759055
 20
18.8281314397059
 30
0.0
 11
15.76132392682512
 21
18.8281314397059
 31
0.0
  0
LINE
  5
1A1
330
167
100
AcDbEntity
  8
0
  6
ByBlock
 62
     0
100
AcDbLine
 10
15.26222163759055
 20
18.0781314397059
 30
0.0
 11
15.76132392682512
 21
18.0781314397059
 31
0.0
  0
LINE
  5
1A2
330
167
100
AcDbEntity
  8
0
  6
ByBlock
 62
     0
100
AcDbLine
 10
15.58132392682512
 20
18.8281314397059
 30
0.0
 11
15.58132392682512
 21
19.0781314397059
 31
0.0
  0
LINE
  5
1A3
330
167
100
AcDbEntity
  8
0
  6
ByBlock
 62
     0
100
AcDbLine
 10
15.58132392682512
 20
18.0781314397059
 30
0.0
 11
15.58132392682512
 21
17.8281314397059
 31
0.0
  0
LINE
  5
1A4
330
167
100
AcDbEntity
  8
0
  6
ByBlock
 62
     0
100
AcDbLine
 10
15.70632392682512
 20
18.7031314397059
 30
0.0
 11
15.45632392682512
 21
18.9531314397059
 31
0.0
  0
LINE
  5
1A5
330
167
100
AcDbEntity
  8
0
  6
ByBlock
 62
     0
100
AcDbLine
 10
15.70632392682512
 20
17.9531314397059
 30
0.0
 11
15.45632392682512
 21
18.2031314397059
 31
0.0
  0
TEXT
  5
1A6
330
167
100
AcDbEntity
  8
0
  6
ByBlock
 62
     0
100
AcDbText
 10
15.64382392682512
 20
17.36979810637256
 30
0.0
 40
0.125
  1
3/4
 50
90.0
 72
     1
 11
15.58132392682512
 21
17.53646477303923
 31
0.0
100
AcDbText
 73
     2
  0
POINT
  5
1A7
330
167
100
AcDbEntity
  8
DEFPOINTS
  6
ByBlock
 62
     0
100
AcDbPoint
 10
15.19972163759055
 20
18.8281314397059
 30
0.0
  0
POINT
  5
1A8
330
167
100
AcDbEntity
  8
DEFPOINTS
  6
ByBlock
 62
     0
100
AcDbPoint
 10
15.19972163759055
 20
18.0781314397059
 30
0.0
  0
POINT
  5
1A9
330
167
100
AcDbEntity
  8
DEFPOINTS
  6
ByBlock
 62
     0
100
AcDbPoint
 10
15.58132392682512
 20
18.0781314397059
 30
0.0
  0
ENDBLK
  5
1AA
330
167
100
AcDbEntity
  8
0
100
AcDbBlockEnd
  0
BLOCK
  5
1AB
330
168
100
AcDbEntity
  8
0
100
AcDbBlockBegin
  2
*D4
 70
     1
 10
0.0
 20
0.0
 30
0.0
  3
*D4
  1

  0
LINE
  5
1AC
330
168
100
AcDbEntity
  8
0
  6
ByBlock
 62
     0
100
AcDbLine
 10
13.86733365088769
 20
16.87720618001674
 30
0.0
 11
13.86733365088769
 21
17.13793837624692
 31
0.0
  0
LINE
  5
1AD
330
168
100
AcDbEntity
  8
0
  6
ByBlock
 62
     0
100
AcDbLine
 10
14.40099946965093
 20
16.87720618001674
 30
0.0
 11
14.40099946965093
 21
17.13793837624692
 31
0.0
  0
LINE
  5
1AE
330
168
100
AcDbEntity
  8
0
  6
ByBlock
 62
     0
100
AcDbLine
 10
13.86733365088769
 20
16.95793837624692
 30
0.0
 11
13.61733365088769
 21
16.95793837624692
 31
0.0
  0
LINE
  5
1AF
330
168
100
AcDbEntity
  8
0
  6
ByBlock
 62
     0
100
AcDbLine
 10
14.40099946965093
 20
16.95793837624692
 30
0.0
 11
14.65099946965093
 21
16.95793837624692
 31
0.0
  0
LINE
  5
1B0
330
168
100
AcDbEntity
  8
0
  6
ByBlock
 62
     0
100
AcDbLine
 10
13.74233365088769
 20
16.83293837624692
 30
0.0
 11
13.99233365088769
 21
17.08293837624692
 31
0.0
  0
LINE
  5
1B1
330
168
100
AcDbEntity
  8
0
  6
ByBlock
 62
     0
100
AcDbLine
 10
14.27599946965093
 20
16.83293837624692
 30
0.0
 11
14.52599946965093
 21
17.08293837624692
 31
0.0
  0
TEXT
  5
1B2
330
168
100
AcDbEntity
  8
0
  6
ByBlock
 62
     0
100
AcDbText
 10
14.77599946965093
 20
16.89543837624692
 30
0.0
 40
0.125
  1
1/2
 72
     1
 11
14.92183280298426
 21
16.95793837624692
 31
0.0
100
AcDbText
 73
     2
  0
POINT
  5
1B3
330
168
100
AcDbEntity
  8
DEFPOINTS
  6
ByBlock
 62
     0
100
AcDbPoint
 10
13.86733365088769
 20
16.81470618001674
 30
0.0
  0
POINT
  5
1B4
330
168
100
AcDbEntity
  8
DEFPOINTS
  6
ByBlock
 62
     0
100
AcDbPoint
 10
14.40099946965093
 20
16.81470618001674
 30
0.0
  0
POINT
  5
1B5
330
168
100
AcDbEntity
  8
DEFPOINTS
  6
ByBlock
 62
     0
100
AcDbPoint
 10
14.40099946965093
 20
16.95793837624692
 30
0.0
  0
ENDBLK
  5
1B6
330
168
100
AcDbEntity
  8
0
100
AcDbBlockEnd
  0
BLOCK
  5
40F
330
404
100
AcDbEntity
  8
0
 62
     3
100
AcDbBlockBegin
  2
*D5
 70
     1
 10
0.0
 20
0.0
 30
0.0
  3
*D5
  1

  0
LINE
  5
41B
330
404
100
AcDbEntity
  8
ADPDIM
 62
     0
370
    -2
100
AcDbLine
 10
12.89033987865688
 20
16.03030053896625
 30
0.0
 11
12.45080719189187
 21
16.03030053896625
 31
0.0
  0
LINE
  5
41C
330
404
100
AcDbEntity
  8
ADPDIM
 62
     0
370
    -2
100
AcDbLine
 10
13.8048336508877
 20
17.15530053896625
 30
0.0
 11
12.45080719189187
 21
17.15530053896625
 31
0.0
  0
LINE
  5
41D
330
404
100
AcDbEntity
  8
ADPDIM
 62
     0
370
    -2
100
AcDbLine
 10
12.63080719189187
 20
16.03030053896625
 30
0.0
 11
12.63080719189187
 21
16.38446720563292
 31
0.0
  0
LINE
  5
41E
330
404
100
AcDbEntity
  8
ADPDIM
 62
     0
370
    -2
100
AcDbLine
 10
12.63080719189187
 20
17.15530053896625
 30
0.0
 11
12.63080719189187
 21
16.80113387229958
 31
0.0
  0
LINE
  5
41F
330
404
100
AcDbEntity
  8
ADPDIM
 62
     0
370
    -2
100
AcDbLine
 10
12.75580719189187
 20
17.03030053896625
 30
0.0
 11
12.50580719189187
 21
17.28030053896625
 31
0.0
  0
LINE
  5
420
330
404
100
AcDbEntity
  8
ADPDIM
 62
     0
370
    -2
100
AcDbLine
 10
12.75580719189187
 20
15.90530053896625
 30
0.0
 11
12.50580719189187
 21
16.15530053896625
 31
0.0
  0
MTEXT
  5
421
330
404
100
AcDbEntity
  8
ADPDIM
 62
     0
100
AcDbMText
 10
12.63080719189187
 20
16.59280053896626
 30
0.0
 40
0.125
 41
0.0
 71
     5
 72
     1
  1
\A1;1{\H1.000000x;\S1/8;}
 11
0.0000000000000001
 21
1.0
 31
0.0
 73
     1
 44
1.0
1001
ACAD
1000
MTEXTBEGIN
1070
    73
1070
     1
1070
    44
1040
1.0
1070
    74
1070
     0
1000
MTEXTEND
  0
POINT
  5
422
330
404
100
AcDbEntity
  8
DEFPOINTS
 62
     0
100
AcDbPoint
 10
12.95283987865688
 20
16.03030053896625
 30
0.0
  0
POINT
  5
423
330
404
100
AcDbEntity
  8
DEFPOINTS
 62
     0
100
AcDbPoint
 10
13.86733365088769
 20
17.15530053896625
 30
0.0
  0
POINT
  5
424
330
404
100
AcDbEntity
  8
DEFPOINTS
 62
     0
100
AcDbPoint
 10
12.63080719189187
 20
17.15530053896625
 30
0.0
  0
ENDBLK
  5
410
330
404
100
AcDbEntity
  8
0
 62
     3
100
AcDbBlockEnd
  0
BLOCK
  5
454
330
449
100
AcDbEntity
  8
0
100
AcDbBlockBegin
  2
*D6
 70
     1
 10
0.0
 20
0.0
 30
0.0
  3
*D6
  1

  0
LINE
  5
44A
330
449
100
AcDbEntity
  8
ADPDIM
 62
     0
370
    -2
100
AcDbLine
 10
13.86733365088769
 20
17.21113886242072
 30
0.0
 11
13.86733365088769
 21
17.47187105865091
 31
0.0
  0
LINE
  5
44B
330
449
100
AcDbEntity
  8
ADPDIM
 62
     0
370
    -2
100
AcDbLine
 10
14.40099946965093
 20
17.21113886242072
 30
0.0
 11
14.40099946965093
 21
17.47187105865091
 31
0.0
  0
LINE
  5
44C
330
449
100
AcDbEntity
  8
ADPDIM
 62
     0
370
    -2
100
AcDbLine
 10
13.86733365088769
 20
17.29187105865091
 30
0.0
 11
14.40099946965093
 21
17.29187105865091
 31
0.0
  0
LINE
  5
44D
330
449
100
AcDbEntity
  8
ADPDIM
 62
     0
370
    -2
100
AcDbLine
 10
14.40099946965093
 20
17.29187105865091
 30
0.0
 11
14.65099946965093
 21
17.29187105865091
 31
0.0
  0
LINE
  5
44E
330
449
100
AcDbEntity
  8
ADPDIM
 62
     0
370
    -2
100
AcDbLine
 10
14.27599946965093
 20
17.16687105865091
 30
0.0
 11
14.52599946965093
 21
17.41687105865091
 31
0.0
  0
LINE
  5
44F
330
449
100
AcDbEntity
  8
ADPDIM
 62
     0
370
    -2
100
AcDbLine
 10
13.74233365088769
 20
17.16687105865091
 30
0.0
 11
13.99233365088769
 21
17.41687105865091
 31
0.0
  0
MTEXT
  5
450
330
449
100
AcDbEntity
  8
ADPDIM
 62
     0
100
AcDbMText
 10
14.92183280298426
 20
17.29187105865091
 30
0.0
 40
0.125
 41
0.0
 71
     5
 72
     1
  1
\A1;1/2
 73
     1
 44
1.0
1001
ACAD
1000
MTEXTBEGIN
1070
    73
1070
     1
1070
    44
1040
1.0
1070
    74
1070
     0
1000
MTEXTEND
  0
POINT
  5
451
330
449
100
AcDbEntity
  8
DEFPOINTS
 62
     0
100
AcDbPoint
 10
13.86733365088769
 20
17.14863886242072
 30
0.0
  0
POINT
  5
452
330
449
100
AcDbEntity
  8
DEFPOINTS
 62
     0
100
AcDbPoint
 10
14.40099946965093
 20
17.14863886242072
 30
0.0
  0
POINT
  5
453
330
449
100
AcDbEntity
  8
DEFPOINTS
 62
     0
100
AcDbPoint
 10
14.40099946965093
 20
17.29187105865091
 30
0.0
  0
ENDBLK
  5
455
330
449
100
AcDbEntity
  8
0
100
AcDbBlockEnd
  0
ENDSEC
  0
SECTION
  2
ENTITIES
  0
LINE
  5
1B7
330
18
100
AcDbEntity
  8
ADP2DETAIL
100
AcDbLine
 10
14.40099946965093
 20
17.14863886242072
 30
0.3125
 11
14.40099946965093
 21
16.03030053896625
 31
0.0
  0
LINE
  5
1B8
330
18
100
AcDbEntity
  8
ADP2DETAIL
100
AcDbLine
 10
13.86733365088769
 20
17.14863886242072
 30
0.3125
 11
13.86733365088769
 21
16.03030053896625
 31
0.0
  0
LINE
  5
1B9
330
18
100
AcDbEntity
  8
0
100
AcDbLine
 10
14.54741357063362
 20
16.34436991900325
 30
0.0
 11
14.54741357063362
 21
17.05415989769997
 31
0.3125
  0
LINE
  5
1BB
330
18
100
AcDbEntity
  8
0
100
AcDbLine
 10
13.73013209321025
 20
16.34436991900325
 30
0.0
 11
13.73013209321025
 21
17.05415989769997
 31
0.3125
  0
DIMENSION
  5
1BC
330
18
100
AcDbEntity
  8
ADPDIM
100
AcDbDimension
  2
*D1
 10
14.70134792916666
 20
15.82260237069168
 30
0.0
 11
15.32634792916666
 21
15.82260237069168
 31
0.0
 71
     5
 42
-1.0
100
AcDbAlignedDimension
 13
13.57619773467721
 23
16.03030053896625
 33
0.0
 14
14.70134792916666
 24
16.03030053896625
 34
0.0
100
AcDbRotatedDimension
  0
LINE
  5
1BD
330
18
100
AcDbEntity
  8
0
100
AcDbLine
 10
13.57619773467721
 20
16.28183754476518
 30
0.0
 11
14.60905524483678
 21
16.28237095447461
 31
0.0
  0
LINE
  5
1BE
330
18
100
AcDbEntity
  8
0
100
AcDbLine
 10
14.10752283192193
 20
16.03030053896625
 30
0.0
 11
12.95283987865688
 21
16.03030053896625
 31
0.0
  0
LINE
  5
1BF
330
18
100
AcDbEntity
  8
0
100
AcDbLine
 10
13.73097163759055
 20
18.0468814397059
 30
0.0
 11
14.54347163759055
 21
18.0468814397059
 31
0.0
  0
LINE
  5
1C0
330
18
100
AcDbEntity
  8
0
100
AcDbLine
 10
13.73097163759055
 20
18.8593814397059
 30
0.0
 11
14.54347163759055
 21
18.8593814397059
 31
0.0
  0
LINE
  5
1C1
330
18
100
AcDbEntity
  8
0
100
AcDbLine
 10
13.8701997210246
 20
18.7187564397059
 30
0.0
 11
14.40329068846932
 21
18.7187564397059
 31
0.0
  0
LINE
  5
1C2
330
18
100
AcDbEntity
  8
0
100
AcDbLine
 10
13.8701997210246
 20
18.1875064397059
 30
0.0
 11
14.40329068846932
 21
18.1875064397059
 31
0.0
  0
LINE
  5
1C3
330
18
100
AcDbEntity
  8
0
100
AcDbLine
 10
14.10597163759055
 20
17.8906314397059
 30
0.0
 11
13.57472163759055
 21
17.8906314397059
 31
0.0
  0
LINE
  5
1C4
330
18
100
AcDbEntity
  8
0
100
AcDbLine
 10
14.10597163759055
 20
19.0156314397059
 30
0.0
 11
13.57472163759055
 21
19.0156314397059
 31
0.0
  0
DIMENSION
  5
1C5
330
18
100
AcDbEntity
  8
ADPDIM
100
AcDbDimension
  2
*D2
 10
12.94972163759055
 20
19.15317775801421
 30
0.0
 11
12.40805497092388
 21
19.15317775801421
 31
0.0
 71
     5
 42
-1.0
100
AcDbAlignedDimension
 13
13.57472163759055
 23
19.0156314397059
 33
0.0
 14
12.94972163759055
 24
18.5781314397059
 34
0.0
100
AcDbRotatedDimension
  0
LINE
  5
1C6
330
18
100
AcDbEntity
  8
0
100
AcDbLine
 10
12.98408987865689
 20
16.15530053896625
 30
0.0
 11
13.57619773467721
 21
16.15530053896625
 31
0.0
  0
LINE
  5
1C7
330
18
100
AcDbEntity
  8
ADP2DETAIL
  6
DASHED2
100
AcDbLine
 10
13.13888420474959
 20
16.15683754476518
 30
0.0
 11
13.2298454458416
 21
16.03094789944017
 31
0.0
  0
LINE
  5
1C8
330
18
100
AcDbEntity
  8
0
100
AcDbLine
 10
12.95283987865688
 20
16.03030053896625
 30
0.0
 11
12.98408987865689
 21
16.15530053896625
 31
0.0
  0
LINE
  5
1C9
330
18
100
AcDbEntity
  8
0
100
AcDbLine
 10
13.57619773467721
 20
16.03030053896625
 30
0.0
 11
13.57619773467721
 21
16.28183754476518
 31
0.0
  0
LINE
  5
1CA
330
18
100
AcDbEntity
  8
ADP2DETAIL
  6
DASHED2
100
AcDbLine
 10
13.50972607498419
 20
16.15683754476518
 30
0.0
 11
13.41876483389218
 21
16.03094789944017
 31
0.0
  0
ARC
  5
1CB
330
18
100
AcDbEntity
  8
0
100
AcDbCircle
 10
13.66813209321025
 20
16.34436991900325
 30
0.0
 40
0.062
100
AcDbArc
 50
270.3311398410434
 51
0.0
  0
LINE
  5
1CC
330
18
100
AcDbEntity
  8
0
100
AcDbLine
 10
13.57472163759055
 20
18.0781314397059
 30
0.0
 11
13.07472163759055
 21
18.0781314397059
 31
0.0
  0
LINE
  5
1CD
330
18
100
AcDbEntity
  8
0
100
AcDbLine
 10
13.57472163759055
 20
18.7343814397059
 30
0.0
 11
13.14467251652575
 21
18.7343814397059
 31
0.0
  0
LINE
  5
1CE
330
18
100
AcDbEntity
  8
0
100
AcDbLine
 10
13.57472163759055
 20
18.8281314397059
 30
0.0
 11
13.07472163759055
 21
18.8281314397059
 31
0.0
  0
LINE
  5
1CF
330
18
100
AcDbEntity
  8
0
100
AcDbLine
 10
13.57472163759055
 20
18.1718814397059
 30
0.0
 11
13.14467251652575
 21
18.1718814397059
 31
0.0
  0
CIRCLE
  5
1D0
330
18
100
AcDbEntity
  8
0
100
AcDbCircle
 10
13.32472163759055
 20
18.4531314397059
 30
0.0
 40
0.1875
  0
LINE
  5
1D1
330
18
100
AcDbEntity
  8
0
100
AcDbLine
 10
13.07472163759055
 20
18.0781314397059
 30
0.0
 11
12.94972163759055
 21
18.3281314397059
 31
0.0
  0
LINE
  5
1D2
330
18
100
AcDbEntity
  8
0
100
AcDbLine
 10
13.14467251652575
 20
18.1718814397059
 30
0.0
 11
13.07472163759055
 21
18.0781314397059
 31
0.0
  0
LINE
  5
1D3
330
18
100
AcDbEntity
  8
0
100
AcDbLine
 10
13.14467251652575
 20
18.1718814397059
 30
0.0
 11
13.04347163759055
 21
18.37428319757628
 31
0.0
  0
LINE
  5
1D4
330
18
100
AcDbEntity
  8
0
100
AcDbLine
 10
13.14467251652575
 20
18.7343814397059
 30
0.0
 11
13.07472163759055
 21
18.8281314397059
 31
0.0
  0
LINE
  5
1D5
330
18
100
AcDbEntity
  8
0
100
AcDbLine
 10
13.04347163759055
 20
18.53197968183551
 30
0.0
 11
13.04347163759055
 21
18.4531314397059
 31
0.0
  0
LINE
  5
1D6
330
18
100
AcDbEntity
  8
0
100
AcDbLine
 10
13.04347163759055
 20
18.37428319757628
 30
0.0
 11
13.04347163759055
 21
18.4531314397059
 31
0.0
  0
LINE
  5
1D7
330
18
100
AcDbEntity
  8
0
100
AcDbLine
 10
13.14467251652575
 20
18.7343814397059
 30
0.0
 11
13.04347163759055
 21
18.53197968183551
 31
0.0
  0
LINE
  5
1D8
330
18
100
AcDbEntity
  8
0
100
AcDbLine
 10
12.94972163759055
 20
18.5781314397059
 30
0.0
 11
12.94972163759055
 21
18.4531314397059
 31
0.0
  0
LINE
  5
1D9
330
18
100
AcDbEntity
  8
0
100
AcDbLine
 10
12.94972163759055
 20
18.3281314397059
 30
0.0
 11
12.94972163759055
 21
18.4531314397059
 31
0.0
  0
LINE
  5
1DA
330
18
100
AcDbEntity
  8
0
100
AcDbLine
 10
13.04347163759055
 20
18.37428319757628
 30
0.0
 11
12.94972163759055
 21
18.3281314397059
 31
0.0
  0
LINE
  5
1DB
330
18
100
AcDbEntity
  8
0
100
AcDbLine
 10
13.04347163759055
 20
18.53197968183551
 30
0.0
 11
12.94972163759055
 21
18.5781314397059
 31
0.0
  0
LINE
  5
1DC
330
18
100
AcDbEntity
  8
0
100
AcDbLine
 10
13.07472163759055
 20
18.8281314397059
 30
0.0
 11
12.94972163759055
 21
18.5781314397059
 31
0.0
  0
LINE
  5
1DD
330
18
100
AcDbEntity
  8
0
100
AcDbLine
 10
13.73097163759055
 20
18.0468814397059
 30
0.0
 11
13.73097163759055
 21
18.4531314397059
 31
0.0
  0
LINE
  5
1DE
330
18
100
AcDbEntity
  8
0
100
AcDbLine
 10
13.57472163759055
 20
17.8906314397059
 30
0.0
 11
13.57472163759055
 21
18.4531314397059
 31
0.0
  0
LINE
  5
1DF
330
18
100
AcDbEntity
  8
0
100
AcDbLine
 10
13.57472163759055
 20
19.0156314397059
 30
0.0
 11
13.57472163759055
 21
18.4531314397059
 31
0.0
  0
CIRCLE
  5
1E0
330
18
100
AcDbEntity
  8
0
100
AcDbCircle
 10
13.32472163759055
 20
18.4531314397059
 30
0.0
 40
0.094
  0
LINE
  5
1E1
330
18
100
AcDbEntity
  8
0
100
AcDbLine
 10
13.8701997210246
 20
18.7187564397059
 30
0.0
 11
13.8701997210246
 21
18.1875064397059
 31
0.0
  0
LINE
  5
1E2
330
18
100
AcDbEntity
  8
0
100
AcDbLine
 10
13.73097163759055
 20
18.8593814397059
 30
0.0
 11
13.73097163759055
 21
18.4531314397059
 31
0.0
  0
DIMENSION
  5
1E3
330
18
100
AcDbEntity
  8
ADPDIM
100
AcDbDimension
  2
*D3
 10
15.58132392682512
 20
18.0781314397059
 30
0.0
 11
15.58132392682512
 21
17.53646477303923
 31
0.0
 71
     5
 42
-1.0
100
AcDbAlignedDimension
 13
15.19972163759055
 23
18.8281314397059
 33
0.0
 14
15.19972163759055
 24
18.0781314397059
 34
0.0
 50
90.0
100
AcDbRotatedDimension
  0
LINE
  5
1E4
330
18
100
AcDbEntity
  8
0
100
AcDbLine
 10
14.10752283192193
 20
16.03030053896625
 30
0.0
 11
15.32470578518698
 21
16.03030053896625
 31
0.0
  0
LINE
  5
1E5
330
18
100
AcDbEntity
  8
0
100
AcDbLine
 10
15.29345578518699
 20
16.15530053896625
 30
0.0
 11
14.70134792916666
 21
16.15530053896625
 31
0.0
  0
LINE
  5
1E6
330
18
100
AcDbEntity
  8
ADP2DETAIL
  6
DASHED2
100
AcDbLine
 10
14.76781958885968
 20
16.15683754476518
 30
0.0
 11
14.85878082995169
 21
16.03094789944017
 31
0.0
  0
LINE
  5
1E7
330
18
100
AcDbEntity
  8
0
100
AcDbLine
 10
14.70134792916666
 20
16.03030053896625
 30
0.0
 11
14.70134792916666
 21
16.28183754476518
 31
0.0
  0
LINE
  5
1E8
330
18
100
AcDbEntity
  8
0
100
AcDbLine
 10
14.70134792916666
 20
16.28183754476518
 30
0.0
 11
14.60905524483678
 21
16.28237095447461
 31
0.0
  0
ARC
  5
1E9
330
18
100
AcDbEntity
  8
0
100
AcDbCircle
 10
14.60941357063362
 20
16.34436991900325
 30
0.0
 40
0.062
100
AcDbArc
 50
180.0
 51
269.6688601589567
  0
LINE
  5
1EA
330
18
100
AcDbEntity
  8
ADP2DETAIL
  6
DASHED2
100
AcDbLine
 10
15.13866145909429
 20
16.15683754476518
 30
0.0
 11
15.04770021800228
 21
16.03094789944017
 31
0.0
  0
LINE
  5
1EB
330
18
100
AcDbEntity
  8
0
100
AcDbLine
 10
15.32470578518698
 20
16.03030053896625
 30
0.0
 11
15.29345578518699
 21
16.15530053896625
 31
0.0
  0
LINE
  5
1EC
330
18
100
AcDbEntity
  8
0
100
AcDbLine
 10
14.69972163759055
 20
18.0781314397059
 30
0.0
 11
15.19972163759055
 21
18.0781314397059
 31
0.0
  0
LINE
  5
1ED
330
18
100
AcDbEntity
  8
0
100
AcDbLine
 10
14.69972163759055
 20
18.8281314397059
 30
0.0
 11
15.19972163759055
 21
18.8281314397059
 31
0.0
  0
CIRCLE
  5
1EE
330
18
100
AcDbEntity
  8
0
100
AcDbCircle
 10
14.94972163759055
 20
18.4531314397059
 30
0.0
 40
0.1875
  0
LINE
  5
1EF
330
18
100
AcDbEntity
  8
0
100
AcDbLine
 10
14.69972163759055
 20
18.1718814397059
 30
0.0
 11
15.12977075865536
 21
18.1718814397059
 31
0.0
  0
LINE
  5
1F0
330
18
100
AcDbEntity
  8
0
100
AcDbLine
 10
14.69972163759055
 20
18.7343814397059
 30
0.0
 11
15.12977075865536
 21
18.7343814397059
 31
0.0
  0
LINE
  5
1F1
330
18
100
AcDbEntity
  8
0
100
AcDbLine
 10
14.69972163759055
 20
17.8906314397059
 30
0.0
 11
14.69972163759055
 21
18.4531314397059
 31
0.0
  0
LINE
  5
1F2
330
18
100
AcDbEntity
  8
0
100
AcDbLine
 10
14.54347163759055
 20
18.0468814397059
 30
0.0
 11
14.54347163759055
 21
18.4531314397059
 31
0.0
  0
LINE
  5
1F3
330
18
100
AcDbEntity
  8
0
100
AcDbLine
 10
14.10597163759055
 20
17.8906314397059
 30
0.0
 11
14.69972163759055
 21
17.8906314397059
 31
0.0
  0
LINE
  5
1F4
330
18
100
AcDbEntity
  8
0
100
AcDbLine
 10
14.10597163759055
 20
19.0156314397059
 30
0.0
 11
14.69972163759055
 21
19.0156314397059
 31
0.0
  0
LINE
  5
1F5
330
18
100
AcDbEntity
  8
0
100
AcDbLine
 10
14.40329068846932
 20
18.7187564397059
 30
0.0
 11
14.40329068846932
 21
18.1875064397059
 31
0.0
  0
LINE
  5
1F6
330
18
100
AcDbEntity
  8
0
100
AcDbLine
 10
14.69972163759055
 20
19.0156314397059
 30
0.0
 11
14.69972163759055
 21
18.4531314397059
 31
0.0
  0
LINE
  5
1F7
330
18
100
AcDbEntity
  8
0
100
AcDbLine
 10
14.54347163759055
 20
18.8593814397059
 30
0.0
 11
14.54347163759055
 21
18.4531314397059
 31
0.0
  0
LINE
  5
1F8
330
18
100
AcDbEntity
  8
0
100
AcDbLine
 10
15.19972163759055
 20
18.0781314397059
 30
0.0
 11
15.32472163759055
 21
18.3281314397059
 31
0.0
  0
LINE
  5
1F9
330
18
100
AcDbEntity
  8
0
100
AcDbLine
 10
15.12977075865536
 20
18.1718814397059
 30
0.0
 11
15.19972163759055
 21
18.0781314397059
 31
0.0
  0
LINE
  5
1FA
330
18
100
AcDbEntity
  8
0
100
AcDbLine
 10
15.12977075865536
 20
18.1718814397059
 30
0.0
 11
15.23097163759055
 21
18.37428319757628
 31
0.0
  0
LINE
  5
1FB
330
18
100
AcDbEntity
  8
0
100
AcDbLine
 10
15.12977075865536
 20
18.7343814397059
 30
0.0
 11
15.23097163759055
 21
18.53197968183551
 31
0.0
  0
LINE
  5
1FC
330
18
100
AcDbEntity
  8
0
100
AcDbLine
 10
15.19972163759055
 20
18.8281314397059
 30
0.0
 11
15.32472163759055
 21
18.5781314397059
 31
0.0
  0
LINE
  5
1FD
330
18
100
AcDbEntity
  8
0
100
AcDbLine
 10
15.12977075865536
 20
18.7343814397059
 30
0.0
 11
15.19972163759055
 21
18.8281314397059
 31
0.0
  0
CIRCLE
  5
1FE
330
18
100
AcDbEntity
  8
0
100
AcDbCircle
 10
14.94972163759055
 20
18.4531314397059
 30
0.0
 40
0.094
  0
LINE
  5
1FF
330
18
100
AcDbEntity
  8
0
100
AcDbLine
 10
15.23097163759055
 20
18.53197968183551
 30
0.0
 11
15.32472163759055
 21
18.5781314397059
 31
0.0
  0
LINE
  5
200
330
18
100
AcDbEntity
  8
0
100
AcDbLine
 10
15.23097163759055
 20
18.37428319757628
 30
0.0
 11
15.32472163759055
 21
18.3281314397059
 31
0.0
  0
LINE
  5
201
330
18
100
AcDbEntity
  8
0
100
AcDbLine
 10
15.23097163759055
 20
18.37428319757628
 30
0.0
 11
15.23097163759055
 21
18.4531314397059
 31
0.0
  0
LINE
  5
202
330
18
100
AcDbEntity
  8
0
100
AcDbLine
 10
15.23097163759055
 20
18.53197968183551
 30
0.0
 11
15.23097163759055
 21
18.4531314397059
 31
0.0
  0
LINE
  5
203
330
18
100
AcDbEntity
  8
0
100
AcDbLine
 10
15.32472163759055
 20
18.3281314397059
 30
0.0
 11
15.32472163759055
 21
18.4531314397059
 31
0.0
  0
LINE
  5
204
330
18
100
AcDbEntity
  8
0
100
AcDbLine
 10
15.32472163759055
 20
18.5781314397059
 30
0.0
 11
15.32472163759055
 21
18.4531314397059
 31
0.0
  0
DIMENSION
  5
205
330
18
100
AcDbEntity
  8
ADPDIM
100
AcDbDimension
  2
*D6
 10
14.40099946965093
 20
17.29187105865091
 30
0.3125
 11
14.92183280298426
 21
17.29187105865091
 31
0.3125
 70
    32
  1
1/2
 71
     5
 42
0.5336658187632342
  3
STANDARD
100
AcDbAlignedDimension
 13
13.86733365088769
 23
17.14863886242072
 33
0.3125
 14
14.40099946965093
 24
17.14863886242072
 34
0.3125
100
AcDbRotatedDimension
1001
ACAD
1000
DSTYLE
1002
{
1070
    41
1040
0.125
1070
    73
1070
     0
1070
    74
1070
     0
1070
    78
1070
     3
1070
   140
1040
0.125
1070
   141
1040
0.1875
1070
   142
1040
0.125
1070
   147
1040
0.125
1070
   171
1070
     1
1002
}
  0
LINE
  5
206
330
18
100
AcDbEntity
  8
0
100
AcDbLine
 10
13.73013209321025
 20
17.05415989769997
 30
0.3125
 11
14.54741357063362
 21
17.05415989769997
 31
0.3125
  0
LINE
  5
207
330
18
100
AcDbEntity
  8
0
100
AcDbLine
 10
14.45295385874459
 20
17.14863886242072
 30
0.3125
 11
13.82459180509929
 21
17.14863886242072
 31
0.3125
  0
LINE
  5
208
330
18
100
AcDbEntity
  8
0
100
AcDbLine
 10
13.73013209321025
 20
17.05415989769997
 30
0.3125
 11
13.82459180509928
 21
17.14863886242072
 31
0.3125
  0
LINE
  5
209
330
18
100
AcDbEntity
  8
0
100
AcDbLine
 10
14.54741357063362
 20
17.05415989769997
 30
0.3125
 11
14.45295385874459
 21
17.14863886242072
 31
0.3125
  0
TEXT
  5
217
330
18
100
AcDbEntity
  8
ADPDIM
100
AcDbText
 10
9.281492178784146
 20
14.6929402364415
 30
0.0
 40
0.09375
  1
J U L I U S  B L U M  &  C O . ,  I N C .      ( 8 0 0 )  5 2 6 - 6 2 9 3        W W W . J U L I U S B L U M . C O M        P A R T  N o .  3 4 2
 41
1.25
  7
ARIAL_WIDE
 72
     1
 11
14.10752283192193
 21
14.78669023644149
 31
0.0
100
AcDbText
 73
     3
  0
DIMENSION
  5
403
330
18
100
AcDbEntity
  8
ADPDIM
 62
     3
100
AcDbDimension
  2
*D5
 10
12.63080719189187
 20
17.15530053896625
 30
0.0
 11
12.63080719189187
 21
16.59280053896626
 31
0.0
 70
    32
 71
     5
 42
1.125
  3
STANDARD
100
AcDbAlignedDimension
 13
12.95283987865688
 23
16.03030053896625
 33
0.0
 14
13.86733365088769
 24
17.15530053896625
 34
0.0
 50
90.0
100
AcDbRotatedDimension
1001
ACAD
1000
DSTYLE
1002
{
1070
   277
1070
     5
1070
    41
1040
0.125
1070
    73
1070
     0
1070
    74
1070
     0
1070
    78
1070
     3
1070
   140
1040
0.125
1070
   141
1040
0.1875
1070
   142
1040
0.125
1070
   147
1040
0.125
1070
   171
1070
     1
1002
}
  0
ENDSEC
  0
SECTION
  2
OBJECTS
  0
DICTIONARY
  5
C
330
0
100
AcDbDictionary
281
     1
  3
ACAD_COLOR
350
3CB
  3
ACAD_GROUP
350
D
  3
ACAD_LAYOUT
350
210
  3
ACAD_MATERIAL
350
3B6
  3
ACAD_MLINESTYLE
350
E
  3
ACAD_PLOTSETTINGS
350
211
  3
ACAD_PLOTSTYLENAME
350
20E
  3
ACAD_TABLESTYLE
350
3CC
  3
ACAD_VISUALSTYLE
350
3BA
  3
AcDbVariableDictionary
350
271
  3
DWGPROPS
350
479
  0
DICTIONARY
  5
26B
330
18
100
AcDbDictionary
280
     1
281
     1
  3
ACAD_LAYOUTSELFREF
360
3B0
  0
DICTIONARY
  5
269
330
15
100
AcDbDictionary
280
     1
281
     1
  3
ACAD_LAYOUTSELFREF
360
3AF
  0
DICTIONARY
  5
3CB
102
{ACAD_REACTORS
330
C
102
}
330
C
100
AcDbDictionary
281
     1
  0
DICTIONARY
  5
D
102
{ACAD_REACTORS
330
C
102
}
330
C
100
AcDbDictionary
281
     1
  0
DICTIONARY
  5
210
102
{ACAD_REACTORS
330
C
102
}
330
C
100
AcDbDictionary
281
     1
  3
Layout1
350
213
  3
Model
350
212
  0
DICTIONARY
  5
3B6
102
{ACAD_REACTORS
330
C
102
}
330
C
100
AcDbDictionary
281
     1
  3
ByBlock
350
3B8
  3
ByLayer
350
3B7
  3
Global
350
3B9
  0
DICTIONARY
  5
E
102
{ACAD_REACTORS
330
C
102
}
330
C
100
AcDbDictionary
281
     1
  3
STANDARD
350
1B
  0
DICTIONARY
  5
211
102
{ACAD_REACTORS
330
C
102
}
330
C
100
AcDbDictionary
281
     1
  0
ACDBDICTIONARYWDFLT
  5
20E
102
{ACAD_REACTORS
330
C
102
}
330
C
100
AcDbDictionary
281
     1
  3
Normal
350
20F
100
AcDbDictionaryWithDefault
340
20F
  0
DICTIONARY
  5
3CC
102
{ACAD_REACTORS
330
C
102
}
330
C
100
AcDbDictionary
281
     1
  3
Standard
350
3CD
  0
DICTIONARY
  5
3BA
102
{ACAD_REACTORS
330
C
102
}
330
C
100
AcDbDictionary
281
     1
  3
2dWireframe
350
3C0
  3
3D Hidden
350
3C2
  3
3dWireframe
350
3C1
  3
Basic
350
3BF
  3
Brighten
350
3C6
  3
ColorChange
350
3CA
  3
Conceptual
350
3C3
  3
Dim
350
3C5
  3
Facepattern
350
3C9
  3
Flat
350
3BB
  3
FlatWithEdges
350
3BC
  3
Gouraud
350
3BD
  3
GouraudWithEdges
350
3BE
  3
Linepattern
350
3C8
  3
Realistic
350
3C4
  3
Thicken
350
3C7
  0
DICTIONARY
  5
271
102
{ACAD_REACTORS
330
C
102
}
330
C
100
AcDbDictionary
281
     1
  3
CTABLESTYLE
350
476
  3
DIMASSOC
350
272
  3
INDEXCTL
350
478
  3
SORTENTS
350
477
  0
XRECORD
  5
479
102
{ACAD_REACTORS
330
C
102
}
330
C
100
AcDbXrecord
280
     1
  1
DWGPROPS COOKIE
  2

  3

  4

  6

  7

  8
Yu Hu
  9

300
=
301
=
302
=
303
=
304
=
305
=
306
=
307
=
308
=
309
=
 40
0.0708854976851852
 41
2450374.572570209
 42
2453954.579853067
  1

 90
        0
  0
XRECORD
  5
3B0
102
{ACAD_REACTORS
330
26B
102
}
330
26B
100
AcDbXrecord
280
     1
340
18
  0
XRECORD
  5
3AF
102
{ACAD_REACTORS
330
269
102
}
330
269
100
AcDbXrecord
280
     1
340
15
  0
LAYOUT
  5
213
102
{ACAD_XDICTIONARY
360
47C
102
}
102
{ACAD_REACTORS
330
210
102
}
330
210
100
AcDbPlotSettings
  1

  2
Fax
  4

  6

 40
0.0
 41
0.0
 42
0.0
 43
0.0
 44
0.0
 45
0.0
 46
0.0
 47
0.0
 48
0.0
 49
0.0
140
0.0
141
0.0
142
1.0
143
1.0
 70
   688
 72
     0
 73
     0
 74
     5
  7
Default R14 pen assignments.ctb
 75
    16
147
1.0
148
0.0
149
0.0
100
AcDbLayout
  1
Layout1
 70
     1
 71
     1
 10
0.0
 20
0.0
 11
12.0
 21
9.0
 12
0.0
 22
0.0
 32
0.0
 14
1.000000000000000E+20
 24
1.000000000000000E+20
 34
1.000000000000000E+20
 15
-1.000000000000000E+20
 25
-1.000000000000000E+20
 35
-1.000000000000000E+20
146
0.0
 13
0.0
 23
0.0
 33
0.0
 16
1.0
 26
0.0
 36
0.0
 17
0.0
 27
1.0
 37
0.0
 76
     0
330
15
  0
LAYOUT
  5
212
102
{ACAD_XDICTIONARY
360
47A
102
}
102
{ACAD_REACTORS
330
210
102
}
330
210
100
AcDbPlotSettings
  1

  2
Fax
  4

  6

 40
0.0
 41
0.0
 42
0.0
 43
0.0
 44
0.0
 45
0.0
 46
0.0
 47
0.0
 48
0.0
 49
0.0
140
0.0
141
0.0
142
1.0
143
1.0
 70
  1712
 72
     0
 73
     0
 74
     0
  7
Default R14 pen assignments.ctb
 75
     0
147
1.0
148
0.0
149
0.0
100
AcDbLayout
  1
Model
 70
     1
 71
     0
 10
0.0
 20
0.0
 11
12.0
 21
9.0
 12
0.0
 22
0.0
 32
0.0
 14
0.0
 24
0.0
 34
0.0
 15
0.0
 25
0.0
 35
0.0
146
0.0
 13
0.0
 23
0.0
 33
0.0
 16
1.0
 26
0.0
 36
0.0
 17
0.0
 27
1.0
 37
0.0
 76
     0
330
18
331
38A
  0
MATERIAL
  5
3B8
102
{ACAD_XDICTIONARY
360
480
102
}
102
{ACAD_REACTORS
330
3B6
102
}
330
3B6
100
AcDbMaterial
  1
ByBlock
  0
MATERIAL
  5
3B7
102
{ACAD_XDICTIONARY
360
47E
102
}
102
{ACAD_REACTORS
330
3B6
102
}
330
3B6
100
AcDbMaterial
  1
ByLayer
  0
MATERIAL
  5
3B9
102
{ACAD_XDICTIONARY
360
482
102
}
102
{ACAD_REACTORS
330
3B6
102
}
330
3B6
100
AcDbMaterial
  1
Global
  0
MLINESTYLE
  5
1B
102
{ACAD_REACTORS
330
E
102
}
330
E
100
AcDbMlineStyle
  2
STANDARD
 70
     0
  3

 62
     0
 51
90.0
 52
90.0
 71
     2
 49
0.5
 62
   256
  6
BYLAYER
 49
-0.5
 62
   256
  6
BYLAYER
  0
ACDBPLACEHOLDER
  5
20F
102
{ACAD_REACTORS
330
20E
102
}
330
20E
  0
TABLESTYLE
  5
3CD
102
{ACAD_XDICTIONARY
360
484
102
}
102
{ACAD_REACTORS
330
3CC
102
}
330
3CC
100
AcDbTableStyle
  3
Standard
 70
     0
 71
     0
 40
0.06
 41
0.06
280
     0
281
     0
  7
STANDARD
140
0.18
170
     2
 62
     0
 63
     7
283
     0
274
    -2
284
     1
 64
     0
275
    -2
285
     1
 65
     0
276
    -2
286
     1
 66
     0
277
    -2
287
     1
 67
     0
278
    -2
288
     1
 68
     0
279
    -2
289
     1
 69
     0
  7
STANDARD
140
0.25
170
     5
 62
     0
 63
     7
283
     0
274
    -2
284
     1
 64
     0
275
    -2
285
     1
 65
     0
276
    -2
286
     1
 66
     0
277
    -2
287
     1
 67
     0
278
    -2
288
     1
 68
     0
279
    -2
289
     1
 69
     0
  7
STANDARD
140
0.18
170
     5
 62
     0
 63
     7
283
     0
274
    -2
284
     1
 64
     0
275
    -2
285
     1
 65
     0
276
    -2
286
     1
 66
     0
277
    -2
287
     1
 67
     0
278
    -2
288
     1
 68
     0
279
    -2
289
     1
 69
     0
  0
VISUALSTYLE
  5
3C0
102
{ACAD_REACTORS
330
3BA
102
}
330
3BA
100
AcDbVisualStyle
  2
2dWireframe
 70
     4
 71
     0
 72
     2
 73
     0
 90
        0
 40
-0.6
 41
-30.0
 62
     5
 63
     7
 74
     1
 91
        4
 64
     7
 65
   257
 75
     1
175
     1
 42
1.0
 92
        0
 66
   257
 43
1.0
 76
     1
 77
     6
 78
     2
 67
     7
 79
     5
170
     0
171
     0
290
     0
174
     0
 93
        1
 44
0.0
173
     0
291
     0
 45
0.0
1001
ACAD
1000
AcDbSavedByObjectVersion
1070
     0
  0
VISUALSTYLE
  5
3C2
102
{ACAD_REACTORS
330
3BA
102
}
330
3BA
100
AcDbVisualStyle
  2
3D Hidden
 70
     6
 71
     1
 72
     2
 73
     2
 90
        0
 40
-0.6
 41
-30.0
 62
     5
 63
     7
 74
     2
 91
        2
 64
     7
 65
   257
 75
     2
175
     1
 42
40.0
 92
        0
 66
   257
 43
1.0
 76
     1
 77
     6
 78
     2
 67
     7
 79
     3
170
     0
171
     0
290
     0
174
     0
 93
        1
 44
0.0
173
     0
291
     0
 45
0.0
1001
ACAD
1000
AcDbSavedByObjectVersion
1070
     0
  0
VISUALSTYLE
  5
3C1
102
{ACAD_REACTORS
330
3BA
102
}
330
3BA
100
AcDbVisualStyle
  2
3dWireframe
 70
     5
 71
     0
 72
     2
 73
     0
 90
        0
 40
-0.6
 41
-30.0
 62
     5
 63
     7
 74
     1
 91
        4
 64
     7
 65
   257
 75
     1
175
     1
 42
1.0
 92
        0
 66
   257
 43
1.0
 76
     1
 77
     6
 78
     2
 67
     7
 79
     5
170
     0
171
     0
290
     0
174
     0
 93
        1
 44
0.0
173
     0
291
     0
 45
0.0
1001
ACAD
1000
AcDbSavedByObjectVersion
1070
     0
  0
VISUALSTYLE
  5
3BF
102
{ACAD_REACTORS
330
3BA
102
}
330
3BA
100
AcDbVisualStyle
  2
Basic
 70
     7
 71
     1
 72
     0
 73
     1
 90
        0
 40
-0.6
 41
-30.0
 62
     5
 63
     7
 74
     0
 91
        4
 64
     7
 65
   257
 75
     1
175
     1
 42
1.0
 92
        8
 66
     7
 43
1.0
 76
     1
 77
     6
 78
     2
 67
     7
 79
     5
170
     0
171
     0
290
     0
174
     0
 93
        1
 44
0.0
173
     0
291
     1
 45
0.0
1001
ACAD
1000
AcDbSavedByObjectVersion
1070
     0
  0
VISUALSTYLE
  5
3C6
102
{ACAD_REACTORS
330
3BA
102
}
330
3BA
100
AcDbVisualStyle
  2
Brighten
 70
    12
 71
     2
 72
     2
 73
     0
 90
        0
 40
-0.6
 41
-30.0
 62
     5
 63
     7
 74
     1
 91
        4
 64
     7
 65
   257
 75
     1
175
     1
 42
1.0
 92
        8
 66
     7
 43
1.0
 76
     1
 77
     6
 78
     2
 67
     7
 79
     5
170
     0
171
     0
290
     0
174
     0
 93
        1
 44
50.0
173
     0
291
     1
 45
0.0
1001
ACAD
1000
AcDbSavedByObjectVersion
1070
     0
  0
VISUALSTYLE
  5
3CA
102
{ACAD_REACTORS
330
3BA
102
}
330
3BA
100
AcDbVisualStyle
  2
ColorChange
 70
    16
 71
     2
 72
     2
 73
     3
 90
        0
 40
-0.6
 41
-30.0
 62
     5
 63
     8
 74
     1
 91
        4
 64
     7
 65
   257
 75
     1
175
     1
 42
1.0
 92
        8
 66
     8
 43
1.0
 76
     1
 77
     6
 78
     2
 67
     7
 79
     5
170
     0
171
     0
290
     0
174
     0
 93
        1
 44
0.0
173
     0
291
     1
 45
0.0
1001
ACAD
1000
AcDbSavedByObjectVersion
1070
     0
  0
VISUALSTYLE
  5
3C3
102
{ACAD_REACTORS
330
3BA
102
}
330
3BA
100
AcDbVisualStyle
  2
Conceptual
 70
     9
 71
     3
 72
     2
 73
     0
 90
        0
 40
-0.6
 41
-30.0
 62
     5
 63
     7
 74
     2
 91
        2
 64
     7
 65
   257
 75
     1
175
     1
 42
40.0
 92
        8
 66
     7
 43
1.0
 76
     1
 77
     6
 78
     2
 67
     7
 79
     3
170
     0
171
     0
290
     0
174
     0
 93
        1
 44
0.0
173
     0
291
     0
 45
0.0
1001
ACAD
1000
AcDbSavedByObjectVersion
1070
     0
  0
VISUALSTYLE
  5
3C5
102
{ACAD_REACTORS
330
3BA
102
}
330
3BA
100
AcDbVisualStyle
  2
Dim
 70
    11
 71
     2
 72
     2
 73
     0
 90
        0
 40
-0.6
 41
-30.0
 62
     5
 63
     7
 74
     1
 91
        4
 64
     7
 65
   257
 75
     1
175
     1
 42
1.0
 92
        8
 66
     7
 43
1.0
 76
     1
 77
     6
 78
     2
 67
     7
 79
     5
170
     0
171
     0
290
     0
174
     0
 93
        1
 44
-50.0
173
     0
291
     1
 45
0.0
1001
ACAD
1000
AcDbSavedByObjectVersion
1070
     0
  0
VISUALSTYLE
  5
3C9
102
{ACAD_REACTORS
330
3BA
102
}
330
3BA
100
AcDbVisualStyle
  2
Facepattern
 70
    15
 71
     2
 72
     2
 73
     0
 90
        0
 40
-0.6
 41
-30.0
 62
     5
 63
     7
 74
     1
 91
        4
 64
     7
 65
   257
 75
     1
175
     1
 42
1.0
 92
        8
 66
     7
 43
1.0
 76
     1
 77
     6
 78
     2
 67
     7
 79
     5
170
     0
171
     0
290
     0
174
     0
 93
        1
 44
0.0
173
     0
291
     1
 45
0.0
1001
ACAD
1000
AcDbSavedByObjectVersion
1070
     0
  0
VISUALSTYLE
  5
3BB
102
{ACAD_REACTORS
330
3BA
102
}
330
3BA
100
AcDbVisualStyle
  2
Flat
 70
     0
 71
     2
 72
     1
 73
     1
 90
        2
 40
-0.6
 41
30.0
 62
     5
 63
     7
 74
     0
 91
        4
 64
     7
 65
   257
 75
     1
175
     1
 42
1.0
 92
        8
 66
     7
 43
1.0
 76
     1
 77
     6
 78
     2
 67
     7
 79
     5
170
     0
171
     0
290
     0
174
     0
 93
       13
 44
0.0
173
     0
291
     1
 45
0.0
1001
ACAD
1000
AcDbSavedByObjectVersion
1070
     0
  0
VISUALSTYLE
  5
3BC
102
{ACAD_REACTORS
330
3BA
102
}
330
3BA
100
AcDbVisualStyle
  2
FlatWithEdges
 70
     1
 71
     2
 72
     1
 73
     1
 90
        2
 40
-0.6
 41
30.0
 62
     5
 63
     7
 74
     1
 91
        4
 64
     7
 65
   257
 75
     1
175
     1
 42
1.0
 92
        0
 66
   257
 43
1.0
 76
     1
 77
     6
 78
     2
 67
     7
 79
     5
170
     0
171
     0
290
     0
174
     0
 93
       13
 44
0.0
173
     0
291
     1
 45
0.0
1001
ACAD
1000
AcDbSavedByObjectVersion
1070
     0
  0
VISUALSTYLE
  5
3BD
102
{ACAD_REACTORS
330
3BA
102
}
330
3BA
100
AcDbVisualStyle
  2
Gouraud
 70
     2
 71
     2
 72
     2
 73
     1
 90
        2
 40
-0.6
 41
30.0
 62
     5
 63
     7
 74
     0
 91
        4
 64
     7
 65
   257
 75
     1
175
     1
 42
1.0
 92
        0
 66
     7
 43
1.0
 76
     1
 77
     6
 78
     2
 67
     7
 79
     5
170
     0
171
     0
290
     0
174
     0
 93
       13
 44
0.0
173
     0
291
     1
 45
0.0
1001
ACAD
1000
AcDbSavedByObjectVersion
1070
     0
  0
VISUALSTYLE
  5
3BE
102
{ACAD_REACTORS
330
3BA
102
}
330
3BA
100
AcDbVisualStyle
  2
GouraudWithEdges
 70
     3
 71
     2
 72
     2
 73
     1
 90
        2
 40
-0.6
 41
30.0
 62
     5
 63
     7
 74
     1
 91
        4
 64
     7
 65
   257
 75
     1
175
     1
 42
1.0
 92
        0
 66
   257
 43
1.0
 76
     1
 77
     6
 78
     2
 67
     7
 79
     5
170
     0
171
     0
290
     0
174
     0
 93
       13
 44
0.0
173
     0
291
     1
 45
0.0
1001
ACAD
1000
AcDbSavedByObjectVersion
1070
     0
  0
VISUALSTYLE
  5
3C8
102
{ACAD_REACTORS
330
3BA
102
}
330
3BA
100
AcDbVisualStyle
  2
Linepattern
 70
    14
 71
     2
 72
     2
 73
     0
 90
        0
 40
-0.6
 41
-30.0
 62
     5
 63
     7
 74
     1
 91
        4
 64
     7
 65
   257
 75
     7
175
     7
 42
1.0
 92
        8
 66
     7
 43
1.0
 76
     1
 77
     6
 78
     2
 67
     7
 79
     5
170
     0
171
     0
290
     0
174
     0
 93
        1
 44
0.0
173
     0
291
     1
 45
0.0
1001
ACAD
1000
AcDbSavedByObjectVersion
1070
     0
  0
VISUALSTYLE
  5
3C4
102
{ACAD_REACTORS
330
3BA
102
}
330
3BA
100
AcDbVisualStyle
  2
Realistic
 70
     8
 71
     2
 72
     2
 73
     0
 90
        0
 40
-0.6
 41
-30.0
 62
     5
 63
     7
 74
     1
 91
        0
 64
     7
 65
   257
 75
     1
175
     1
 42
1.0
 92
        8
 66
     8
 43
1.0
 76
     1
 77
     6
 78
     2
 67
     7
 79
     5
170
     0
171
     0
290
     0
174
     0
 93
       13
 44
0.0
173
     0
291
     0
 45
0.0
1001
ACAD
1000
AcDbSavedByObjectVersion
1070
     0
  0
VISUALSTYLE
  5
3C7
102
{ACAD_REACTORS
330
3BA
102
}
330
3BA
100
AcDbVisualStyle
  2
Thicken
 70
    13
 71
     2
 72
     2
 73
     0
 90
        0
 40
-0.6
 41
-30.0
 62
     5
 63
     7
 74
     1
 91
        4
 64
     7
 65
   257
 75
     1
175
     1
 42
1.0
 92
       12
 66
     7
 43
1.0
 76
     1
 77
     6
 78
     2
 67
     7
 79
     5
170
     0
171
     0
290
     0
174
     0
 93
        1
 44
0.0
173
     0
291
     1
 45
0.0
1001
ACAD
1000
AcDbSavedByObjectVersion
1070
     0
  0
DICTIONARYVAR
  5
476
102
{ACAD_REACTORS
330
271
102
}
330
271
100
DictionaryVariables
280
     0
  1
STANDARD
  0
DICTIONARYVAR
  5
272
102
{ACAD_REACTORS
330
271
102
}
330
271
100
DictionaryVariables
280
     0
  1
1
  0
DICTIONARYVAR
  5
478
102
{ACAD_REACTORS
330
271
102
}
330
271
100
DictionaryVariables
280
     0
  1
0
  0
DICTIONARYVAR
  5
477
102
{ACAD_REACTORS
330
271
102
}
330
271
100
DictionaryVariables
280
     0
  1
127
  0
DICTIONARY
  5
47C
330
213
100
AcDbDictionary
280
     1
281
     1
  3
ACAD_XREC_ROUNDTRIP
360
47D
  0
DICTIONARY
  5
47A
330
212
100
AcDbDictionary
280
     1
281
     1
  3
ACAD_XREC_ROUNDTRIP
360
47B
  0
DICTIONARY
  5
480
330
3B8
100
AcDbDictionary
280
     1
281
     1
  3
ACAD_XREC_ROUNDTRIP
360
481
  0
DICTIONARY
  5
47E
330
3B7
100
AcDbDictionary
280
     1
281
     1
  3
ACAD_XREC_ROUNDTRIP
360
47F
  0
DICTIONARY
  5
482
330
3B9
100
AcDbDictionary
280
     1
281
     1
  3
ACAD_XREC_ROUNDTRIP
360
483
  0
DICTIONARY
  5
484
330
3CD
100
AcDbDictionary
280
     1
281
     1
  3
ACAD_XREC_ROUNDTRIP
360
485
  0
XRECORD
  5
47D
102
{ACAD_REACTORS
330
47C
102
}
330
47C
100
AcDbXrecord
280
     1
102
SHADEPLOT
 70
     0
102
SHADEPLOTRESLEVEL
 70
     2
102
SHADEPLOTCUSTOMDPI
 70
   300
  0
XRECORD
  5
47B
102
{ACAD_REACTORS
330
47A
102
}
330
47A
100
AcDbXrecord
280
     1
102
SHADEPLOT
 70
     0
102
SHADEPLOTRESLEVEL
 70
     2
102
SHADEPLOTCUSTOMDPI
 70
   300
  0
XRECORD
  5
481
102
{ACAD_REACTORS
330
480
102
}
330
480
100
AcDbXrecord
280
     1
102
MATERIAL
148
0.0
149
0.0
149
0.0
 93
        0
 94
       63
282
     0
 72
     1
 77
     1
171
     1
175
     1
179
     1
273
     0
  0
XRECORD
  5
47F
102
{ACAD_REACTORS
330
47E
102
}
330
47E
100
AcDbXrecord
280
     1
102
MATERIAL
148
0.0
149
0.0
149
0.0
 93
        0
 94
       63
282
     0
 72
     1
 77
     1
171
     1
175
     1
179
     1
273
     0
  0
XRECORD
  5
483
102
{ACAD_REACTORS
330
482
102
}
330
482
100
AcDbXrecord
280
     1
102
MATERIAL
148
0.0
149
0.0
149
0.0
 93
        0
 94
       63
282
     0
 72
     1
 77
     1
171
     1
175
     1
179
     1
273
     0
  0
XRECORD
  5
485
102
{ACAD_REACTORS
330
484
102
}
330
484
100
AcDbXrecord
280
     1
102
ACAD_ROUNDTRIP_PRE2007_TABLESTYLE
 90
      512
 91
        0
  1

 92
      512
 93
        0
  2

 94
      512
 95
        0
  3

  0
ENDSEC
  0
EOF
