  0
SECTION
  2
HEADER
  9
$ACADVER
  1
AC1015
  9
$ACADMAINTVER
 70
    20
  9
$DWGCODEPAGE
  3
ANSI_1252
  9
$INSBASE
 10
57.30968777815403
 20
2.494436892221437
 30
0.0
  9
$EXTMIN
 10
25.67194840702945
 20
-1.304714394124699
 30
0.0
  9
$EXTMAX
 10
90.01902378219998
 20
42.61943689222144
 30
0.0
  9
$LIMMIN
 10
0.0
 20
0.0
  9
$LIMMAX
 10
36.0
 20
36.0
  9
$ORTHOMODE
 70
     0
  9
$REGENMODE
 70
     1
  9
$FILLMODE
 70
     1
  9
$QTEXTMODE
 70
     0
  9
$MIRRTEXT
 70
     1
  9
$LTSCALE
 40
1.0
  9
$ATTMODE
 70
     1
  9
$TEXTSIZE
 40
0.2
  9
$TRACEWID
 40
0.05
  9
$TEXTSTYLE
  7
STANDARD
  9
$CLAYER
  8
ADPDIM
  9
$CELTYPE
  6
BYLAYER
  9
$CECOLOR
 62
   256
  9
$CELTSCALE
 40
1.0
  9
$DISPSILH
 70
     0
  9
$DIMSCALE
 40
1.0
  9
$DIMASZ
 40
0.125
  9
$DIMEXO
 40
0.0625
  9
$DIMDLI
 40
0.38
  9
$DIMRND
 40
0.0
  9
$DIMDLE
 40
0.0
  9
$DIMEXE
 40
0.18
  9
$DIMTP
 40
0.0
  9
$DIMTM
 40
0.0
  9
$DIMTXT
 40
0.125
  9
$DIMCEN
 40
0.1875
  9
$DIMTSZ
 40
0.125
  9
$DIMTOL
 70
     0
  9
$DIMLIM
 70
     0
  9
$DIMTIH
 70
     0
  9
$DIMTOH
 70
     0
  9
$DIMSE1
 70
     0
  9
$DIMSE2
 70
     0
  9
$DIMTAD
 70
     0
  9
$DIMZIN
 70
     3
  9
$DIMBLK
  1

  9
$DIMASO
 70
     1
  9
$DIMSHO
 70
     1
  9
$DIMPOST
  1

  9
$DIMAPOST
  1

  9
$DIMALT
 70
     0
  9
$DIMALTD
 70
     1
  9
$DIMALTF
 40
25.4
  9
$DIMLFAC
 40
1.0
  9
$DIMTOFL
 70
     0
  9
$DIMTVP
 40
0.0
  9
$DIMTIX
 70
     0
  9
$DIMSOXD
 70
     0
  9
$DIMSAH
 70
     0
  9
$DIMBLK1
  1

  9
$DIMBLK2
  1

  9
$DIMSTYLE
  2
STANDARD
  9
$DIMCLRD
 70
     0
  9
$DIMCLRE
 70
     0
  9
$DIMCLRT
 70
     0
  9
$DIMTFAC
 40
1.0
  9
$DIMGAP
 40
0.125
  9
$DIMJUST
 70
     0
  9
$DIMSD1
 70
     0
  9
$DIMSD2
 70
     0
  9
$DIMTOLJ
 70
     1
  9
$DIMTZIN
 70
     0
  9
$DIMALTZ
 70
     0
  9
$DIMALTTZ
 70
     0
  9
$DIMUPT
 70
     0
  9
$DIMDEC
 70
     4
  9
$DIMTDEC
 70
     4
  9
$DIMALTU
 70
     2
  9
$DIMALTTD
 70
     2
  9
$DIMTXSTY
  7
STANDARD
  9
$DIMAUNIT
 70
     0
  9
$DIMADEC
 70
     0
  9
$DIMALTRND
 40
0.0
  9
$DIMAZIN
 70
     0
  9
$DIMDSEP
 70
    46
  9
$DIMATFIT
 70
     3
  9
$DIMFRAC
 70
     0
  9
$DIMLDRBLK
  1

  9
$DIMLUNIT
 70
     2
  9
$DIMLWD
 70
    -2
  9
$DIMLWE
 70
    -2
  9
$DIMTMOVE
 70
     0
  9
$LUNITS
 70
     5
  9
$LUPREC
 70
     4
  9
$SKETCHINC
 40
0.1
  9
$FILLETRAD
 40
0.062
  9
$AUNITS
 70
     0
  9
$AUPREC
 70
     0
  9
$MENU
  1
acad
  9
$ELEVATION
 40
0.0
  9
$PELEVATION
 40
0.0
  9
$THICKNESS
 40
0.0
  9
$LIMCHECK
 70
     0
  9
$CHAMFERA
 40
0.0
  9
$CHAMFERB
 40
0.0
  9
$CHAMFERC
 40
0.0
  9
$CHAMFERD
 40
0.0
  9
$SKPOLY
 70
     0
  9
$TDCREATE
 40
2450374.486826389
  9
$TDUCREATE
 40
2450374.653493056
  9
$TDUPDATE
 40
2453954.573711598
  9
$TDUUPDATE
 40
2453954.740378264
  9
$TDINDWG
 40
0.0692266204
  9
$TDUSRTIMER
 40
0.0692266204
  9
$USRTIMER
 70
     1
  9
$ANGBASE
 50
0.0
  9
$ANGDIR
 70
     0
  9
$PDMODE
 70
     0
  9
$PDSIZE
 40
0.0
  9
$PLINEWID
 40
0.0
  9
$SPLFRAME
 70
     0
  9
$SPLINETYPE
 70
     6
  9
$SPLINESEGS
 70
     8
  9
$HANDSEED
  5
3D3
  9
$SURFTAB1
 70
     6
  9
$SURFTAB2
 70
     6
  9
$SURFTYPE
 70
     6
  9
$SURFU
 70
     6
  9
$SURFV
 70
     6
  9
$UCSBASE
  2

  9
$UCSNAME
  2

  9
$UCSORG
 10
0.0
 20
0.0
 30
0.0
  9
$UCSXDIR
 10
1.0
 20
0.0
 30
0.0
  9
$UCSYDIR
 10
0.0
 20
1.0
 30
0.0
  9
$UCSORTHOREF
  2

  9
$UCSORTHOVIEW
 70
     0
  9
$UCSORGTOP
 10
0.0
 20
0.0
 30
0.0
  9
$UCSORGBOTTOM
 10
0.0
 20
0.0
 30
0.0
  9
$UCSORGLEFT
 10
0.0
 20
0.0
 30
0.0
  9
$UCSORGRIGHT
 10
0.0
 20
0.0
 30
0.0
  9
$UCSORGFRONT
 10
0.0
 20
0.0
 30
0.0
  9
$UCSORGBACK
 10
0.0
 20
0.0
 30
0.0
  9
$PUCSBASE
  2

  9
$PUCSNAME
  2

  9
$PUCSORG
 10
0.0
 20
0.0
 30
0.0
  9
$PUCSXDIR
 10
1.0
 20
0.0
 30
0.0
  9
$PUCSYDIR
 10
0.0
 20
1.0
 30
0.0
  9
$PUCSORTHOREF
  2

  9
$PUCSORTHOVIEW
 70
     0
  9
$PUCSORGTOP
 10
0.0
 20
0.0
 30
0.0
  9
$PUCSORGBOTTOM
 10
0.0
 20
0.0
 30
0.0
  9
$PUCSORGLEFT
 10
0.0
 20
0.0
 30
0.0
  9
$PUCSORGRIGHT
 10
0.0
 20
0.0
 30
0.0
  9
$PUCSORGFRONT
 10
0.0
 20
0.0
 30
0.0
  9
$PUCSORGBACK
 10
0.0
 20
0.0
 30
0.0
  9
$USERI1
 70
     0
  9
$USERI2
 70
     0
  9
$USERI3
 70
     0
  9
$USERI4
 70
     0
  9
$USERI5
 70
     0
  9
$USERR1
 40
0.0
  9
$USERR2
 40
0.0
  9
$USERR3
 40
0.0
  9
$USERR4
 40
0.0
  9
$USERR5
 40
0.0
  9
$WORLDVIEW
 70
     1
  9
$SHADEDGE
 70
     3
  9
$SHADEDIF
 70
    70
  9
$TILEMODE
 70
     1
  9
$MAXACTVP
 70
    15
  9
$PINSBASE
 10
0.0
 20
0.0
 30
0.0
  9
$PLIMCHECK
 70
     0
  9
$PEXTMIN
 10
1.000000000000000E+20
 20
1.000000000000000E+20
 30
1.000000000000000E+20
  9
$PEXTMAX
 10
-1.000000000000000E+20
 20
-1.000000000000000E+20
 30
-1.000000000000000E+20
  9
$PLIMMIN
 10
0.0
 20
0.0
  9
$PLIMMAX
 10
12.0
 20
9.0
  9
$UNITMODE
 70
     0
  9
$VISRETAIN
 70
     0
  9
$PLINEGEN
 70
     0
  9
$PSLTSCALE
 70
     1
  9
$TREEDEPTH
 70
  3020
  9
$CMLSTYLE
  2
STANDARD
  9
$CMLJUST
 70
     0
  9
$CMLSCALE
 40
1.0
  9
$PROXYGRAPHICS
 70
     1
  9
$MEASUREMENT
 70
     0
  9
$CELWEIGHT
370
    -1
  9
$ENDCAPS
280
     0
  9
$JOINSTYLE
280
     0
  9
$LWDISPLAY
290
     0
  9
$INSUNITS
 70
     0
  9
$HYPERLINKBASE
  1

  9
$STYLESHEET
  1

  9
$XEDIT
290
     1
  9
$CEPSNTYPE
380
     0
  9
$PSTYLEMODE
290
     1
  9
$FINGERPRINTGUID
  2
{F9C8F981-A4E4-4EE3-861D-AFE85576D7C1}
  9
$VERSIONGUID
  2
{577965D6-F0FD-4D2F-AEDC-B480426F2C7A}
  9
$EXTNAMES
290
     1
  9
$PSVPSCALE
 40
0.0
  9
$OLESTARTUP
290
     0
  0
ENDSEC
  0
SECTION
  2
CLASSES
  0
CLASS
  1
ACDBDICTIONARYWDFLT
  2
AcDbDictionaryWithDefault
  3
ObjectDBX Classes
 90
        0
280
     0
281
     0
  0
CLASS
  1
ACDBPLACEHOLDER
  2
AcDbPlaceHolder
  3
ObjectDBX Classes
 90
        0
280
     0
281
     0
  0
CLASS
  1
LAYOUT
  2
AcDbLayout
  3
ObjectDBX Classes
 90
        0
280
     0
281
     0
  0
CLASS
  1
DICTIONARYVAR
  2
AcDbDictionaryVar
  3
ObjectDBX Classes
 90
        0
280
     0
281
     0
  0
CLASS
  1
MATERIAL
  2
AcDbMaterial
  3
ObjectDBX Classes
 90
     1024
280
     0
281
     0
  0
CLASS
  1
VISUALSTYLE
  2
AcDbVisualStyle
  3
ObjectDBX Classes
 90
     4095
280
     0
281
     0
  0
CLASS
  1
TABLESTYLE
  2
AcDbTableStyle
  3
ObjectDBX Classes
 90
     4095
280
     0
281
     0
  0
ENDSEC
  0
SECTION
  2
TABLES
  0
TABLE
  2
VPORT
  5
8
330
0
100
AcDbSymbolTable
 70
     1
  0
VPORT
  5
2B1
330
8
100
AcDbSymbolTableRecord
100
AcDbViewportTableRecord
  2
*Active
 70
     0
 10
0.0
 20
0.0
 11
1.0
 21
1.0
 12
55.42508307002634
 22
22.08952830074199
 13
0.0
 23
0.0
 14
0.5740882589684922
 24
0.5740882589684922
 15
0.5
 25
0.5
 16
0.0
 26
0.0
 36
1.0
 17
0.0
 27
0.0
 37
0.0
 40
43.84059250647061
 41
1.774011299435028
 42
50.0
 43
0.0
 44
0.0
 50
0.0
 51
0.0
 71
     0
 72
   100
 73
     1
 74
     0
 75
     0
 76
     0
 77
     0
 78
     0
281
     0
 65
     1
110
0.0
120
0.0
130
0.0
111
1.0
121
0.0
131
0.0
112
0.0
122
1.0
132
0.0
 79
     0
146
0.0
  0
ENDTAB
  0
TABLE
  2
LTYPE
  5
5
330
0
100
AcDbSymbolTable
 70
     1
  0
LTYPE
  5
12
330
5
100
AcDbSymbolTableRecord
100
AcDbLinetypeTableRecord
  2
BYBLOCK
 70
     0
  3

 72
    65
 73
     0
 40
0.0
  0
LTYPE
  5
13
330
5
100
AcDbSymbolTableRecord
100
AcDbLinetypeTableRecord
  2
BYLAYER
 70
     0
  3

 72
    65
 73
     0
 40
0.0
  0
LTYPE
  5
14
330
5
100
AcDbSymbolTableRecord
100
AcDbLinetypeTableRecord
  2
CONTINUOUS
 70
     0
  3
Solid line
 72
    65
 73
     0
 40
0.0
  0
ENDTAB
  0
TABLE
  2
LAYER
  5
2
330
0
100
AcDbSymbolTable
 70
     4
  0
LAYER
  5
F
330
2
100
AcDbSymbolTableRecord
100
AcDbLayerTableRecord
  2
0
 70
     0
 62
     7
  6
CONTINUOUS
370
    -3
390
137
  0
LAYER
  5
B1
330
2
100
AcDbSymbolTableRecord
100
AcDbLayerTableRecord
  2
ADPDIM
 70
     0
 62
     3
  6
CONTINUOUS
370
    -3
390
137
  0
LAYER
  5
B3
330
2
100
AcDbSymbolTableRecord
100
AcDbLayerTableRecord
  2
ADP1DETAIL
 70
     0
 62
     7
  6
CONTINUOUS
370
    -3
390
137
  0
LAYER
  5
B5
330
2
100
AcDbSymbolTableRecord
100
AcDbLayerTableRecord
  2
DEFPOINTS
 70
     0
 62
     7
  6
CONTINUOUS
290
     0
370
    -3
390
137
  0
ENDTAB
  0
TABLE
  2
STYLE
  5
3
330
0
100
AcDbSymbolTable
 70
     2
  0
STYLE
  5
10
330
3
100
AcDbSymbolTableRecord
100
AcDbTextStyleTableRecord
  2
STANDARD
 70
     0
 40
0.0
 41
1.0
 50
0.0
 71
     0
 42
0.2
  3
txt
  4

  0
STYLE
  5
13E
330
3
100
AcDbSymbolTableRecord
100
AcDbTextStyleTableRecord
  2
ARIAL_WIDE
 70
     0
 40
0.0
 41
1.25
 50
0.0
 71
     0
 42
0.2
  3
ARIAL.TTF
  4

1001
ACAD
1000
Arial
1071
       34
  0
ENDTAB
  0
TABLE
  2
VIEW
  5
6
330
0
100
AcDbSymbolTable
 70
     0
  0
ENDTAB
  0
TABLE
  2
UCS
  5
7
330
0
100
AcDbSymbolTable
 70
     0
  0
ENDTAB
  0
TABLE
  2
APPID
  5
9
330
0
100
AcDbSymbolTable
 70
     1
  0
APPID
  5
11
330
9
100
AcDbSymbolTableRecord
100
AcDbRegAppTableRecord
  2
ACAD
 70
     0
  0
ENDTAB
  0
TABLE
  2
DIMSTYLE
  5
A
330
0
100
AcDbSymbolTable
 70
     1
100
AcDbDimStyleTable
 71
     1
340
132
  0
DIMSTYLE
105
132
102
{ACAD_REACTORS
330
312
330
320
330
12E
102
}
330
A
100
AcDbSymbolTableRecord
100
AcDbDimStyleTableRecord
  2
STANDARD
 70
     0
340
10
  0
ENDTAB
  0
TABLE
  2
BLOCK_RECORD
  5
1
330
0
100
AcDbSymbolTable
 70
     6
  0
BLOCK_RECORD
  5
18
102
{ACAD_XDICTIONARY
360
193
102
}
330
1
100
AcDbSymbolTableRecord
100
AcDbBlockTableRecord
  2
*MODEL_SPACE
340
13A
  0
BLOCK_RECORD
  5
15
102
{ACAD_XDICTIONARY
360
191
102
}
330
1
100
AcDbSymbolTableRecord
100
AcDbBlockTableRecord
  2
*PAPER_SPACE
340
13B
  0
BLOCK_RECORD
  5
8D
330
1
100
AcDbSymbolTableRecord
100
AcDbBlockTableRecord
  2
340
340
0
102
{BLKREFS
331
12F
102
}
  0
BLOCK_RECORD
  5
A7
330
1
100
AcDbSymbolTableRecord
100
AcDbBlockTableRecord
  2
*D1
340
0
  0
BLOCK_RECORD
  5
AF
330
1
100
AcDbSymbolTableRecord
100
AcDbBlockTableRecord
  2
*D2
340
0
  0
BLOCK_RECORD
  5
313
330
1
100
AcDbSymbolTableRecord
100
AcDbBlockTableRecord
  2
*D3
340
0
  0
BLOCK_RECORD
  5
321
330
1
100
AcDbSymbolTableRecord
100
AcDbBlockTableRecord
  2
*D4
340
0
  0
BLOCK_RECORD
  5
342
330
1
100
AcDbSymbolTableRecord
100
AcDbBlockTableRecord
  2
*D5
340
0
  0
ENDTAB
  0
ENDSEC
  0
SECTION
  2
BLOCKS
  0
BLOCK
  5
B8
330
18
100
AcDbEntity
  8
0
100
AcDbBlockBegin
  2
*MODEL_SPACE
 70
     0
 10
0.0
 20
0.0
 30
0.0
  3
*MODEL_SPACE
  1

  0
ENDBLK
  5
B9
330
18
100
AcDbEntity
  8
0
100
AcDbBlockEnd
  0
BLOCK
  5
B6
330
15
100
AcDbEntity
 67
     1
  8
0
100
AcDbBlockBegin
  2
*PAPER_SPACE
 70
     0
 10
0.0
 20
0.0
 30
0.0
  3
*PAPER_SPACE
  1

  0
ENDBLK
  5
B7
330
15
100
AcDbEntity
 67
     1
  8
0
100
AcDbBlockEnd
  0
BLOCK
  5
BB
330
8D
100
AcDbEntity
  8
0
100
AcDbBlockBegin
  2
340
 70
     0
 10
0.0
 20
0.0
 30
0.0
  3
340
  1

  0
ARC
  5
BC
330
8D
100
AcDbEntity
  8
0
 62
     7
100
AcDbCircle
 10
6.990279526568379
 20
19.81767816670865
 30
0.0
 40
6.253522701790728
100
AcDbArc
 50
171.9889308583049
 51
189.6025162471735
  0
LWPOLYLINE
  5
BD
330
8D
100
AcDbEntity
  8
0
 62
     7
100
AcDbPolyline
 90
        2
 70
     0
 43
0.0
 10
0.1861495844875307
 20
18.77451523545706
 42
0.0481158816349284
 10
0.2127423822714647
 20
20.68919667590029
 42
-1.084104891897152
  0
LWPOLYLINE
  5
C1
330
8D
100
AcDbEntity
  8
0
 62
     7
100
AcDbPolyline
 90
        4
 70
     0
 43
0.0
 10
1.223268698060941
 20
18.21606648199446
 42
-0.0498756211208902
 10
1.170083102493073
 20
19.25318559556787
 10
1.276454293628809
 20
19.81163434903047
 42
0.3459193883608532
 10
1.010526315789476
 20
21.00831024930748
 42
6.149740902952908
  0
LWPOLYLINE
  5
C7
330
8D
100
AcDbEntity
  8
0
 62
     7
100
AcDbPolyline
 90
        4
 70
     0
 43
0.0
 10
-0.2393351800554058
 20
18.21606648199446
 42
0.0498756211208902
 10
-0.1861495844875378
 20
19.25318559556787
 10
-0.2925207756232737
 20
19.81163434903047
 42
-0.3459193883608532
 10
-0.0265927977839411
 20
21.00831024930748
 42
-6.149740902952908
  0
LINE
  5
CD
330
8D
100
AcDbEntity
  8
0
 62
     7
100
AcDbLine
 10
0.0
 20
0.0
 30
0.0
 11
-0.1063711911357359
 21
18.21606648199446
 31
0.0
  0
LINE
  5
CE
330
8D
100
AcDbEntity
  8
0
 62
     7
100
AcDbLine
 10
1.090304709141271
 20
18.21606648199446
 30
0.0
 11
1.010526315789469
 21
0.0
 31
0.0
  0
LINE
  5
CF
330
8D
100
AcDbEntity
  8
0
 62
     7
100
AcDbLine
 10
1.010526315789469
 20
0.0
 30
0.0
 11
0.0
 21
0.0
 31
0.0
  0
LINE
  5
D0
330
8D
100
AcDbEntity
  8
0
 62
     7
100
AcDbLine
 10
1.090304709141271
 20
18.21606648199446
 30
0.0
 11
0.824376731301939
 21
18.77451523545706
 31
0.0
  0
LINE
  5
D1
330
8D
100
AcDbEntity
  8
0
 62
     7
100
AcDbLine
 10
0.824376731301939
 20
18.77451523545706
 30
0.0
 11
0.5052631578947313
 21
18.21606648199446
 31
0.0
  0
LINE
  5
D2
330
8D
100
AcDbEntity
  8
0
 62
     7
100
AcDbLine
 10
0.1861495844875307
 20
18.77451523545706
 30
0.0
 11
-0.1063711911357359
 21
18.21606648199446
 31
0.0
  0
LINE
  5
D3
330
8D
100
AcDbEntity
  8
0
 62
     7
100
AcDbLine
 10
0.5052631578947313
 20
18.21606648199446
 30
0.0
 11
0.1861495844875307
 21
18.77451523545706
 31
0.0
  0
LINE
  5
D4
330
8D
100
AcDbEntity
  8
0
 62
     7
100
AcDbLine
 10
-0.1063711911357359
 20
18.21606648199446
 30
0.0
 11
-0.2393351800554058
 21
18.21606648199446
 31
0.0
  0
LINE
  5
D5
330
8D
100
AcDbEntity
  8
0
 62
     7
100
AcDbLine
 10
0.5052631578947313
 20
18.21606648199446
 30
0.0
 11
0.5052631578947313
 21
18.21606648199446
 31
0.0
  0
LINE
  5
D6
330
8D
100
AcDbEntity
  8
0
 62
     7
100
AcDbLine
 10
1.223268698060941
 20
18.21606648199446
 30
0.0
 11
1.090304709141271
 21
18.21606648199446
 31
0.0
  0
LINE
  5
D7
330
8D
100
AcDbEntity
  8
0
 62
     7
100
AcDbLine
 10
0.0
 20
39.96897506925208
 30
0.0
 11
-0.1063711911357359
 21
25.82160664819945
 31
0.0
  0
LINE
  5
D8
330
8D
100
AcDbEntity
  8
0
 62
     7
100
AcDbLine
 10
1.090304709141271
 20
25.82160664819945
 30
0.0
 11
1.010526315789469
 21
39.96897506925208
 31
0.0
  0
LINE
  5
D9
330
8D
100
AcDbEntity
  8
0
 62
     7
100
AcDbLine
 10
0.824376731301939
 20
25.26315789473685
 30
0.0
 11
1.090304709141271
 21
25.82160664819945
 31
0.0
  0
LINE
  5
DA
330
8D
100
AcDbEntity
  8
0
 62
     7
100
AcDbLine
 10
1.090304709141271
 20
22.89639889196676
 30
0.0
 11
0.5052631578947313
 21
22.89639889196676
 31
0.0
  0
LINE
  5
DB
330
8D
100
AcDbEntity
  8
0
 62
     7
100
AcDbLine
 10
1.010526315789469
 20
23.02936288088643
 30
0.0
 11
0.5052631578947313
 21
23.02936288088643
 31
0.0
  0
LINE
  5
DC
330
8D
100
AcDbEntity
  8
0
 62
     7
100
AcDbLine
 10
1.303047091412736
 20
21.75290858725762
 30
0.0
 11
0.5052631578947313
 21
21.75290858725762
 31
0.0
  0
LINE
  5
DD
330
8D
100
AcDbEntity
  8
0
 62
     7
100
AcDbLine
 10
0.5052631578947313
 20
21.85927977839336
 30
0.0
 11
1.303047091412736
 21
21.85927977839336
 31
0.0
  0
LINE
  5
DE
330
8D
100
AcDbEntity
  8
0
 62
     7
100
AcDbLine
 10
1.303047091412736
 20
22.28476454293629
 30
0.0
 11
0.5052631578947313
 21
22.28476454293629
 31
0.0
  0
LINE
  5
DF
330
8D
100
AcDbEntity
  8
0
 62
     7
100
AcDbLine
 10
0.5052631578947313
 20
22.17839335180056
 30
0.0
 11
1.303047091412736
 21
22.17839335180056
 31
0.0
  0
LINE
  5
E0
330
8D
100
AcDbEntity
  8
0
 62
     7
100
AcDbLine
 10
1.090304709141271
 20
21.14127423822715
 30
0.0
 11
0.5052631578947313
 21
21.14127423822715
 31
0.0
  0
LINE
  5
E1
330
8D
100
AcDbEntity
  8
0
 62
     7
100
AcDbLine
 10
1.010526315789469
 20
21.00831024930748
 30
0.0
 11
0.5052631578947313
 21
21.00831024930748
 31
0.0
  0
LWPOLYLINE
  5
E2
330
8D
100
AcDbEntity
  8
0
 62
     7
100
AcDbPolyline
 90
        4
 70
     0
 43
0.0
 10
-0.2393351800554058
 20
25.82160664819945
 42
-0.0498756211208902
 10
-0.1861495844875378
 20
24.78448753462604
 10
-0.2925207756232737
 20
24.22603878116344
 42
0.3459193883608532
 10
-0.0265927977839411
 20
23.02936288088643
 42
6.149740902952908
  0
ARC
  5
E8
330
8D
100
AcDbEntity
  8
0
 62
     7
100
AcDbCircle
 10
-0.3275369465272604
 20
21.39696886194545
 30
0.0
 40
0.356039381627981
100
AcDbArc
 50
314.0969057048066
 51
88.64433883387995
  0
LINE
  5
E9
330
8D
100
AcDbEntity
  8
0
 62
     7
100
AcDbLine
 10
0.5052631578947313
 20
21.14127423822715
 30
0.0
 11
-0.0797783933518019
 21
21.14127423822715
 31
0.0
  0
LINE
  5
EA
330
8D
100
AcDbEntity
  8
0
 62
     7
100
AcDbLine
 10
0.5052631578947313
 20
21.00831024930748
 30
0.0
 11
-0.026592797783934
 21
21.00831024930748
 31
0.0
  0
LINE
  5
EB
330
8D
100
AcDbEntity
  8
0
 62
     7
100
AcDbLine
 10
-0.026592797783934
 20
21.00831024930748
 30
0.0
 11
-0.0797783933518019
 21
21.14127423822715
 31
0.0
  0
LINE
  5
EC
330
8D
100
AcDbEntity
  8
0
 62
     7
100
AcDbLine
 10
0.5052631578947313
 20
21.14127423822715
 30
0.0
 11
0.5052631578947313
 21
21.14127423822715
 31
0.0
  0
LINE
  5
ED
330
8D
100
AcDbEntity
  8
0
 62
     7
100
AcDbLine
 10
0.5052631578947313
 20
21.00831024930748
 30
0.0
 11
0.5052631578947313
 21
21.00831024930748
 31
0.0
  0
LINE
  5
EE
330
8D
100
AcDbEntity
  8
0
 62
     7
100
AcDbLine
 10
0.5052631578947313
 20
21.75290858725762
 30
0.0
 11
-0.3191135734072077
 21
21.75290858725762
 31
0.0
  0
LINE
  5
EF
330
8D
100
AcDbEntity
  8
0
 62
     7
100
AcDbLine
 10
0.5052631578947313
 20
21.85927977839336
 30
0.0
 11
-0.3191135734072077
 21
21.85927977839336
 31
0.0
  0
LINE
  5
F0
330
8D
100
AcDbEntity
  8
0
 62
     7
100
AcDbLine
 10
0.5052631578947313
 20
22.28476454293629
 30
0.0
 11
-0.3191135734072077
 21
22.28476454293629
 31
0.0
  0
LINE
  5
F1
330
8D
100
AcDbEntity
  8
0
 62
     7
100
AcDbLine
 10
0.5052631578947313
 20
22.89639889196676
 30
0.0
 11
-0.0797783933518019
 21
22.89639889196676
 31
0.0
  0
LINE
  5
F2
330
8D
100
AcDbEntity
  8
0
 62
     7
100
AcDbLine
 10
0.5052631578947313
 20
23.02936288088643
 30
0.0
 11
-0.026592797783934
 21
23.02936288088643
 31
0.0
  0
LINE
  5
F3
330
8D
100
AcDbEntity
  8
0
 62
     7
100
AcDbLine
 10
0.5052631578947313
 20
22.17839335180056
 30
0.0
 11
-0.3191135734072077
 21
22.17839335180056
 31
0.0
  0
ARC
  5
F4
330
8D
100
AcDbEntity
  8
0
 62
     7
100
AcDbCircle
 10
-0.3275369465272604
 20
22.64070426824846
 30
0.0
 40
0.356039381627981
100
AcDbArc
 50
271.35566116612
 51
45.90309429519341
  0
ARC
  5
F5
330
8D
100
AcDbEntity
  8
0
 62
     7
100
AcDbCircle
 10
-0.252631578947387
 20
22.01883656509695
 30
0.0
 40
0.1728531855955588
100
AcDbArc
 50
112.6198649480369
 51
247.380135051963
  0
LINE
  5
F6
330
8D
100
AcDbEntity
  8
0
 62
     7
100
AcDbLine
 10
-0.3191135734072077
 20
22.17839335180056
 30
0.0
 11
-0.3191135734072077
 21
22.28476454293629
 31
0.0
  0
LINE
  5
F7
330
8D
100
AcDbEntity
  8
0
 62
     7
100
AcDbLine
 10
-0.3191135734072077
 20
21.75290858725762
 30
0.0
 11
-0.3191135734072077
 21
21.85927977839336
 31
0.0
  0
LINE
  5
F8
330
8D
100
AcDbEntity
  8
0
 62
     7
100
AcDbLine
 10
-0.0797783933518019
 20
22.89639889196676
 30
0.0
 11
-0.026592797783934
 21
23.02936288088643
 31
0.0
  0
LINE
  5
F9
330
8D
100
AcDbEntity
  8
0
 62
     7
100
AcDbLine
 10
0.5052631578947313
 20
22.89639889196676
 30
0.0
 11
0.5052631578947313
 21
22.89639889196676
 31
0.0
  0
LINE
  5
FA
330
8D
100
AcDbEntity
  8
0
 62
     7
100
AcDbLine
 10
0.5052631578947313
 20
23.02936288088643
 30
0.0
 11
0.5052631578947313
 21
23.02936288088643
 31
0.0
  0
ARC
  5
FB
330
8D
100
AcDbEntity
  8
0
 62
     7
100
AcDbCircle
 10
6.990279526568379
 20
24.21999496348526
 30
0.0
 40
6.253522701790728
100
AcDbArc
 50
170.3974837528264
 51
188.0110691416951
  0
LWPOLYLINE
  5
FC
330
8D
100
AcDbEntity
  8
0
 62
     7
100
AcDbPolyline
 90
        2
 70
     0
 43
0.0
 10
0.1861495844875307
 20
25.26315789473685
 42
-0.0481158816349284
 10
0.2127423822714647
 20
23.34847645429362
 42
1.084104891897152
  0
LINE
  5
100
330
8D
100
AcDbEntity
  8
0
 62
     7
100
AcDbLine
 10
-0.1063711911357359
 20
25.82160664819945
 30
0.0
 11
0.1861495844875307
 21
25.26315789473685
 31
0.0
  0
LINE
  5
101
330
8D
100
AcDbEntity
  8
0
 62
     7
100
AcDbLine
 10
-0.2393351800554058
 20
25.82160664819945
 30
0.0
 11
-0.1063711911357359
 21
25.82160664819945
 31
0.0
  0
LINE
  5
102
330
8D
100
AcDbEntity
  8
0
 62
     7
100
AcDbLine
 10
0.5052631578947313
 20
25.82160664819945
 30
0.0
 11
0.824376731301939
 21
25.26315789473685
 31
0.0
  0
LINE
  5
103
330
8D
100
AcDbEntity
  8
0
 62
     7
100
AcDbLine
 10
0.1861495844875307
 20
25.26315789473685
 30
0.0
 11
0.5052631578947313
 21
25.82160664819945
 31
0.0
  0
LINE
  5
104
330
8D
100
AcDbEntity
  8
0
 62
     7
100
AcDbLine
 10
0.5052631578947313
 20
25.82160664819945
 30
0.0
 11
0.5052631578947313
 21
25.82160664819945
 31
0.0
  0
LWPOLYLINE
  5
105
330
8D
100
AcDbEntity
  8
0
 62
     7
100
AcDbPolyline
 90
        4
 70
     0
 43
0.0
 10
1.223268698060941
 20
25.82160664819945
 42
0.0498756211208902
 10
1.170083102493073
 20
24.78448753462604
 10
1.276454293628809
 20
24.22603878116344
 42
-0.3459193883608532
 10
1.010526315789476
 20
23.02936288088643
 42
-6.149740902952908
  0
ARC
  5
10B
330
8D
100
AcDbEntity
  8
0
 62
     7
100
AcDbCircle
 10
1.339733935007295
 20
21.39733209631446
 30
0.0
 40
0.357464075683674
100
AcDbArc
 50
95.89068704130331
 51
225.7512969070764
  0
LINE
  5
10C
330
8D
100
AcDbEntity
  8
0
 62
     7
100
AcDbLine
 10
1.090304709141271
 20
21.14127423822715
 30
0.0
 11
1.010526315789469
 21
21.00831024930748
 31
0.0
  0
ARC
  5
10D
330
8D
100
AcDbEntity
  8
0
 62
     7
100
AcDbCircle
 10
1.339733935007302
 20
22.64034103387945
 30
0.0
 40
0.3574640756836835
100
AcDbArc
 50
134.2487030929244
 51
264.1093129586956
  0
ARC
  5
10E
330
8D
100
AcDbEntity
  8
0
 62
     7
100
AcDbCircle
 10
1.236565096952915
 20
22.01883656509696
 30
0.0
 40
0.1728531855955588
100
AcDbArc
 50
292.619864948037
 51
67.38013505196303
  0
LINE
  5
10F
330
8D
100
AcDbEntity
  8
0
 62
     7
100
AcDbLine
 10
1.303047091412736
 20
22.17839335180056
 30
0.0
 11
1.303047091412736
 21
22.17839335180056
 31
0.0
  0
LINE
  5
110
330
8D
100
AcDbEntity
  8
0
 62
     7
100
AcDbLine
 10
1.303047091412736
 20
22.28476454293629
 30
0.0
 11
1.303047091412736
 21
22.17839335180056
 31
0.0
  0
LINE
  5
111
330
8D
100
AcDbEntity
  8
0
 62
     7
100
AcDbLine
 10
1.303047091412736
 20
21.85927977839336
 30
0.0
 11
1.303047091412736
 21
21.75290858725762
 31
0.0
  0
LINE
  5
112
330
8D
100
AcDbEntity
  8
0
 62
     7
100
AcDbLine
 10
1.010526315789469
 20
23.02936288088643
 30
0.0
 11
1.090304709141271
 21
22.89639889196676
 31
0.0
  0
LINE
  5
113
330
8D
100
AcDbEntity
  8
0
 62
     7
100
AcDbLine
 10
1.090304709141271
 20
25.82160664819945
 30
0.0
 11
1.223268698060941
 21
25.82160664819945
 31
0.0
  0
LINE
  5
114
330
8D
100
AcDbEntity
  8
0
 62
     7
100
AcDbLine
 10
1.010526315789469
 20
39.96897506925208
 30
0.0
 11
0.0
 21
39.96897506925208
 31
0.0
  0
ENDBLK
  5
115
330
8D
100
AcDbEntity
  8
0
100
AcDbBlockEnd
  0
BLOCK
  5
116
330
A7
100
AcDbEntity
  8
0
100
AcDbBlockBegin
  2
*D1
 70
     1
 10
0.0
 20
0.0
 30
0.0
  3
*D1
  1

  0
LINE
  5
117
330
A7
100
AcDbEntity
  8
0
  6
ByBlock
 62
     0
100
AcDbLine
 10
57.24718777815404
 20
2.494436892221437
 30
0.0
 11
55.77179603592565
 21
2.494436892221437
 31
0.0
  0
LINE
  5
118
330
A7
100
AcDbEntity
  8
0
  6
ByBlock
 62
     0
100
AcDbLine
 10
57.24718777815404
 20
42.49443689222144
 30
0.0
 11
55.77179603592565
 21
42.49443689222144
 31
0.0
  0
LINE
  5
119
330
A7
100
AcDbEntity
  8
0
  6
ByBlock
 62
     0
100
AcDbLine
 10
55.95179603592566
 20
2.494436892221437
 30
0.0
 11
55.95179603592566
 21
22.27568689222144
 31
0.0
  0
LINE
  5
11A
330
A7
100
AcDbEntity
  8
0
  6
ByBlock
 62
     0
100
AcDbLine
 10
55.95179603592566
 20
42.49443689222144
 30
0.0
 11
55.95179603592566
 21
22.71318689222144
 31
0.0
  0
LINE
  5
11B
330
A7
100
AcDbEntity
  8
0
  6
ByBlock
 62
     0
100
AcDbLine
 10
56.07679603592565
 20
2.369436892221437
 30
0.0
 11
55.82679603592565
 21
2.619436892221437
 31
0.0
  0
LINE
  5
11C
330
A7
100
AcDbEntity
  8
0
  6
ByBlock
 62
     0
100
AcDbLine
 10
56.07679603592565
 20
42.36943689222144
 30
0.0
 11
55.82679603592565
 21
42.61943689222144
 31
0.0
  0
TEXT
  5
11D
330
A7
100
AcDbEntity
  8
0
  6
ByBlock
 62
     0
100
AcDbText
 10
56.01429603592565
 20
22.40068689222144
 30
0.0
 40
0.125
  1
40
 50
90.0
 72
     1
 11
55.95179603592566
 21
22.49443689222144
 31
0.0
100
AcDbText
 73
     2
  0
POINT
  5
11E
330
A7
100
AcDbEntity
  8
DEFPOINTS
  6
ByBlock
 62
     0
100
AcDbPoint
 10
57.30968777815403
 20
2.494436892221437
 30
0.0
  0
POINT
  5
11F
330
A7
100
AcDbEntity
  8
DEFPOINTS
  6
ByBlock
 62
     0
100
AcDbPoint
 10
57.30968777815403
 20
42.49443689222144
 30
0.0
  0
POINT
  5
120
330
A7
100
AcDbEntity
  8
DEFPOINTS
  6
ByBlock
 62
     0
100
AcDbPoint
 10
55.95179603592566
 20
42.49443689222144
 30
0.0
  0
ENDBLK
  5
121
330
A7
100
AcDbEntity
  8
0
100
AcDbBlockEnd
  0
BLOCK
  5
122
330
AF
100
AcDbEntity
  8
0
100
AcDbBlockBegin
  2
*D2
 70
     1
 10
0.0
 20
0.0
 30
0.0
  3
*D2
  1

  0
LINE
  5
123
330
AF
100
AcDbEntity
  8
0
  6
ByBlock
 62
     0
100
AcDbLine
 10
57.30968777815403
 20
2.431936892221437
 30
0.0
 11
57.30968777815403
 21
1.874633680358189
 31
0.0
  0
LINE
  5
124
330
AF
100
AcDbEntity
  8
0
  6
ByBlock
 62
     0
100
AcDbLine
 10
58.32099849006354
 20
2.431936892221437
 30
0.0
 11
58.32099849006354
 21
1.874633680358189
 31
0.0
  0
LINE
  5
125
330
AF
100
AcDbEntity
  8
0
  6
ByBlock
 62
     0
100
AcDbLine
 10
57.30968777815403
 20
2.054633680358189
 30
0.0
 11
57.66950980077545
 21
2.054633680358189
 31
0.0
  0
LINE
  5
126
330
AF
100
AcDbEntity
  8
0
  6
ByBlock
 62
     0
100
AcDbLine
 10
58.32099849006354
 20
2.054633680358189
 30
0.0
 11
57.96117646744212
 21
2.054633680358189
 31
0.0
  0
LINE
  5
127
330
AF
100
AcDbEntity
  8
0
  6
ByBlock
 62
     0
100
AcDbLine
 10
57.18468777815403
 20
1.929633680358189
 30
0.0
 11
57.43468777815404
 21
2.179633680358189
 31
0.0
  0
LINE
  5
128
330
AF
100
AcDbEntity
  8
0
  6
ByBlock
 62
     0
100
AcDbLine
 10
58.19599849006355
 20
1.929633680358189
 30
0.0
 11
58.44599849006354
 21
2.179633680358189
 31
0.0
  0
TEXT
  5
129
330
AF
100
AcDbEntity
  8
0
  6
ByBlock
 62
     0
100
AcDbText
 10
57.79450980077545
 20
1.992133680358189
 30
0.0
 40
0.125
  1
1
 72
     1
 11
57.81534313410879
 21
2.054633680358189
 31
0.0
100
AcDbText
 73
     2
  0
POINT
  5
12A
330
AF
100
AcDbEntity
  8
DEFPOINTS
  6
ByBlock
 62
     0
100
AcDbPoint
 10
57.30968777815403
 20
2.494436892221437
 30
0.0
  0
POINT
  5
12B
330
AF
100
AcDbEntity
  8
DEFPOINTS
  6
ByBlock
 62
     0
100
AcDbPoint
 10
58.32099849006354
 20
2.494436892221437
 30
0.0
  0
POINT
  5
12C
330
AF
100
AcDbEntity
  8
DEFPOINTS
  6
ByBlock
 62
     0
100
AcDbPoint
 10
58.32099849006354
 20
2.054633680358189
 30
0.0
  0
ENDBLK
  5
12D
330
AF
100
AcDbEntity
  8
0
100
AcDbBlockEnd
  0
BLOCK
  5
31E
330
313
100
AcDbEntity
  8
0
 62
     3
100
AcDbBlockBegin
  2
*D3
 70
     1
 10
0.0
 20
0.0
 30
0.0
  3
*D3
  1

  0
LINE
  5
395
330
313
100
AcDbEntity
  8
ADPDIM
 62
     0
370
    -2
100
AcDbLine
 10
58.38349849006355
 20
42.49443689222144
 30
0.0
 11
59.85768744572666
 21
42.49443689222144
 31
0.0
  0
LINE
  5
396
330
313
100
AcDbEntity
  8
ADPDIM
 62
     0
370
    -2
100
AcDbLine
 10
58.38349849006355
 20
28.24443689222145
 30
0.0
 11
59.85768744572666
 21
28.24443689222145
 31
0.0
  0
LINE
  5
397
330
313
100
AcDbEntity
  8
ADPDIM
 62
     0
370
    -2
100
AcDbLine
 10
59.67768744572666
 20
42.49443689222144
 30
0.0
 11
59.67768744572666
 21
36.74443689222144
 31
0.0
  0
LINE
  5
398
330
313
100
AcDbEntity
  8
ADPDIM
 62
     0
370
    -2
100
AcDbLine
 10
59.67768744572666
 20
28.24443689222145
 30
0.0
 11
59.67768744572666
 21
33.99443689222144
 31
0.0
  0
LINE
  5
399
330
313
100
AcDbEntity
  8
ADPDIM
 62
     0
370
    -2
100
AcDbLine
 10
59.80268744572666
 20
28.11943689222145
 30
0.0
 11
59.55268744572666
 21
28.36943689222144
 31
0.0
  0
LINE
  5
39A
330
313
100
AcDbEntity
  8
ADPDIM
 62
     0
370
    -2
100
AcDbLine
 10
59.80268744572666
 20
42.36943689222144
 30
0.0
 11
59.55268744572666
 21
42.61943689222144
 31
0.0
  0
MTEXT
  5
39B
330
313
100
AcDbEntity
  8
ADPDIM
 62
     0
100
AcDbMText
 10
59.67768744572666
 20
35.36943689222145
 30
0.0
 40
0.5
 41
0.0
 71
     5
 72
     1
  1
\A1;14 1/4
 11
0.0000000000000001
 21
1.0
 31
0.0
 73
     1
 44
1.0
1001
ACAD
1000
MTEXTBEGIN
1070
    73
1070
     1
1070
    44
1040
1.0
1070
    74
1070
     0
1000
MTEXTEND
  0
POINT
  5
39C
330
313
100
AcDbEntity
  8
DEFPOINTS
 62
     0
100
AcDbPoint
 10
58.32099849006354
 20
42.49443689222144
 30
0.0
  0
POINT
  5
39D
330
313
100
AcDbEntity
  8
DEFPOINTS
 62
     0
100
AcDbPoint
 10
58.32099849006354
 20
28.24443689222145
 30
0.0
  0
POINT
  5
39E
330
313
100
AcDbEntity
  8
DEFPOINTS
 62
     0
100
AcDbPoint
 10
59.67768744572666
 20
28.24443689222145
 30
0.0
  0
ENDBLK
  5
31F
330
313
100
AcDbEntity
  8
0
 62
     3
100
AcDbBlockEnd
  0
BLOCK
  5
32C
330
321
100
AcDbEntity
  8
0
 62
     3
100
AcDbBlockBegin
  2
*D4
 70
     1
 10
0.0
 20
0.0
 30
0.0
  3
*D4
  1

  0
LINE
  5
38B
330
321
100
AcDbEntity
  8
ADPDIM
 62
     0
370
    -2
100
AcDbLine
 10
58.38349849006355
 20
2.494436892221436
 30
0.0
 11
59.81315262881797
 21
2.494436892221436
 31
0.0
  0
LINE
  5
38C
330
321
100
AcDbEntity
  8
ADPDIM
 62
     0
370
    -2
100
AcDbLine
 10
58.46342473085133
 20
20.74426187209545
 30
0.0
 11
59.81315262881798
 21
20.74426187209545
 31
0.0
  0
LINE
  5
38D
330
321
100
AcDbEntity
  8
ADPDIM
 62
     0
370
    -2
100
AcDbLine
 10
59.63315262881797
 20
2.494436892221436
 30
0.0
 11
59.63315262881797
 21
10.24434938215844
 31
0.0
  0
LINE
  5
38E
330
321
100
AcDbEntity
  8
ADPDIM
 62
     0
370
    -2
100
AcDbLine
 10
59.63315262881798
 20
20.74426187209545
 30
0.0
 11
59.63315262881797
 21
12.99434938215844
 31
0.0
  0
LINE
  5
38F
330
321
100
AcDbEntity
  8
ADPDIM
 62
     0
370
    -2
100
AcDbLine
 10
59.75815262881798
 20
20.61926187209545
 30
0.0
 11
59.50815262881798
 21
20.86926187209545
 31
0.0
  0
LINE
  5
390
330
321
100
AcDbEntity
  8
ADPDIM
 62
     0
370
    -2
100
AcDbLine
 10
59.75815262881797
 20
2.369436892221436
 30
0.0
 11
59.50815262881797
 21
2.619436892221436
 31
0.0
  0
MTEXT
  5
391
330
321
100
AcDbEntity
  8
ADPDIM
 62
     0
100
AcDbMText
 10
59.63315262881797
 20
11.61934938215845
 30
0.0
 40
0.5
 41
0.0
 71
     5
 72
     1
  1
\A1;18 1/4
 11
0.0000000000000001
 21
1.0
 31
0.0
 73
     1
 44
1.0
1001
ACAD
1000
MTEXTBEGIN
1070
    73
1070
     1
1070
    44
1040
1.0
1070
    74
1070
     0
1000
MTEXTEND
  0
POINT
  5
392
330
321
100
AcDbEntity
  8
DEFPOINTS
 62
     0
100
AcDbPoint
 10
58.32099849006354
 20
2.494436892221436
 30
0.0
  0
POINT
  5
393
330
321
100
AcDbEntity
  8
DEFPOINTS
 62
     0
100
AcDbPoint
 10
58.40092473085133
 20
20.74426187209545
 30
0.0
  0
POINT
  5
394
330
321
100
AcDbEntity
  8
DEFPOINTS
 62
     0
100
AcDbPoint
 10
59.63315262881798
 20
20.74426187209545
 30
0.0
  0
ENDBLK
  5
32D
330
321
100
AcDbEntity
  8
0
 62
     3
100
AcDbBlockEnd
  0
BLOCK
  5
34D
330
342
100
AcDbEntity
  8
0
100
AcDbBlockBegin
  2
*D5
 70
     1
 10
0.0
 20
0.0
 30
0.0
  3
*D5
  1

  0
LINE
  5
39F
330
342
100
AcDbEntity
  8
ADPDIM
 62
     0
370
    -2
100
AcDbLine
 10
57.24718777815404
 20
2.494436892221437
 30
0.0
 11
55.77179603592565
 21
2.494436892221437
 31
0.0
  0
LINE
  5
3A0
330
342
100
AcDbEntity
  8
ADPDIM
 62
     0
370
    -2
100
AcDbLine
 10
57.24718777815404
 20
42.49443689222144
 30
0.0
 11
55.77179603592565
 21
42.49443689222144
 31
0.0
  0
LINE
  5
3A1
330
342
100
AcDbEntity
  8
ADPDIM
 62
     0
370
    -2
100
AcDbLine
 10
55.95179603592565
 20
2.494436892221437
 30
0.0
 11
55.95179603592566
 21
21.99443689222144
 31
0.0
  0
LINE
  5
3A2
330
342
100
AcDbEntity
  8
ADPDIM
 62
     0
370
    -2
100
AcDbLine
 10
55.95179603592566
 20
42.49443689222144
 30
0.0
 11
55.95179603592566
 21
22.99443689222144
 31
0.0
  0
LINE
  5
3A3
330
342
100
AcDbEntity
  8
ADPDIM
 62
     0
370
    -2
100
AcDbLine
 10
56.07679603592565
 20
42.36943689222144
 30
0.0
 11
55.82679603592565
 21
42.61943689222144
 31
0.0
  0
LINE
  5
3A4
330
342
100
AcDbEntity
  8
ADPDIM
 62
     0
370
    -2
100
AcDbLine
 10
56.07679603592565
 20
2.369436892221437
 30
0.0
 11
55.82679603592564
 21
2.619436892221437
 31
0.0
  0
MTEXT
  5
3A5
330
342
100
AcDbEntity
  8
ADPDIM
 62
     0
100
AcDbMText
 10
55.95179603592565
 20
22.49443689222145
 30
0.0
 40
0.5
 41
0.0
 71
     5
 72
     1
  1
\A1;40
 11
0.0000000000000001
 21
1.0
 31
0.0
 73
     1
 44
1.0
1001
ACAD
1000
MTEXTBEGIN
1070
    73
1070
     1
1070
    44
1040
1.0
1070
    74
1070
     0
1000
MTEXTEND
  0
POINT
  5
3A6
330
342
100
AcDbEntity
  8
DEFPOINTS
 62
     0
100
AcDbPoint
 10
57.30968777815403
 20
2.494436892221437
 30
0.0
  0
POINT
  5
3A7
330
342
100
AcDbEntity
  8
DEFPOINTS
 62
     0
100
AcDbPoint
 10
57.30968777815403
 20
42.49443689222144
 30
0.0
  0
POINT
  5
3A8
330
342
100
AcDbEntity
  8
DEFPOINTS
 62
     0
100
AcDbPoint
 10
55.95179603592566
 20
42.49443689222144
 30
0.0
  0
ENDBLK
  5
34E
330
342
100
AcDbEntity
  8
0
100
AcDbBlockEnd
  0
ENDSEC
  0
SECTION
  2
ENTITIES
  0
DIMENSION
  5
12E
330
18
100
AcDbEntity
  8
ADPDIM
100
AcDbDimension
  2
*D5
 10
55.95179603592566
 20
42.49443689222144
 30
0.0
 11
55.95179603592565
 21
22.49443689222145
 31
0.0
 70
    32
 71
     5
 42
40.0
  3
STANDARD
100
AcDbAlignedDimension
 13
57.30968777815403
 23
2.494436892221437
 33
0.0
 14
57.30968777815403
 24
42.49443689222144
 34
0.0
 50
90.0
100
AcDbRotatedDimension
1001
ACAD
1000
DSTYLE
1002
{
1070
   276
1070
     2
1070
   277
1070
     5
1070
    41
1040
0.125
1070
    73
1070
     0
1070
    74
1070
     0
1070
    78
1070
     3
1070
   140
1040
0.5
1070
   141
1040
0.1875
1070
   142
1040
0.125
1070
   147
1040
0.125
1070
   171
1070
     1
1002
}
  0
INSERT
  5
12F
330
18
100
AcDbEntity
  8
ADP1DETAIL
100
AcDbBlockReference
  2
340
 10
57.30968777815403
 20
2.494436892221437
 30
0.0
 41
1.000776225327123
 42
1.000776225327123
 43
1.000776225327123
  0
DIMENSION
  5
130
330
18
100
AcDbEntity
  8
ADPDIM
100
AcDbDimension
  2
*D2
 10
58.32099849006354
 20
2.054633680358189
 30
0.0
 11
57.81534313410879
 21
2.054633680358189
 31
0.0
 71
     5
 42
-1.0
100
AcDbAlignedDimension
 13
57.30968777815403
 23
2.494436892221437
 33
0.0
 14
58.32099849006354
 24
2.494436892221437
 34
0.0
100
AcDbRotatedDimension
  0
CIRCLE
  5
131
330
18
100
AcDbEntity
  8
ADP1DETAIL
100
AcDbCircle
 10
57.84548609461471
 20
0.4811258249671471
 30
0.0
 40
0.5
  0
TEXT
  5
13F
330
18
100
AcDbEntity
  8
ADPDIM
100
AcDbText
 10
25.67194840702945
 20
-1.119687108995094
 30
0.0
 40
0.625
  1
J U L I U S  B L U M  &  C O . ,  I N C .      ( 8 0 0 )  5 2 6 - 6 2 9 3        W W W . J U L I U S B L U M . C O M        P A R T  N o .  3 4 0
 41
1.25
  7
ARIAL_WIDE
 72
     1
 11
57.84548609461471
 21
-0.4946871089950946
 31
0.0
100
AcDbText
 73
     3
  0
DIMENSION
  5
312
330
18
100
AcDbEntity
  8
ADPDIM
 62
     3
100
AcDbDimension
  2
*D3
 10
59.67768744572666
 20
28.24443689222145
 30
0.0
 11
59.67768744572666
 21
35.36943689222145
 31
0.0
 70
    32
 71
     5
 42
14.25
  3
STANDARD
100
AcDbAlignedDimension
 13
58.32099849006354
 23
42.49443689222144
 33
0.0
 14
58.32099849006354
 24
28.24443689222145
 34
0.0
 50
90.0
100
AcDbRotatedDimension
1001
ACAD
1000
DSTYLE
1002
{
1070
   276
1070
     2
1070
   277
1070
     5
1070
    41
1040
0.125
1070
    73
1070
     0
1070
    74
1070
     0
1070
    78
1070
     3
1070
   140
1040
0.5
1070
   141
1040
0.1875
1070
   142
1040
0.125
1070
   147
1040
0.125
1070
   171
1070
     1
1002
}
  0
DIMENSION
  5
320
330
18
100
AcDbEntity
  8
ADPDIM
 62
     3
100
AcDbDimension
  2
*D4
 10
59.63315262881798
 20
20.74426187209545
 30
0.0
 11
59.63315262881797
 21
11.61934938215845
 31
0.0
 70
    32
 71
     5
 42
18.24982497987401
  3
STANDARD
100
AcDbAlignedDimension
 13
58.32099849006354
 23
2.494436892221436
 33
0.0
 14
58.40092473085133
 24
20.74426187209545
 34
0.0
 50
90.0
100
AcDbRotatedDimension
1001
ACAD
1000
DSTYLE
1002
{
1070
   276
1070
     2
1070
   277
1070
     5
1070
    41
1040
0.125
1070
    73
1070
     0
1070
    74
1070
     0
1070
    78
1070
     3
1070
   140
1040
0.5
1070
   141
1040
0.1875
1070
   142
1040
0.125
1070
   147
1040
0.125
1070
   171
1070
     1
1002
}
  0
ENDSEC
  0
SECTION
  2
OBJECTS
  0
DICTIONARY
  5
C
330
0
100
AcDbDictionary
281
     1
  3
ACAD_COLOR
350
2F2
  3
ACAD_GROUP
350
D
  3
ACAD_LAYOUT
350
138
  3
ACAD_MATERIAL
350
2DD
  3
ACAD_MLINESTYLE
350
E
  3
ACAD_PLOTSETTINGS
350
139
  3
ACAD_PLOTSTYLENAME
350
136
  3
ACAD_TABLESTYLE
350
2F3
  3
ACAD_VISUALSTYLE
350
2E1
  3
AcDbVariableDictionary
350
199
  3
DWGPROPS
350
3C6
  0
DICTIONARY
  5
193
330
18
100
AcDbDictionary
280
     1
281
     1
  3
ACAD_LAYOUTSELFREF
360
2D7
  0
DICTIONARY
  5
191
330
15
100
AcDbDictionary
280
     1
281
     1
  3
ACAD_LAYOUTSELFREF
360
2D6
  0
DICTIONARY
  5
2F2
102
{ACAD_REACTORS
330
C
102
}
330
C
100
AcDbDictionary
281
     1
  0
DICTIONARY
  5
D
102
{ACAD_REACTORS
330
C
102
}
330
C
100
AcDbDictionary
281
     1
  0
DICTIONARY
  5
138
102
{ACAD_REACTORS
330
C
102
}
330
C
100
AcDbDictionary
281
     1
  3
Layout1
350
13B
  3
Model
350
13A
  0
DICTIONARY
  5
2DD
102
{ACAD_REACTORS
330
C
102
}
330
C
100
AcDbDictionary
281
     1
  3
ByBlock
350
2DF
  3
ByLayer
350
2DE
  3
Global
350
2E0
  0
DICTIONARY
  5
E
102
{ACAD_REACTORS
330
C
102
}
330
C
100
AcDbDictionary
281
     1
  3
STANDARD
350
1B
  0
DICTIONARY
  5
139
102
{ACAD_REACTORS
330
C
102
}
330
C
100
AcDbDictionary
281
     1
  0
ACDBDICTIONARYWDFLT
  5
136
102
{ACAD_REACTORS
330
C
102
}
330
C
100
AcDbDictionary
281
     1
  3
Normal
350
137
100
AcDbDictionaryWithDefault
340
137
  0
DICTIONARY
  5
2F3
102
{ACAD_REACTORS
330
C
102
}
330
C
100
AcDbDictionary
281
     1
  3
Standard
350
2F4
  0
DICTIONARY
  5
2E1
102
{ACAD_REACTORS
330
C
102
}
330
C
100
AcDbDictionary
281
     1
  3
2dWireframe
350
2E7
  3
3D Hidden
350
2E9
  3
3dWireframe
350
2E8
  3
Basic
350
2E6
  3
Brighten
350
2ED
  3
ColorChange
350
2F1
  3
Conceptual
350
2EA
  3
Dim
350
2EC
  3
Facepattern
350
2F0
  3
Flat
350
2E2
  3
FlatWithEdges
350
2E3
  3
Gouraud
350
2E4
  3
GouraudWithEdges
350
2E5
  3
Linepattern
350
2EF
  3
Realistic
350
2EB
  3
Thicken
350
2EE
  0
DICTIONARY
  5
199
102
{ACAD_REACTORS
330
C
102
}
330
C
100
AcDbDictionary
281
     1
  3
CTABLESTYLE
350
3C3
  3
DIMASSOC
350
19A
  3
INDEXCTL
350
3C5
  3
SORTENTS
350
3C4
  0
XRECORD
  5
3C6
102
{ACAD_REACTORS
330
C
102
}
330
C
100
AcDbXrecord
280
     1
  1
DWGPROPS COOKIE
  2

  3

  4

  6

  7

  8
Yu Hu
  9

300
=
301
=
302
=
303
=
304
=
305
=
306
=
307
=
308
=
309
=
 40
0.0692265046296297
 41
2450374.486826389
 42
2453954.573711598
  1

 90
        0
  0
XRECORD
  5
2D7
102
{ACAD_REACTORS
330
193
102
}
330
193
100
AcDbXrecord
280
     1
340
18
  0
XRECORD
  5
2D6
102
{ACAD_REACTORS
330
191
102
}
330
191
100
AcDbXrecord
280
     1
340
15
  0
LAYOUT
  5
13B
102
{ACAD_XDICTIONARY
360
3C9
102
}
102
{ACAD_REACTORS
330
138
102
}
330
138
100
AcDbPlotSettings
  1

  2
Fax
  4

  6

 40
0.0
 41
0.0
 42
0.0
 43
0.0
 44
0.0
 45
0.0
 46
0.0
 47
0.0
 48
0.0
 49
0.0
140
0.0
141
0.0
142
1.0
143
1.0
 70
   688
 72
     0
 73
     0
 74
     5
  7
Default R14 pen assignments.ctb
 75
    16
147
1.0
148
0.0
149
0.0
100
AcDbLayout
  1
Layout1
 70
     1
 71
     1
 10
0.0
 20
0.0
 11
12.0
 21
9.0
 12
0.0
 22
0.0
 32
0.0
 14
1.000000000000000E+20
 24
1.000000000000000E+20
 34
1.000000000000000E+20
 15
-1.000000000000000E+20
 25
-1.000000000000000E+20
 35
-1.000000000000000E+20
146
0.0
 13
0.0
 23
0.0
 33
0.0
 16
1.0
 26
0.0
 36
0.0
 17
0.0
 27
1.0
 37
0.0
 76
     0
330
15
  0
LAYOUT
  5
13A
102
{ACAD_XDICTIONARY
360
3C7
102
}
102
{ACAD_REACTORS
330
138
102
}
330
138
100
AcDbPlotSettings
  1

  2
Fax
  4

  6

 40
0.0
 41
0.0
 42
0.0
 43
0.0
 44
0.0
 45
0.0
 46
0.0
 47
0.0
 48
0.0
 49
0.0
140
0.0
141
0.0
142
1.0
143
1.0
 70
  1712
 72
     0
 73
     0
 74
     0
  7
Default R14 pen assignments.ctb
 75
     0
147
1.0
148
0.0
149
0.0
100
AcDbLayout
  1
Model
 70
     1
 71
     0
 10
0.0
 20
0.0
 11
12.0
 21
9.0
 12
0.0
 22
0.0
 32
0.0
 14
0.0
 24
0.0
 34
0.0
 15
0.0
 25
0.0
 35
0.0
146
0.0
 13
0.0
 23
0.0
 33
0.0
 16
1.0
 26
0.0
 36
0.0
 17
0.0
 27
1.0
 37
0.0
 76
     0
330
18
331
2B1
  0
MATERIAL
  5
2DF
102
{ACAD_XDICTIONARY
360
3CD
102
}
102
{ACAD_REACTORS
330
2DD
102
}
330
2DD
100
AcDbMaterial
  1
ByBlock
  0
MATERIAL
  5
2DE
102
{ACAD_XDICTIONARY
360
3CB
102
}
102
{ACAD_REACTORS
330
2DD
102
}
330
2DD
100
AcDbMaterial
  1
ByLayer
  0
MATERIAL
  5
2E0
102
{ACAD_XDICTIONARY
360
3CF
102
}
102
{ACAD_REACTORS
330
2DD
102
}
330
2DD
100
AcDbMaterial
  1
Global
  0
MLINESTYLE
  5
1B
102
{ACAD_REACTORS
330
E
102
}
330
E
100
AcDbMlineStyle
  2
STANDARD
 70
     0
  3

 62
     0
 51
90.0
 52
90.0
 71
     2
 49
0.5
 62
   256
  6
BYLAYER
 49
-0.5
 62
   256
  6
BYLAYER
  0
ACDBPLACEHOLDER
  5
137
102
{ACAD_REACTORS
330
136
102
}
330
136
  0
TABLESTYLE
  5
2F4
102
{ACAD_XDICTIONARY
360
3D1
102
}
102
{ACAD_REACTORS
330
2F3
102
}
330
2F3
100
AcDbTableStyle
  3
Standard
 70
     0
 71
     0
 40
0.06
 41
0.06
280
     0
281
     0
  7
STANDARD
140
0.18
170
     2
 62
     0
 63
     7
283
     0
274
    -2
284
     1
 64
     0
275
    -2
285
     1
 65
     0
276
    -2
286
     1
 66
     0
277
    -2
287
     1
 67
     0
278
    -2
288
     1
 68
     0
279
    -2
289
     1
 69
     0
  7
STANDARD
140
0.25
170
     5
 62
     0
 63
     7
283
     0
274
    -2
284
     1
 64
     0
275
    -2
285
     1
 65
     0
276
    -2
286
     1
 66
     0
277
    -2
287
     1
 67
     0
278
    -2
288
     1
 68
     0
279
    -2
289
     1
 69
     0
  7
STANDARD
140
0.18
170
     5
 62
     0
 63
     7
283
     0
274
    -2
284
     1
 64
     0
275
    -2
285
     1
 65
     0
276
    -2
286
     1
 66
     0
277
    -2
287
     1
 67
     0
278
    -2
288
     1
 68
     0
279
    -2
289
     1
 69
     0
  0
VISUALSTYLE
  5
2E7
102
{ACAD_REACTORS
330
2E1
102
}
330
2E1
100
AcDbVisualStyle
  2
2dWireframe
 70
     4
 71
     0
 72
     2
 73
     0
 90
        0
 40
-0.6
 41
-30.0
 62
     5
 63
     7
 74
     1
 91
        4
 64
     7
 65
   257
 75
     1
175
     1
 42
1.0
 92
        0
 66
   257
 43
1.0
 76
     1
 77
     6
 78
     2
 67
     7
 79
     5
170
     0
171
     0
290
     0
174
     0
 93
        1
 44
0.0
173
     0
291
     0
 45
0.0
1001
ACAD
1000
AcDbSavedByObjectVersion
1070
     0
  0
VISUALSTYLE
  5
2E9
102
{ACAD_REACTORS
330
2E1
102
}
330
2E1
100
AcDbVisualStyle
  2
3D Hidden
 70
     6
 71
     1
 72
     2
 73
     2
 90
        0
 40
-0.6
 41
-30.0
 62
     5
 63
     7
 74
     2
 91
        2
 64
     7
 65
   257
 75
     2
175
     1
 42
40.0
 92
        0
 66
   257
 43
1.0
 76
     1
 77
     6
 78
     2
 67
     7
 79
     3
170
     0
171
     0
290
     0
174
     0
 93
        1
 44
0.0
173
     0
291
     0
 45
0.0
1001
ACAD
1000
AcDbSavedByObjectVersion
1070
     0
  0
VISUALSTYLE
  5
2E8
102
{ACAD_REACTORS
330
2E1
102
}
330
2E1
100
AcDbVisualStyle
  2
3dWireframe
 70
     5
 71
     0
 72
     2
 73
     0
 90
        0
 40
-0.6
 41
-30.0
 62
     5
 63
     7
 74
     1
 91
        4
 64
     7
 65
   257
 75
     1
175
     1
 42
1.0
 92
        0
 66
   257
 43
1.0
 76
     1
 77
     6
 78
     2
 67
     7
 79
     5
170
     0
171
     0
290
     0
174
     0
 93
        1
 44
0.0
173
     0
291
     0
 45
0.0
1001
ACAD
1000
AcDbSavedByObjectVersion
1070
     0
  0
VISUALSTYLE
  5
2E6
102
{ACAD_REACTORS
330
2E1
102
}
330
2E1
100
AcDbVisualStyle
  2
Basic
 70
     7
 71
     1
 72
     0
 73
     1
 90
        0
 40
-0.6
 41
-30.0
 62
     5
 63
     7
 74
     0
 91
        4
 64
     7
 65
   257
 75
     1
175
     1
 42
1.0
 92
        8
 66
     7
 43
1.0
 76
     1
 77
     6
 78
     2
 67
     7
 79
     5
170
     0
171
     0
290
     0
174
     0
 93
        1
 44
0.0
173
     0
291
     1
 45
0.0
1001
ACAD
1000
AcDbSavedByObjectVersion
1070
     0
  0
VISUALSTYLE
  5
2ED
102
{ACAD_REACTORS
330
2E1
102
}
330
2E1
100
AcDbVisualStyle
  2
Brighten
 70
    12
 71
     2
 72
     2
 73
     0
 90
        0
 40
-0.6
 41
-30.0
 62
     5
 63
     7
 74
     1
 91
        4
 64
     7
 65
   257
 75
     1
175
     1
 42
1.0
 92
        8
 66
     7
 43
1.0
 76
     1
 77
     6
 78
     2
 67
     7
 79
     5
170
     0
171
     0
290
     0
174
     0
 93
        1
 44
50.0
173
     0
291
     1
 45
0.0
1001
ACAD
1000
AcDbSavedByObjectVersion
1070
     0
  0
VISUALSTYLE
  5
2F1
102
{ACAD_REACTORS
330
2E1
102
}
330
2E1
100
AcDbVisualStyle
  2
ColorChange
 70
    16
 71
     2
 72
     2
 73
     3
 90
        0
 40
-0.6
 41
-30.0
 62
     5
 63
     8
 74
     1
 91
        4
 64
     7
 65
   257
 75
     1
175
     1
 42
1.0
 92
        8
 66
     8
 43
1.0
 76
     1
 77
     6
 78
     2
 67
     7
 79
     5
170
     0
171
     0
290
     0
174
     0
 93
        1
 44
0.0
173
     0
291
     1
 45
0.0
1001
ACAD
1000
AcDbSavedByObjectVersion
1070
     0
  0
VISUALSTYLE
  5
2EA
102
{ACAD_REACTORS
330
2E1
102
}
330
2E1
100
AcDbVisualStyle
  2
Conceptual
 70
     9
 71
     3
 72
     2
 73
     0
 90
        0
 40
-0.6
 41
-30.0
 62
     5
 63
     7
 74
     2
 91
        2
 64
     7
 65
   257
 75
     1
175
     1
 42
40.0
 92
        8
 66
     7
 43
1.0
 76
     1
 77
     6
 78
     2
 67
     7
 79
     3
170
     0
171
     0
290
     0
174
     0
 93
        1
 44
0.0
173
     0
291
     0
 45
0.0
1001
ACAD
1000
AcDbSavedByObjectVersion
1070
     0
  0
VISUALSTYLE
  5
2EC
102
{ACAD_REACTORS
330
2E1
102
}
330
2E1
100
AcDbVisualStyle
  2
Dim
 70
    11
 71
     2
 72
     2
 73
     0
 90
        0
 40
-0.6
 41
-30.0
 62
     5
 63
     7
 74
     1
 91
        4
 64
     7
 65
   257
 75
     1
175
     1
 42
1.0
 92
        8
 66
     7
 43
1.0
 76
     1
 77
     6
 78
     2
 67
     7
 79
     5
170
     0
171
     0
290
     0
174
     0
 93
        1
 44
-50.0
173
     0
291
     1
 45
0.0
1001
ACAD
1000
AcDbSavedByObjectVersion
1070
     0
  0
VISUALSTYLE
  5
2F0
102
{ACAD_REACTORS
330
2E1
102
}
330
2E1
100
AcDbVisualStyle
  2
Facepattern
 70
    15
 71
     2
 72
     2
 73
     0
 90
        0
 40
-0.6
 41
-30.0
 62
     5
 63
     7
 74
     1
 91
        4
 64
     7
 65
   257
 75
     1
175
     1
 42
1.0
 92
        8
 66
     7
 43
1.0
 76
     1
 77
     6
 78
     2
 67
     7
 79
     5
170
     0
171
     0
290
     0
174
     0
 93
        1
 44
0.0
173
     0
291
     1
 45
0.0
1001
ACAD
1000
AcDbSavedByObjectVersion
1070
     0
  0
VISUALSTYLE
  5
2E2
102
{ACAD_REACTORS
330
2E1
102
}
330
2E1
100
AcDbVisualStyle
  2
Flat
 70
     0
 71
     2
 72
     1
 73
     1
 90
        2
 40
-0.6
 41
30.0
 62
     5
 63
     7
 74
     0
 91
        4
 64
     7
 65
   257
 75
     1
175
     1
 42
1.0
 92
        8
 66
     7
 43
1.0
 76
     1
 77
     6
 78
     2
 67
     7
 79
     5
170
     0
171
     0
290
     0
174
     0
 93
       13
 44
0.0
173
     0
291
     1
 45
0.0
1001
ACAD
1000
AcDbSavedByObjectVersion
1070
     0
  0
VISUALSTYLE
  5
2E3
102
{ACAD_REACTORS
330
2E1
102
}
330
2E1
100
AcDbVisualStyle
  2
FlatWithEdges
 70
     1
 71
     2
 72
     1
 73
     1
 90
        2
 40
-0.6
 41
30.0
 62
     5
 63
     7
 74
     1
 91
        4
 64
     7
 65
   257
 75
     1
175
     1
 42
1.0
 92
        0
 66
   257
 43
1.0
 76
     1
 77
     6
 78
     2
 67
     7
 79
     5
170
     0
171
     0
290
     0
174
     0
 93
       13
 44
0.0
173
     0
291
     1
 45
0.0
1001
ACAD
1000
AcDbSavedByObjectVersion
1070
     0
  0
VISUALSTYLE
  5
2E4
102
{ACAD_REACTORS
330
2E1
102
}
330
2E1
100
AcDbVisualStyle
  2
Gouraud
 70
     2
 71
     2
 72
     2
 73
     1
 90
        2
 40
-0.6
 41
30.0
 62
     5
 63
     7
 74
     0
 91
        4
 64
     7
 65
   257
 75
     1
175
     1
 42
1.0
 92
        0
 66
     7
 43
1.0
 76
     1
 77
     6
 78
     2
 67
     7
 79
     5
170
     0
171
     0
290
     0
174
     0
 93
       13
 44
0.0
173
     0
291
     1
 45
0.0
1001
ACAD
1000
AcDbSavedByObjectVersion
1070
     0
  0
VISUALSTYLE
  5
2E5
102
{ACAD_REACTORS
330
2E1
102
}
330
2E1
100
AcDbVisualStyle
  2
GouraudWithEdges
 70
     3
 71
     2
 72
     2
 73
     1
 90
        2
 40
-0.6
 41
30.0
 62
     5
 63
     7
 74
     1
 91
        4
 64
     7
 65
   257
 75
     1
175
     1
 42
1.0
 92
        0
 66
   257
 43
1.0
 76
     1
 77
     6
 78
     2
 67
     7
 79
     5
170
     0
171
     0
290
     0
174
     0
 93
       13
 44
0.0
173
     0
291
     1
 45
0.0
1001
ACAD
1000
AcDbSavedByObjectVersion
1070
     0
  0
VISUALSTYLE
  5
2EF
102
{ACAD_REACTORS
330
2E1
102
}
330
2E1
100
AcDbVisualStyle
  2
Linepattern
 70
    14
 71
     2
 72
     2
 73
     0
 90
        0
 40
-0.6
 41
-30.0
 62
     5
 63
     7
 74
     1
 91
        4
 64
     7
 65
   257
 75
     7
175
     7
 42
1.0
 92
        8
 66
     7
 43
1.0
 76
     1
 77
     6
 78
     2
 67
     7
 79
     5
170
     0
171
     0
290
     0
174
     0
 93
        1
 44
0.0
173
     0
291
     1
 45
0.0
1001
ACAD
1000
AcDbSavedByObjectVersion
1070
     0
  0
VISUALSTYLE
  5
2EB
102
{ACAD_REACTORS
330
2E1
102
}
330
2E1
100
AcDbVisualStyle
  2
Realistic
 70
     8
 71
     2
 72
     2
 73
     0
 90
        0
 40
-0.6
 41
-30.0
 62
     5
 63
     7
 74
     1
 91
        0
 64
     7
 65
   257
 75
     1
175
     1
 42
1.0
 92
        8
 66
     8
 43
1.0
 76
     1
 77
     6
 78
     2
 67
     7
 79
     5
170
     0
171
     0
290
     0
174
     0
 93
       13
 44
0.0
173
     0
291
     0
 45
0.0
1001
ACAD
1000
AcDbSavedByObjectVersion
1070
     0
  0
VISUALSTYLE
  5
2EE
102
{ACAD_REACTORS
330
2E1
102
}
330
2E1
100
AcDbVisualStyle
  2
Thicken
 70
    13
 71
     2
 72
     2
 73
     0
 90
        0
 40
-0.6
 41
-30.0
 62
     5
 63
     7
 74
     1
 91
        4
 64
     7
 65
   257
 75
     1
175
     1
 42
1.0
 92
       12
 66
     7
 43
1.0
 76
     1
 77
     6
 78
     2
 67
     7
 79
     5
170
     0
171
     0
290
     0
174
     0
 93
        1
 44
0.0
173
     0
291
     1
 45
0.0
1001
ACAD
1000
AcDbSavedByObjectVersion
1070
     0
  0
DICTIONARYVAR
  5
3C3
102
{ACAD_REACTORS
330
199
102
}
330
199
100
DictionaryVariables
280
     0
  1
STANDARD
  0
DICTIONARYVAR
  5
19A
102
{ACAD_REACTORS
330
199
102
}
330
199
100
DictionaryVariables
280
     0
  1
1
  0
DICTIONARYVAR
  5
3C5
102
{ACAD_REACTORS
330
199
102
}
330
199
100
DictionaryVariables
280
     0
  1
0
  0
DICTIONARYVAR
  5
3C4
102
{ACAD_REACTORS
330
199
102
}
330
199
100
DictionaryVariables
280
     0
  1
127
  0
DICTIONARY
  5
3C9
330
13B
100
AcDbDictionary
280
     1
281
     1
  3
ACAD_XREC_ROUNDTRIP
360
3CA
  0
DICTIONARY
  5
3C7
330
13A
100
AcDbDictionary
280
     1
281
     1
  3
ACAD_XREC_ROUNDTRIP
360
3C8
  0
DICTIONARY
  5
3CD
330
2DF
100
AcDbDictionary
280
     1
281
     1
  3
ACAD_XREC_ROUNDTRIP
360
3CE
  0
DICTIONARY
  5
3CB
330
2DE
100
AcDbDictionary
280
     1
281
     1
  3
ACAD_XREC_ROUNDTRIP
360
3CC
  0
DICTIONARY
  5
3CF
330
2E0
100
AcDbDictionary
280
     1
281
     1
  3
ACAD_XREC_ROUNDTRIP
360
3D0
  0
DICTIONARY
  5
3D1
330
2F4
100
AcDbDictionary
280
     1
281
     1
  3
ACAD_XREC_ROUNDTRIP
360
3D2
  0
XRECORD
  5
3CA
102
{ACAD_REACTORS
330
3C9
102
}
330
3C9
100
AcDbXrecord
280
     1
102
SHADEPLOT
 70
     0
102
SHADEPLOTRESLEVEL
 70
     2
102
SHADEPLOTCUSTOMDPI
 70
   300
  0
XRECORD
  5
3C8
102
{ACAD_REACTORS
330
3C7
102
}
330
3C7
100
AcDbXrecord
280
     1
102
SHADEPLOT
 70
     0
102
SHADEPLOTRESLEVEL
 70
     2
102
SHADEPLOTCUSTOMDPI
 70
   300
  0
XRECORD
  5
3CE
102
{ACAD_REACTORS
330
3CD
102
}
330
3CD
100
AcDbXrecord
280
     1
102
MATERIAL
148
0.0
149
0.0
149
0.0
 93
        0
 94
       63
282
     0
 72
     1
 77
     1
171
     1
175
     1
179
     1
273
     0
  0
XRECORD
  5
3CC
102
{ACAD_REACTORS
330
3CB
102
}
330
3CB
100
AcDbXrecord
280
     1
102
MATERIAL
148
0.0
149
0.0
149
0.0
 93
        0
 94
       63
282
     0
 72
     1
 77
     1
171
     1
175
     1
179
     1
273
     0
  0
XRECORD
  5
3D0
102
{ACAD_REACTORS
330
3CF
102
}
330
3CF
100
AcDbXrecord
280
     1
102
MATERIAL
148
0.0
149
0.0
149
0.0
 93
        0
 94
       63
282
     0
 72
     1
 77
     1
171
     1
175
     1
179
     1
273
     0
  0
XRECORD
  5
3D2
102
{ACAD_REACTORS
330
3D1
102
}
330
3D1
100
AcDbXrecord
280
     1
102
ACAD_ROUNDTRIP_PRE2007_TABLESTYLE
 90
      512
 91
        0
  1

 92
      512
 93
        0
  2

 94
      512
 95
        0
  3

  0
ENDSEC
  0
EOF
