  0
SECTION
  2
HEADER
  9
$ACADVER
  1
AC1015
  9
$ACADMAINTVER
 70
    20
  9
$DWGCODEPAGE
  3
ANSI_1252
  9
$INSBASE
 10
51.28463614741899
 20
2.555289019900658
 30
0.0
  9
$EXTMIN
 10
19.36365230598757
 20
-0.0987923289423289
 30
0.0
  9
$EXTMAX
 10
83.7107276811581
 20
39.52403901990066
 30
0.0
  9
$LIMMIN
 10
0.0
 20
0.0
  9
$LIMMAX
 10
36.0
 20
36.0
  9
$ORTHOMODE
 70
     0
  9
$REGENMODE
 70
     1
  9
$FILLMODE
 70
     1
  9
$QTEXTMODE
 70
     0
  9
$MIRRTEXT
 70
     1
  9
$LTSCALE
 40
1.0
  9
$ATTMODE
 70
     1
  9
$TEXTSIZE
 40
0.2
  9
$TRACEWID
 40
0.05
  9
$TEXTSTYLE
  7
STANDARD
  9
$CLAYER
  8
ADPDIM
  9
$CELTYPE
  6
BYLAYER
  9
$CECOLOR
 62
   256
  9
$CELTSCALE
 40
1.0
  9
$DISPSILH
 70
     0
  9
$DIMSCALE
 40
1.0
  9
$DIMASZ
 40
0.125
  9
$DIMEXO
 40
0.0625
  9
$DIMDLI
 40
0.38
  9
$DIMRND
 40
0.0
  9
$DIMDLE
 40
0.0
  9
$DIMEXE
 40
0.18
  9
$DIMTP
 40
0.0
  9
$DIMTM
 40
0.0
  9
$DIMTXT
 40
0.125
  9
$DIMCEN
 40
0.1875
  9
$DIMTSZ
 40
0.125
  9
$DIMTOL
 70
     0
  9
$DIMLIM
 70
     0
  9
$DIMTIH
 70
     0
  9
$DIMTOH
 70
     0
  9
$DIMSE1
 70
     0
  9
$DIMSE2
 70
     0
  9
$DIMTAD
 70
     0
  9
$DIMZIN
 70
     3
  9
$DIMBLK
  1

  9
$DIMASO
 70
     1
  9
$DIMSHO
 70
     1
  9
$DIMPOST
  1

  9
$DIMAPOST
  1

  9
$DIMALT
 70
     0
  9
$DIMALTD
 70
     1
  9
$DIMALTF
 40
25.4
  9
$DIMLFAC
 40
1.0
  9
$DIMTOFL
 70
     0
  9
$DIMTVP
 40
0.0
  9
$DIMTIX
 70
     0
  9
$DIMSOXD
 70
     0
  9
$DIMSAH
 70
     0
  9
$DIMBLK1
  1

  9
$DIMBLK2
  1

  9
$DIMSTYLE
  2
STANDARD
  9
$DIMCLRD
 70
     0
  9
$DIMCLRE
 70
     0
  9
$DIMCLRT
 70
     0
  9
$DIMTFAC
 40
1.0
  9
$DIMGAP
 40
0.125
  9
$DIMJUST
 70
     0
  9
$DIMSD1
 70
     0
  9
$DIMSD2
 70
     0
  9
$DIMTOLJ
 70
     1
  9
$DIMTZIN
 70
     0
  9
$DIMALTZ
 70
     0
  9
$DIMALTTZ
 70
     0
  9
$DIMUPT
 70
     0
  9
$DIMDEC
 70
     4
  9
$DIMTDEC
 70
     4
  9
$DIMALTU
 70
     2
  9
$DIMALTTD
 70
     2
  9
$DIMTXSTY
  7
STANDARD
  9
$DIMAUNIT
 70
     0
  9
$DIMADEC
 70
     0
  9
$DIMALTRND
 40
0.0
  9
$DIMAZIN
 70
     0
  9
$DIMDSEP
 70
    46
  9
$DIMATFIT
 70
     3
  9
$DIMFRAC
 70
     0
  9
$DIMLDRBLK
  1

  9
$DIMLUNIT
 70
     2
  9
$DIMLWD
 70
    -2
  9
$DIMLWE
 70
    -2
  9
$DIMTMOVE
 70
     0
  9
$LUNITS
 70
     5
  9
$LUPREC
 70
     4
  9
$SKETCHINC
 40
0.1
  9
$FILLETRAD
 40
0.062
  9
$AUNITS
 70
     0
  9
$AUPREC
 70
     0
  9
$MENU
  1
acad
  9
$ELEVATION
 40
0.0
  9
$PELEVATION
 40
0.0
  9
$THICKNESS
 40
0.0
  9
$LIMCHECK
 70
     0
  9
$CHAMFERA
 40
0.0
  9
$CHAMFERB
 40
0.0
  9
$CHAMFERC
 40
0.0
  9
$CHAMFERD
 40
0.0
  9
$SKPOLY
 70
     0
  9
$TDCREATE
 40
2450374.486675347
  9
$TDUCREATE
 40
2450374.653342014
  9
$TDUPDATE
 40
2453944.058137997
  9
$TDUUPDATE
 40
2453944.224804665
  9
$TDINDWG
 40
0.0822980671
  9
$TDUSRTIMER
 40
0.0822980671
  9
$USRTIMER
 70
     1
  9
$ANGBASE
 50
0.0
  9
$ANGDIR
 70
     0
  9
$PDMODE
 70
     0
  9
$PDSIZE
 40
0.0
  9
$PLINEWID
 40
0.0
  9
$SPLFRAME
 70
     0
  9
$SPLINETYPE
 70
     6
  9
$SPLINESEGS
 70
     8
  9
$HANDSEED
  5
553
  9
$SURFTAB1
 70
     6
  9
$SURFTAB2
 70
     6
  9
$SURFTYPE
 70
     6
  9
$SURFU
 70
     6
  9
$SURFV
 70
     6
  9
$UCSBASE
  2

  9
$UCSNAME
  2

  9
$UCSORG
 10
0.0
 20
0.0
 30
0.0
  9
$UCSXDIR
 10
1.0
 20
0.0
 30
0.0
  9
$UCSYDIR
 10
0.0
 20
1.0
 30
0.0
  9
$UCSORTHOREF
  2

  9
$UCSORTHOVIEW
 70
     0
  9
$UCSORGTOP
 10
0.0
 20
0.0
 30
0.0
  9
$UCSORGBOTTOM
 10
0.0
 20
0.0
 30
0.0
  9
$UCSORGLEFT
 10
0.0
 20
0.0
 30
0.0
  9
$UCSORGRIGHT
 10
0.0
 20
0.0
 30
0.0
  9
$UCSORGFRONT
 10
0.0
 20
0.0
 30
0.0
  9
$UCSORGBACK
 10
0.0
 20
0.0
 30
0.0
  9
$PUCSBASE
  2

  9
$PUCSNAME
  2

  9
$PUCSORG
 10
0.0
 20
0.0
 30
0.0
  9
$PUCSXDIR
 10
1.0
 20
0.0
 30
0.0
  9
$PUCSYDIR
 10
0.0
 20
1.0
 30
0.0
  9
$PUCSORTHOREF
  2

  9
$PUCSORTHOVIEW
 70
     0
  9
$PUCSORGTOP
 10
0.0
 20
0.0
 30
0.0
  9
$PUCSORGBOTTOM
 10
0.0
 20
0.0
 30
0.0
  9
$PUCSORGLEFT
 10
0.0
 20
0.0
 30
0.0
  9
$PUCSORGRIGHT
 10
0.0
 20
0.0
 30
0.0
  9
$PUCSORGFRONT
 10
0.0
 20
0.0
 30
0.0
  9
$PUCSORGBACK
 10
0.0
 20
0.0
 30
0.0
  9
$USERI1
 70
     0
  9
$USERI2
 70
     0
  9
$USERI3
 70
     0
  9
$USERI4
 70
     0
  9
$USERI5
 70
     0
  9
$USERR1
 40
0.0
  9
$USERR2
 40
0.0
  9
$USERR3
 40
0.0
  9
$USERR4
 40
0.0
  9
$USERR5
 40
0.0
  9
$WORLDVIEW
 70
     1
  9
$SHADEDGE
 70
     3
  9
$SHADEDIF
 70
    70
  9
$TILEMODE
 70
     1
  9
$MAXACTVP
 70
    15
  9
$PINSBASE
 10
0.0
 20
0.0
 30
0.0
  9
$PLIMCHECK
 70
     0
  9
$PEXTMIN
 10
1.000000000000000E+20
 20
1.000000000000000E+20
 30
1.000000000000000E+20
  9
$PEXTMAX
 10
-1.000000000000000E+20
 20
-1.000000000000000E+20
 30
-1.000000000000000E+20
  9
$PLIMMIN
 10
0.0
 20
0.0
  9
$PLIMMAX
 10
12.0
 20
9.0
  9
$UNITMODE
 70
     0
  9
$VISRETAIN
 70
     0
  9
$PLINEGEN
 70
     0
  9
$PSLTSCALE
 70
     1
  9
$TREEDEPTH
 70
  3020
  9
$CMLSTYLE
  2
STANDARD
  9
$CMLJUST
 70
     0
  9
$CMLSCALE
 40
1.0
  9
$PROXYGRAPHICS
 70
     1
  9
$MEASUREMENT
 70
     0
  9
$CELWEIGHT
370
    -1
  9
$ENDCAPS
280
     0
  9
$JOINSTYLE
280
     0
  9
$LWDISPLAY
290
     0
  9
$INSUNITS
 70
     0
  9
$HYPERLINKBASE
  1

  9
$STYLESHEET
  1

  9
$XEDIT
290
     1
  9
$CEPSNTYPE
380
     0
  9
$PSTYLEMODE
290
     1
  9
$FINGERPRINTGUID
  2
{9BF1D4B9-B2C7-492F-998B-01C0FE371A42}
  9
$VERSIONGUID
  2
{A1FECA95-F3A6-4FA7-AD51-6C8F2FE85A13}
  9
$EXTNAMES
290
     1
  9
$PSVPSCALE
 40
0.0
  9
$OLESTARTUP
290
     0
  0
ENDSEC
  0
SECTION
  2
CLASSES
  0
CLASS
  1
ACDBDICTIONARYWDFLT
  2
AcDbDictionaryWithDefault
  3
ObjectDBX Classes
 90
        0
280
     0
281
     0
  0
CLASS
  1
ACDBPLACEHOLDER
  2
AcDbPlaceHolder
  3
ObjectDBX Classes
 90
        0
280
     0
281
     0
  0
CLASS
  1
LAYOUT
  2
AcDbLayout
  3
ObjectDBX Classes
 90
        0
280
     0
281
     0
  0
CLASS
  1
DICTIONARYVAR
  2
AcDbDictionaryVar
  3
ObjectDBX Classes
 90
        0
280
     0
281
     0
  0
CLASS
  1
MATERIAL
  2
AcDbMaterial
  3
ObjectDBX Classes
 90
     1024
280
     0
281
     0
  0
CLASS
  1
VISUALSTYLE
  2
AcDbVisualStyle
  3
ObjectDBX Classes
 90
     4095
280
     0
281
     0
  0
CLASS
  1
TABLESTYLE
  2
AcDbTableStyle
  3
ObjectDBX Classes
 90
     4095
280
     0
281
     0
  0
CLASS
  1
SORTENTSTABLE
  2
AcDbSortentsTable
  3
ObjectDBX Classes
 90
        0
280
     0
281
     0
  0
ENDSEC
  0
SECTION
  2
TABLES
  0
TABLE
  2
VPORT
  5
8
330
0
100
AcDbSymbolTable
 70
     1
  0
VPORT
  5
3C2
330
8
100
AcDbSymbolTableRecord
100
AcDbViewportTableRecord
  2
*Active
 70
     0
 10
0.0
 20
0.0
 11
1.0
 21
1.0
 12
68.2508000718463
 22
9.830973512281218
 13
0.0
 23
0.0
 14
0.5740882589684922
 24
0.5740882589684922
 15
0.5
 25
0.5
 16
0.0
 26
0.0
 36
1.0
 17
0.0
 27
0.0
 37
0.0
 40
31.85666264877503
 41
2.023012552301255
 42
50.0
 43
0.0
 44
0.0
 50
0.0
 51
0.0
 71
     0
 72
   100
 73
     1
 74
     0
 75
     0
 76
     0
 77
     0
 78
     0
281
     0
 65
     1
110
0.0
120
0.0
130
0.0
111
1.0
121
0.0
131
0.0
112
0.0
122
1.0
132
0.0
 79
     0
146
0.0
  0
ENDTAB
  0
TABLE
  2
LTYPE
  5
5
330
0
100
AcDbSymbolTable
 70
     2
  0
LTYPE
  5
12
330
5
100
AcDbSymbolTableRecord
100
AcDbLinetypeTableRecord
  2
BYBLOCK
 70
     0
  3

 72
    65
 73
     0
 40
0.0
  0
LTYPE
  5
13
330
5
100
AcDbSymbolTableRecord
100
AcDbLinetypeTableRecord
  2
BYLAYER
 70
     0
  3

 72
    65
 73
     0
 40
0.0
  0
LTYPE
  5
14
330
5
100
AcDbSymbolTableRecord
100
AcDbLinetypeTableRecord
  2
CONTINUOUS
 70
     0
  3
Solid line
 72
    65
 73
     0
 40
0.0
  0
ENDTAB
  0
TABLE
  2
LAYER
  5
2
330
0
100
AcDbSymbolTable
 70
     5
  0
LAYER
  5
F
330
2
100
AcDbSymbolTableRecord
100
AcDbLayerTableRecord
  2
0
 70
     0
 62
     7
  6
CONTINUOUS
370
    -3
390
10B
  0
LAYER
  5
B0
330
2
100
AcDbSymbolTableRecord
100
AcDbLayerTableRecord
  2
ADPDIM
 70
     0
 62
     3
  6
CONTINUOUS
370
    -3
390
10B
  0
LAYER
  5
B2
330
2
100
AcDbSymbolTableRecord
100
AcDbLayerTableRecord
  2
ADP1DETAIL
 70
     0
 62
     7
  6
CONTINUOUS
370
    -3
390
10B
  0
LAYER
  5
B4
330
2
100
AcDbSymbolTableRecord
100
AcDbLayerTableRecord
  2
DEFPOINTS
 70
     0
 62
     7
  6
CONTINUOUS
290
     0
370
    -3
390
10B
  0
ENDTAB
  0
TABLE
  2
STYLE
  5
3
330
0
100
AcDbSymbolTable
 70
     2
  0
STYLE
  5
10
330
3
100
AcDbSymbolTableRecord
100
AcDbTextStyleTableRecord
  2
STANDARD
 70
     0
 40
0.0
 41
1.0
 50
0.0
 71
     0
 42
0.2
  3
txt
  4

  0
STYLE
  5
112
330
3
100
AcDbSymbolTableRecord
100
AcDbTextStyleTableRecord
  2
ARIAL_WIDE
 70
     0
 40
0.0
 41
1.25
 50
0.0
 71
     0
 42
0.2
  3
ARIAL.TTF
  4

1001
ACAD
1000
Arial
1071
       34
  0
ENDTAB
  0
TABLE
  2
VIEW
  5
6
330
0
100
AcDbSymbolTable
 70
     0
  0
ENDTAB
  0
TABLE
  2
UCS
  5
7
330
0
100
AcDbSymbolTable
 70
     0
  0
ENDTAB
  0
TABLE
  2
APPID
  5
9
330
0
100
AcDbSymbolTable
 70
     2
  0
APPID
  5
11
330
9
100
AcDbSymbolTableRecord
100
AcDbRegAppTableRecord
  2
ACAD
 70
     0
  0
APPID
  5
4E5
330
9
100
AcDbSymbolTableRecord
100
AcDbRegAppTableRecord
  2
ACAD_EXEMPT_FROM_CAD_STANDARDS
 70
     0
  0
ENDTAB
  0
TABLE
  2
DIMSTYLE
  5
A
330
0
100
AcDbSymbolTable
 70
     2
100
AcDbDimStyleTable
 71
     1
340
106
  0
DIMSTYLE
105
106
102
{ACAD_REACTORS
330
102
330
42A
330
45F
102
}
330
A
100
AcDbSymbolTableRecord
100
AcDbDimStyleTableRecord
  2
STANDARD
 70
     0
340
10
  0
ENDTAB
  0
TABLE
  2
BLOCK_RECORD
  5
1
330
0
100
AcDbSymbolTable
 70
     9
  0
BLOCK_RECORD
  5
18
102
{ACAD_XDICTIONARY
360
167
102
}
330
1
100
AcDbSymbolTableRecord
100
AcDbBlockTableRecord
  2
*MODEL_SPACE
340
10E
  0
BLOCK_RECORD
  5
15
102
{ACAD_XDICTIONARY
360
165
102
}
330
1
100
AcDbSymbolTableRecord
100
AcDbBlockTableRecord
  2
*PAPER_SPACE
340
10F
  0
BLOCK_RECORD
  5
89
102
{ACAD_XDICTIONARY
360
519
102
}
330
1
100
AcDbSymbolTableRecord
100
AcDbBlockTableRecord
  2
339
340
0
102
{BLKREFS
331
103
102
}
  0
BLOCK_RECORD
  5
A6
330
1
100
AcDbSymbolTableRecord
100
AcDbBlockTableRecord
  2
*D1
340
0
  0
BLOCK_RECORD
  5
AE
330
1
100
AcDbSymbolTableRecord
100
AcDbBlockTableRecord
  2
*D2
340
0
  0
BLOCK_RECORD
  5
409
330
1
100
AcDbSymbolTableRecord
100
AcDbBlockTableRecord
  2
*D3
340
0
  0
BLOCK_RECORD
  5
42B
330
1
100
AcDbSymbolTableRecord
100
AcDbBlockTableRecord
  2
*D4
340
0
  0
BLOCK_RECORD
  5
44C
330
1
100
AcDbSymbolTableRecord
100
AcDbBlockTableRecord
  2
*D5
340
0
  0
BLOCK_RECORD
  5
460
330
1
100
AcDbSymbolTableRecord
100
AcDbBlockTableRecord
  2
*D7
340
0
  0
ENDTAB
  0
ENDSEC
  0
SECTION
  2
BLOCKS
  0
BLOCK
  5
B7
330
18
100
AcDbEntity
  8
0
100
AcDbBlockBegin
  2
*MODEL_SPACE
 70
     0
 10
0.0
 20
0.0
 30
0.0
  3
*MODEL_SPACE
  1

  0
ENDBLK
  5
B8
330
18
100
AcDbEntity
  8
0
100
AcDbBlockEnd
  0
BLOCK
  5
B5
330
15
100
AcDbEntity
 67
     1
  8
0
100
AcDbBlockBegin
  2
*PAPER_SPACE
 70
     0
 10
0.0
 20
0.0
 30
0.0
  3
*PAPER_SPACE
  1

  0
ENDBLK
  5
B6
330
15
100
AcDbEntity
 67
     1
  8
0
100
AcDbBlockEnd
  0
BLOCK
  5
BA
330
89
100
AcDbEntity
  8
0
100
AcDbBlockBegin
  2
339
 70
     0
 10
0.0
 20
0.0
 30
0.0
  3
339
  1

  0
ARC
  5
BB
330
89
100
AcDbEntity
  8
0
 62
     7
100
AcDbCircle
 10
-0.8003238463870943
 20
17.3350741495327
 30
0.0
 40
0.6473442422271621
100
AcDbArc
 50
325.4547641293165
 51
4.666957739148716
  0
ARC
  5
BC
330
89
100
AcDbEntity
  8
0
 62
     7
100
AcDbCircle
 10
1.357558546045737
 20
17.34988979609766
 30
0.0
 40
0.7017483196943805
100
AcDbArc
 50
176.9077690799014
 51
212.9705090516337
  0
LINE
  5
BD
330
89
100
AcDbEntity
  8
0
 62
     7
100
AcDbLine
 10
0.0
 20
0.0
 30
0.0
 11
0.0
 21
11.98966153846154
 31
0.0
  0
LINE
  5
BE
330
89
100
AcDbEntity
  8
0
 62
     7
100
AcDbLine
 10
0.5051076923076963
 20
11.98966153846154
 30
0.0
 11
0.5051076923076963
 21
0.0
 31
0.0
  0
LINE
  5
BF
330
89
100
AcDbEntity
  8
0
 62
     7
100
AcDbLine
 10
0.5051076923076963
 20
0.0
 30
0.0
 11
0.0
 21
0.0
 31
0.0
  0
LINE
  5
C0
330
89
100
AcDbEntity
  8
0
 62
     7
100
AcDbLine
 10
0.0
 20
11.98966153846154
 30
0.0
 11
-0.5051076923076963
 21
15.47224615384615
 31
0.0
  0
LINE
  5
C1
330
89
100
AcDbEntity
  8
0
 62
     7
100
AcDbLine
 10
0.9836307692307642
 20
15.47224615384615
 30
0.0
 11
0.5051076923076963
 21
11.98966153846154
 31
0.0
  0
LINE
  5
C2
330
89
100
AcDbEntity
  8
0
 62
     7
100
AcDbLine
 10
-0.2671201529382117
 20
16.12593492312545
 30
0.0
 11
0.7688262386777112
 21
16.12593492312545
 31
0.0
  0
LINE
  5
C3
330
89
100
AcDbEntity
  8
0
 62
     7
100
AcDbLine
 10
-0.1329230769230776
 20
16.00418047609266
 30
0.0
 11
0.6380307692307668
 21
16.00418047609266
 31
0.0
  0
LINE
  5
C4
330
89
100
AcDbEntity
  8
0
 62
     7
100
AcDbLine
 10
-0.1329230769230776
 20
16.00418047609266
 30
0.0
 11
0.6114461538461527
 21
16.00418047609266
 31
0.0
  0
ARC
  5
C5
330
89
100
AcDbEntity
  8
0
 62
     7
100
AcDbCircle
 10
-0.0280288711512213
 20
15.53461542878979
 30
0.0
 40
0.4811383668478923
100
AcDbArc
 50
102.5923276908296
 51
187.448128909019
  0
LINE
  5
C6
330
89
100
AcDbEntity
  8
0
 62
     7
100
AcDbLine
 10
-0.1329230769230776
 20
16.00418047609266
 30
0.0
 11
-0.2671201529382117
 21
16.12593492312545
 31
0.0
  0
ARC
  5
C7
330
89
100
AcDbEntity
  8
0
 62
     7
100
AcDbCircle
 10
0.1802106778151327
 20
16.63091436106977
 30
0.0
 40
0.5601134235747047
100
AcDbArc
 50
143.0007412704203
 51
216.9992587295798
  0
ARC
  5
C8
330
89
100
AcDbEntity
  8
0
 62
     7
100
AcDbCircle
 10
-0.3541684137582663
 20
16.20988519929111
 30
0.0
 40
0.1209340670782525
100
AcDbArc
 50
316.0379154840439
 51
43.96208451595341
  0
ARC
  5
C9
330
89
100
AcDbEntity
  8
0
 62
     7
100
AcDbCircle
 10
0.4293110819566337
 20
15.49033834543354
 30
0.0
 40
0.5546148601472237
100
AcDbArc
 50
358.1306123727196
 51
67.89329647949853
  0
ARC
  5
CA
330
89
100
AcDbEntity
  8
0
 62
     7
100
AcDbCircle
 10
0.3214954079243597
 20
16.63091436106976
 30
0.0
 40
0.5601134235747083
100
AcDbArc
 50
323.000741270421
 51
36.99925872957933
  0
ARC
  5
CB
330
89
100
AcDbEntity
  8
0
 62
     7
100
AcDbCircle
 10
0.8552386619706666
 20
16.20988519929111
 30
0.0
 40
0.1204772001984223
100
AcDbArc
 50
135.8280029533439
 51
224.1719970466585
  0
LINE
  5
CC
330
89
100
AcDbEntity
  8
0
 62
     7
100
AcDbLine
 10
0.6380307692307668
 20
16.00418047609267
 30
0.0
 11
0.7688262386777112
 21
16.12593492312545
 31
0.0
  0
LINE
  5
CD
330
89
100
AcDbEntity
  8
0
 62
     7
100
AcDbLine
 10
0.0
 20
36.0
 30
0.0
 11
0.0
 21
23.89956923076923
 31
0.0
  0
LINE
  5
CE
330
89
100
AcDbEntity
  8
0
 62
     7
100
AcDbLine
 10
0.5051076923076963
 20
23.89956923076923
 30
0.0
 11
0.5051076923076963
 21
36.0
 31
0.0
  0
LINE
  5
CF
330
89
100
AcDbEntity
  8
0
 62
     7
100
AcDbLine
 10
0.0
 20
23.89956923076923
 30
0.0
 11
-0.5051076923076963
 21
20.41698461538461
 31
0.0
  0
LINE
  5
D0
330
89
100
AcDbEntity
  8
0
 62
     7
100
AcDbLine
 10
0.9836307692307642
 20
20.41698461538461
 30
0.0
 11
0.5051076923076963
 21
23.89956923076923
 31
0.0
  0
ARC
  5
D1
330
89
100
AcDbEntity
  8
0
 62
     7
100
AcDbCircle
 10
-0.1480020124931514
 20
20.36004704356009
 30
0.0
 40
0.3616163072112227
100
AcDbArc
 50
170.9409100677162
 51
271.8282490534178
  0
ARC
  5
D2
330
89
100
AcDbEntity
  8
0
 62
     7
100
AcDbCircle
 10
0.5584756153107265
 20
20.41691963754794
 30
0.0
 40
0.4251551588854227
100
AcDbArc
 50
280.299230008255
 51
0.008756699148269
  0
LINE
  5
D3
330
89
100
AcDbEntity
  8
0
 62
     7
100
AcDbLine
 10
1.010215384615385
 20
17.99778461538461
 30
0.0
 11
-0.5051076923076963
 21
17.99778461538461
 31
0.0
  0
LINE
  5
D4
330
89
100
AcDbEntity
  8
0
 62
     7
100
AcDbLine
 10
-0.270662244227502
 20
19.88245552222832
 30
0.0
 11
0.7652841473884209
 21
19.88245552222832
 31
0.0
  0
LINE
  5
D5
330
89
100
AcDbEntity
  8
0
 62
     7
100
AcDbLine
 10
-0.1364651682123679
 20
19.99861481635126
 30
0.0
 11
0.6344886779414765
 21
19.99861481635126
 31
0.0
  0
LINE
  5
D6
330
89
100
AcDbEntity
  8
0
 62
     7
100
AcDbLine
 10
1.010215384615385
 20
17.89144615384615
 30
0.0
 11
-0.5051076923076963
 21
17.89144615384615
 31
0.0
  0
LINE
  5
D7
330
89
100
AcDbEntity
  8
0
 62
     7
100
AcDbLine
 10
-0.5051076923076963
 20
17.89144615384615
 30
0.0
 11
1.010215384615385
 21
17.89144615384615
 31
0.0
  0
LINE
  5
D8
330
89
100
AcDbEntity
  8
0
 62
     7
100
AcDbLine
 10
1.010215384615385
 20
17.99778461538461
 30
0.0
 11
-0.5051076923076963
 21
17.99778461538461
 31
0.0
  0
LINE
  5
D9
330
89
100
AcDbEntity
  8
0
 62
     7
100
AcDbLine
 10
-0.1364651682123679
 20
19.99861481635126
 30
0.0
 11
0.6079040625568624
 21
19.99861481635126
 31
0.0
  0
ARC
  5
DA
330
89
100
AcDbEntity
  8
0
 62
     7
100
AcDbCircle
 10
-0.751197313823667
 20
18.5728592732648
 30
0.0
 40
0.5996898091105497
100
AcDbArc
 50
353.7027587275639
 51
36.17551940397098
  0
ARC
  5
DB
330
89
100
AcDbEntity
  8
0
 62
     7
100
AcDbCircle
 10
-0.6744815927743702
 20
18.49450202276471
 30
0.0
 40
0.5195080239950462
100
AcDbArc
 50
289.0278371708768
 51
1.387499499902497
  0
ARC
  5
DC
330
89
100
AcDbEntity
  8
0
 62
     7
100
AcDbCircle
 10
-0.703629332148374
 20
17.380071477715
 30
0.0
 40
0.5485571081239151
100
AcDbArc
 50
0.8014588515720099
 51
68.78320447764936
  0
LINE
  5
DD
330
89
100
AcDbEntity
  8
0
 62
     7
100
AcDbLine
 10
-0.5051076923076963
 20
17.99778461538461
 30
0.0
 11
-0.5051076923076963
 21
17.89144615384615
 31
0.0
  0
LINE
  5
DE
330
89
100
AcDbEntity
  8
0
 62
     7
100
AcDbLine
 10
-0.1364651682123679
 20
19.99861481635126
 30
0.0
 11
-0.270662244227502
 21
19.88245552222832
 31
0.0
  0
ARC
  5
DF
330
89
100
AcDbEntity
  8
0
 62
     7
100
AcDbCircle
 10
0.2668399644226795
 20
19.29061718373256
 30
0.0
 40
0.6461056998608873
100
AcDbArc
 50
145.7335802447763
 51
214.2664197552236
  0
ARC
  5
E0
330
89
100
AcDbEntity
  8
0
 62
     7
100
AcDbCircle
 10
-0.3791692869691445
 20
19.76671578757912
 30
0.0
 40
0.1586488717300035
100
AcDbArc
 50
314.9323366355668
 51
46.84733585866564
  0
ARC
  5
E1
330
89
100
AcDbEntity
  8
0
 62
     7
100
AcDbCircle
 10
1.621619870463796
 20
18.47448165261152
 30
0.0
 40
0.9653385034717238
100
AcDbArc
 50
152.056985597761
 51
178.0647362707056
  0
LINE
  5
E2
330
89
100
AcDbEntity
  8
0
 62
     7
100
AcDbLine
 10
1.010215384615385
 20
17.89144615384615
 30
0.0
 11
1.010215384615385
 21
17.99778461538461
 31
0.0
  0
ARC
  5
E3
330
89
100
AcDbEntity
  8
0
 62
     7
100
AcDbCircle
 10
1.20328790812951
 20
18.51333179444069
 30
0.0
 40
0.5464916767547773
100
AcDbArc
 50
180.6553211991763
 51
248.9293421300453
  0
ARC
  5
E4
330
89
100
AcDbEntity
  8
0
 62
     7
100
AcDbCircle
 10
1.159449077086186
 20
17.41195420832634
 30
0.0
 40
0.5031998214736349
100
AcDbArc
 50
107.6576847010943
 51
182.7576519696832
  0
ARC
  5
E5
330
89
100
AcDbEntity
  8
0
 62
     7
100
AcDbCircle
 10
0.2348661213168199
 20
19.29061718373256
 30
0.0
 40
0.6461056998608873
100
AcDbArc
 50
325.7335802447764
 51
34.26641975522365
  0
ARC
  5
E6
330
89
100
AcDbEntity
  8
0
 62
     7
100
AcDbCircle
 10
0.8679239807265375
 20
19.76999528308156
 30
0.0
 40
0.1522571534497567
100
AcDbArc
 50
132.3859731936604
 51
229.3936993005729
  0
LINE
  5
E7
330
89
100
AcDbEntity
  8
0
 62
     7
100
AcDbLine
 10
0.6344886779414765
 20
19.99861481635126
 30
0.0
 11
0.7652841473884138
 21
19.88245552222832
 31
0.0
  0
LINE
  5
E8
330
89
100
AcDbEntity
  8
0
 62
     7
100
AcDbLine
 10
0.5051076923076963
 20
36.0
 30
0.0
 11
0.0
 21
36.0
 31
0.0
  0
ENDBLK
  5
E9
330
89
100
AcDbEntity
  8
0
100
AcDbBlockEnd
  0
BLOCK
  5
EA
330
A6
100
AcDbEntity
  8
0
100
AcDbBlockBegin
  2
*D1
 70
     1
 10
0.0
 20
0.0
 30
0.0
  3
*D1
  1

  0
LINE
  5
EB
330
A6
100
AcDbEntity
  8
0
  6
ByBlock
 62
     0
100
AcDbLine
 10
51.22213614741898
 20
2.555289019900658
 30
0.0
 11
50.09342401253284
 21
2.555289019900658
 31
0.0
  0
LINE
  5
EC
330
A6
100
AcDbEntity
  8
0
  6
ByBlock
 62
     0
100
AcDbLine
 10
51.22213614741898
 20
38.55528901990066
 30
0.0
 11
50.09342401253284
 21
38.55528901990066
 31
0.0
  0
LINE
  5
ED
330
A6
100
AcDbEntity
  8
0
  6
ByBlock
 62
     0
100
AcDbLine
 10
50.27342401253283
 20
2.555289019900658
 30
0.0
 11
50.27342401253283
 21
20.32612235323399
 31
0.0
  0
LINE
  5
EE
330
A6
100
AcDbEntity
  8
0
  6
ByBlock
 62
     0
100
AcDbLine
 10
50.27342401253283
 20
38.55528901990066
 30
0.0
 11
50.27342401253283
 21
20.78445568656732
 31
0.0
  0
LINE
  5
EF
330
A6
100
AcDbEntity
  8
0
  6
ByBlock
 62
     0
100
AcDbLine
 10
50.39842401253284
 20
2.430289019900658
 30
0.0
 11
50.14842401253283
 21
2.680289019900658
 31
0.0
  0
LINE
  5
F0
330
A6
100
AcDbEntity
  8
0
  6
ByBlock
 62
     0
100
AcDbLine
 10
50.39842401253284
 20
38.43028901990066
 30
0.0
 11
50.14842401253283
 21
38.68028901990065
 31
0.0
  0
TEXT
  5
F1
330
A6
100
AcDbEntity
  8
0
  6
ByBlock
 62
     0
100
AcDbText
 10
50.33592401253283
 20
20.45112235323399
 30
0.0
 40
0.125
  1
36
 50
90.0
 72
     1
 11
50.27342401253283
 21
20.55528901990065
 31
0.0
100
AcDbText
 73
     2
  0
POINT
  5
F2
330
A6
100
AcDbEntity
  8
DEFPOINTS
  6
ByBlock
 62
     0
100
AcDbPoint
 10
51.28463614741899
 20
2.555289019900658
 30
0.0
  0
POINT
  5
F3
330
A6
100
AcDbEntity
  8
DEFPOINTS
  6
ByBlock
 62
     0
100
AcDbPoint
 10
51.28463614741899
 20
38.55528901990066
 30
0.0
  0
POINT
  5
F4
330
A6
100
AcDbEntity
  8
DEFPOINTS
  6
ByBlock
 62
     0
100
AcDbPoint
 10
50.27342401253283
 20
38.55528901990066
 30
0.0
  0
ENDBLK
  5
F5
330
A6
100
AcDbEntity
  8
0
100
AcDbBlockEnd
  0
BLOCK
  5
F6
330
AE
100
AcDbEntity
  8
0
100
AcDbBlockBegin
  2
*D2
 70
     1
 10
0.0
 20
0.0
 30
0.0
  3
*D2
  1

  0
LINE
  5
F7
330
AE
100
AcDbEntity
  8
0
  6
ByBlock
 62
     0
100
AcDbLine
 10
51.28463614741899
 20
2.492789019900658
 30
0.0
 11
51.28463614741899
 21
2.024047371978448
 31
0.0
  0
LINE
  5
F8
330
AE
100
AcDbEntity
  8
0
  6
ByBlock
 62
     0
100
AcDbLine
 10
51.78974383972668
 20
2.492789019900658
 30
0.0
 11
51.78974383972668
 21
2.024047371978448
 31
0.0
  0
LINE
  5
F9
330
AE
100
AcDbEntity
  8
0
  6
ByBlock
 62
     0
100
AcDbLine
 10
51.28463614741899
 20
2.204047371978448
 30
0.0
 11
51.03463614741898
 21
2.204047371978448
 31
0.0
  0
LINE
  5
FA
330
AE
100
AcDbEntity
  8
0
  6
ByBlock
 62
     0
100
AcDbLine
 10
51.78974383972668
 20
2.204047371978448
 30
0.0
 11
52.03974383972668
 21
2.204047371978448
 31
0.0
  0
LINE
  5
FB
330
AE
100
AcDbEntity
  8
0
  6
ByBlock
 62
     0
100
AcDbLine
 10
51.15963614741898
 20
2.079047371978448
 30
0.0
 11
51.40963614741899
 21
2.329047371978448
 31
0.0
  0
LINE
  5
FC
330
AE
100
AcDbEntity
  8
0
  6
ByBlock
 62
     0
100
AcDbLine
 10
51.66474383972668
 20
2.079047371978448
 30
0.0
 11
51.91474383972668
 21
2.329047371978448
 31
0.0
  0
TEXT
  5
FD
330
AE
100
AcDbEntity
  8
0
  6
ByBlock
 62
     0
100
AcDbText
 10
52.16474383972668
 20
2.141547371978448
 30
0.0
 40
0.125
  1
1/2
 72
     1
 11
52.31057717306001
 21
2.204047371978448
 31
0.0
100
AcDbText
 73
     2
  0
POINT
  5
FE
330
AE
100
AcDbEntity
  8
DEFPOINTS
  6
ByBlock
 62
     0
100
AcDbPoint
 10
51.28463614741899
 20
2.555289019900658
 30
0.0
  0
POINT
  5
FF
330
AE
100
AcDbEntity
  8
DEFPOINTS
  6
ByBlock
 62
     0
100
AcDbPoint
 10
51.78974383972668
 20
2.555289019900658
 30
0.0
  0
POINT
  5
100
330
AE
100
AcDbEntity
  8
DEFPOINTS
  6
ByBlock
 62
     0
100
AcDbPoint
 10
51.78974383972668
 20
2.204047371978448
 30
0.0
  0
ENDBLK
  5
101
330
AE
100
AcDbEntity
  8
0
100
AcDbBlockEnd
  0
BLOCK
  5
414
330
409
100
AcDbEntity
  8
0
100
AcDbBlockBegin
  2
*D3
 70
     1
 10
0.0
 20
0.0
 30
0.0
  3
*D3
  1

  0
LINE
  5
420
330
409
100
AcDbEntity
  8
ADPDIM
 62
     0
370
    -2
100
AcDbLine
 10
51.22213614741898
 20
2.555289019900658
 30
0.0
 11
50.09342401253283
 21
2.555289019900658
 31
0.0
  0
LINE
  5
421
330
409
100
AcDbEntity
  8
ADPDIM
 62
     0
370
    -2
100
AcDbLine
 10
51.22213614741898
 20
38.55528901990066
 30
0.0
 11
50.09342401253284
 21
38.55528901990066
 31
0.0
  0
LINE
  5
422
330
409
100
AcDbEntity
  8
ADPDIM
 62
     0
370
    -2
100
AcDbLine
 10
50.27342401253283
 20
2.555289019900658
 30
0.0
 11
50.27342401253283
 21
20.01362235323399
 31
0.0
  0
LINE
  5
423
330
409
100
AcDbEntity
  8
ADPDIM
 62
     0
370
    -2
100
AcDbLine
 10
50.27342401253283
 20
38.55528901990066
 30
0.0
 11
50.27342401253283
 21
21.09695568656733
 31
0.0
  0
LINE
  5
424
330
409
100
AcDbEntity
  8
ADPDIM
 62
     0
370
    -2
100
AcDbLine
 10
50.39842401253284
 20
38.43028901990066
 30
0.0
 11
50.14842401253283
 21
38.68028901990065
 31
0.0
  0
LINE
  5
425
330
409
100
AcDbEntity
  8
ADPDIM
 62
     0
370
    -2
100
AcDbLine
 10
50.39842401253283
 20
2.430289019900658
 30
0.0
 11
50.14842401253282
 21
2.680289019900658
 31
0.0
  0
MTEXT
  5
426
330
409
100
AcDbEntity
  8
ADPDIM
 62
     0
100
AcDbMText
 10
50.27342401253283
 20
20.55528901990067
 30
0.0
 40
0.5
 41
0.0
 71
     5
 72
     1
  1
\A1;36
 11
0.0000000000000001
 21
1.0
 31
0.0
 73
     1
 44
1.0
1001
ACAD
1000
MTEXTBEGIN
1070
    73
1070
     1
1070
    44
1040
1.0
1070
    74
1070
     0
1000
MTEXTEND
  0
POINT
  5
427
330
409
100
AcDbEntity
  8
DEFPOINTS
 62
     0
100
AcDbPoint
 10
51.28463614741899
 20
2.555289019900658
 30
0.0
  0
POINT
  5
428
330
409
100
AcDbEntity
  8
DEFPOINTS
 62
     0
100
AcDbPoint
 10
51.28463614741899
 20
38.55528901990066
 30
0.0
  0
POINT
  5
429
330
409
100
AcDbEntity
  8
DEFPOINTS
 62
     0
100
AcDbPoint
 10
50.27342401253283
 20
38.55528901990066
 30
0.0
  0
ENDBLK
  5
415
330
409
100
AcDbEntity
  8
0
100
AcDbBlockEnd
  0
BLOCK
  5
436
330
42B
100
AcDbEntity
  8
0
100
AcDbBlockBegin
  2
*D4
 70
     1
 10
0.0
 20
0.0
 30
0.0
  3
*D4
  1

  0
LINE
  5
4A9
330
42B
100
AcDbEntity
  8
ADPDIM
 62
     0
370
    -2
100
AcDbLine
 10
51.85224383972668
 20
38.55528901990066
 30
0.0
 11
53.22939575232359
 21
38.55528901990066
 31
0.0
  0
LINE
  5
4AA
330
42B
100
AcDbEntity
  8
ADPDIM
 62
     0
370
    -2
100
AcDbLine
 10
52.34579247100876
 20
22.55528901990066
 30
0.0
 11
53.22939575232359
 21
22.55528901990066
 31
0.0
  0
LINE
  5
4AB
330
42B
100
AcDbEntity
  8
ADPDIM
 62
     0
370
    -2
100
AcDbLine
 10
53.04939575232359
 20
38.55528901990066
 30
0.0
 11
53.04939575232359
 21
31.01362235323399
 31
0.0
  0
LINE
  5
4AC
330
42B
100
AcDbEntity
  8
ADPDIM
 62
     0
370
    -2
100
AcDbLine
 10
53.04939575232359
 20
22.55528901990066
 30
0.0
 11
53.04939575232359
 21
30.09695568656733
 31
0.0
  0
LINE
  5
4AD
330
42B
100
AcDbEntity
  8
ADPDIM
 62
     0
370
    -2
100
AcDbLine
 10
53.17439575232359
 20
22.43028901990065
 30
0.0
 11
52.92439575232359
 21
22.68028901990065
 31
0.0
  0
LINE
  5
4AE
330
42B
100
AcDbEntity
  8
ADPDIM
 62
     0
370
    -2
100
AcDbLine
 10
53.17439575232359
 20
38.43028901990066
 30
0.0
 11
52.92439575232359
 21
38.68028901990065
 31
0.0
  0
MTEXT
  5
4AF
330
42B
100
AcDbEntity
  8
ADPDIM
 62
     0
100
AcDbMText
 10
53.04939575232358
 20
30.55528901990067
 30
0.0
 40
0.5
 41
0.0
 71
     5
 72
     1
  1
\A1;16
 11
0.0000000000000001
 21
1.0
 31
0.0
 73
     1
 44
1.0
1001
ACAD
1000
MTEXTBEGIN
1070
    73
1070
     1
1070
    44
1040
1.0
1070
    74
1070
     0
1000
MTEXTEND
  0
POINT
  5
4B0
330
42B
100
AcDbEntity
  8
DEFPOINTS
 62
     0
100
AcDbPoint
 10
51.78974383972668
 20
38.55528901990066
 30
0.0
  0
POINT
  5
4B1
330
42B
100
AcDbEntity
  8
DEFPOINTS
 62
     0
100
AcDbPoint
 10
52.28329247100877
 20
22.55528901990066
 30
0.0
  0
POINT
  5
4B2
330
42B
100
AcDbEntity
  8
DEFPOINTS
 62
     0
100
AcDbPoint
 10
53.04939575232359
 20
22.55528901990066
 30
0.0
  0
ENDBLK
  5
437
330
42B
100
AcDbEntity
  8
0
100
AcDbBlockEnd
  0
BLOCK
  5
44D
330
44C
100
AcDbEntity
  8
0
100
AcDbBlockBegin
  2
*D5
 70
     1
 10
0.0
 20
0.0
 30
0.0
  3
*D5
  1

  0
LINE
  5
44E
330
44C
100
AcDbEntity
  8
ADPDIM
 62
     0
370
    -2
100
AcDbLine
 10
51.85224383972668
 20
38.55528901990066
 30
0.0
 11
53.22939575232359
 21
38.55528901990066
 31
0.0
  0
LINE
  5
44F
330
44C
100
AcDbEntity
  8
ADPDIM
 62
     0
370
    -2
100
AcDbLine
 10
51.85224383972668
 20
22.55528901990066
 30
0.0
 11
53.22939575232359
 21
22.55528901990066
 31
0.0
  0
LINE
  5
450
330
44C
100
AcDbEntity
  8
ADPDIM
 62
     0
370
    -2
100
AcDbLine
 10
53.04939575232359
 20
38.55528901990066
 30
0.0
 11
53.04939575232359
 21
31.01362235323399
 31
0.0
  0
LINE
  5
451
330
44C
100
AcDbEntity
  8
ADPDIM
 62
     0
370
    -2
100
AcDbLine
 10
53.04939575232359
 20
22.55528901990066
 30
0.0
 11
53.04939575232359
 21
30.09695568656733
 31
0.0
  0
LINE
  5
452
330
44C
100
AcDbEntity
  8
ADPDIM
 62
     0
370
    -2
100
AcDbLine
 10
53.17439575232359
 20
22.43028901990065
 30
0.0
 11
52.92439575232359
 21
22.68028901990065
 31
0.0
  0
LINE
  5
453
330
44C
100
AcDbEntity
  8
ADPDIM
 62
     0
370
    -2
100
AcDbLine
 10
53.17439575232359
 20
38.43028901990066
 30
0.0
 11
52.92439575232359
 21
38.68028901990065
 31
0.0
  0
MTEXT
  5
454
330
44C
100
AcDbEntity
  8
ADPDIM
 62
     0
100
AcDbMText
 10
53.04939575232358
 20
30.55528901990067
 30
0.0
 40
0.5
 41
0.0
 71
     5
 72
     1
  1
\A1;16
 11
0.0000000000000001
 21
1.0
 31
0.0
 73
     1
 44
1.0
1001
ACAD
1000
MTEXTBEGIN
1070
    73
1070
     1
1070
    44
1040
1.0
1070
    74
1070
     0
1000
MTEXTEND
  0
POINT
  5
455
330
44C
100
AcDbEntity
  8
DEFPOINTS
 62
     0
100
AcDbPoint
 10
51.78974383972668
 20
38.55528901990066
 30
0.0
  0
POINT
  5
456
330
44C
100
AcDbEntity
  8
DEFPOINTS
 62
     0
100
AcDbPoint
 10
51.78974383972668
 20
22.55528901990066
 30
0.0
  0
POINT
  5
457
330
44C
100
AcDbEntity
  8
DEFPOINTS
 62
     0
100
AcDbPoint
 10
53.04939575232359
 20
22.55528901990066
 30
0.0
  0
ENDBLK
  5
458
330
44C
100
AcDbEntity
  8
0
100
AcDbBlockEnd
  0
BLOCK
  5
46B
330
460
100
AcDbEntity
  8
0
100
AcDbBlockBegin
  2
*D7
 70
     1
 10
0.0
 20
0.0
 30
0.0
  3
*D7
  1

  0
LINE
  5
49F
330
460
100
AcDbEntity
  8
ADPDIM
 62
     0
370
    -2
100
AcDbLine
 10
52.29563322318245
 20
18.54602646743174
 30
0.0
 11
53.22567702381448
 21
18.54602646743174
 31
0.0
  0
LINE
  5
4A0
330
460
100
AcDbEntity
  8
ADPDIM
 62
     0
370
    -2
100
AcDbLine
 10
51.84852511121757
 20
2.546026467431744
 30
0.0
 11
53.22567702381448
 21
2.546026467431743
 31
0.0
  0
LINE
  5
4A1
330
460
100
AcDbEntity
  8
ADPDIM
 62
     0
370
    -2
100
AcDbLine
 10
53.04567702381448
 20
18.54602646743174
 30
0.0
 11
53.04567702381447
 21
11.00435980076508
 31
0.0
  0
LINE
  5
4A2
330
460
100
AcDbEntity
  8
ADPDIM
 62
     0
370
    -2
100
AcDbLine
 10
53.04567702381447
 20
2.546026467431743
 30
0.0
 11
53.04567702381447
 21
10.08769313409841
 31
0.0
  0
LINE
  5
4A3
330
460
100
AcDbEntity
  8
ADPDIM
 62
     0
370
    -2
100
AcDbLine
 10
53.17067702381447
 20
2.421026467431743
 30
0.0
 11
52.92067702381448
 21
2.671026467431744
 31
0.0
  0
LINE
  5
4A4
330
460
100
AcDbEntity
  8
ADPDIM
 62
     0
370
    -2
100
AcDbLine
 10
53.17067702381448
 20
18.42102646743174
 30
0.0
 11
52.92067702381448
 21
18.67102646743174
 31
0.0
  0
MTEXT
  5
4A5
330
460
100
AcDbEntity
  8
ADPDIM
 62
     0
100
AcDbMText
 10
53.04567702381447
 20
10.54602646743175
 30
0.0
 40
0.5
 41
0.0
 71
     5
 72
     1
  1
\A1;16
 11
0.0000000000000001
 21
1.0
 31
0.0
 73
     1
 44
1.0
1001
ACAD
1000
MTEXTBEGIN
1070
    73
1070
     1
1070
    44
1040
1.0
1070
    74
1070
     0
1000
MTEXTEND
  0
POINT
  5
4A6
330
460
100
AcDbEntity
  8
DEFPOINTS
 62
     0
100
AcDbPoint
 10
52.23313322318245
 20
18.54602646743174
 30
0.0
  0
POINT
  5
4A7
330
460
100
AcDbEntity
  8
DEFPOINTS
 62
     0
100
AcDbPoint
 10
51.78602511121757
 20
2.546026467431744
 30
0.0
  0
POINT
  5
4A8
330
460
100
AcDbEntity
  8
DEFPOINTS
 62
     0
100
AcDbPoint
 10
53.04567702381447
 20
2.546026467431743
 30
0.0
  0
ENDBLK
  5
46C
330
460
100
AcDbEntity
  8
0
100
AcDbBlockEnd
  0
ENDSEC
  0
SECTION
  2
ENTITIES
  0
DIMENSION
  5
102
330
18
100
AcDbEntity
  8
ADPDIM
100
AcDbDimension
  2
*D3
 10
50.27342401253283
 20
38.55528901990066
 30
0.0
 11
50.27342401253283
 21
20.55528901990067
 31
0.0
 70
    32
 71
     5
 42
36.0
  3
STANDARD
100
AcDbAlignedDimension
 13
51.28463614741899
 23
2.555289019900658
 33
0.0
 14
51.28463614741899
 24
38.55528901990066
 34
0.0
 50
90.0
100
AcDbRotatedDimension
1001
ACAD
1000
DSTYLE
1002
{
1070
   277
1070
     5
1070
    41
1040
0.125
1070
    73
1070
     0
1070
    74
1070
     0
1070
    78
1070
     3
1070
   140
1040
0.5
1070
   141
1040
0.1875
1070
   142
1040
0.125
1070
   147
1040
0.125
1070
   171
1070
     1
1002
}
  0
INSERT
  5
103
330
18
100
AcDbEntity
  8
ADP1DETAIL
100
AcDbBlockReference
  2
339
 10
51.28463614741899
 20
2.555289019900658
 30
0.0
  0
DIMENSION
  5
104
330
18
100
AcDbEntity
  8
ADPDIM
100
AcDbDimension
  2
*D2
 10
51.78974383972668
 20
2.204047371978448
 30
0.0
 11
52.31057717306001
 21
2.204047371978448
 31
0.0
 71
     5
 42
-1.0
100
AcDbAlignedDimension
 13
51.28463614741899
 23
2.555289019900658
 33
0.0
 14
51.78974383972668
 24
2.555289019900658
 34
0.0
100
AcDbRotatedDimension
  0
CIRCLE
  5
105
330
18
100
AcDbEntity
  8
ADP1DETAIL
100
AcDbCircle
 10
51.56588614741899
 20
39.27403901990066
 30
0.0
 40
0.25
  0
TEXT
  5
113
330
18
100
AcDbEntity
  8
ADPDIM
100
AcDbText
 10
19.36365230598757
 20
0.0862349561872755
 30
0.0
 40
0.625
  1
J U L I U S  B L U M  &  C O . ,  I N C .      ( 8 0 0 )  5 2 6 - 6 2 9 3        W W W . J U L I U S B L U M . C O M        P A R T  N o .  3 3 9
 41
1.25
  7
ARIAL_WIDE
 72
     1
 11
51.53718999357284
 21
0.7112349561872755
 31
0.0
100
AcDbText
 73
     3
  0
DIMENSION
  5
42A
330
18
100
AcDbEntity
  8
ADPDIM
100
AcDbDimension
  2
*D4
 10
53.04939575232359
 20
22.55528901990066
 30
0.0
 11
53.04939575232358
 21
30.55528901990067
 31
0.0
 70
    32
 71
     5
 42
16.0
  3
STANDARD
100
AcDbAlignedDimension
 13
51.78974383972668
 23
38.55528901990066
 33
0.0
 14
52.28329247100877
 24
22.55528901990066
 34
0.0
 50
90.0
100
AcDbRotatedDimension
1001
ACAD
1000
DSTYLE
1002
{
1070
   277
1070
     5
1070
    41
1040
0.125
1070
    73
1070
     0
1070
    74
1070
     0
1070
    78
1070
     3
1070
   140
1040
0.5
1070
   141
1040
0.1875
1070
   142
1040
0.125
1070
   147
1040
0.125
1070
   171
1070
     1
1002
}
  0
DIMENSION
  5
45F
330
18
100
AcDbEntity
  8
ADPDIM
100
AcDbDimension
  2
*D7
 10
53.04567702381447
 20
2.546026467431743
 30
0.0
 11
53.04567702381447
 21
10.54602646743175
 31
0.0
 70
    32
 71
     5
 42
16.0
  3
STANDARD
100
AcDbAlignedDimension
 13
52.23313322318245
 23
18.54602646743174
 33
0.0
 14
51.78602511121757
 24
2.546026467431744
 34
0.0
 50
90.0
100
AcDbRotatedDimension
1001
ACAD
1000
DSTYLE
1002
{
1070
   277
1070
     5
1070
    41
1040
0.125
1070
    73
1070
     0
1070
    74
1070
     0
1070
    78
1070
     3
1070
   140
1040
0.5
1070
   141
1040
0.1875
1070
   142
1040
0.125
1070
   147
1040
0.125
1070
   171
1070
     1
1002
}
  0
ENDSEC
  0
SECTION
  2
OBJECTS
  0
DICTIONARY
  5
C
330
0
100
AcDbDictionary
281
     1
  3
ACAD_COLOR
350
403
  3
ACAD_GROUP
350
D
  3
ACAD_LAYOUT
350
10C
  3
ACAD_MATERIAL
350
3EE
  3
ACAD_MLINESTYLE
350
E
  3
ACAD_PLOTSETTINGS
350
10D
  3
ACAD_PLOTSTYLENAME
350
10A
  3
ACAD_TABLESTYLE
350
404
  3
ACAD_VISUALSTYLE
350
3F2
  3
AcDbVariableDictionary
350
16D
  3
DWGPROPS
350
546
  0
DICTIONARY
  5
167
330
18
100
AcDbDictionary
280
     1
281
     1
  3
ACAD_LAYOUTSELFREF
360
3E8
  0
DICTIONARY
  5
165
330
15
100
AcDbDictionary
280
     1
281
     1
  3
ACAD_LAYOUTSELFREF
360
3E7
  0
DICTIONARY
  5
519
330
89
100
AcDbDictionary
280
     1
281
     1
  3
ACAD_SORTENTS
360
51A
  0
DICTIONARY
  5
403
102
{ACAD_REACTORS
330
C
102
}
330
C
100
AcDbDictionary
281
     1
  0
DICTIONARY
  5
D
102
{ACAD_REACTORS
330
C
102
}
330
C
100
AcDbDictionary
281
     1
  0
DICTIONARY
  5
10C
102
{ACAD_REACTORS
330
C
102
}
330
C
100
AcDbDictionary
281
     1
  3
Layout1
350
10F
  3
Model
350
10E
  0
DICTIONARY
  5
3EE
102
{ACAD_REACTORS
330
C
102
}
330
C
100
AcDbDictionary
281
     1
  3
ByBlock
350
3F0
  3
ByLayer
350
3EF
  3
Global
350
3F1
  0
DICTIONARY
  5
E
102
{ACAD_REACTORS
330
C
102
}
330
C
100
AcDbDictionary
281
     1
  3
STANDARD
350
1B
  0
DICTIONARY
  5
10D
102
{ACAD_REACTORS
330
C
102
}
330
C
100
AcDbDictionary
281
     1
  0
ACDBDICTIONARYWDFLT
  5
10A
102
{ACAD_REACTORS
330
C
102
}
330
C
100
AcDbDictionary
281
     1
  3
Normal
350
10B
100
AcDbDictionaryWithDefault
340
10B
  0
DICTIONARY
  5
404
102
{ACAD_REACTORS
330
C
102
}
330
C
100
AcDbDictionary
281
     1
  3
Standard
350
405
  0
DICTIONARY
  5
3F2
102
{ACAD_REACTORS
330
C
102
}
330
C
100
AcDbDictionary
281
     1
  3
2dWireframe
350
3F8
  3
3D Hidden
350
3FA
  3
3dWireframe
350
3F9
  3
Basic
350
3F7
  3
Brighten
350
3FE
  3
ColorChange
350
402
  3
Conceptual
350
3FB
  3
Dim
350
3FD
  3
Facepattern
350
401
  3
Flat
350
3F3
  3
FlatWithEdges
350
3F4
  3
Gouraud
350
3F5
  3
GouraudWithEdges
350
3F6
  3
Linepattern
350
400
  3
Realistic
350
3FC
  3
Thicken
350
3FF
  0
DICTIONARY
  5
16D
102
{ACAD_REACTORS
330
C
102
}
330
C
100
AcDbDictionary
281
     1
  3
CTABLESTYLE
350
535
  3
DIMASSOC
350
16E
  3
INDEXCTL
350
537
  3
SORTENTS
350
536
  0
XRECORD
  5
546
102
{ACAD_REACTORS
330
C
102
}
330
C
100
AcDbXrecord
280
     1
  1
DWGPROPS COOKIE
  2

  3

  4

  6

  7

  8
Yu Hu
  9

300
=
301
=
302
=
303
=
304
=
305
=
306
=
307
=
308
=
309
=
 40
0.0822979513888889
 41
2450374.486675347
 42
2453944.058137997
  1

 90
        0
  0
XRECORD
  5
3E8
102
{ACAD_REACTORS
330
167
102
}
330
167
100
AcDbXrecord
280
     1
340
18
  0
XRECORD
  5
3E7
102
{ACAD_REACTORS
330
165
102
}
330
165
100
AcDbXrecord
280
     1
340
15
  0
SORTENTSTABLE
  5
51A
102
{ACAD_REACTORS
330
519
102
}
330
519
100
AcDbSortentsTable
330
89
  0
LAYOUT
  5
10F
102
{ACAD_XDICTIONARY
360
549
102
}
102
{ACAD_REACTORS
330
10C
102
}
330
10C
100
AcDbPlotSettings
  1

  2
Fax
  4

  6

 40
0.0
 41
0.0
 42
0.0
 43
0.0
 44
0.0
 45
0.0
 46
0.0
 47
0.0
 48
0.0
 49
0.0
140
0.0
141
0.0
142
1.0
143
1.0
 70
   688
 72
     0
 73
     0
 74
     5
  7
Default R14 pen assignments.ctb
 75
    16
147
1.0
148
0.0
149
0.0
100
AcDbLayout
  1
Layout1
 70
     1
 71
     1
 10
0.0
 20
0.0
 11
12.0
 21
9.0
 12
0.0
 22
0.0
 32
0.0
 14
1.000000000000000E+20
 24
1.000000000000000E+20
 34
1.000000000000000E+20
 15
-1.000000000000000E+20
 25
-1.000000000000000E+20
 35
-1.000000000000000E+20
146
0.0
 13
0.0
 23
0.0
 33
0.0
 16
1.0
 26
0.0
 36
0.0
 17
0.0
 27
1.0
 37
0.0
 76
     0
330
15
  0
LAYOUT
  5
10E
102
{ACAD_XDICTIONARY
360
547
102
}
102
{ACAD_REACTORS
330
10C
102
}
330
10C
100
AcDbPlotSettings
  1

  2
Fax
  4

  6

 40
0.0
 41
0.0
 42
0.0
 43
0.0
 44
0.0
 45
0.0
 46
0.0
 47
0.0
 48
0.0
 49
0.0
140
0.0
141
0.0
142
1.0
143
1.0
 70
  1712
 72
     0
 73
     0
 74
     0
  7
Default R14 pen assignments.ctb
 75
     0
147
1.0
148
0.0
149
0.0
100
AcDbLayout
  1
Model
 70
     1
 71
     0
 10
0.0
 20
0.0
 11
12.0
 21
9.0
 12
0.0
 22
0.0
 32
0.0
 14
0.0
 24
0.0
 34
0.0
 15
0.0
 25
0.0
 35
0.0
146
0.0
 13
0.0
 23
0.0
 33
0.0
 16
1.0
 26
0.0
 36
0.0
 17
0.0
 27
1.0
 37
0.0
 76
     0
330
18
331
3C2
  0
MATERIAL
  5
3F0
102
{ACAD_XDICTIONARY
360
54D
102
}
102
{ACAD_REACTORS
330
3EE
102
}
330
3EE
100
AcDbMaterial
  1
ByBlock
  0
MATERIAL
  5
3EF
102
{ACAD_XDICTIONARY
360
54B
102
}
102
{ACAD_REACTORS
330
3EE
102
}
330
3EE
100
AcDbMaterial
  1
ByLayer
  0
MATERIAL
  5
3F1
102
{ACAD_XDICTIONARY
360
54F
102
}
102
{ACAD_REACTORS
330
3EE
102
}
330
3EE
100
AcDbMaterial
  1
Global
  0
MLINESTYLE
  5
1B
102
{ACAD_REACTORS
330
E
102
}
330
E
100
AcDbMlineStyle
  2
STANDARD
 70
     0
  3

 62
     0
 51
90.0
 52
90.0
 71
     2
 49
0.5
 62
   256
  6
BYLAYER
 49
-0.5
 62
   256
  6
BYLAYER
  0
ACDBPLACEHOLDER
  5
10B
102
{ACAD_REACTORS
330
10A
102
}
330
10A
  0
TABLESTYLE
  5
405
102
{ACAD_XDICTIONARY
360
551
102
}
102
{ACAD_REACTORS
330
404
102
}
330
404
100
AcDbTableStyle
  3
Standard
 70
     0
 71
     0
 40
0.06
 41
0.06
280
     0
281
     0
  7
STANDARD
140
0.18
170
     2
 62
     0
 63
     7
283
     0
274
    -2
284
     1
 64
     0
275
    -2
285
     1
 65
     0
276
    -2
286
     1
 66
     0
277
    -2
287
     1
 67
     0
278
    -2
288
     1
 68
     0
279
    -2
289
     1
 69
     0
  7
STANDARD
140
0.25
170
     5
 62
     0
 63
     7
283
     0
274
    -2
284
     1
 64
     0
275
    -2
285
     1
 65
     0
276
    -2
286
     1
 66
     0
277
    -2
287
     1
 67
     0
278
    -2
288
     1
 68
     0
279
    -2
289
     1
 69
     0
  7
STANDARD
140
0.18
170
     5
 62
     0
 63
     7
283
     0
274
    -2
284
     1
 64
     0
275
    -2
285
     1
 65
     0
276
    -2
286
     1
 66
     0
277
    -2
287
     1
 67
     0
278
    -2
288
     1
 68
     0
279
    -2
289
     1
 69
     0
  0
VISUALSTYLE
  5
3F8
102
{ACAD_REACTORS
330
3F2
102
}
330
3F2
100
AcDbVisualStyle
  2
2dWireframe
 70
     4
 71
     0
 72
     2
 73
     0
 90
        0
 40
-0.6
 41
-30.0
 62
     5
 63
     7
 74
     1
 91
        4
 64
     7
 65
   257
 75
     1
175
     1
 42
1.0
 92
        0
 66
   257
 43
1.0
 76
     1
 77
     6
 78
     2
 67
     7
 79
     5
170
     0
171
     0
290
     0
174
     0
 93
        1
 44
0.0
173
     0
291
     0
 45
0.0
1001
ACAD
1000
AcDbSavedByObjectVersion
1070
     0
  0
VISUALSTYLE
  5
3FA
102
{ACAD_REACTORS
330
3F2
102
}
330
3F2
100
AcDbVisualStyle
  2
3D Hidden
 70
     6
 71
     1
 72
     2
 73
     2
 90
        0
 40
-0.6
 41
-30.0
 62
     5
 63
     7
 74
     2
 91
        2
 64
     7
 65
   257
 75
     2
175
     1
 42
40.0
 92
        0
 66
   257
 43
1.0
 76
     1
 77
     6
 78
     2
 67
     7
 79
     3
170
     0
171
     0
290
     0
174
     0
 93
        1
 44
0.0
173
     0
291
     0
 45
0.0
1001
ACAD
1000
AcDbSavedByObjectVersion
1070
     0
  0
VISUALSTYLE
  5
3F9
102
{ACAD_REACTORS
330
3F2
102
}
330
3F2
100
AcDbVisualStyle
  2
3dWireframe
 70
     5
 71
     0
 72
     2
 73
     0
 90
        0
 40
-0.6
 41
-30.0
 62
     5
 63
     7
 74
     1
 91
        4
 64
     7
 65
   257
 75
     1
175
     1
 42
1.0
 92
        0
 66
   257
 43
1.0
 76
     1
 77
     6
 78
     2
 67
     7
 79
     5
170
     0
171
     0
290
     0
174
     0
 93
        1
 44
0.0
173
     0
291
     0
 45
0.0
1001
ACAD
1000
AcDbSavedByObjectVersion
1070
     0
  0
VISUALSTYLE
  5
3F7
102
{ACAD_REACTORS
330
3F2
102
}
330
3F2
100
AcDbVisualStyle
  2
Basic
 70
     7
 71
     1
 72
     0
 73
     1
 90
        0
 40
-0.6
 41
-30.0
 62
     5
 63
     7
 74
     0
 91
        4
 64
     7
 65
   257
 75
     1
175
     1
 42
1.0
 92
        8
 66
     7
 43
1.0
 76
     1
 77
     6
 78
     2
 67
     7
 79
     5
170
     0
171
     0
290
     0
174
     0
 93
        1
 44
0.0
173
     0
291
     1
 45
0.0
1001
ACAD
1000
AcDbSavedByObjectVersion
1070
     0
  0
VISUALSTYLE
  5
3FE
102
{ACAD_REACTORS
330
3F2
102
}
330
3F2
100
AcDbVisualStyle
  2
Brighten
 70
    12
 71
     2
 72
     2
 73
     0
 90
        0
 40
-0.6
 41
-30.0
 62
     5
 63
     7
 74
     1
 91
        4
 64
     7
 65
   257
 75
     1
175
     1
 42
1.0
 92
        8
 66
     7
 43
1.0
 76
     1
 77
     6
 78
     2
 67
     7
 79
     5
170
     0
171
     0
290
     0
174
     0
 93
        1
 44
50.0
173
     0
291
     1
 45
0.0
1001
ACAD
1000
AcDbSavedByObjectVersion
1070
     0
  0
VISUALSTYLE
  5
402
102
{ACAD_REACTORS
330
3F2
102
}
330
3F2
100
AcDbVisualStyle
  2
ColorChange
 70
    16
 71
     2
 72
     2
 73
     3
 90
        0
 40
-0.6
 41
-30.0
 62
     5
 63
     8
 74
     1
 91
        4
 64
     7
 65
   257
 75
     1
175
     1
 42
1.0
 92
        8
 66
     8
 43
1.0
 76
     1
 77
     6
 78
     2
 67
     7
 79
     5
170
     0
171
     0
290
     0
174
     0
 93
        1
 44
0.0
173
     0
291
     1
 45
0.0
1001
ACAD
1000
AcDbSavedByObjectVersion
1070
     0
  0
VISUALSTYLE
  5
3FB
102
{ACAD_REACTORS
330
3F2
102
}
330
3F2
100
AcDbVisualStyle
  2
Conceptual
 70
     9
 71
     3
 72
     2
 73
     0
 90
        0
 40
-0.6
 41
-30.0
 62
     5
 63
     7
 74
     2
 91
        2
 64
     7
 65
   257
 75
     1
175
     1
 42
40.0
 92
        8
 66
     7
 43
1.0
 76
     1
 77
     6
 78
     2
 67
     7
 79
     3
170
     0
171
     0
290
     0
174
     0
 93
        1
 44
0.0
173
     0
291
     0
 45
0.0
1001
ACAD
1000
AcDbSavedByObjectVersion
1070
     0
  0
VISUALSTYLE
  5
3FD
102
{ACAD_REACTORS
330
3F2
102
}
330
3F2
100
AcDbVisualStyle
  2
Dim
 70
    11
 71
     2
 72
     2
 73
     0
 90
        0
 40
-0.6
 41
-30.0
 62
     5
 63
     7
 74
     1
 91
        4
 64
     7
 65
   257
 75
     1
175
     1
 42
1.0
 92
        8
 66
     7
 43
1.0
 76
     1
 77
     6
 78
     2
 67
     7
 79
     5
170
     0
171
     0
290
     0
174
     0
 93
        1
 44
-50.0
173
     0
291
     1
 45
0.0
1001
ACAD
1000
AcDbSavedByObjectVersion
1070
     0
  0
VISUALSTYLE
  5
401
102
{ACAD_REACTORS
330
3F2
102
}
330
3F2
100
AcDbVisualStyle
  2
Facepattern
 70
    15
 71
     2
 72
     2
 73
     0
 90
        0
 40
-0.6
 41
-30.0
 62
     5
 63
     7
 74
     1
 91
        4
 64
     7
 65
   257
 75
     1
175
     1
 42
1.0
 92
        8
 66
     7
 43
1.0
 76
     1
 77
     6
 78
     2
 67
     7
 79
     5
170
     0
171
     0
290
     0
174
     0
 93
        1
 44
0.0
173
     0
291
     1
 45
0.0
1001
ACAD
1000
AcDbSavedByObjectVersion
1070
     0
  0
VISUALSTYLE
  5
3F3
102
{ACAD_REACTORS
330
3F2
102
}
330
3F2
100
AcDbVisualStyle
  2
Flat
 70
     0
 71
     2
 72
     1
 73
     1
 90
        2
 40
-0.6
 41
30.0
 62
     5
 63
     7
 74
     0
 91
        4
 64
     7
 65
   257
 75
     1
175
     1
 42
1.0
 92
        8
 66
     7
 43
1.0
 76
     1
 77
     6
 78
     2
 67
     7
 79
     5
170
     0
171
     0
290
     0
174
     0
 93
       13
 44
0.0
173
     0
291
     1
 45
0.0
1001
ACAD
1000
AcDbSavedByObjectVersion
1070
     0
  0
VISUALSTYLE
  5
3F4
102
{ACAD_REACTORS
330
3F2
102
}
330
3F2
100
AcDbVisualStyle
  2
FlatWithEdges
 70
     1
 71
     2
 72
     1
 73
     1
 90
        2
 40
-0.6
 41
30.0
 62
     5
 63
     7
 74
     1
 91
        4
 64
     7
 65
   257
 75
     1
175
     1
 42
1.0
 92
        0
 66
   257
 43
1.0
 76
     1
 77
     6
 78
     2
 67
     7
 79
     5
170
     0
171
     0
290
     0
174
     0
 93
       13
 44
0.0
173
     0
291
     1
 45
0.0
1001
ACAD
1000
AcDbSavedByObjectVersion
1070
     0
  0
VISUALSTYLE
  5
3F5
102
{ACAD_REACTORS
330
3F2
102
}
330
3F2
100
AcDbVisualStyle
  2
Gouraud
 70
     2
 71
     2
 72
     2
 73
     1
 90
        2
 40
-0.6
 41
30.0
 62
     5
 63
     7
 74
     0
 91
        4
 64
     7
 65
   257
 75
     1
175
     1
 42
1.0
 92
        0
 66
     7
 43
1.0
 76
     1
 77
     6
 78
     2
 67
     7
 79
     5
170
     0
171
     0
290
     0
174
     0
 93
       13
 44
0.0
173
     0
291
     1
 45
0.0
1001
ACAD
1000
AcDbSavedByObjectVersion
1070
     0
  0
VISUALSTYLE
  5
3F6
102
{ACAD_REACTORS
330
3F2
102
}
330
3F2
100
AcDbVisualStyle
  2
GouraudWithEdges
 70
     3
 71
     2
 72
     2
 73
     1
 90
        2
 40
-0.6
 41
30.0
 62
     5
 63
     7
 74
     1
 91
        4
 64
     7
 65
   257
 75
     1
175
     1
 42
1.0
 92
        0
 66
   257
 43
1.0
 76
     1
 77
     6
 78
     2
 67
     7
 79
     5
170
     0
171
     0
290
     0
174
     0
 93
       13
 44
0.0
173
     0
291
     1
 45
0.0
1001
ACAD
1000
AcDbSavedByObjectVersion
1070
     0
  0
VISUALSTYLE
  5
400
102
{ACAD_REACTORS
330
3F2
102
}
330
3F2
100
AcDbVisualStyle
  2
Linepattern
 70
    14
 71
     2
 72
     2
 73
     0
 90
        0
 40
-0.6
 41
-30.0
 62
     5
 63
     7
 74
     1
 91
        4
 64
     7
 65
   257
 75
     7
175
     7
 42
1.0
 92
        8
 66
     7
 43
1.0
 76
     1
 77
     6
 78
     2
 67
     7
 79
     5
170
     0
171
     0
290
     0
174
     0
 93
        1
 44
0.0
173
     0
291
     1
 45
0.0
1001
ACAD
1000
AcDbSavedByObjectVersion
1070
     0
  0
VISUALSTYLE
  5
3FC
102
{ACAD_REACTORS
330
3F2
102
}
330
3F2
100
AcDbVisualStyle
  2
Realistic
 70
     8
 71
     2
 72
     2
 73
     0
 90
        0
 40
-0.6
 41
-30.0
 62
     5
 63
     7
 74
     1
 91
        0
 64
     7
 65
   257
 75
     1
175
     1
 42
1.0
 92
        8
 66
     8
 43
1.0
 76
     1
 77
     6
 78
     2
 67
     7
 79
     5
170
     0
171
     0
290
     0
174
     0
 93
       13
 44
0.0
173
     0
291
     0
 45
0.0
1001
ACAD
1000
AcDbSavedByObjectVersion
1070
     0
  0
VISUALSTYLE
  5
3FF
102
{ACAD_REACTORS
330
3F2
102
}
330
3F2
100
AcDbVisualStyle
  2
Thicken
 70
    13
 71
     2
 72
     2
 73
     0
 90
        0
 40
-0.6
 41
-30.0
 62
     5
 63
     7
 74
     1
 91
        4
 64
     7
 65
   257
 75
     1
175
     1
 42
1.0
 92
       12
 66
     7
 43
1.0
 76
     1
 77
     6
 78
     2
 67
     7
 79
     5
170
     0
171
     0
290
     0
174
     0
 93
        1
 44
0.0
173
     0
291
     1
 45
0.0
1001
ACAD
1000
AcDbSavedByObjectVersion
1070
     0
  0
DICTIONARYVAR
  5
535
102
{ACAD_REACTORS
330
16D
102
}
330
16D
100
DictionaryVariables
280
     0
  1
STANDARD
  0
DICTIONARYVAR
  5
16E
102
{ACAD_REACTORS
330
16D
102
}
330
16D
100
DictionaryVariables
280
     0
  1
1
  0
DICTIONARYVAR
  5
537
102
{ACAD_REACTORS
330
16D
102
}
330
16D
100
DictionaryVariables
280
     0
  1
0
  0
DICTIONARYVAR
  5
536
102
{ACAD_REACTORS
330
16D
102
}
330
16D
100
DictionaryVariables
280
     0
  1
127
  0
DICTIONARY
  5
549
330
10F
100
AcDbDictionary
280
     1
281
     1
  3
ACAD_XREC_ROUNDTRIP
360
54A
  0
DICTIONARY
  5
547
330
10E
100
AcDbDictionary
280
     1
281
     1
  3
ACAD_XREC_ROUNDTRIP
360
548
  0
DICTIONARY
  5
54D
330
3F0
100
AcDbDictionary
280
     1
281
     1
  3
ACAD_XREC_ROUNDTRIP
360
54E
  0
DICTIONARY
  5
54B
330
3EF
100
AcDbDictionary
280
     1
281
     1
  3
ACAD_XREC_ROUNDTRIP
360
54C
  0
DICTIONARY
  5
54F
330
3F1
100
AcDbDictionary
280
     1
281
     1
  3
ACAD_XREC_ROUNDTRIP
360
550
  0
DICTIONARY
  5
551
330
405
100
AcDbDictionary
280
     1
281
     1
  3
ACAD_XREC_ROUNDTRIP
360
552
  0
XRECORD
  5
54A
102
{ACAD_REACTORS
330
549
102
}
330
549
100
AcDbXrecord
280
     1
102
SHADEPLOT
 70
     0
102
SHADEPLOTRESLEVEL
 70
     2
102
SHADEPLOTCUSTOMDPI
 70
   300
  0
XRECORD
  5
548
102
{ACAD_REACTORS
330
547
102
}
330
547
100
AcDbXrecord
280
     1
102
SHADEPLOT
 70
     0
102
SHADEPLOTRESLEVEL
 70
     2
102
SHADEPLOTCUSTOMDPI
 70
   300
  0
XRECORD
  5
54E
102
{ACAD_REACTORS
330
54D
102
}
330
54D
100
AcDbXrecord
280
     1
102
MATERIAL
148
0.0
149
0.0
149
0.0
 93
        0
 94
       63
282
     0
 72
     1
 77
     1
171
     1
175
     1
179
     1
273
     0
  0
XRECORD
  5
54C
102
{ACAD_REACTORS
330
54B
102
}
330
54B
100
AcDbXrecord
280
     1
102
MATERIAL
148
0.0
149
0.0
149
0.0
 93
        0
 94
       63
282
     0
 72
     1
 77
     1
171
     1
175
     1
179
     1
273
     0
  0
XRECORD
  5
550
102
{ACAD_REACTORS
330
54F
102
}
330
54F
100
AcDbXrecord
280
     1
102
MATERIAL
148
0.0
149
0.0
149
0.0
 93
        0
 94
       63
282
     0
 72
     1
 77
     1
171
     1
175
     1
179
     1
273
     0
  0
XRECORD
  5
552
102
{ACAD_REACTORS
330
551
102
}
330
551
100
AcDbXrecord
280
     1
102
ACAD_ROUNDTRIP_PRE2007_TABLESTYLE
 90
      512
 91
        0
  1

 92
      512
 93
        0
  2

 94
      512
 95
        0
  3

  0
ENDSEC
  0
EOF
