  0
SECTION
  2
HEADER
  9
$ACADVER
  1
AC1015
  9
$ACADMAINTVER
 70
    20
  9
$DWGCODEPAGE
  3
ANSI_1252
  9
$INSBASE
 10
44.22497968443127
 20
2.798697530617541
 30
0.0
  9
$EXTMIN
 10
11.84633456164819
 20
-0.0223450450099707
 30
0.0
  9
$EXTMAX
 10
77.10362480721435
 20
45.62702233947958
 30
0.0
  9
$LIMMIN
 10
0.0
 20
0.0
  9
$LIMMAX
 10
36.0
 20
36.0
  9
$ORTHOMODE
 70
     0
  9
$REGENMODE
 70
     1
  9
$FILLMODE
 70
     1
  9
$QTEXTMODE
 70
     0
  9
$MIRRTEXT
 70
     1
  9
$LTSCALE
 40
1.0
  9
$ATTMODE
 70
     1
  9
$TEXTSIZE
 40
0.2
  9
$TRACEWID
 40
0.05
  9
$TEXTSTYLE
  7
STANDARD
  9
$CLAYER
  8
0
  9
$CELTYPE
  6
BYLAYER
  9
$CECOLOR
 62
   256
  9
$CELTSCALE
 40
1.0
  9
$DISPSILH
 70
     0
  9
$DIMSCALE
 40
1.0
  9
$DIMASZ
 40
0.125
  9
$DIMEXO
 40
0.0625
  9
$DIMDLI
 40
0.38
  9
$DIMRND
 40
0.0
  9
$DIMDLE
 40
0.0
  9
$DIMEXE
 40
0.18
  9
$DIMTP
 40
0.0
  9
$DIMTM
 40
0.0
  9
$DIMTXT
 40
0.125
  9
$DIMCEN
 40
0.1875
  9
$DIMTSZ
 40
0.125
  9
$DIMTOL
 70
     0
  9
$DIMLIM
 70
     0
  9
$DIMTIH
 70
     0
  9
$DIMTOH
 70
     0
  9
$DIMSE1
 70
     0
  9
$DIMSE2
 70
     0
  9
$DIMTAD
 70
     0
  9
$DIMZIN
 70
     3
  9
$DIMBLK
  1

  9
$DIMASO
 70
     1
  9
$DIMSHO
 70
     1
  9
$DIMPOST
  1

  9
$DIMAPOST
  1

  9
$DIMALT
 70
     0
  9
$DIMALTD
 70
     1
  9
$DIMALTF
 40
25.4
  9
$DIMLFAC
 40
1.0
  9
$DIMTOFL
 70
     0
  9
$DIMTVP
 40
0.0
  9
$DIMTIX
 70
     0
  9
$DIMSOXD
 70
     0
  9
$DIMSAH
 70
     0
  9
$DIMBLK1
  1

  9
$DIMBLK2
  1

  9
$DIMSTYLE
  2
STANDARD
  9
$DIMCLRD
 70
     0
  9
$DIMCLRE
 70
     0
  9
$DIMCLRT
 70
     0
  9
$DIMTFAC
 40
1.0
  9
$DIMGAP
 40
0.125
  9
$DIMJUST
 70
     0
  9
$DIMSD1
 70
     0
  9
$DIMSD2
 70
     0
  9
$DIMTOLJ
 70
     1
  9
$DIMTZIN
 70
     0
  9
$DIMALTZ
 70
     0
  9
$DIMALTTZ
 70
     0
  9
$DIMUPT
 70
     0
  9
$DIMDEC
 70
     4
  9
$DIMTDEC
 70
     4
  9
$DIMALTU
 70
     2
  9
$DIMALTTD
 70
     2
  9
$DIMTXSTY
  7
STANDARD
  9
$DIMAUNIT
 70
     0
  9
$DIMADEC
 70
     0
  9
$DIMALTRND
 40
0.0
  9
$DIMAZIN
 70
     0
  9
$DIMDSEP
 70
    46
  9
$DIMATFIT
 70
     3
  9
$DIMFRAC
 70
     0
  9
$DIMLDRBLK
  1

  9
$DIMLUNIT
 70
     2
  9
$DIMLWD
 70
    -2
  9
$DIMLWE
 70
    -2
  9
$DIMTMOVE
 70
     0
  9
$LUNITS
 70
     5
  9
$LUPREC
 70
     4
  9
$SKETCHINC
 40
0.1
  9
$FILLETRAD
 40
0.062
  9
$AUNITS
 70
     0
  9
$AUPREC
 70
     0
  9
$MENU
  1
acad
  9
$ELEVATION
 40
0.0
  9
$PELEVATION
 40
0.0
  9
$THICKNESS
 40
0.0
  9
$LIMCHECK
 70
     0
  9
$CHAMFERA
 40
0.0
  9
$CHAMFERB
 40
0.0
  9
$CHAMFERC
 40
0.0
  9
$CHAMFERD
 40
0.0
  9
$SKPOLY
 70
     0
  9
$TDCREATE
 40
2450374.486523727
  9
$TDUCREATE
 40
2450374.653190394
  9
$TDUPDATE
 40
2453954.554513970
  9
$TDUUPDATE
 40
2453954.721180636
  9
$TDINDWG
 40
0.0755312500
  9
$TDUSRTIMER
 40
0.0755312500
  9
$USRTIMER
 70
     1
  9
$ANGBASE
 50
0.0
  9
$ANGDIR
 70
     0
  9
$PDMODE
 70
     0
  9
$PDSIZE
 40
0.0
  9
$PLINEWID
 40
0.0
  9
$SPLFRAME
 70
     0
  9
$SPLINETYPE
 70
     6
  9
$SPLINESEGS
 70
     8
  9
$HANDSEED
  5
4BB
  9
$SURFTAB1
 70
     6
  9
$SURFTAB2
 70
     6
  9
$SURFTYPE
 70
     6
  9
$SURFU
 70
     6
  9
$SURFV
 70
     6
  9
$UCSBASE
  2

  9
$UCSNAME
  2

  9
$UCSORG
 10
0.0
 20
0.0
 30
0.0
  9
$UCSXDIR
 10
1.0
 20
0.0
 30
0.0
  9
$UCSYDIR
 10
0.0
 20
1.0
 30
0.0
  9
$UCSORTHOREF
  2

  9
$UCSORTHOVIEW
 70
     0
  9
$UCSORGTOP
 10
0.0
 20
0.0
 30
0.0
  9
$UCSORGBOTTOM
 10
0.0
 20
0.0
 30
0.0
  9
$UCSORGLEFT
 10
0.0
 20
0.0
 30
0.0
  9
$UCSORGRIGHT
 10
0.0
 20
0.0
 30
0.0
  9
$UCSORGFRONT
 10
0.0
 20
0.0
 30
0.0
  9
$UCSORGBACK
 10
0.0
 20
0.0
 30
0.0
  9
$PUCSBASE
  2

  9
$PUCSNAME
  2

  9
$PUCSORG
 10
0.0
 20
0.0
 30
0.0
  9
$PUCSXDIR
 10
1.0
 20
0.0
 30
0.0
  9
$PUCSYDIR
 10
0.0
 20
1.0
 30
0.0
  9
$PUCSORTHOREF
  2

  9
$PUCSORTHOVIEW
 70
     0
  9
$PUCSORGTOP
 10
0.0
 20
0.0
 30
0.0
  9
$PUCSORGBOTTOM
 10
0.0
 20
0.0
 30
0.0
  9
$PUCSORGLEFT
 10
0.0
 20
0.0
 30
0.0
  9
$PUCSORGRIGHT
 10
0.0
 20
0.0
 30
0.0
  9
$PUCSORGFRONT
 10
0.0
 20
0.0
 30
0.0
  9
$PUCSORGBACK
 10
0.0
 20
0.0
 30
0.0
  9
$USERI1
 70
     0
  9
$USERI2
 70
     0
  9
$USERI3
 70
     0
  9
$USERI4
 70
     0
  9
$USERI5
 70
     0
  9
$USERR1
 40
0.0
  9
$USERR2
 40
0.0
  9
$USERR3
 40
0.0
  9
$USERR4
 40
0.0
  9
$USERR5
 40
0.0
  9
$WORLDVIEW
 70
     1
  9
$SHADEDGE
 70
     3
  9
$SHADEDIF
 70
    70
  9
$TILEMODE
 70
     1
  9
$MAXACTVP
 70
    15
  9
$PINSBASE
 10
0.0
 20
0.0
 30
0.0
  9
$PLIMCHECK
 70
     0
  9
$PEXTMIN
 10
1.000000000000000E+20
 20
1.000000000000000E+20
 30
1.000000000000000E+20
  9
$PEXTMAX
 10
-1.000000000000000E+20
 20
-1.000000000000000E+20
 30
-1.000000000000000E+20
  9
$PLIMMIN
 10
0.0
 20
0.0
  9
$PLIMMAX
 10
12.0
 20
9.0
  9
$UNITMODE
 70
     0
  9
$VISRETAIN
 70
     0
  9
$PLINEGEN
 70
     0
  9
$PSLTSCALE
 70
     1
  9
$TREEDEPTH
 70
  3020
  9
$CMLSTYLE
  2
STANDARD
  9
$CMLJUST
 70
     0
  9
$CMLSCALE
 40
1.0
  9
$PROXYGRAPHICS
 70
     1
  9
$MEASUREMENT
 70
     0
  9
$CELWEIGHT
370
    -1
  9
$ENDCAPS
280
     0
  9
$JOINSTYLE
280
     0
  9
$LWDISPLAY
290
     0
  9
$INSUNITS
 70
     0
  9
$HYPERLINKBASE
  1

  9
$STYLESHEET
  1

  9
$XEDIT
290
     1
  9
$CEPSNTYPE
380
     0
  9
$PSTYLEMODE
290
     1
  9
$FINGERPRINTGUID
  2
{756A0C6E-A2CC-4949-8FEA-686E825DA03F}
  9
$VERSIONGUID
  2
{ADFCDD4F-2F98-44D2-880F-E0D8FA77A040}
  9
$EXTNAMES
290
     1
  9
$PSVPSCALE
 40
0.0
  9
$OLESTARTUP
290
     0
  0
ENDSEC
  0
SECTION
  2
CLASSES
  0
CLASS
  1
ACDBDICTIONARYWDFLT
  2
AcDbDictionaryWithDefault
  3
ObjectDBX Classes
 90
        0
280
     0
281
     0
  0
CLASS
  1
ACDBPLACEHOLDER
  2
AcDbPlaceHolder
  3
ObjectDBX Classes
 90
        0
280
     0
281
     0
  0
CLASS
  1
LAYOUT
  2
AcDbLayout
  3
ObjectDBX Classes
 90
        0
280
     0
281
     0
  0
CLASS
  1
DICTIONARYVAR
  2
AcDbDictionaryVar
  3
ObjectDBX Classes
 90
        0
280
     0
281
     0
  0
CLASS
  1
MATERIAL
  2
AcDbMaterial
  3
ObjectDBX Classes
 90
     1024
280
     0
281
     0
  0
CLASS
  1
VISUALSTYLE
  2
AcDbVisualStyle
  3
ObjectDBX Classes
 90
     4095
280
     0
281
     0
  0
CLASS
  1
TABLESTYLE
  2
AcDbTableStyle
  3
ObjectDBX Classes
 90
     4095
280
     0
281
     0
  0
CLASS
  1
ACAD_EVALUATION_GRAPH
  2
AcDbEvalGraph
  3
ObjectDBX Classes
 90
     1153
280
     0
281
     0
  0
CLASS
  1
ACAECUSTOBJ
  2
AcAeEditorObj
  3
AcAeEditorObj
 90
     1024
280
     0
281
     0
  0
CLASS
  1
ACDB_DYNAMICBLOCKPURGEPREVENTER_VERSION
  2
AcDbDynamicBlockPurgePreventer
  3
ObjectDBX Classes
 90
     1153
280
     0
281
     0
  0
ENDSEC
  0
SECTION
  2
TABLES
  0
TABLE
  2
VPORT
  5
8
330
0
100
AcDbSymbolTable
 70
     1
  0
VPORT
  5
2A7
330
8
100
AcDbSymbolTableRecord
100
AcDbViewportTableRecord
  2
*Active
 70
     0
 10
0.0
 20
0.0
 11
1.0
 21
1.0
 12
47.82798452735713
 22
23.15982974326148
 13
0.0
 23
0.0
 14
0.5740882589684922
 24
0.5740882589684922
 15
0.5
 25
0.5
 16
0.0
 26
0.0
 36
1.0
 17
0.0
 27
0.0
 37
0.0
 40
47.83306994080771
 41
1.774011299435028
 42
50.0
 43
0.0
 44
0.0
 50
0.0
 51
0.0
 71
     0
 72
   100
 73
     1
 74
     0
 75
     0
 76
     0
 77
     0
 78
     0
281
     0
 65
     1
110
0.0
120
0.0
130
0.0
111
1.0
121
0.0
131
0.0
112
0.0
122
1.0
132
0.0
 79
     0
146
0.0
  0
ENDTAB
  0
TABLE
  2
LTYPE
  5
5
330
0
100
AcDbSymbolTable
 70
     2
  0
LTYPE
  5
12
330
5
100
AcDbSymbolTableRecord
100
AcDbLinetypeTableRecord
  2
BYBLOCK
 70
     0
  3

 72
    65
 73
     0
 40
0.0
  0
LTYPE
  5
13
330
5
100
AcDbSymbolTableRecord
100
AcDbLinetypeTableRecord
  2
BYLAYER
 70
     0
  3

 72
    65
 73
     0
 40
0.0
  0
LTYPE
  5
14
330
5
100
AcDbSymbolTableRecord
100
AcDbLinetypeTableRecord
  2
CONTINUOUS
 70
     0
  3
Solid line
 72
    65
 73
     0
 40
0.0
  0
ENDTAB
  0
TABLE
  2
LAYER
  5
2
330
0
100
AcDbSymbolTable
 70
     4
  0
LAYER
  5
F
330
2
100
AcDbSymbolTableRecord
100
AcDbLayerTableRecord
  2
0
 70
     0
 62
     7
  6
CONTINUOUS
370
    -3
390
12D
  0
LAYER
  5
AF
330
2
100
AcDbSymbolTableRecord
100
AcDbLayerTableRecord
  2
ADPDIM
 70
     0
 62
     3
  6
CONTINUOUS
370
    -3
390
12D
  0
LAYER
  5
B1
330
2
100
AcDbSymbolTableRecord
100
AcDbLayerTableRecord
  2
ADP1DETAIL
 70
     0
 62
     7
  6
CONTINUOUS
370
    -3
390
12D
  0
LAYER
  5
B3
330
2
100
AcDbSymbolTableRecord
100
AcDbLayerTableRecord
  2
DEFPOINTS
 70
     0
 62
     7
  6
CONTINUOUS
290
     0
370
    -3
390
12D
  0
ENDTAB
  0
TABLE
  2
STYLE
  5
3
330
0
100
AcDbSymbolTable
 70
     2
  0
STYLE
  5
10
330
3
100
AcDbSymbolTableRecord
100
AcDbTextStyleTableRecord
  2
STANDARD
 70
     0
 40
0.0
 41
1.0
 50
0.0
 71
     0
 42
0.2
  3
txt
  4

  0
STYLE
  5
134
330
3
100
AcDbSymbolTableRecord
100
AcDbTextStyleTableRecord
  2
ARIAL_WIDE
 70
     0
 40
0.0
 41
1.25
 50
0.0
 71
     0
 42
0.2
  3
ARIAL.TTF
  4

1001
ACAD
1000
Arial
1071
       34
  0
ENDTAB
  0
TABLE
  2
VIEW
  5
6
330
0
100
AcDbSymbolTable
 70
     0
  0
ENDTAB
  0
TABLE
  2
UCS
  5
7
330
0
100
AcDbSymbolTable
 70
     0
  0
ENDTAB
  0
TABLE
  2
APPID
  5
9
330
0
100
AcDbSymbolTable
 70
     5
  0
APPID
  5
11
330
9
100
AcDbSymbolTableRecord
100
AcDbRegAppTableRecord
  2
ACAD
 70
     0
  0
APPID
  5
34C
330
9
100
AcDbSymbolTableRecord
100
AcDbRegAppTableRecord
  2
ACAUTHENVIRON
 70
     0
  0
APPID
  5
35A
330
9
100
AcDbSymbolTableRecord
100
AcDbRegAppTableRecord
  2
AcDbDynamicBlockTrueName
 70
     0
  0
APPID
  5
35B
330
9
100
AcDbSymbolTableRecord
100
AcDbRegAppTableRecord
  2
AcDbDynamicBlockGUID
 70
     0
  0
APPID
  5
35D
330
9
100
AcDbSymbolTableRecord
100
AcDbRegAppTableRecord
  2
AcDbBlockRepETag
 70
     0
  0
ENDTAB
  0
TABLE
  2
DIMSTYLE
  5
A
330
0
100
AcDbSymbolTable
 70
     2
100
AcDbDimStyleTable
 71
     1
340
128
  0
DIMSTYLE
105
128
102
{ACAD_REACTORS
330
308
102
}
330
A
100
AcDbSymbolTableRecord
100
AcDbDimStyleTableRecord
  2
STANDARD
 70
     0
340
10
  0
ENDTAB
  0
TABLE
  2
BLOCK_RECORD
  5
1
330
0
100
AcDbSymbolTable
 70
    12
  0
BLOCK_RECORD
  5
18
102
{ACAD_XDICTIONARY
360
189
102
}
330
1
100
AcDbSymbolTableRecord
100
AcDbBlockTableRecord
  2
*MODEL_SPACE
340
130
  0
BLOCK_RECORD
  5
15
102
{ACAD_XDICTIONARY
360
187
102
}
330
1
100
AcDbSymbolTableRecord
100
AcDbBlockTableRecord
  2
*PAPER_SPACE
340
131
  0
BLOCK_RECORD
  5
84
102
{ACAD_XDICTIONARY
360
46E
102
}
330
1
100
AcDbSymbolTableRecord
100
AcDbBlockTableRecord
  2
337
340
0
102
{BLKREFS
331
125
102
}
1001
AcDbDynamicBlockGUID
1000
{012DEB48-C690-49DA-9B11-4AA7F04B0CA1}
1001
AcDbBlockRepETag
1070
     1
1071
       39
  0
BLOCK_RECORD
  5
A5
330
1
100
AcDbSymbolTableRecord
100
AcDbBlockTableRecord
  2
*D1
340
0
  0
BLOCK_RECORD
  5
AD
330
1
100
AcDbSymbolTableRecord
100
AcDbBlockTableRecord
  2
*D2
340
0
  0
BLOCK_RECORD
  5
309
330
1
100
AcDbSymbolTableRecord
100
AcDbBlockTableRecord
  2
*D3
340
0
  0
ENDTAB
  0
ENDSEC
  0
SECTION
  2
BLOCKS
  0
BLOCK
  5
B6
330
18
100
AcDbEntity
  8
0
100
AcDbBlockBegin
  2
*MODEL_SPACE
 70
     0
 10
0.0
 20
0.0
 30
0.0
  3
*MODEL_SPACE
  1

  0
ENDBLK
  5
B7
330
18
100
AcDbEntity
  8
0
100
AcDbBlockEnd
  0
BLOCK
  5
B4
330
15
100
AcDbEntity
 67
     1
  8
0
100
AcDbBlockBegin
  2
*PAPER_SPACE
 70
     0
 10
0.0
 20
0.0
 30
0.0
  3
*PAPER_SPACE
  1

  0
ENDBLK
  5
B5
330
15
100
AcDbEntity
 67
     1
  8
0
100
AcDbBlockEnd
  0
BLOCK
  5
B9
330
84
100
AcDbEntity
  8
0
100
AcDbBlockBegin
  2
337
 70
     0
 10
0.0
 20
0.0
 30
0.0
  3
337
  1

  0
LINE
  5
447
330
84
100
AcDbEntity
  8
0
100
AcDbLine
 10
0.4999999999999983
 20
8.0
 30
0.0
 11
0.7497255474452534
 21
17.26709648170615
 31
0.0
1001
AcDbBlockRepETag
1070
     1
1071
        0
1005
447
  0
LINE
  5
448
330
84
100
AcDbEntity
  8
0
100
AcDbLine
 10
0.0
 20
8.0
 30
0.0
 11
-0.25
 21
17.27725122623171
 31
0.0
1001
AcDbBlockRepETag
1070
     1
1071
        1
1005
448
  0
LINE
  5
449
330
84
100
AcDbEntity
  8
0
100
AcDbLine
 10
0.4999999999999976
 20
-3.004761316520543
 30
0.0
 11
0.4999999999999983
 21
8.0
 31
0.0
1001
AcDbBlockRepETag
1070
     1
1071
        2
1005
449
  0
LINE
  5
44A
330
84
100
AcDbEntity
  8
0
100
AcDbLine
 10
-0.0000000000000006
 20
-3.004761316520543
 30
0.0
 11
0.0
 21
8.0
 31
0.0
1001
AcDbBlockRepETag
1070
     1
1071
        3
1005
44A
  0
LINE
  5
44B
330
84
100
AcDbEntity
  8
0
100
AcDbLine
 10
-0.0000000000000006
 20
-3.004761316520543
 30
0.0
 11
0.4999999999999976
 21
-3.004761316520543
 31
0.0
1001
AcDbBlockRepETag
1070
     1
1071
        4
1005
44B
  0
LINE
  5
44C
330
84
100
AcDbEntity
  8
0
100
AcDbLine
 10
0.4999999999999984
 20
39.0004773387017
 30
0.0
 11
0.4999999999999983
 21
28.01573521467155
 31
0.0
1001
AcDbBlockRepETag
1070
     1
1071
        5
1005
44C
  0
LINE
  5
44D
330
84
100
AcDbEntity
  8
0
100
AcDbLine
 10
0.0000000000000002
 20
39.0004773387017
 30
0.0
 11
0.0
 21
28.01573521467155
 31
0.0
1001
AcDbBlockRepETag
1070
     1
1071
        6
1005
44D
  0
LINE
  5
44E
330
84
100
AcDbEntity
  8
0
100
AcDbLine
 10
0.4999999999999983
 20
28.01573521467155
 30
0.0
 11
0.7497255474452534
 21
18.77685654570293
 31
0.0
1001
AcDbBlockRepETag
1070
     1
1071
        7
1005
44E
  0
LINE
  5
44F
330
84
100
AcDbEntity
  8
0
100
AcDbLine
 10
0.0
 20
28.01573521467155
 30
0.0
 11
-0.25
 21
18.76670180117737
 31
0.0
1001
AcDbBlockRepETag
1070
     1
1071
        8
1005
44F
  0
LWPOLYLINE
  5
450
330
84
100
AcDbEntity
  8
0
100
AcDbPolyline
 90
        3
 70
     0
 43
0.0
 10
0.7457656917097637
 20
17.6465415144829
 42
-0.6030640128247864
 10
0.6767526013617662
 20
17.77336124882398
 42
-0.1392976883606999
 10
1.185963905551302
 20
17.95562573186349
 42
-0.9999998252361951
1001
AcDbBlockRepETag
1070
     1
1071
        9
1005
450
  0
LWPOLYLINE
  5
451
330
84
100
AcDbEntity
  8
0
100
AcDbPolyline
 90
        3
 70
     0
 43
0.0
 10
0.7457656917097637
 20
18.39546436846545
 42
0.4331120555202574
 10
0.6767526013617662
 20
18.20664463412436
 42
0.1208721767456452
 10
1.185963905551302
 20
18.0739051558712
 42
-0.937422067739577
1001
AcDbBlockRepETag
1070
     1
1071
       10
1005
451
  0
LINE
  5
452
330
84
100
AcDbEntity
  8
0
100
AcDbLine
 10
1.1875
 20
17.95562573186349
 30
0.0
 11
-0.6875000000000009
 21
17.95562573186349
 31
0.0
1001
AcDbBlockRepETag
1070
     1
1071
       11
1005
452
  0
LINE
  5
453
330
84
100
AcDbEntity
  8
0
100
AcDbLine
 10
-0.6875000000000009
 20
18.08062573186349
 30
0.0
 11
1.1875
 21
18.08062573186349
 31
0.0
1001
AcDbBlockRepETag
1070
     1
1071
       12
1005
453
  0
LWPOLYLINE
  5
454
330
84
100
AcDbEntity
  8
0
100
AcDbPolyline
 90
        2
 70
     0
 43
0.0
 10
-0.0692511453118696
 20
17.4627302271483
 42
0.1338619745283216
 10
-0.250728070766419
 20
17.52318998678873
 42
-36.06103262134675
1001
AcDbBlockRepETag
1070
     1
1071
       13
1005
454
  0
LINE
  5
455
330
84
100
AcDbEntity
  8
0
100
AcDbLine
 10
-0.2500000000000009
 20
17.52438015108486
 30
0.0
 11
0.75
 21
17.52438015108486
 31
0.0
1001
AcDbBlockRepETag
1070
     1
1071
       14
1005
455
  0
LINE
  5
456
330
84
100
AcDbEntity
  8
0
100
AcDbLine
 10
0.75
 20
17.64938015108486
 30
0.0
 11
-0.2500000000000009
 21
17.64938015108486
 31
0.0
1001
AcDbBlockRepETag
1070
     1
1071
       15
1005
456
  0
LWPOLYLINE
  5
457
330
84
100
AcDbEntity
  8
0
100
AcDbPolyline
 90
        3
 70
     0
 43
0.0
 10
-0.250728070766419
 20
17.64914740110435
 42
0.6030640128247864
 10
-0.1801537775717055
 20
17.7751050161889
 42
0.1507126981560374
 10
-0.6892972572533705
 20
17.9580241339319
 42
9.881679557167338
1001
AcDbBlockRepETag
1070
     1
1071
       16
1005
457
  0
LWPOLYLINE
  5
458
330
84
100
AcDbEntity
  8
0
100
AcDbPolyline
 90
        2
 70
     0
 43
0.0
 10
-0.0692511453118696
 20
18.57927565580005
 42
-0.1338619745283216
 10
-0.250728070766419
 20
18.51881589615961
 42
36.06103262134675
1001
AcDbBlockRepETag
1070
     1
1071
       17
1005
458
  0
LWPOLYLINE
  5
459
330
84
100
AcDbEntity
  8
0
100
AcDbPolyline
 90
        3
 70
     0
 43
0.0
 10
-0.250728070766419
 20
18.392858481844
 42
-0.4336860025601938
 10
-0.1801537775717055
 20
18.20490086675944
 42
-0.1558102357705755
 10
-0.6892972572533705
 20
18.08398174901645
 42
-9.881679557167338
1001
AcDbBlockRepETag
1070
     1
1071
       18
1005
459
  0
LINE
  5
45A
330
84
100
AcDbEntity
  8
0
100
AcDbLine
 10
0.75
 20
18.39262573186349
 30
0.0
 11
-0.2500000000000009
 21
18.39262573186349
 31
0.0
1001
AcDbBlockRepETag
1070
     1
1071
       19
1005
45A
  0
LINE
  5
45B
330
84
100
AcDbEntity
  8
0
100
AcDbLine
 10
-0.2500000000000009
 20
18.51762573186349
 30
0.0
 11
0.75
 21
18.51762573186349
 31
0.0
1001
AcDbBlockRepETag
1070
     1
1071
       20
1005
45B
  0
ARC
  5
45C
330
84
100
AcDbEntity
  8
0
100
AcDbCircle
 10
-0.0620000000000003
 20
18.76670180117737
 30
0.0
 40
0.188
100
AcDbArc
 50
176.9036846020409
 51
270.0
1001
AcDbBlockRepETag
1070
     1
1071
       21
1005
45C
  0
ARC
  5
45D
330
84
100
AcDbEntity
  8
0
100
AcDbCircle
 10
-0.0620000000000003
 20
17.27725122623171
 30
0.0
 40
0.188
100
AcDbArc
 50
90.0
 51
183.096315397959
1001
AcDbBlockRepETag
1070
     1
1071
       22
1005
45D
  0
LINE
  5
45E
330
84
100
AcDbEntity
  8
0
100
AcDbLine
 10
-0.6875000000000009
 20
17.95562573186349
 30
0.0
 11
-0.6875000000000009
 21
18.08062573186349
 31
0.0
1001
AcDbBlockRepETag
1070
     1
1071
       23
1005
45E
  0
LINE
  5
45F
330
84
100
AcDbEntity
  8
0
100
AcDbLine
 10
-0.2500000000000009
 20
17.64938015108486
 30
0.0
 11
-0.2500000000000009
 21
17.52438015108486
 31
0.0
1001
AcDbBlockRepETag
1070
     1
1071
       24
1005
45F
  0
LINE
  5
460
330
84
100
AcDbEntity
  8
0
100
AcDbLine
 10
-0.2500000000000009
 20
18.39262573186349
 30
0.0
 11
-0.2500000000000009
 21
18.51762573186349
 31
0.0
1001
AcDbBlockRepETag
1070
     1
1071
       25
1005
460
  0
ARC
  5
461
330
84
100
AcDbEntity
  8
0
100
AcDbCircle
 10
0.5619999999999977
 20
18.76670180117737
 30
0.0
 40
0.188
100
AcDbArc
 50
270.0
 51
3.096315397959076
1001
AcDbBlockRepETag
1070
     1
1071
       26
1005
461
  0
LINE
  5
462
330
84
100
AcDbEntity
  8
0
100
AcDbLine
 10
0.2499999999999982
 20
17.46094203900933
 30
0.0
 11
0.5619999999999977
 21
17.46094203900933
 31
0.0
1001
AcDbBlockRepETag
1070
     1
1071
       27
1005
462
  0
LWPOLYLINE
  5
463
330
84
100
AcDbEntity
  8
0
100
AcDbPolyline
 90
        2
 70
     0
 43
0.0
 10
0.5619999999999977
 20
17.46238015108486
 10
-0.0620000000000003
 20
17.46238015108486
1001
AcDbBlockRepETag
1070
     1
1071
       28
1005
463
  0
LWPOLYLINE
  5
464
330
84
100
AcDbEntity
  8
0
100
AcDbPolyline
 90
        2
 70
     0
 43
0.0
 10
0.5619999999999977
 20
18.57473572970554
 10
-0.0620000000000003
 20
18.57473572970554
1001
AcDbBlockRepETag
1070
     1
1071
       29
1005
464
  0
LWPOLYLINE
  5
465
330
84
100
AcDbEntity
  8
0
100
AcDbPolyline
 90
        2
 70
     0
 43
0.0
 10
0.2499999999999982
 20
18.57401378143713
 10
0.5619999999999977
 20
18.57401378143713
1001
AcDbBlockRepETag
1070
     1
1071
       30
1005
465
  0
LWPOLYLINE
  5
466
330
84
100
AcDbEntity
  8
0
100
AcDbPolyline
 90
        2
 70
     0
 43
0.0
 10
0.5619999999999977
 20
18.57962573186349
 10
-0.0620000000000003
 20
18.57962573186349
1001
AcDbBlockRepETag
1070
     1
1071
       31
1005
466
  0
LWPOLYLINE
  5
467
330
84
100
AcDbEntity
  8
0
100
AcDbPolyline
 90
        2
 70
     0
 43
0.0
 10
0.5619999999999977
 20
17.46238015108486
 42
-0.1338619745283216
 10
0.7442098753091316
 20
17.52059370919673
 42
36.06103262134675
1001
AcDbBlockRepETag
1070
     1
1071
       32
1005
467
  0
ARC
  5
468
330
84
100
AcDbEntity
  8
0
100
AcDbCircle
 10
0.5619999999999977
 20
17.27725122623171
 30
0.0
 40
0.188
100
AcDbArc
 50
356.9036846020409
 51
90.0
1001
AcDbBlockRepETag
1070
     1
1071
       33
1005
468
  0
LINE
  5
469
330
84
100
AcDbEntity
  8
0
100
AcDbLine
 10
0.75
 20
17.52438015108486
 30
0.0
 11
0.75
 21
17.64938015108486
 31
0.0
1001
AcDbBlockRepETag
1070
     1
1071
       34
1005
469
  0
LWPOLYLINE
  5
46A
330
84
100
AcDbEntity
  8
0
100
AcDbPolyline
 90
        2
 70
     0
 43
0.0
 10
0.5619999999999977
 20
18.57962573186349
 42
0.1338619745283216
 10
0.7442098753091316
 20
18.52141217375162
 42
-36.06103262134675
1001
AcDbBlockRepETag
1070
     1
1071
       35
1005
46A
  0
LINE
  5
46B
330
84
100
AcDbEntity
  8
0
100
AcDbLine
 10
0.75
 20
18.51762573186349
 30
0.0
 11
0.75
 21
18.39262573186349
 31
0.0
1001
AcDbBlockRepETag
1070
     1
1071
       36
1005
46B
  0
LINE
  5
46C
330
84
100
AcDbEntity
  8
0
100
AcDbLine
 10
1.1875
 20
18.08062573186349
 30
0.0
 11
1.1875
 21
17.95562573186349
 31
0.0
1001
AcDbBlockRepETag
1070
     1
1071
       37
1005
46C
  0
LINE
  5
46D
330
84
100
AcDbEntity
  8
0
100
AcDbLine
 10
0.0000000000000001
 20
39.0004773387017
 30
0.0
 11
0.4999999999999984
 21
39.0004773387017
 31
0.0
1001
AcDbBlockRepETag
1070
     1
1071
       38
1005
46D
  0
ENDBLK
  5
10B
330
84
100
AcDbEntity
  8
0
100
AcDbBlockEnd
  0
BLOCK
  5
10C
330
A5
100
AcDbEntity
  8
0
100
AcDbBlockBegin
  2
*D1
 70
     1
 10
0.0
 20
0.0
 30
0.0
  3
*D1
  1

  0
LINE
  5
10D
330
A5
100
AcDbEntity
  8
0
  6
ByBlock
 62
     0
100
AcDbLine
 10
44.16247968443127
 20
2.798697530617541
 30
0.0
 11
42.84602809204661
 21
2.798697530617541
 31
0.0
  0
LINE
  5
10E
330
A5
100
AcDbEntity
  8
0
  6
ByBlock
 62
     0
100
AcDbLine
 10
44.28747968443127
 20
38.81443274528908
 30
0.0
 11
42.84602809204661
 21
38.81443274528908
 31
0.0
  0
LINE
  5
10F
330
A5
100
AcDbEntity
  8
0
  6
ByBlock
 62
     0
100
AcDbLine
 10
43.02602809204661
 20
2.798697530617541
 30
0.0
 11
43.02602809204661
 21
20.57739847128664
 31
0.0
  0
LINE
  5
110
330
A5
100
AcDbEntity
  8
0
  6
ByBlock
 62
     0
100
AcDbLine
 10
43.02602809204661
 20
38.81443274528908
 30
0.0
 11
43.02602809204661
 21
21.03573180461998
 31
0.0
  0
LINE
  5
111
330
A5
100
AcDbEntity
  8
0
  6
ByBlock
 62
     0
100
AcDbLine
 10
43.15102809204661
 20
2.673697530617541
 30
0.0
 11
42.90102809204661
 21
2.923697530617541
 31
0.0
  0
LINE
  5
112
330
A5
100
AcDbEntity
  8
0
  6
ByBlock
 62
     0
100
AcDbLine
 10
43.15102809204661
 20
38.68943274528908
 30
0.0
 11
42.90102809204661
 21
38.93943274528908
 31
0.0
  0
TEXT
  5
113
330
A5
100
AcDbEntity
  8
0
  6
ByBlock
 62
     0
100
AcDbText
 10
43.08852809204661
 20
20.70239847128664
 30
0.0
 40
0.125
  1
36
 50
90.0
 72
     1
 11
43.02602809204661
 21
20.80656513795331
 31
0.0
100
AcDbText
 73
     2
  0
POINT
  5
114
330
A5
100
AcDbEntity
  8
DEFPOINTS
  6
ByBlock
 62
     0
100
AcDbPoint
 10
44.22497968443127
 20
2.798697530617541
 30
0.0
  0
POINT
  5
115
330
A5
100
AcDbEntity
  8
DEFPOINTS
  6
ByBlock
 62
     0
100
AcDbPoint
 10
44.34997968443127
 20
38.81443274528908
 30
0.0
  0
POINT
  5
116
330
A5
100
AcDbEntity
  8
DEFPOINTS
  6
ByBlock
 62
     0
100
AcDbPoint
 10
43.02602809204661
 20
38.81443274528908
 30
0.0
  0
ENDBLK
  5
117
330
A5
100
AcDbEntity
  8
0
100
AcDbBlockEnd
  0
BLOCK
  5
118
330
AD
100
AcDbEntity
  8
0
100
AcDbBlockBegin
  2
*D2
 70
     1
 10
0.0
 20
0.0
 30
0.0
  3
*D2
  1

  0
LINE
  5
119
330
AD
100
AcDbEntity
  8
0
  6
ByBlock
 62
     0
100
AcDbLine
 10
44.22497968443127
 20
2.736197530617541
 30
0.0
 11
44.22497968443127
 21
2.098754217788577
 31
0.0
  0
LINE
  5
11A
330
AD
100
AcDbEntity
  8
0
  6
ByBlock
 62
     0
100
AcDbLine
 10
44.72497968443128
 20
2.736197530617541
 30
0.0
 11
44.72497968443128
 21
2.098754217788577
 31
0.0
  0
LINE
  5
11B
330
AD
100
AcDbEntity
  8
0
  6
ByBlock
 62
     0
100
AcDbLine
 10
44.22497968443127
 20
2.278754217788578
 30
0.0
 11
43.97497968443127
 21
2.278754217788578
 31
0.0
  0
LINE
  5
11C
330
AD
100
AcDbEntity
  8
0
  6
ByBlock
 62
     0
100
AcDbLine
 10
44.72497968443128
 20
2.278754217788578
 30
0.0
 11
44.97497968443127
 21
2.278754217788578
 31
0.0
  0
LINE
  5
11D
330
AD
100
AcDbEntity
  8
0
  6
ByBlock
 62
     0
100
AcDbLine
 10
44.09997968443128
 20
2.153754217788578
 30
0.0
 11
44.34997968443127
 21
2.403754217788578
 31
0.0
  0
LINE
  5
11E
330
AD
100
AcDbEntity
  8
0
  6
ByBlock
 62
     0
100
AcDbLine
 10
44.59997968443127
 20
2.153754217788578
 30
0.0
 11
44.84997968443127
 21
2.403754217788578
 31
0.0
  0
TEXT
  5
11F
330
AD
100
AcDbEntity
  8
0
  6
ByBlock
 62
     0
100
AcDbText
 10
45.09997968443127
 20
2.216254217788578
 30
0.0
 40
0.125
  1
1/2
 72
     1
 11
45.24581301776461
 21
2.278754217788578
 31
0.0
100
AcDbText
 73
     2
  0
POINT
  5
120
330
AD
100
AcDbEntity
  8
DEFPOINTS
  6
ByBlock
 62
     0
100
AcDbPoint
 10
44.22497968443127
 20
2.798697530617541
 30
0.0
  0
POINT
  5
121
330
AD
100
AcDbEntity
  8
DEFPOINTS
  6
ByBlock
 62
     0
100
AcDbPoint
 10
44.72497968443128
 20
2.798697530617541
 30
0.0
  0
POINT
  5
122
330
AD
100
AcDbEntity
  8
DEFPOINTS
  6
ByBlock
 62
     0
100
AcDbPoint
 10
44.72497968443128
 20
2.278754217788578
 30
0.0
  0
ENDBLK
  5
123
330
AD
100
AcDbEntity
  8
0
100
AcDbBlockEnd
  0
BLOCK
  5
314
330
309
100
AcDbEntity
  8
0
 62
     3
100
AcDbBlockBegin
  2
*D3
 70
     1
 10
0.0
 20
0.0
 30
0.0
  3
*D3
  1

  0
LINE
  5
487
330
309
100
AcDbEntity
  8
ADPDIM
 62
     0
370
    -2
100
AcDbLine
 10
45.43961892044388
 20
44.83308546228776
 30
0.0
 11
47.67568046788812
 21
44.83308546228776
 31
0.0
  0
LINE
  5
488
330
309
100
AcDbEntity
  8
ADPDIM
 62
     0
370
    -2
100
AcDbLine
 10
45.43961892044387
 20
2.833085462287762
 30
0.0
 11
47.67568046788812
 21
2.833085462287762
 31
0.0
  0
LINE
  5
489
330
309
100
AcDbEntity
  8
ADPDIM
 62
     0
370
    -2
100
AcDbLine
 10
47.49568046788812
 20
44.83308546228776
 30
0.0
 11
47.49568046788812
 21
24.37475212895443
 31
0.0
  0
LINE
  5
48A
330
309
100
AcDbEntity
  8
ADPDIM
 62
     0
370
    -2
100
AcDbLine
 10
47.49568046788811
 20
2.833085462287762
 30
0.0
 11
47.49568046788812
 21
23.29141879562109
 31
0.0
  0
LINE
  5
48B
330
309
100
AcDbEntity
  8
ADPDIM
 62
     0
370
    -2
100
AcDbLine
 10
47.62068046788812
 20
2.708085462287761
 30
0.0
 11
47.37068046788812
 21
2.958085462287762
 31
0.0
  0
LINE
  5
48C
330
309
100
AcDbEntity
  8
ADPDIM
 62
     0
370
    -2
100
AcDbLine
 10
47.62068046788813
 20
44.70808546228775
 30
0.0
 11
47.37068046788812
 21
44.95808546228775
 31
0.0
  0
MTEXT
  5
48D
330
309
100
AcDbEntity
  8
ADPDIM
 62
     0
100
AcDbMText
 10
47.49568046788811
 20
23.83308546228776
 30
0.0
 40
0.5
 41
0.0
 71
     5
 72
     1
  1
\A1;42
 11
0.0000000000000001
 21
1.0
 31
0.0
 73
     1
 44
1.0
1001
ACAD
1000
MTEXTBEGIN
1070
    73
1070
     1
1070
    44
1040
1.0
1070
    74
1070
     0
1000
MTEXTEND
  0
POINT
  5
48E
330
309
100
AcDbEntity
  8
DEFPOINTS
 62
     0
100
AcDbPoint
 10
45.37711892044387
 20
44.83308546228776
 30
0.0
  0
POINT
  5
48F
330
309
100
AcDbEntity
  8
DEFPOINTS
 62
     0
100
AcDbPoint
 10
45.37711892044387
 20
2.833085462287762
 30
0.0
  0
POINT
  5
490
330
309
100
AcDbEntity
  8
DEFPOINTS
 62
     0
100
AcDbPoint
 10
47.49568046788811
 20
2.833085462287762
 30
0.0
  0
ENDBLK
  5
315
330
309
100
AcDbEntity
  8
0
 62
     3
100
AcDbBlockEnd
  0
ENDSEC
  0
SECTION
  2
ENTITIES
  0
INSERT
  5
125
330
18
100
AcDbEntity
  8
ADP1DETAIL
100
AcDbBlockReference
  2
337
 10
44.24305852446849
 20
5.860540808625824
 30
0.0
  0
DIMENSION
  5
126
330
18
100
AcDbEntity
  8
ADPDIM
100
AcDbDimension
  2
*D2
 10
44.72497968443128
 20
2.278754217788578
 30
0.0
 11
45.24581301776461
 21
2.278754217788578
 31
0.0
 71
     5
 42
-1.0
100
AcDbAlignedDimension
 13
44.22497968443127
 23
2.798697530617541
 33
0.0
 14
44.72497968443128
 24
2.798697530617541
 34
0.0
100
AcDbRotatedDimension
  0
CIRCLE
  5
127
330
18
100
AcDbEntity
  8
ADP1DETAIL
100
AcDbCircle
 10
44.49987369389609
 20
45.37702233947958
 30
0.0
 40
0.25
  0
TEXT
  5
135
330
18
100
AcDbEntity
  8
ADPDIM
100
AcDbText
 10
11.84633456164819
 20
0.1626822401196337
 30
0.0
 40
0.625
  1
J U L I U S  B L U M  &  C O . ,  I N C .      ( 8 0 0 )  5 2 6 - 6 2 9 3        W W W . J U L I U S B L U M . C O M        P A R T  N o .  3 3 7 L
 41
1.25
  7
ARIAL_WIDE
 72
     1
 11
44.47497968443127
 21
0.7876822401196338
 31
0.0
100
AcDbText
 73
     3
  0
DIMENSION
  5
308
330
18
100
AcDbEntity
  8
ADPDIM
 62
     3
100
AcDbDimension
  2
*D3
 10
47.49568046788811
 20
2.833085462287762
 30
0.0
 11
47.49568046788811
 21
23.83308546228776
 31
0.0
 70
    32
 71
     5
 42
41.99999999999999
  3
STANDARD
100
AcDbAlignedDimension
 13
45.37711892044387
 23
44.83308546228776
 33
0.0
 14
45.37711892044387
 24
2.833085462287762
 34
0.0
 50
90.0
100
AcDbRotatedDimension
1001
ACAD
1000
DSTYLE
1002
{
1070
   277
1070
     5
1070
    41
1040
0.125
1070
    73
1070
     0
1070
    74
1070
     0
1070
    78
1070
     3
1070
   140
1040
0.5
1070
   141
1040
0.1875
1070
   142
1040
0.125
1070
   147
1040
0.125
1070
   171
1070
     1
1002
}
  0
ENDSEC
  0
SECTION
  2
OBJECTS
  0
DICTIONARY
  5
C
330
0
100
AcDbDictionary
281
     1
  3
ACAD_COLOR
350
2E8
  3
ACAD_GROUP
350
D
  3
ACAD_LAYOUT
350
12E
  3
ACAD_MATERIAL
350
2D3
  3
ACAD_MLINESTYLE
350
E
  3
ACAD_PLOTSETTINGS
350
12F
  3
ACAD_PLOTSTYLENAME
350
12C
  3
ACAD_TABLESTYLE
350
2E9
  3
ACAD_VISUALSTYLE
350
2D7
  3
AcDbVariableDictionary
350
18F
  3
DWGPROPS
350
4AE
  0
DICTIONARY
  5
189
330
18
100
AcDbDictionary
280
     1
281
     1
  3
ACAD_LAYOUTSELFREF
360
2CD
  0
DICTIONARY
  5
187
330
15
100
AcDbDictionary
280
     1
281
     1
  3
ACAD_LAYOUTSELFREF
360
2CC
  0
DICTIONARY
  5
46E
330
84
100
AcDbDictionary
280
     1
281
     1
  0
DICTIONARY
  5
2E8
102
{ACAD_REACTORS
330
C
102
}
330
C
100
AcDbDictionary
281
     1
  0
DICTIONARY
  5
D
102
{ACAD_REACTORS
330
C
102
}
330
C
100
AcDbDictionary
281
     1
  0
DICTIONARY
  5
12E
102
{ACAD_REACTORS
330
C
102
}
330
C
100
AcDbDictionary
281
     1
  3
Layout1
350
131
  3
Model
350
130
  0
DICTIONARY
  5
2D3
102
{ACAD_REACTORS
330
C
102
}
330
C
100
AcDbDictionary
281
     1
  3
ByBlock
350
2D5
  3
ByLayer
350
2D4
  3
Global
350
2D6
  0
DICTIONARY
  5
E
102
{ACAD_REACTORS
330
C
102
}
330
C
100
AcDbDictionary
281
     1
  3
STANDARD
350
1B
  0
DICTIONARY
  5
12F
102
{ACAD_REACTORS
330
C
102
}
330
C
100
AcDbDictionary
281
     1
  0
ACDBDICTIONARYWDFLT
  5
12C
102
{ACAD_REACTORS
330
C
102
}
330
C
100
AcDbDictionary
281
     1
  3
Normal
350
12D
100
AcDbDictionaryWithDefault
340
12D
  0
DICTIONARY
  5
2E9
102
{ACAD_REACTORS
330
C
102
}
330
C
100
AcDbDictionary
281
     1
  3
Standard
350
2EA
  0
DICTIONARY
  5
2D7
102
{ACAD_REACTORS
330
C
102
}
330
C
100
AcDbDictionary
281
     1
  3
2dWireframe
350
2DD
  3
3D Hidden
350
2DF
  3
3dWireframe
350
2DE
  3
Basic
350
2DC
  3
Brighten
350
2E3
  3
ColorChange
350
2E7
  3
Conceptual
350
2E0
  3
Dim
350
2E2
  3
Facepattern
350
2E6
  3
Flat
350
2D8
  3
FlatWithEdges
350
2D9
  3
Gouraud
350
2DA
  3
GouraudWithEdges
350
2DB
  3
Linepattern
350
2E5
  3
Realistic
350
2E1
  3
Thicken
350
2E4
  0
DICTIONARY
  5
18F
102
{ACAD_REACTORS
330
C
102
}
330
C
100
AcDbDictionary
281
     1
  3
CTABLESTYLE
350
4AB
  3
DIMASSOC
350
190
  3
INDEXCTL
350
4AD
  3
SORTENTS
350
4AC
  0
XRECORD
  5
4AE
102
{ACAD_REACTORS
330
C
102
}
330
C
100
AcDbXrecord
280
     1
  1
DWGPROPS COOKIE
  2

  3

  4

  6

  7

  8
Yu Hu
  9

300
=
301
=
302
=
303
=
304
=
305
=
306
=
307
=
308
=
309
=
 40
0.0755304398148148
 41
2450374.486523727
 42
2453954.55451397
  1

 90
        0
  0
XRECORD
  5
2CD
102
{ACAD_REACTORS
330
189
102
}
330
189
100
AcDbXrecord
280
     1
340
18
  0
XRECORD
  5
2CC
102
{ACAD_REACTORS
330
187
102
}
330
187
100
AcDbXrecord
280
     1
340
15
  0
LAYOUT
  5
131
102
{ACAD_XDICTIONARY
360
4B1
102
}
102
{ACAD_REACTORS
330
12E
102
}
330
12E
100
AcDbPlotSettings
  1

  2
Fax
  4

  6

 40
0.0
 41
0.0
 42
0.0
 43
0.0
 44
0.0
 45
0.0
 46
0.0
 47
0.0
 48
0.0
 49
0.0
140
0.0
141
0.0
142
1.0
143
1.0
 70
   688
 72
     0
 73
     0
 74
     5
  7
Default R14 pen assignments.ctb
 75
    16
147
1.0
148
0.0
149
0.0
100
AcDbLayout
  1
Layout1
 70
     1
 71
     1
 10
0.0
 20
0.0
 11
12.0
 21
9.0
 12
0.0
 22
0.0
 32
0.0
 14
1.000000000000000E+20
 24
1.000000000000000E+20
 34
1.000000000000000E+20
 15
-1.000000000000000E+20
 25
-1.000000000000000E+20
 35
-1.000000000000000E+20
146
0.0
 13
0.0
 23
0.0
 33
0.0
 16
1.0
 26
0.0
 36
0.0
 17
0.0
 27
1.0
 37
0.0
 76
     0
330
15
  0
LAYOUT
  5
130
102
{ACAD_XDICTIONARY
360
4AF
102
}
102
{ACAD_REACTORS
330
12E
102
}
330
12E
100
AcDbPlotSettings
  1

  2
Fax
  4

  6

 40
0.0
 41
0.0
 42
0.0
 43
0.0
 44
0.0
 45
0.0
 46
0.0
 47
0.0
 48
0.0
 49
0.0
140
0.0
141
0.0
142
1.0
143
1.0
 70
  1712
 72
     0
 73
     0
 74
     0
  7
Default R14 pen assignments.ctb
 75
     0
147
1.0
148
0.0
149
0.0
100
AcDbLayout
  1
Model
 70
     1
 71
     0
 10
0.0
 20
0.0
 11
12.0
 21
9.0
 12
0.0
 22
0.0
 32
0.0
 14
0.0
 24
0.0
 34
0.0
 15
0.0
 25
0.0
 35
0.0
146
0.0
 13
0.0
 23
0.0
 33
0.0
 16
1.0
 26
0.0
 36
0.0
 17
0.0
 27
1.0
 37
0.0
 76
     0
330
18
331
2A7
  0
MATERIAL
  5
2D5
102
{ACAD_XDICTIONARY
360
4B5
102
}
102
{ACAD_REACTORS
330
2D3
102
}
330
2D3
100
AcDbMaterial
  1
ByBlock
  0
MATERIAL
  5
2D4
102
{ACAD_XDICTIONARY
360
4B3
102
}
102
{ACAD_REACTORS
330
2D3
102
}
330
2D3
100
AcDbMaterial
  1
ByLayer
  0
MATERIAL
  5
2D6
102
{ACAD_XDICTIONARY
360
4B7
102
}
102
{ACAD_REACTORS
330
2D3
102
}
330
2D3
100
AcDbMaterial
  1
Global
  0
MLINESTYLE
  5
1B
102
{ACAD_REACTORS
330
E
102
}
330
E
100
AcDbMlineStyle
  2
STANDARD
 70
     0
  3

 62
     0
 51
90.0
 52
90.0
 71
     2
 49
0.5
 62
   256
  6
BYLAYER
 49
-0.5
 62
   256
  6
BYLAYER
  0
ACDBPLACEHOLDER
  5
12D
102
{ACAD_REACTORS
330
12C
102
}
330
12C
  0
TABLESTYLE
  5
2EA
102
{ACAD_XDICTIONARY
360
4B9
102
}
102
{ACAD_REACTORS
330
2E9
102
}
330
2E9
100
AcDbTableStyle
  3
Standard
 70
     0
 71
     0
 40
0.06
 41
0.06
280
     0
281
     0
  7
STANDARD
140
0.18
170
     2
 62
     0
 63
     7
283
     0
274
    -2
284
     1
 64
     0
275
    -2
285
     1
 65
     0
276
    -2
286
     1
 66
     0
277
    -2
287
     1
 67
     0
278
    -2
288
     1
 68
     0
279
    -2
289
     1
 69
     0
  7
STANDARD
140
0.25
170
     5
 62
     0
 63
     7
283
     0
274
    -2
284
     1
 64
     0
275
    -2
285
     1
 65
     0
276
    -2
286
     1
 66
     0
277
    -2
287
     1
 67
     0
278
    -2
288
     1
 68
     0
279
    -2
289
     1
 69
     0
  7
STANDARD
140
0.18
170
     5
 62
     0
 63
     7
283
     0
274
    -2
284
     1
 64
     0
275
    -2
285
     1
 65
     0
276
    -2
286
     1
 66
     0
277
    -2
287
     1
 67
     0
278
    -2
288
     1
 68
     0
279
    -2
289
     1
 69
     0
  0
VISUALSTYLE
  5
2DD
102
{ACAD_REACTORS
330
2D7
102
}
330
2D7
100
AcDbVisualStyle
  2
2dWireframe
 70
     4
 71
     0
 72
     2
 73
     0
 90
        0
 40
-0.6
 41
-30.0
 62
     5
 63
     7
 74
     1
 91
        4
 64
     7
 65
   257
 75
     1
175
     1
 42
1.0
 92
        0
 66
   257
 43
1.0
 76
     1
 77
     6
 78
     2
 67
     7
 79
     5
170
     0
171
     0
290
     0
174
     0
 93
        1
 44
0.0
173
     0
291
     0
 45
0.0
1001
ACAD
1000
AcDbSavedByObjectVersion
1070
     0
  0
VISUALSTYLE
  5
2DF
102
{ACAD_REACTORS
330
2D7
102
}
330
2D7
100
AcDbVisualStyle
  2
3D Hidden
 70
     6
 71
     1
 72
     2
 73
     2
 90
        0
 40
-0.6
 41
-30.0
 62
     5
 63
     7
 74
     2
 91
        2
 64
     7
 65
   257
 75
     2
175
     1
 42
40.0
 92
        0
 66
   257
 43
1.0
 76
     1
 77
     6
 78
     2
 67
     7
 79
     3
170
     0
171
     0
290
     0
174
     0
 93
        1
 44
0.0
173
     0
291
     0
 45
0.0
1001
ACAD
1000
AcDbSavedByObjectVersion
1070
     0
  0
VISUALSTYLE
  5
2DE
102
{ACAD_REACTORS
330
2D7
102
}
330
2D7
100
AcDbVisualStyle
  2
3dWireframe
 70
     5
 71
     0
 72
     2
 73
     0
 90
        0
 40
-0.6
 41
-30.0
 62
     5
 63
     7
 74
     1
 91
        4
 64
     7
 65
   257
 75
     1
175
     1
 42
1.0
 92
        0
 66
   257
 43
1.0
 76
     1
 77
     6
 78
     2
 67
     7
 79
     5
170
     0
171
     0
290
     0
174
     0
 93
        1
 44
0.0
173
     0
291
     0
 45
0.0
1001
ACAD
1000
AcDbSavedByObjectVersion
1070
     0
  0
VISUALSTYLE
  5
2DC
102
{ACAD_REACTORS
330
2D7
102
}
330
2D7
100
AcDbVisualStyle
  2
Basic
 70
     7
 71
     1
 72
     0
 73
     1
 90
        0
 40
-0.6
 41
-30.0
 62
     5
 63
     7
 74
     0
 91
        4
 64
     7
 65
   257
 75
     1
175
     1
 42
1.0
 92
        8
 66
     7
 43
1.0
 76
     1
 77
     6
 78
     2
 67
     7
 79
     5
170
     0
171
     0
290
     0
174
     0
 93
        1
 44
0.0
173
     0
291
     1
 45
0.0
1001
ACAD
1000
AcDbSavedByObjectVersion
1070
     0
  0
VISUALSTYLE
  5
2E3
102
{ACAD_REACTORS
330
2D7
102
}
330
2D7
100
AcDbVisualStyle
  2
Brighten
 70
    12
 71
     2
 72
     2
 73
     0
 90
        0
 40
-0.6
 41
-30.0
 62
     5
 63
     7
 74
     1
 91
        4
 64
     7
 65
   257
 75
     1
175
     1
 42
1.0
 92
        8
 66
     7
 43
1.0
 76
     1
 77
     6
 78
     2
 67
     7
 79
     5
170
     0
171
     0
290
     0
174
     0
 93
        1
 44
50.0
173
     0
291
     1
 45
0.0
1001
ACAD
1000
AcDbSavedByObjectVersion
1070
     0
  0
VISUALSTYLE
  5
2E7
102
{ACAD_REACTORS
330
2D7
102
}
330
2D7
100
AcDbVisualStyle
  2
ColorChange
 70
    16
 71
     2
 72
     2
 73
     3
 90
        0
 40
-0.6
 41
-30.0
 62
     5
 63
     8
 74
     1
 91
        4
 64
     7
 65
   257
 75
     1
175
     1
 42
1.0
 92
        8
 66
     8
 43
1.0
 76
     1
 77
     6
 78
     2
 67
     7
 79
     5
170
     0
171
     0
290
     0
174
     0
 93
        1
 44
0.0
173
     0
291
     1
 45
0.0
1001
ACAD
1000
AcDbSavedByObjectVersion
1070
     0
  0
VISUALSTYLE
  5
2E0
102
{ACAD_REACTORS
330
2D7
102
}
330
2D7
100
AcDbVisualStyle
  2
Conceptual
 70
     9
 71
     3
 72
     2
 73
     0
 90
        0
 40
-0.6
 41
-30.0
 62
     5
 63
     7
 74
     2
 91
        2
 64
     7
 65
   257
 75
     1
175
     1
 42
40.0
 92
        8
 66
     7
 43
1.0
 76
     1
 77
     6
 78
     2
 67
     7
 79
     3
170
     0
171
     0
290
     0
174
     0
 93
        1
 44
0.0
173
     0
291
     0
 45
0.0
1001
ACAD
1000
AcDbSavedByObjectVersion
1070
     0
  0
VISUALSTYLE
  5
2E2
102
{ACAD_REACTORS
330
2D7
102
}
330
2D7
100
AcDbVisualStyle
  2
Dim
 70
    11
 71
     2
 72
     2
 73
     0
 90
        0
 40
-0.6
 41
-30.0
 62
     5
 63
     7
 74
     1
 91
        4
 64
     7
 65
   257
 75
     1
175
     1
 42
1.0
 92
        8
 66
     7
 43
1.0
 76
     1
 77
     6
 78
     2
 67
     7
 79
     5
170
     0
171
     0
290
     0
174
     0
 93
        1
 44
-50.0
173
     0
291
     1
 45
0.0
1001
ACAD
1000
AcDbSavedByObjectVersion
1070
     0
  0
VISUALSTYLE
  5
2E6
102
{ACAD_REACTORS
330
2D7
102
}
330
2D7
100
AcDbVisualStyle
  2
Facepattern
 70
    15
 71
     2
 72
     2
 73
     0
 90
        0
 40
-0.6
 41
-30.0
 62
     5
 63
     7
 74
     1
 91
        4
 64
     7
 65
   257
 75
     1
175
     1
 42
1.0
 92
        8
 66
     7
 43
1.0
 76
     1
 77
     6
 78
     2
 67
     7
 79
     5
170
     0
171
     0
290
     0
174
     0
 93
        1
 44
0.0
173
     0
291
     1
 45
0.0
1001
ACAD
1000
AcDbSavedByObjectVersion
1070
     0
  0
VISUALSTYLE
  5
2D8
102
{ACAD_REACTORS
330
2D7
102
}
330
2D7
100
AcDbVisualStyle
  2
Flat
 70
     0
 71
     2
 72
     1
 73
     1
 90
        2
 40
-0.6
 41
30.0
 62
     5
 63
     7
 74
     0
 91
        4
 64
     7
 65
   257
 75
     1
175
     1
 42
1.0
 92
        8
 66
     7
 43
1.0
 76
     1
 77
     6
 78
     2
 67
     7
 79
     5
170
     0
171
     0
290
     0
174
     0
 93
       13
 44
0.0
173
     0
291
     1
 45
0.0
1001
ACAD
1000
AcDbSavedByObjectVersion
1070
     0
  0
VISUALSTYLE
  5
2D9
102
{ACAD_REACTORS
330
2D7
102
}
330
2D7
100
AcDbVisualStyle
  2
FlatWithEdges
 70
     1
 71
     2
 72
     1
 73
     1
 90
        2
 40
-0.6
 41
30.0
 62
     5
 63
     7
 74
     1
 91
        4
 64
     7
 65
   257
 75
     1
175
     1
 42
1.0
 92
        0
 66
   257
 43
1.0
 76
     1
 77
     6
 78
     2
 67
     7
 79
     5
170
     0
171
     0
290
     0
174
     0
 93
       13
 44
0.0
173
     0
291
     1
 45
0.0
1001
ACAD
1000
AcDbSavedByObjectVersion
1070
     0
  0
VISUALSTYLE
  5
2DA
102
{ACAD_REACTORS
330
2D7
102
}
330
2D7
100
AcDbVisualStyle
  2
Gouraud
 70
     2
 71
     2
 72
     2
 73
     1
 90
        2
 40
-0.6
 41
30.0
 62
     5
 63
     7
 74
     0
 91
        4
 64
     7
 65
   257
 75
     1
175
     1
 42
1.0
 92
        0
 66
     7
 43
1.0
 76
     1
 77
     6
 78
     2
 67
     7
 79
     5
170
     0
171
     0
290
     0
174
     0
 93
       13
 44
0.0
173
     0
291
     1
 45
0.0
1001
ACAD
1000
AcDbSavedByObjectVersion
1070
     0
  0
VISUALSTYLE
  5
2DB
102
{ACAD_REACTORS
330
2D7
102
}
330
2D7
100
AcDbVisualStyle
  2
GouraudWithEdges
 70
     3
 71
     2
 72
     2
 73
     1
 90
        2
 40
-0.6
 41
30.0
 62
     5
 63
     7
 74
     1
 91
        4
 64
     7
 65
   257
 75
     1
175
     1
 42
1.0
 92
        0
 66
   257
 43
1.0
 76
     1
 77
     6
 78
     2
 67
     7
 79
     5
170
     0
171
     0
290
     0
174
     0
 93
       13
 44
0.0
173
     0
291
     1
 45
0.0
1001
ACAD
1000
AcDbSavedByObjectVersion
1070
     0
  0
VISUALSTYLE
  5
2E5
102
{ACAD_REACTORS
330
2D7
102
}
330
2D7
100
AcDbVisualStyle
  2
Linepattern
 70
    14
 71
     2
 72
     2
 73
     0
 90
        0
 40
-0.6
 41
-30.0
 62
     5
 63
     7
 74
     1
 91
        4
 64
     7
 65
   257
 75
     7
175
     7
 42
1.0
 92
        8
 66
     7
 43
1.0
 76
     1
 77
     6
 78
     2
 67
     7
 79
     5
170
     0
171
     0
290
     0
174
     0
 93
        1
 44
0.0
173
     0
291
     1
 45
0.0
1001
ACAD
1000
AcDbSavedByObjectVersion
1070
     0
  0
VISUALSTYLE
  5
2E1
102
{ACAD_REACTORS
330
2D7
102
}
330
2D7
100
AcDbVisualStyle
  2
Realistic
 70
     8
 71
     2
 72
     2
 73
     0
 90
        0
 40
-0.6
 41
-30.0
 62
     5
 63
     7
 74
     1
 91
        0
 64
     7
 65
   257
 75
     1
175
     1
 42
1.0
 92
        8
 66
     8
 43
1.0
 76
     1
 77
     6
 78
     2
 67
     7
 79
     5
170
     0
171
     0
290
     0
174
     0
 93
       13
 44
0.0
173
     0
291
     0
 45
0.0
1001
ACAD
1000
AcDbSavedByObjectVersion
1070
     0
  0
VISUALSTYLE
  5
2E4
102
{ACAD_REACTORS
330
2D7
102
}
330
2D7
100
AcDbVisualStyle
  2
Thicken
 70
    13
 71
     2
 72
     2
 73
     0
 90
        0
 40
-0.6
 41
-30.0
 62
     5
 63
     7
 74
     1
 91
        4
 64
     7
 65
   257
 75
     1
175
     1
 42
1.0
 92
       12
 66
     7
 43
1.0
 76
     1
 77
     6
 78
     2
 67
     7
 79
     5
170
     0
171
     0
290
     0
174
     0
 93
        1
 44
0.0
173
     0
291
     1
 45
0.0
1001
ACAD
1000
AcDbSavedByObjectVersion
1070
     0
  0
DICTIONARYVAR
  5
4AB
102
{ACAD_REACTORS
330
18F
102
}
330
18F
100
DictionaryVariables
280
     0
  1
STANDARD
  0
DICTIONARYVAR
  5
190
102
{ACAD_REACTORS
330
18F
102
}
330
18F
100
DictionaryVariables
280
     0
  1
1
  0
DICTIONARYVAR
  5
4AD
102
{ACAD_REACTORS
330
18F
102
}
330
18F
100
DictionaryVariables
280
     0
  1
0
  0
DICTIONARYVAR
  5
4AC
102
{ACAD_REACTORS
330
18F
102
}
330
18F
100
DictionaryVariables
280
     0
  1
127
  0
DICTIONARY
  5
4B1
330
131
100
AcDbDictionary
280
     1
281
     1
  3
ACAD_XREC_ROUNDTRIP
360
4B2
  0
DICTIONARY
  5
4AF
330
130
100
AcDbDictionary
280
     1
281
     1
  3
ACAD_XREC_ROUNDTRIP
360
4B0
  0
DICTIONARY
  5
4B5
330
2D5
100
AcDbDictionary
280
     1
281
     1
  3
ACAD_XREC_ROUNDTRIP
360
4B6
  0
DICTIONARY
  5
4B3
330
2D4
100
AcDbDictionary
280
     1
281
     1
  3
ACAD_XREC_ROUNDTRIP
360
4B4
  0
DICTIONARY
  5
4B7
330
2D6
100
AcDbDictionary
280
     1
281
     1
  3
ACAD_XREC_ROUNDTRIP
360
4B8
  0
DICTIONARY
  5
4B9
330
2EA
100
AcDbDictionary
280
     1
281
     1
  3
ACAD_XREC_ROUNDTRIP
360
4BA
  0
XRECORD
  5
4B2
102
{ACAD_REACTORS
330
4B1
102
}
330
4B1
100
AcDbXrecord
280
     1
102
SHADEPLOT
 70
     0
102
SHADEPLOTRESLEVEL
 70
     2
102
SHADEPLOTCUSTOMDPI
 70
   300
  0
XRECORD
  5
4B0
102
{ACAD_REACTORS
330
4AF
102
}
330
4AF
100
AcDbXrecord
280
     1
102
SHADEPLOT
 70
     0
102
SHADEPLOTRESLEVEL
 70
     2
102
SHADEPLOTCUSTOMDPI
 70
   300
  0
XRECORD
  5
4B6
102
{ACAD_REACTORS
330
4B5
102
}
330
4B5
100
AcDbXrecord
280
     1
102
MATERIAL
148
0.0
149
0.0
149
0.0
 93
        0
 94
       63
282
     0
 72
     1
 77
     1
171
     1
175
     1
179
     1
273
     0
  0
XRECORD
  5
4B4
102
{ACAD_REACTORS
330
4B3
102
}
330
4B3
100
AcDbXrecord
280
     1
102
MATERIAL
148
0.0
149
0.0
149
0.0
 93
        0
 94
       63
282
     0
 72
     1
 77
     1
171
     1
175
     1
179
     1
273
     0
  0
XRECORD
  5
4B8
102
{ACAD_REACTORS
330
4B7
102
}
330
4B7
100
AcDbXrecord
280
     1
102
MATERIAL
148
0.0
149
0.0
149
0.0
 93
        0
 94
       63
282
     0
 72
     1
 77
     1
171
     1
175
     1
179
     1
273
     0
  0
XRECORD
  5
4BA
102
{ACAD_REACTORS
330
4B9
102
}
330
4B9
100
AcDbXrecord
280
     1
102
ACAD_ROUNDTRIP_PRE2007_TABLESTYLE
 90
      512
 91
        0
  1

 92
      512
 93
        0
  2

 94
      512
 95
        0
  3

  0
ENDSEC
  0
EOF
