  0
SECTION
  2
HEADER
  9
$ACADVER
  1
AC1015
  9
$ACADMAINTVER
 70
    20
  9
$DWGCODEPAGE
  3
ANSI_1252
  9
$INSBASE
 10
40.45342126472367
 20
2.798697530617541
 30
0.0
  9
$EXTMIN
 10
7.637064585719521
 20
-1.596201326797367
 30
0.0
  9
$EXTMAX
 10
71.98413996089005
 20
38.92369753061755
 30
0.0
  9
$LIMMIN
 10
0.0
 20
0.0
  9
$LIMMAX
 10
36.0
 20
36.0
  9
$ORTHOMODE
 70
     0
  9
$REGENMODE
 70
     1
  9
$FILLMODE
 70
     1
  9
$QTEXTMODE
 70
     0
  9
$MIRRTEXT
 70
     1
  9
$LTSCALE
 40
1.0
  9
$ATTMODE
 70
     1
  9
$TEXTSIZE
 40
0.2
  9
$TRACEWID
 40
0.05
  9
$TEXTSTYLE
  7
STANDARD
  9
$CLAYER
  8
ADPDIM
  9
$CELTYPE
  6
BYLAYER
  9
$CECOLOR
 62
   256
  9
$CELTSCALE
 40
1.0
  9
$DISPSILH
 70
     0
  9
$DIMSCALE
 40
1.0
  9
$DIMASZ
 40
0.125
  9
$DIMEXO
 40
0.0625
  9
$DIMDLI
 40
0.38
  9
$DIMRND
 40
0.0
  9
$DIMDLE
 40
0.0
  9
$DIMEXE
 40
0.18
  9
$DIMTP
 40
0.0
  9
$DIMTM
 40
0.0
  9
$DIMTXT
 40
0.125
  9
$DIMCEN
 40
0.1875
  9
$DIMTSZ
 40
0.125
  9
$DIMTOL
 70
     0
  9
$DIMLIM
 70
     0
  9
$DIMTIH
 70
     0
  9
$DIMTOH
 70
     0
  9
$DIMSE1
 70
     0
  9
$DIMSE2
 70
     0
  9
$DIMTAD
 70
     0
  9
$DIMZIN
 70
     3
  9
$DIMBLK
  1

  9
$DIMASO
 70
     1
  9
$DIMSHO
 70
     1
  9
$DIMPOST
  1

  9
$DIMAPOST
  1

  9
$DIMALT
 70
     0
  9
$DIMALTD
 70
     1
  9
$DIMALTF
 40
25.4
  9
$DIMLFAC
 40
1.0
  9
$DIMTOFL
 70
     0
  9
$DIMTVP
 40
0.0
  9
$DIMTIX
 70
     0
  9
$DIMSOXD
 70
     0
  9
$DIMSAH
 70
     0
  9
$DIMBLK1
  1

  9
$DIMBLK2
  1

  9
$DIMSTYLE
  2
STANDARD
  9
$DIMCLRD
 70
     0
  9
$DIMCLRE
 70
     0
  9
$DIMCLRT
 70
     0
  9
$DIMTFAC
 40
1.0
  9
$DIMGAP
 40
0.125
  9
$DIMJUST
 70
     0
  9
$DIMSD1
 70
     0
  9
$DIMSD2
 70
     0
  9
$DIMTOLJ
 70
     1
  9
$DIMTZIN
 70
     0
  9
$DIMALTZ
 70
     0
  9
$DIMALTTZ
 70
     0
  9
$DIMUPT
 70
     0
  9
$DIMDEC
 70
     4
  9
$DIMTDEC
 70
     4
  9
$DIMALTU
 70
     2
  9
$DIMALTTD
 70
     2
  9
$DIMTXSTY
  7
STANDARD
  9
$DIMAUNIT
 70
     0
  9
$DIMADEC
 70
     0
  9
$DIMALTRND
 40
0.0
  9
$DIMAZIN
 70
     0
  9
$DIMDSEP
 70
    46
  9
$DIMATFIT
 70
     3
  9
$DIMFRAC
 70
     0
  9
$DIMLDRBLK
  1

  9
$DIMLUNIT
 70
     2
  9
$DIMLWD
 70
    -2
  9
$DIMLWE
 70
    -2
  9
$DIMTMOVE
 70
     0
  9
$LUNITS
 70
     5
  9
$LUPREC
 70
     4
  9
$SKETCHINC
 40
0.1
  9
$FILLETRAD
 40
0.062
  9
$AUNITS
 70
     0
  9
$AUPREC
 70
     0
  9
$MENU
  1
acad
  9
$ELEVATION
 40
0.0
  9
$PELEVATION
 40
0.0
  9
$THICKNESS
 40
0.0
  9
$LIMCHECK
 70
     0
  9
$CHAMFERA
 40
0.0
  9
$CHAMFERB
 40
0.0
  9
$CHAMFERC
 40
0.0
  9
$CHAMFERD
 40
0.0
  9
$SKPOLY
 70
     0
  9
$TDCREATE
 40
2450374.486206979
  9
$TDUCREATE
 40
2450374.652873646
  9
$TDUPDATE
 40
2453950.986822396
  9
$TDUUPDATE
 40
2453951.153489063
  9
$TDINDWG
 40
0.0748660417
  9
$TDUSRTIMER
 40
0.0748660417
  9
$USRTIMER
 70
     1
  9
$ANGBASE
 50
0.0
  9
$ANGDIR
 70
     0
  9
$PDMODE
 70
     0
  9
$PDSIZE
 40
0.0
  9
$PLINEWID
 40
0.0
  9
$SPLFRAME
 70
     0
  9
$SPLINETYPE
 70
     6
  9
$SPLINESEGS
 70
     8
  9
$HANDSEED
  5
567
  9
$SURFTAB1
 70
     6
  9
$SURFTAB2
 70
     6
  9
$SURFTYPE
 70
     6
  9
$SURFU
 70
     6
  9
$SURFV
 70
     6
  9
$UCSBASE
  2

  9
$UCSNAME
  2

  9
$UCSORG
 10
0.0
 20
0.0
 30
0.0
  9
$UCSXDIR
 10
1.0
 20
0.0
 30
0.0
  9
$UCSYDIR
 10
0.0
 20
1.0
 30
0.0
  9
$UCSORTHOREF
  2

  9
$UCSORTHOVIEW
 70
     0
  9
$UCSORGTOP
 10
0.0
 20
0.0
 30
0.0
  9
$UCSORGBOTTOM
 10
0.0
 20
0.0
 30
0.0
  9
$UCSORGLEFT
 10
0.0
 20
0.0
 30
0.0
  9
$UCSORGRIGHT
 10
0.0
 20
0.0
 30
0.0
  9
$UCSORGFRONT
 10
0.0
 20
0.0
 30
0.0
  9
$UCSORGBACK
 10
0.0
 20
0.0
 30
0.0
  9
$PUCSBASE
  2

  9
$PUCSNAME
  2

  9
$PUCSORG
 10
0.0
 20
0.0
 30
0.0
  9
$PUCSXDIR
 10
1.0
 20
0.0
 30
0.0
  9
$PUCSYDIR
 10
0.0
 20
1.0
 30
0.0
  9
$PUCSORTHOREF
  2

  9
$PUCSORTHOVIEW
 70
     0
  9
$PUCSORGTOP
 10
0.0
 20
0.0
 30
0.0
  9
$PUCSORGBOTTOM
 10
0.0
 20
0.0
 30
0.0
  9
$PUCSORGLEFT
 10
0.0
 20
0.0
 30
0.0
  9
$PUCSORGRIGHT
 10
0.0
 20
0.0
 30
0.0
  9
$PUCSORGFRONT
 10
0.0
 20
0.0
 30
0.0
  9
$PUCSORGBACK
 10
0.0
 20
0.0
 30
0.0
  9
$USERI1
 70
     0
  9
$USERI2
 70
     0
  9
$USERI3
 70
     0
  9
$USERI4
 70
     0
  9
$USERI5
 70
     0
  9
$USERR1
 40
0.0
  9
$USERR2
 40
0.0
  9
$USERR3
 40
0.0
  9
$USERR4
 40
0.0
  9
$USERR5
 40
0.0
  9
$WORLDVIEW
 70
     1
  9
$SHADEDGE
 70
     3
  9
$SHADEDIF
 70
    70
  9
$TILEMODE
 70
     1
  9
$MAXACTVP
 70
    15
  9
$PINSBASE
 10
0.0
 20
0.0
 30
0.0
  9
$PLIMCHECK
 70
     0
  9
$PEXTMIN
 10
1.000000000000000E+20
 20
1.000000000000000E+20
 30
1.000000000000000E+20
  9
$PEXTMAX
 10
-1.000000000000000E+20
 20
-1.000000000000000E+20
 30
-1.000000000000000E+20
  9
$PLIMMIN
 10
0.0
 20
0.0
  9
$PLIMMAX
 10
12.0
 20
9.0
  9
$UNITMODE
 70
     0
  9
$VISRETAIN
 70
     0
  9
$PLINEGEN
 70
     0
  9
$PSLTSCALE
 70
     1
  9
$TREEDEPTH
 70
  3020
  9
$CMLSTYLE
  2
STANDARD
  9
$CMLJUST
 70
     0
  9
$CMLSCALE
 40
1.0
  9
$PROXYGRAPHICS
 70
     1
  9
$MEASUREMENT
 70
     0
  9
$CELWEIGHT
370
    -1
  9
$ENDCAPS
280
     0
  9
$JOINSTYLE
280
     0
  9
$LWDISPLAY
290
     0
  9
$INSUNITS
 70
     0
  9
$HYPERLINKBASE
  1

  9
$STYLESHEET
  1

  9
$XEDIT
290
     1
  9
$CEPSNTYPE
380
     0
  9
$PSTYLEMODE
290
     1
  9
$FINGERPRINTGUID
  2
{F7ECCB05-8CA9-451F-9A0D-1E631157D0B3}
  9
$VERSIONGUID
  2
{DAADA8E3-5CAA-49BB-8EB0-347CA44C8380}
  9
$EXTNAMES
290
     1
  9
$PSVPSCALE
 40
0.0
  9
$OLESTARTUP
290
     0
  0
ENDSEC
  0
SECTION
  2
CLASSES
  0
CLASS
  1
ACDBDICTIONARYWDFLT
  2
AcDbDictionaryWithDefault
  3
ObjectDBX Classes
 90
        0
280
     0
281
     0
  0
CLASS
  1
ACDBPLACEHOLDER
  2
AcDbPlaceHolder
  3
ObjectDBX Classes
 90
        0
280
     0
281
     0
  0
CLASS
  1
LAYOUT
  2
AcDbLayout
  3
ObjectDBX Classes
 90
        0
280
     0
281
     0
  0
CLASS
  1
DICTIONARYVAR
  2
AcDbDictionaryVar
  3
ObjectDBX Classes
 90
        0
280
     0
281
     0
  0
CLASS
  1
MATERIAL
  2
AcDbMaterial
  3
ObjectDBX Classes
 90
     1024
280
     0
281
     0
  0
CLASS
  1
VISUALSTYLE
  2
AcDbVisualStyle
  3
ObjectDBX Classes
 90
     4095
280
     0
281
     0
  0
CLASS
  1
TABLESTYLE
  2
AcDbTableStyle
  3
ObjectDBX Classes
 90
     4095
280
     0
281
     0
  0
CLASS
  1
ACAD_EVALUATION_GRAPH
  2
AcDbEvalGraph
  3
ObjectDBX Classes
 90
     1153
280
     0
281
     0
  0
CLASS
  1
ACAECUSTOBJ
  2
AcAeEditorObj
  3
AcAeEditorObj
 90
     1024
280
     0
281
     0
  0
CLASS
  1
ACDB_DYNAMICBLOCKPURGEPREVENTER_VERSION
  2
AcDbDynamicBlockPurgePreventer
  3
ObjectDBX Classes
 90
     1153
280
     0
281
     0
  0
ENDSEC
  0
SECTION
  2
TABLES
  0
TABLE
  2
VPORT
  5
8
330
0
100
AcDbSymbolTable
 70
     1
  0
VPORT
  5
2D8
330
8
100
AcDbSymbolTableRecord
100
AcDbViewportTableRecord
  2
*Active
 70
     0
 10
0.0
 20
0.0
 11
1.0
 21
1.0
 12
44.61944467342103
 22
14.47348999653724
 13
0.0
 23
0.0
 14
0.5740882589684922
 24
0.5740882589684922
 15
0.5
 25
0.5
 16
0.0
 26
0.0
 36
1.0
 17
0.0
 27
0.0
 37
0.0
 40
46.2926223392904
 41
1.774011299435028
 42
50.0
 43
0.0
 44
0.0
 50
0.0
 51
0.0
 71
     0
 72
   100
 73
     1
 74
     0
 75
     0
 76
     0
 77
     0
 78
     0
281
     0
 65
     1
110
0.0
120
0.0
130
0.0
111
1.0
121
0.0
131
0.0
112
0.0
122
1.0
132
0.0
 79
     0
146
0.0
  0
ENDTAB
  0
TABLE
  2
LTYPE
  5
5
330
0
100
AcDbSymbolTable
 70
     2
  0
LTYPE
  5
12
330
5
100
AcDbSymbolTableRecord
100
AcDbLinetypeTableRecord
  2
BYBLOCK
 70
     0
  3

 72
    65
 73
     0
 40
0.0
  0
LTYPE
  5
13
330
5
100
AcDbSymbolTableRecord
100
AcDbLinetypeTableRecord
  2
BYLAYER
 70
     0
  3

 72
    65
 73
     0
 40
0.0
  0
LTYPE
  5
14
330
5
100
AcDbSymbolTableRecord
100
AcDbLinetypeTableRecord
  2
CONTINUOUS
 70
     0
  3
Solid line
 72
    65
 73
     0
 40
0.0
  0
ENDTAB
  0
TABLE
  2
LAYER
  5
2
330
0
100
AcDbSymbolTable
 70
     4
  0
LAYER
  5
F
330
2
100
AcDbSymbolTableRecord
100
AcDbLayerTableRecord
  2
0
 70
     0
 62
     7
  6
CONTINUOUS
370
    -3
390
15E
  0
LAYER
  5
AE
330
2
100
AcDbSymbolTableRecord
100
AcDbLayerTableRecord
  2
ADPDIM
 70
     0
 62
     3
  6
CONTINUOUS
370
    -3
390
15E
  0
LAYER
  5
B0
330
2
100
AcDbSymbolTableRecord
100
AcDbLayerTableRecord
  2
ADP1DETAIL
 70
     0
 62
     7
  6
CONTINUOUS
370
    -3
390
15E
  0
LAYER
  5
B2
330
2
100
AcDbSymbolTableRecord
100
AcDbLayerTableRecord
  2
DEFPOINTS
 70
     0
 62
     7
  6
CONTINUOUS
290
     0
370
    -3
390
15E
  0
ENDTAB
  0
TABLE
  2
STYLE
  5
3
330
0
100
AcDbSymbolTable
 70
     2
  0
STYLE
  5
10
330
3
100
AcDbSymbolTableRecord
100
AcDbTextStyleTableRecord
  2
STANDARD
 70
     0
 40
0.0
 41
1.0
 50
0.0
 71
     0
 42
0.2
  3
txt
  4

  0
STYLE
  5
165
330
3
100
AcDbSymbolTableRecord
100
AcDbTextStyleTableRecord
  2
ARIAL_WIDE
 70
     0
 40
0.0
 41
1.25
 50
0.0
 71
     0
 42
0.2
  3
ARIAL.TTF
  4

1001
ACAD
1000
Arial
1071
       34
  0
ENDTAB
  0
TABLE
  2
VIEW
  5
6
330
0
100
AcDbSymbolTable
 70
     0
  0
ENDTAB
  0
TABLE
  2
UCS
  5
7
330
0
100
AcDbSymbolTable
 70
     0
  0
ENDTAB
  0
TABLE
  2
APPID
  5
9
330
0
100
AcDbSymbolTable
 70
     7
  0
APPID
  5
11
330
9
100
AcDbSymbolTableRecord
100
AcDbRegAppTableRecord
  2
ACAD
 70
     0
  0
APPID
  5
3BE
330
9
100
AcDbSymbolTableRecord
100
AcDbRegAppTableRecord
  2
ACAUTHENVIRON
 70
     0
  0
APPID
  5
43B
330
9
100
AcDbSymbolTableRecord
100
AcDbRegAppTableRecord
  2
ACAD_EXEMPT_FROM_CAD_STANDARDS
 70
     0
  0
APPID
  5
441
330
9
100
AcDbSymbolTableRecord
100
AcDbRegAppTableRecord
  2
AcDbDynamicBlockTrueName
 70
     0
  0
APPID
  5
442
330
9
100
AcDbSymbolTableRecord
100
AcDbRegAppTableRecord
  2
AcDbDynamicBlockGUID
 70
     0
  0
APPID
  5
444
330
9
100
AcDbSymbolTableRecord
100
AcDbRegAppTableRecord
  2
AcDbBlockRepETag
 70
     0
  0
APPID
  5
53B
330
9
100
AcDbSymbolTableRecord
100
AcDbRegAppTableRecord
  2
DCO15
 70
     0
  0
ENDTAB
  0
TABLE
  2
DIMSTYLE
  5
A
330
0
100
AcDbSymbolTable
 70
     2
100
AcDbDimStyleTable
 71
     1
340
159
  0
DIMSTYLE
105
159
102
{ACAD_REACTORS
330
31F
330
33B
330
150
102
}
330
A
100
AcDbSymbolTableRecord
100
AcDbDimStyleTableRecord
  2
STANDARD
 70
     0
340
10
  0
ENDTAB
  0
TABLE
  2
BLOCK_RECORD
  5
1
330
0
100
AcDbSymbolTable
 70
    10
  0
BLOCK_RECORD
  5
18
102
{ACAD_XDICTIONARY
360
1BA
102
}
330
1
100
AcDbSymbolTableRecord
100
AcDbBlockTableRecord
  2
*MODEL_SPACE
340
161
  0
BLOCK_RECORD
  5
15
102
{ACAD_XDICTIONARY
360
1B8
102
}
330
1
100
AcDbSymbolTableRecord
100
AcDbBlockTableRecord
  2
*PAPER_SPACE
340
162
  0
BLOCK_RECORD
  5
80
102
{ACAD_XDICTIONARY
360
4BA
102
}
330
1
100
AcDbSymbolTableRecord
100
AcDbBlockTableRecord
  2
335
340
0
102
{BLKREFS
331
151
102
}
1001
AcDbDynamicBlockGUID
1000
{B3F91B29-98E7-4A6F-967E-1AEB4D101A9C}
1001
AcDbBlockRepETag
1070
     1
1071
      114
  0
BLOCK_RECORD
  5
A4
330
1
100
AcDbSymbolTableRecord
100
AcDbBlockTableRecord
  2
*D1
340
0
  0
BLOCK_RECORD
  5
AC
330
1
100
AcDbSymbolTableRecord
100
AcDbBlockTableRecord
  2
*D2
340
0
  0
BLOCK_RECORD
  5
320
330
1
100
AcDbSymbolTableRecord
100
AcDbBlockTableRecord
  2
*D3
340
0
  0
BLOCK_RECORD
  5
33C
330
1
100
AcDbSymbolTableRecord
100
AcDbBlockTableRecord
  2
*D4
340
0
  0
BLOCK_RECORD
  5
4BE
330
1
100
AcDbSymbolTableRecord
100
AcDbBlockTableRecord
  2
*D9
340
0
  0
ENDTAB
  0
ENDSEC
  0
SECTION
  2
BLOCKS
  0
BLOCK
  5
B5
330
18
100
AcDbEntity
  8
0
100
AcDbBlockBegin
  2
*MODEL_SPACE
 70
     0
 10
0.0
 20
0.0
 30
0.0
  3
*MODEL_SPACE
  1

  0
ENDBLK
  5
B6
330
18
100
AcDbEntity
  8
0
100
AcDbBlockEnd
  0
BLOCK
  5
B3
330
15
100
AcDbEntity
 67
     1
  8
0
100
AcDbBlockBegin
  2
*PAPER_SPACE
 70
     0
 10
0.0
 20
0.0
 30
0.0
  3
*PAPER_SPACE
  1

  0
ENDBLK
  5
B4
330
15
100
AcDbEntity
 67
     1
  8
0
100
AcDbBlockEnd
  0
BLOCK
  5
B8
330
80
100
AcDbEntity
  8
0
100
AcDbBlockBegin
  2
335
 70
     0
 10
0.0
 20
0.0
 30
0.0
  3
335
  1

  0
LINE
  5
448
330
80
100
AcDbEntity
  8
0
 62
     7
100
AcDbLine
 10
1.010215384615385
 20
24.48443076923075
 30
0.0
 11
1.010215384615385
 21
11.45796923076921
 31
0.0
1001
AcDbBlockRepETag
1070
     1
1071
        0
1005
448
  0
LINE
  5
449
330
80
100
AcDbEntity
  8
0
 62
     7
100
AcDbLine
 10
0.8772923076923078
 20
24.48443076923075
 30
0.0
 11
0.8772923076923078
 21
11.45796923076921
 31
0.0
1001
AcDbBlockRepETag
1070
     1
1071
        1
1005
449
  0
LINE
  5
44A
330
80
100
AcDbEntity
  8
0
 62
     7
100
AcDbLine
 10
0.6912000000000021
 20
24.29833846153845
 30
0.0
 11
0.6912000000000021
 21
11.64406153846152
 31
0.0
1001
AcDbBlockRepETag
1070
     1
1071
        2
1005
44A
  0
LINE
  5
44B
330
80
100
AcDbEntity
  8
0
 62
     7
100
AcDbLine
 10
0.2392615384615411
 20
24.48443076923075
 30
0.0
 11
0.2392615384615411
 21
11.45796923076921
 31
0.0
1001
AcDbBlockRepETag
1070
     1
1071
        3
1005
44B
  0
LINE
  5
44C
330
80
100
AcDbEntity
  8
0
 62
     7
100
AcDbLine
 10
0.3987692307692327
 20
24.48443076923075
 30
0.0
 11
0.3987692307692327
 21
11.45796923076921
 31
0.0
1001
AcDbBlockRepETag
1070
     1
1071
        4
1005
44C
  0
LINE
  5
44D
330
80
100
AcDbEntity
  8
0
 62
     7
100
AcDbLine
 10
0.5848615384615386
 20
24.29833846153845
 30
0.0
 11
0.5848615384615386
 21
11.64406153846152
 31
0.0
1001
AcDbBlockRepETag
1070
     1
1071
        5
1005
44D
  0
LINE
  5
44E
330
80
100
AcDbEntity
  8
0
 62
     7
100
AcDbLine
 10
0.1329230769230776
 20
11.45796923076921
 30
0.0
 11
0.1329230769230776
 21
24.48443076923075
 31
0.0
1001
AcDbBlockRepETag
1070
     1
1071
        6
1005
44E
  0
LINE
  5
44F
330
80
100
AcDbEntity
  8
0
 62
     7
100
AcDbLine
 10
1.143138461538462
 20
24.48443076923075
 30
0.0
 11
1.143138461538462
 21
11.45796923076921
 31
0.0
1001
AcDbBlockRepETag
1070
     1
1071
        7
1005
44F
  0
LINE
  5
450
330
80
100
AcDbEntity
  8
0
 62
     7
100
AcDbLine
 10
0.0265846153846212
 20
8.167759668233834
 30
0.0
 11
0.0280322793072898
 21
7.99833672095243
 31
0.0
1001
AcDbBlockRepETag
1070
     1
1071
        8
1005
450
  0
LINE
  5
451
330
80
100
AcDbEntity
  8
0
 62
     7
100
AcDbLine
 10
1.249476923076926
 20
8.167759668233834
 30
0.0
 11
1.249476923076926
 21
8.00825197592615
 31
0.0
1001
AcDbBlockRepETag
1070
     1
1071
        9
1005
451
  0
LINE
  5
452
330
80
100
AcDbEntity
  8
0
 62
     7
100
AcDbLine
 10
1.249476923076926
 20
8.167759668233834
 30
0.0
 11
1.249476923076926
 21
8.008251975926143
 31
0.0
1001
AcDbBlockRepETag
1070
     1
1071
       10
1005
452
  0
LINE
  5
453
330
80
100
AcDbEntity
  8
0
 62
     7
100
AcDbLine
 10
1.27606153846154
 20
4.31299043746462
 30
0.0
 11
1.27606153846154
 21
0.0
 31
0.0
1001
AcDbBlockRepETag
1070
     1
1071
       11
1005
453
  0
LINE
  5
454
330
80
100
AcDbEntity
  8
0
 62
     7
100
AcDbLine
 10
0.0
 20
0.0
 30
0.0
 11
0.0008403391572464
 21
4.309031438216472
 31
0.0
1001
AcDbBlockRepETag
1070
     1
1071
       12
1005
454
  0
LINE
  5
455
330
80
100
AcDbEntity
  8
0
 62
     7
100
AcDbLine
 10
1.27606153846154
 20
0.0
 30
0.0
 11
0.0
 21
0.0
 31
0.0
1001
AcDbBlockRepETag
1070
     1
1071
       13
1005
455
  0
LINE
  5
456
330
80
100
AcDbEntity
  8
0
 62
     7
100
AcDbLine
 10
1.251667302633656
 20
7.475175550083946
 30
0.0
 11
0.0280322793072756
 21
7.475175550083946
 31
0.0
1001
AcDbBlockRepETag
1070
     1
1071
       14
1005
456
  0
LINE
  5
457
330
80
100
AcDbEntity
  8
0
 62
     7
100
AcDbLine
 10
0.0265846153846212
 20
8.00825197592615
 30
0.0
 11
1.249476923076926
 21
8.00825197592615
 31
0.0
1001
AcDbBlockRepETag
1070
     1
1071
       15
1005
457
  0
LINE
  5
458
330
80
100
AcDbEntity
  8
0
 62
     7
100
AcDbLine
 10
0.0287749949413581
 20
7.611061441549047
 30
0.0
 11
1.249476923076926
 21
7.609482745156917
 31
0.0
1001
AcDbBlockRepETag
1070
     1
1071
       16
1005
458
  0
LINE
  5
459
330
80
100
AcDbEntity
  8
0
 62
     7
100
AcDbLine
 10
1.249476923076926
 20
8.008251975926143
 30
0.0
 11
0.0265846153846212
 21
8.008251975926143
 31
0.0
1001
AcDbBlockRepETag
1070
     1
1071
       17
1005
459
  0
LINE
  5
45A
330
80
100
AcDbEntity
  8
0
 62
     7
100
AcDbLine
 10
1.222892307692305
 20
5.376375052849233
 30
0.0
 11
0.0531692307692282
 21
5.376375052849233
 31
0.0
1001
AcDbBlockRepETag
1070
     1
1071
       18
1005
45A
  0
LINE
  5
45B
330
80
100
AcDbEntity
  8
0
 62
     7
100
AcDbLine
 10
1.222892307692305
 20
5.243451975926149
 30
0.0
 11
0.0531692307692282
 21
5.243451975926149
 31
0.0
1001
AcDbBlockRepETag
1070
     1
1071
       19
1005
45B
  0
LWPOLYLINE
  5
45C
330
80
100
AcDbEntity
  8
0
 62
     7
100
AcDbPolyline
 90
        5
 70
     0
 43
0.0
 10
0.639849790970473
 20
5.538799916704277
 42
-0.5117652043599613
 10
0.374728831192666
 20
5.763011759803653
 10
0.374728831192666
 20
7.380055364967397
 42
-0.5685166140811092
 10
0.5650721839003979
 20
7.393643984659391
 10
0.639849790970473
 20
5.885309184304205
1001
AcDbBlockRepETag
1070
     1
1071
       20
1005
45C
  0
LINE
  5
45D
330
80
100
AcDbEntity
  8
0
 62
     7
100
AcDbLine
 10
1.408984615384618
 20
4.844682745156916
 30
0.0
 11
-0.1329230769230776
 21
4.844682745156916
 31
0.0
1001
AcDbBlockRepETag
1070
     1
1071
       21
1005
45D
  0
LINE
  5
45E
330
80
100
AcDbEntity
  8
0
 62
     7
100
AcDbLine
 10
1.27606153846154
 20
4.31299043746462
 30
0.0
 11
0.0
 21
4.31299043746462
 31
0.0
1001
AcDbBlockRepETag
1070
     1
1071
       22
1005
45E
  0
ARC
  5
45F
330
80
100
AcDbEntity
  8
0
 62
     7
100
AcDbCircle
 10
0.2639915947987923
 20
4.901809178999364
 30
0.0
 40
0.3973108544890052
100
AcDbArc
 50
121.698607541798
 51
189.0977022274661
1001
AcDbBlockRepETag
1070
     1
1071
       23
1005
45F
  0
ARC
  5
460
330
80
100
AcDbEntity
  8
0
 62
     7
100
AcDbCircle
 10
-0.1219247336200873
 20
4.559828453129618
 30
0.0
 40
0.2792318137021087
100
AcDbArc
 50
296.0817360038695
 51
91.31259978804086
1001
AcDbBlockRepETag
1070
     1
1071
       24
1005
460
  0
LINE
  5
461
330
80
100
AcDbEntity
  8
0
 62
     7
100
AcDbLine
 10
0.245567343822529
 20
5.987223755630488
 30
0.0
 11
0.2455673438225148
 21
7.475175550083946
 31
0.0
1001
AcDbBlockRepETag
1070
     1
1071
       25
1005
461
  0
ARC
  5
462
330
80
100
AcDbEntity
  8
0
 62
     7
100
AcDbCircle
 10
-4.407899033523253
 20
6.846925956700438
 30
0.0
 40
4.553317661268653
100
AcDbArc
 50
341.0589678399537
 51
7.844445650709922
1001
AcDbBlockRepETag
1070
     1
1071
       26
1005
462
  0
ARC
  5
463
330
80
100
AcDbEntity
  8
0
 62
     7
100
AcDbCircle
 10
-0.2577649479995223
 20
5.978539158132178
 30
0.0
 40
0.5034072091503462
100
AcDbArc
 50
293.9336715693689
 51
0.9884949197299146
1001
AcDbBlockRepETag
1070
     1
1071
       27
1005
463
  0
LINE
  5
464
330
80
100
AcDbEntity
  8
0
 62
     7
100
AcDbLine
 10
0.0531692307692282
 20
5.376375052849233
 30
0.0
 11
0.0531692307692282
 21
5.376375052849233
 31
0.0
1001
AcDbBlockRepETag
1070
     1
1071
       28
1005
464
  0
LINE
  5
465
330
80
100
AcDbEntity
  8
0
 62
     7
100
AcDbLine
 10
0.0531692307692282
 20
5.243451975926149
 30
0.0
 11
0.0531692307692282
 21
5.376375052849233
 31
0.0
1001
AcDbBlockRepETag
1070
     1
1071
       29
1005
465
  0
LINE
  5
466
330
80
100
AcDbEntity
  8
0
 62
     7
100
AcDbLine
 10
0.0531692307692282
 20
5.376375052849233
 30
0.0
 11
-0.1063384615384635
 21
5.376375052849233
 31
0.0
1001
AcDbBlockRepETag
1070
     1
1071
       30
1005
466
  0
LINE
  5
467
330
80
100
AcDbEntity
  8
0
 62
     7
100
AcDbLine
 10
0.0280322793072756
 20
7.475175550083946
 30
0.0
 11
0.0287749949413581
 21
7.611061441549047
 31
0.0
1001
AcDbBlockRepETag
1070
     1
1071
       31
1005
467
  0
LINE
  5
468
330
80
100
AcDbEntity
  8
0
 62
     7
100
AcDbLine
 10
0.0265846153846212
 20
8.008251975926143
 30
0.0
 11
0.0265846153846212
 21
8.008251975926143
 31
0.0
1001
AcDbBlockRepETag
1070
     1
1071
       32
1005
468
  0
ARC
  5
469
330
80
100
AcDbEntity
  8
0
 62
     7
100
AcDbCircle
 10
0.1841656173971735
 20
7.801301964509605
 30
0.0
 40
0.251396727324717
100
AcDbArc
 50
128.3938404934519
 51
231.6061595065471
1001
AcDbBlockRepETag
1070
     1
1071
       33
1005
469
  0
ARC
  5
46A
330
80
100
AcDbEntity
  8
0
 62
     7
100
AcDbCircle
 10
1.015707987142143
 20
4.901809178999364
 30
0.0
 40
0.3973108544890052
100
AcDbArc
 50
350.9022977725339
 51
58.30139245820195
1001
AcDbBlockRepETag
1070
     1
1071
       34
1005
46A
  0
ARC
  5
46B
330
80
100
AcDbEntity
  8
0
 62
     7
100
AcDbCircle
 10
1.401624315561022
 20
4.559828453129618
 30
0.0
 40
0.2792318137021087
100
AcDbArc
 50
88.68740021195913
 51
243.9182639961305
1001
AcDbBlockRepETag
1070
     1
1071
       35
1005
46B
  0
ARC
  5
46C
330
80
100
AcDbEntity
  8
0
 62
     7
100
AcDbCircle
 10
5.687598615464196
 20
6.846925956700431
 30
0.0
 40
4.553317661268653
100
AcDbArc
 50
172.1555543492901
 51
198.9410321600463
1001
AcDbBlockRepETag
1070
     1
1071
       36
1005
46C
  0
LINE
  5
46D
330
80
100
AcDbEntity
  8
0
 62
     7
100
AcDbLine
 10
1.034132238118409
 20
5.987223755630488
 30
0.0
 11
1.034132238118409
 21
7.475175550083946
 31
0.0
1001
AcDbBlockRepETag
1070
     1
1071
       37
1005
46D
  0
LINE
  5
46E
330
80
100
AcDbEntity
  8
0
 62
     7
100
AcDbLine
 10
0.9049707507482693
 20
5.763011759803653
 30
0.0
 11
0.9049707507482693
 21
7.380055364967397
 31
0.0
1001
AcDbBlockRepETag
1070
     1
1071
       38
1005
46E
  0
LINE
  5
46F
330
80
100
AcDbEntity
  8
0
 62
     7
100
AcDbLine
 10
0.7146273980405411
 20
7.393643984659391
 30
0.0
 11
0.6398497909704659
 21
5.885309184304205
 31
0.0
1001
AcDbBlockRepETag
1070
     1
1071
       39
1005
46F
  0
LINE
  5
470
330
80
100
AcDbEntity
  8
0
 62
     7
100
AcDbLine
 10
1.382399999999996
 20
5.376375052849233
 30
0.0
 11
1.222892307692305
 21
5.376375052849233
 31
0.0
1001
AcDbBlockRepETag
1070
     1
1071
       40
1005
470
  0
ARC
  5
471
330
80
100
AcDbEntity
  8
0
 62
     7
100
AcDbCircle
 10
0.6915675585423742
 20
5.746498904098494
 30
0.0
 40
0.2140411101802792
100
AcDbArc
 50
256.0175076989463
 51
4.424654597680269
1001
AcDbBlockRepETag
1070
     1
1071
       41
1005
471
  0
ARC
  5
472
330
80
100
AcDbEntity
  8
0
 62
     7
100
AcDbCircle
 10
1.537464529940457
 20
5.978539158132178
 30
0.0
 40
0.5034072091503462
100
AcDbArc
 50
179.0115050802701
 51
246.0663284306311
1001
AcDbBlockRepETag
1070
     1
1071
       42
1005
472
  0
LINE
  5
473
330
80
100
AcDbEntity
  8
0
 62
     7
100
AcDbLine
 10
1.222892307692305
 20
5.376375052849233
 30
0.0
 11
1.222892307692305
 21
5.243451975926149
 31
0.0
1001
AcDbBlockRepETag
1070
     1
1071
       43
1005
473
  0
LINE
  5
474
330
80
100
AcDbEntity
  8
0
 62
     7
100
AcDbLine
 10
1.222892307692305
 20
5.376375052849233
 30
0.0
 11
1.222892307692305
 21
5.376375052849233
 31
0.0
1001
AcDbBlockRepETag
1070
     1
1071
       44
1005
474
  0
LINE
  5
475
330
80
100
AcDbEntity
  8
0
 62
     7
100
AcDbLine
 10
1.382399999999996
 20
5.376375052849233
 30
0.0
 11
1.382399999999996
 21
5.376375052849233
 31
0.0
1001
AcDbBlockRepETag
1070
     1
1071
       45
1005
475
  0
ARC
  5
476
330
80
100
AcDbEntity
  8
0
 62
     7
100
AcDbCircle
 10
1.095533964543761
 20
7.801301964509605
 30
0.0
 40
0.251396727324717
100
AcDbArc
 50
308.3938404934528
 51
51.60615950654808
1001
AcDbBlockRepETag
1070
     1
1071
       46
1005
476
  0
ARC
  5
477
330
80
100
AcDbEntity
  8
0
 62
     7
100
AcDbCircle
 10
0.8057549417358629
 20
7.330201259708019
 30
0.0
 40
0.1110369693804717
100
AcDbArc
 50
26.67868030878734
 51
145.1544790297385
1001
AcDbBlockRepETag
1070
     1
1071
       47
1005
477
  0
LINE
  5
478
330
80
100
AcDbEntity
  8
0
 62
     7
100
AcDbLine
 10
1.251667302633663
 20
7.611061441549047
 30
0.0
 11
1.251667302633656
 21
7.475175550083946
 31
0.0
1001
AcDbBlockRepETag
1070
     1
1071
       48
1005
478
  0
LINE
  5
479
330
80
100
AcDbEntity
  8
0
 62
     7
100
AcDbLine
 10
1.249476923076926
 20
8.008251975926143
 30
0.0
 11
1.249476923076926
 21
8.008251975926143
 31
0.0
1001
AcDbBlockRepETag
1070
     1
1071
       49
1005
479
  0
LINE
  5
47A
330
80
100
AcDbEntity
  8
0
 62
     7
100
AcDbLine
 10
1.249476923076926
 20
8.167759668233834
 30
0.0
 11
0.0265846153846212
 21
8.167759668233834
 31
0.0
1001
AcDbBlockRepETag
1070
     1
1071
       50
1005
47A
  0
LINE
  5
47B
330
80
100
AcDbEntity
  8
0
 62
     7
100
AcDbLine
 10
0.1329230769230776
 20
8.167759668233834
 30
0.0
 11
1.143138461538462
 21
8.167759668233834
 31
0.0
1001
AcDbBlockRepETag
1070
     1
1071
       51
1005
47B
  0
LINE
  5
47C
330
80
100
AcDbEntity
  8
0
 62
     7
100
AcDbLine
 10
0.2392615384615411
 20
11.45796923076921
 30
0.0
 11
0.2392615384615411
 21
8.167759668233834
 31
0.0
1001
AcDbBlockRepETag
1070
     1
1071
       52
1005
47C
  0
LINE
  5
47D
330
80
100
AcDbEntity
  8
0
 62
     7
100
AcDbLine
 10
0.3987692307692327
 20
11.45796923076921
 30
0.0
 11
0.3987692307692328
 21
8.167759668233834
 31
0.0
1001
AcDbBlockRepETag
1070
     1
1071
       53
1005
47D
  0
LINE
  5
47E
330
80
100
AcDbEntity
  8
0
 62
     7
100
AcDbLine
 10
0.5848615384615386
 20
11.64406153846152
 30
0.0
 11
0.5848615384615386
 21
8.167759668233834
 31
0.0
1001
AcDbBlockRepETag
1070
     1
1071
       54
1005
47E
  0
LINE
  5
47F
330
80
100
AcDbEntity
  8
0
 62
     7
100
AcDbLine
 10
0.1329230769230776
 20
8.167759668233834
 30
0.0
 11
0.1329230769230776
 21
11.45796923076921
 31
0.0
1001
AcDbBlockRepETag
1070
     1
1071
       55
1005
47F
  0
LINE
  5
480
330
80
100
AcDbEntity
  8
0
 62
     7
100
AcDbLine
 10
0.1329230769230776
 20
8.167759668233834
 30
0.0
 11
0.1329230769230776
 21
8.167759668233834
 31
0.0
1001
AcDbBlockRepETag
1070
     1
1071
       56
1005
480
  0
LINE
  5
481
330
80
100
AcDbEntity
  8
0
 62
     7
100
AcDbLine
 10
1.010215384615385
 20
11.45796923076921
 30
0.0
 11
1.010215384615385
 21
8.167759668233834
 31
0.0
1001
AcDbBlockRepETag
1070
     1
1071
       57
1005
481
  0
LINE
  5
482
330
80
100
AcDbEntity
  8
0
 62
     7
100
AcDbLine
 10
0.8772923076923078
 20
11.45796923076921
 30
0.0
 11
0.8772923076923078
 21
8.167759668233834
 31
0.0
1001
AcDbBlockRepETag
1070
     1
1071
       58
1005
482
  0
LINE
  5
483
330
80
100
AcDbEntity
  8
0
 62
     7
100
AcDbLine
 10
0.6912000000000021
 20
11.64406153846152
 30
0.0
 11
0.6912000000000021
 21
8.167759668233834
 31
0.0
1001
AcDbBlockRepETag
1070
     1
1071
       59
1005
483
  0
LINE
  5
484
330
80
100
AcDbEntity
  8
0
 62
     7
100
AcDbLine
 10
1.143138461538462
 20
11.45796923076921
 30
0.0
 11
1.143138461538462
 21
8.167759668233834
 31
0.0
1001
AcDbBlockRepETag
1070
     1
1071
       60
1005
484
  0
LINE
  5
485
330
80
100
AcDbEntity
  8
0
 62
     7
100
AcDbLine
 10
1.143138461538462
 20
8.167759668233834
 30
0.0
 11
1.143138461538462
 21
8.167759668233834
 31
0.0
1001
AcDbBlockRepETag
1070
     1
1071
       61
1005
485
  0
LINE
  5
486
330
80
100
AcDbEntity
  8
0
 62
     7
100
AcDbLine
 10
1.27606153846154
 20
35.94239999999999
 30
0.0
 11
1.27606153846154
 21
31.61287208009539
 31
0.0
1001
AcDbBlockRepETag
1070
     1
1071
       62
1005
486
  0
LINE
  5
487
330
80
100
AcDbEntity
  8
0
 62
     7
100
AcDbLine
 10
0.0061356532941516
 20
31.6169981284532
 30
0.0
 11
0.0
 21
35.94239999999999
 31
0.0
1001
AcDbBlockRepETag
1070
     1
1071
       63
1005
487
  0
LINE
  5
488
330
80
100
AcDbEntity
  8
0
 62
     7
100
AcDbLine
 10
1.010215384615385
 20
27.75837373734677
 30
0.0
 11
1.010215384615385
 21
24.48443076923075
 31
0.0
1001
AcDbBlockRepETag
1070
     1
1071
       64
1005
488
  0
LINE
  5
489
330
80
100
AcDbEntity
  8
0
 62
     7
100
AcDbLine
 10
0.8772923076923078
 20
27.75837373734677
 30
0.0
 11
0.8772923076923078
 21
24.48443076923075
 31
0.0
1001
AcDbBlockRepETag
1070
     1
1071
       65
1005
489
  0
LINE
  5
48A
330
80
100
AcDbEntity
  8
0
 62
     7
100
AcDbLine
 10
0.6912000000000021
 20
27.75837373734677
 30
0.0
 11
0.6912000000000021
 21
24.29833846153845
 31
0.0
1001
AcDbBlockRepETag
1070
     1
1071
       66
1005
48A
  0
LINE
  5
48B
330
80
100
AcDbEntity
  8
0
 62
     7
100
AcDbLine
 10
0.2392615384615411
 20
27.75837373734677
 30
0.0
 11
0.2392615384615411
 21
24.48443076923075
 31
0.0
1001
AcDbBlockRepETag
1070
     1
1071
       67
1005
48B
  0
LINE
  5
48C
330
80
100
AcDbEntity
  8
0
 62
     7
100
AcDbLine
 10
0.3987692307692327
 20
27.75837373734677
 30
0.0
 11
0.3987692307692327
 21
24.48443076923075
 31
0.0
1001
AcDbBlockRepETag
1070
     1
1071
       68
1005
48C
  0
LINE
  5
48D
330
80
100
AcDbEntity
  8
0
 62
     7
100
AcDbLine
 10
0.5848615384615385
 20
27.75837373734677
 30
0.0
 11
0.5848615384615386
 21
24.29833846153845
 31
0.0
1001
AcDbBlockRepETag
1070
     1
1071
       69
1005
48D
  0
LINE
  5
48E
330
80
100
AcDbEntity
  8
0
 62
     7
100
AcDbLine
 10
1.143138461538462
 20
27.75837373734677
 30
0.0
 11
1.143138461538462
 21
24.48443076923075
 31
0.0
1001
AcDbBlockRepETag
1070
     1
1071
       70
1005
48E
  0
LINE
  5
48F
330
80
100
AcDbEntity
  8
0
 62
     7
100
AcDbLine
 10
0.1329230769230776
 20
24.48443076923075
 30
0.0
 11
0.1329230769230776
 21
27.75837373734677
 31
0.0
1001
AcDbBlockRepETag
1070
     1
1071
       71
1005
48F
  0
LINE
  5
490
330
80
100
AcDbEntity
  8
0
 62
     7
100
AcDbLine
 10
0.1329230769230776
 20
24.48443076923075
 30
0.0
 11
0.1329230769230776
 21
24.48443076923075
 31
0.0
1001
AcDbBlockRepETag
1070
     1
1071
       72
1005
490
  0
LINE
  5
491
330
80
100
AcDbEntity
  8
0
 62
     7
100
AcDbLine
 10
0.0621025883855353
 20
30.54965451382044
 30
0.0
 11
1.231825665308612
 21
30.54965451382044
 31
0.0
1001
AcDbBlockRepETag
1070
     1
1071
       73
1005
491
  0
LINE
  5
492
330
80
100
AcDbEntity
  8
0
 62
     7
100
AcDbLine
 10
0.0621025883855353
 20
30.68257759074353
 30
0.0
 11
1.231825665308612
 21
30.68257759074353
 31
0.0
1001
AcDbBlockRepETag
1070
     1
1071
       74
1005
492
  0
ARC
  5
493
330
80
100
AcDbEntity
  8
0
 62
     7
100
AcDbCircle
 10
0.5934273375354664
 20
30.17953066257118
 30
0.0
 40
0.2140411101802792
100
AcDbArc
 50
76.01750769894632
 51
184.4246545976802
1001
AcDbBlockRepETag
1070
     1
1071
       75
1005
493
  0
LINE
  5
494
330
80
100
AcDbEntity
  8
0
 62
     7
100
AcDbLine
 10
-0.1239897193067776
 20
31.08134682151276
 30
0.0
 11
1.417917973000918
 21
31.08134682151276
 31
0.0
1001
AcDbBlockRepETag
1070
     1
1071
       76
1005
494
  0
LINE
  5
495
330
80
100
AcDbEntity
  8
0
 62
     7
100
AcDbLine
 10
0.0089333576163
 20
31.61303912920506
 30
0.0
 11
1.28499489607784
 21
31.61303912920506
 31
0.0
1001
AcDbBlockRepETag
1070
     1
1071
       77
1005
495
  0
LINE
  5
496
330
80
100
AcDbEntity
  8
0
 62
     7
100
AcDbLine
 10
0.1329230769230776
 20
28.36578461538461
 30
0.0
 11
1.143138461538462
 21
28.36578461538461
 31
0.0
1001
AcDbBlockRepETag
1070
     1
1071
       78
1005
496
  0
LINE
  5
497
330
80
100
AcDbEntity
  8
0
 62
     7
100
AcDbLine
 10
1.258410280693226
 20
27.91777759074352
 30
0.0
 11
0.0355179730009212
 21
27.91777759074352
 31
0.0
1001
AcDbBlockRepETag
1070
     1
1071
       79
1005
497
  0
LINE
  5
498
330
80
100
AcDbEntity
  8
0
 62
     7
100
AcDbLine
 10
1.231825665308612
 20
27.75837373734677
 30
0.0
 11
0.0355179730009211
 21
27.75837373734677
 31
0.0
1001
AcDbBlockRepETag
1070
     1
1071
       80
1005
498
  0
LINE
  5
499
330
80
100
AcDbEntity
  8
0
 62
     7
100
AcDbLine
 10
0.0333275934441844
 20
28.45085401658573
 30
0.0
 11
1.256962616770564
 21
28.45085401658573
 31
0.0
1001
AcDbBlockRepETag
1070
     1
1071
       81
1005
499
  0
LINE
  5
49A
330
80
100
AcDbEntity
  8
0
 62
     7
100
AcDbLine
 10
0.5703674980372995
 20
28.53238558201029
 30
0.0
 11
0.6451451051073747
 21
30.04072038236547
 31
0.0
1001
AcDbBlockRepETag
1070
     1
1071
       82
1005
49A
  0
LINE
  5
49B
330
80
100
AcDbEntity
  8
0
 62
     7
100
AcDbLine
 10
0.2508626579594306
 20
29.93880581103919
 30
0.0
 11
0.2508626579594306
 21
28.55276858791201
 31
0.0
1001
AcDbBlockRepETag
1070
     1
1071
       83
1005
49B
  0
LINE
  5
49C
330
80
100
AcDbEntity
  8
0
 62
     7
100
AcDbLine
 10
0.3800241453295712
 20
30.16301780686602
 30
0.0
 11
0.3800241453295712
 21
28.54597420170228
 31
0.0
1001
AcDbBlockRepETag
1070
     1
1071
       84
1005
49C
  0
ARC
  5
49D
330
80
100
AcDbEntity
  8
0
 62
     7
100
AcDbCircle
 10
-4.402603719386355
 20
29.07910360996925
 30
0.0
 40
4.553317661268653
100
AcDbArc
 50
352.1555543492901
 51
18.9410321600463
1001
AcDbBlockRepETag
1070
     1
1071
       85
1005
49D
  0
LINE
  5
49E
330
80
100
AcDbEntity
  8
0
 62
     7
100
AcDbLine
 10
0.0355179730009212
 20
27.75826989843583
 30
0.0
 11
0.0355179730009212
 21
27.91777759074352
 31
0.0
1001
AcDbBlockRepETag
1070
     1
1071
       86
1005
49E
  0
LINE
  5
49F
330
80
100
AcDbEntity
  8
0
 62
     7
100
AcDbLine
 10
0.1329230769230776
 20
28.36578461538461
 30
0.0
 11
0.0265846153846212
 21
28.36578461538461
 31
0.0
1001
AcDbBlockRepETag
1070
     1
1071
       87
1005
49F
  0
LINE
  5
4A0
330
80
100
AcDbEntity
  8
0
 62
     7
100
AcDbLine
 10
0.1329230769230776
 20
28.36578461538461
 30
0.0
 11
0.1329230769230776
 21
28.36578461538461
 31
0.0
1001
AcDbBlockRepETag
1070
     1
1071
       88
1005
4A0
  0
LINE
  5
4A1
330
80
100
AcDbEntity
  8
0
 62
     7
100
AcDbLine
 10
0.0333275934441844
 20
28.31496812512063
 30
0.0
 11
0.0333275934441844
 21
28.45085401658573
 31
0.0
1001
AcDbBlockRepETag
1070
     1
1071
       89
1005
4A1
  0
ARC
  5
4A2
330
80
100
AcDbEntity
  8
0
 62
     7
100
AcDbCircle
 10
0.1894609315340787
 20
28.12472760216008
 30
0.0
 40
0.251396727324717
100
AcDbArc
 50
128.3938404934529
 51
231.6061595065481
1001
AcDbBlockRepETag
1070
     1
1071
       90
1005
4A2
  0
ARC
  5
4A3
330
80
100
AcDbEntity
  8
0
 62
     7
100
AcDbCircle
 10
0.4792399543419777
 20
28.59582830696167
 30
0.0
 40
0.1110369693804717
100
AcDbArc
 50
206.6786803087873
 51
325.1544790297386
1001
AcDbBlockRepETag
1070
     1
1071
       91
1005
4A3
  0
ARC
  5
4A4
330
80
100
AcDbEntity
  8
0
 62
     7
100
AcDbCircle
 10
-0.2524696338626171
 20
29.9474904085375
 30
0.0
 40
0.5034072091503462
100
AcDbArc
 50
359.0115050802701
 51
66.06632843063104
1001
AcDbBlockRepETag
1070
     1
1071
       92
1005
4A4
  0
ARC
  5
4A5
330
80
100
AcDbEntity
  8
0
 62
     7
100
AcDbCircle
 10
0.2692869089356975
 20
31.02422038767031
 30
0.0
 40
0.3973108544890052
100
AcDbArc
 50
170.9022977725339
 51
238.3013924582019
1001
AcDbBlockRepETag
1070
     1
1071
       93
1005
4A5
  0
ARC
  5
4A6
330
80
100
AcDbEntity
  8
0
 62
     7
100
AcDbCircle
 10
-0.1166294194831821
 20
31.36620111354006
 30
0.0
 40
0.2792318137021087
100
AcDbArc
 50
268.6874002119591
 51
63.91826399613051
1001
AcDbBlockRepETag
1070
     1
1071
       94
1005
4A6
  0
LINE
  5
4A7
330
80
100
AcDbEntity
  8
0
 62
     7
100
AcDbLine
 10
0.0621025883855353
 20
30.54965451382044
 30
0.0
 11
0.0621025883855353
 21
30.68257759074353
 31
0.0
1001
AcDbBlockRepETag
1070
     1
1071
       95
1005
4A7
  0
LINE
  5
4A8
330
80
100
AcDbEntity
  8
0
 62
     7
100
AcDbLine
 10
0.0621025883855353
 20
30.54965451382044
 30
0.0
 11
0.0621025883855353
 21
30.54965451382044
 31
0.0
1001
AcDbBlockRepETag
1070
     1
1071
       96
1005
4A8
  0
LINE
  5
4A9
330
80
100
AcDbEntity
  8
0
 62
     7
100
AcDbLine
 10
-0.0974051039221564
 20
30.54965451382044
 30
0.0
 11
-0.0974051039221564
 21
30.54965451382044
 31
0.0
1001
AcDbBlockRepETag
1070
     1
1071
       97
1005
4A9
  0
LINE
  5
4AA
330
80
100
AcDbEntity
  8
0
 62
     7
100
AcDbLine
 10
-0.0974051039221564
 20
30.54965451382044
 30
0.0
 11
0.0621025883855353
 21
30.54965451382044
 31
0.0
1001
AcDbBlockRepETag
1070
     1
1071
       98
1005
4AA
  0
LINE
  5
4AB
330
80
100
AcDbEntity
  8
0
 62
     7
100
AcDbLine
 10
1.039427552255311
 20
29.93880581103919
 30
0.0
 11
1.039427552255325
 21
28.54597435442974
 31
0.0
1001
AcDbBlockRepETag
1070
     1
1071
       99
1005
4AB
  0
ARC
  5
4AC
330
80
100
AcDbEntity
  8
0
 62
     7
100
AcDbCircle
 10
5.69289392960109
 20
29.07910360996925
 30
0.0
 40
4.553317661268653
100
AcDbArc
 50
161.0589678399537
 51
187.8444456507099
1001
AcDbBlockRepETag
1070
     1
1071
      100
1005
4AC
  0
LWPOLYLINE
  5
4AD
330
80
100
AcDbEntity
  8
0
 62
     7
100
AcDbPolyline
 90
        5
 70
     0
 43
0.0
 10
0.6451451051073676
 20
30.38722964996541
 42
-0.5117652043599613
 10
0.910266064885171
 20
30.16301780686602
 10
0.910266064885171
 20
28.54597420170228
 42
-0.5685166140811092
 10
0.7199227121774428
 20
28.53238558201029
 10
0.6451451051073676
 20
30.04072038236547
1001
AcDbBlockRepETag
1070
     1
1071
      101
1005
4AD
  0
LINE
  5
4AE
330
80
100
AcDbEntity
  8
0
 62
     7
100
AcDbLine
 10
1.258410280693226
 20
27.75826989843583
 30
0.0
 11
1.256962616770557
 21
27.92769284571725
 31
0.0
1001
AcDbBlockRepETag
1070
     1
1071
      102
1005
4AE
  0
LINE
  5
4AF
330
80
100
AcDbEntity
  8
0
 62
     7
100
AcDbLine
 10
1.143138461538462
 20
28.36578461538461
 30
0.0
 11
1.143138461538462
 21
28.36578461538461
 31
0.0
1001
AcDbBlockRepETag
1070
     1
1071
      103
1005
4AF
  0
LINE
  5
4B0
330
80
100
AcDbEntity
  8
0
 62
     7
100
AcDbLine
 10
1.249476923076926
 20
28.36578461538461
 30
0.0
 11
1.143138461538462
 21
28.36578461538461
 31
0.0
1001
AcDbBlockRepETag
1070
     1
1071
      104
1005
4B0
  0
LINE
  5
4B1
330
80
100
AcDbEntity
  8
0
 62
     7
100
AcDbLine
 10
1.256962616770564
 20
28.45085401658573
 30
0.0
 11
1.256219901136489
 21
28.31496812512063
 31
0.0
1001
AcDbBlockRepETag
1070
     1
1071
      105
1005
4B1
  0
ARC
  5
4B2
330
80
100
AcDbEntity
  8
0
 62
     7
100
AcDbCircle
 10
1.100829278680663
 20
28.12472760216008
 30
0.0
 40
0.251396727324717
100
AcDbArc
 50
308.3938404934519
 51
51.60615950654714
1001
AcDbBlockRepETag
1070
     1
1071
      106
1005
4B2
  0
ARC
  5
4B3
330
80
100
AcDbEntity
  8
0
 62
     7
100
AcDbCircle
 10
1.542759844077359
 20
29.9474904085375
 30
0.0
 40
0.5034072091503462
100
AcDbArc
 50
113.9336715693689
 51
180.9884949197299
1001
AcDbBlockRepETag
1070
     1
1071
      107
1005
4B3
  0
LINE
  5
4B4
330
80
100
AcDbEntity
  8
0
 62
     7
100
AcDbLine
 10
1.231825665308612
 20
30.54965451382044
 30
0.0
 11
1.391333357616304
 21
30.54965451382044
 31
0.0
1001
AcDbBlockRepETag
1070
     1
1071
      108
1005
4B4
  0
ARC
  5
4B5
330
80
100
AcDbEntity
  8
0
 62
     7
100
AcDbCircle
 10
1.406919629697924
 20
31.36620111354006
 30
0.0
 40
0.2792318137021087
100
AcDbArc
 50
116.0817360038695
 51
271.3125997880409
1001
AcDbBlockRepETag
1070
     1
1071
      109
1005
4B5
  0
ARC
  5
4B6
330
80
100
AcDbEntity
  8
0
 62
     7
100
AcDbCircle
 10
1.021003301279044
 20
31.02422038767031
 30
0.0
 40
0.3973108544890052
100
AcDbArc
 50
301.698607541798
 51
9.097702227466122
1001
AcDbBlockRepETag
1070
     1
1071
      110
1005
4B6
  0
LINE
  5
4B7
330
80
100
AcDbEntity
  8
0
 62
     7
100
AcDbLine
 10
1.231825665308612
 20
30.54965451382044
 30
0.0
 11
1.231825665308612
 21
30.54965451382044
 31
0.0
1001
AcDbBlockRepETag
1070
     1
1071
      111
1005
4B7
  0
LINE
  5
4B8
330
80
100
AcDbEntity
  8
0
 62
     7
100
AcDbLine
 10
1.231825665308612
 20
30.68257759074353
 30
0.0
 11
1.231825665308612
 21
30.54965451382044
 31
0.0
1001
AcDbBlockRepETag
1070
     1
1071
      112
1005
4B8
  0
LINE
  5
4B9
330
80
100
AcDbEntity
  8
0
 62
     7
100
AcDbLine
 10
0.0
 20
35.94239999999999
 30
0.0
 11
1.27606153846154
 21
35.94239999999999
 31
0.0
1001
AcDbBlockRepETag
1070
     1
1071
      113
1005
4B9
  0
ENDBLK
  5
137
330
80
100
AcDbEntity
  8
0
100
AcDbBlockEnd
  0
BLOCK
  5
138
330
A4
100
AcDbEntity
  8
0
100
AcDbBlockBegin
  2
*D1
 70
     1
 10
0.0
 20
0.0
 30
0.0
  3
*D1
  1

  0
LINE
  5
139
330
A4
100
AcDbEntity
  8
0
  6
ByBlock
 62
     0
100
AcDbLine
 10
39.11281475584793
 20
2.798697530617541
 30
0.0
 11
38.36310286335634
 21
2.798697530617541
 31
0.0
  0
LINE
  5
13A
330
A4
100
AcDbEntity
  8
0
  6
ByBlock
 62
     0
100
AcDbLine
 10
39.11281475584793
 20
38.79869753061754
 30
0.0
 11
38.36310286335634
 21
38.79869753061754
 31
0.0
  0
LINE
  5
13B
330
A4
100
AcDbEntity
  8
0
  6
ByBlock
 62
     0
100
AcDbLine
 10
38.54310286335634
 20
2.798697530617541
 30
0.0
 11
38.54310286335634
 21
20.56953086395088
 31
0.0
  0
LINE
  5
13C
330
A4
100
AcDbEntity
  8
0
  6
ByBlock
 62
     0
100
AcDbLine
 10
38.54310286335634
 20
38.79869753061754
 30
0.0
 11
38.54310286335634
 21
21.02786419728421
 31
0.0
  0
LINE
  5
13D
330
A4
100
AcDbEntity
  8
0
  6
ByBlock
 62
     0
100
AcDbLine
 10
38.66810286335634
 20
2.673697530617541
 30
0.0
 11
38.41810286335634
 21
2.923697530617541
 31
0.0
  0
LINE
  5
13E
330
A4
100
AcDbEntity
  8
0
  6
ByBlock
 62
     0
100
AcDbLine
 10
38.66810286335634
 20
38.67369753061755
 30
0.0
 11
38.41810286335634
 21
38.92369753061755
 31
0.0
  0
TEXT
  5
13F
330
A4
100
AcDbEntity
  8
0
  6
ByBlock
 62
     0
100
AcDbText
 10
38.60560286335634
 20
20.69453086395087
 30
0.0
 40
0.125
  1
36
 50
90.0
 72
     1
 11
38.54310286335634
 21
20.79869753061754
 31
0.0
100
AcDbText
 73
     2
  0
POINT
  5
140
330
A4
100
AcDbEntity
  8
DEFPOINTS
  6
ByBlock
 62
     0
100
AcDbPoint
 10
39.17531475584793
 20
2.798697530617541
 30
0.0
  0
POINT
  5
141
330
A4
100
AcDbEntity
  8
DEFPOINTS
  6
ByBlock
 62
     0
100
AcDbPoint
 10
39.17531475584793
 20
38.79869753061754
 30
0.0
  0
POINT
  5
142
330
A4
100
AcDbEntity
  8
DEFPOINTS
  6
ByBlock
 62
     0
100
AcDbPoint
 10
38.54310286335634
 20
38.79869753061754
 30
0.0
  0
ENDBLK
  5
143
330
A4
100
AcDbEntity
  8
0
100
AcDbBlockEnd
  0
BLOCK
  5
144
330
AC
100
AcDbEntity
  8
0
100
AcDbBlockBegin
  2
*D2
 70
     1
 10
0.0
 20
0.0
 30
0.0
  3
*D2
  1

  0
LINE
  5
145
330
AC
100
AcDbEntity
  8
0
  6
ByBlock
 62
     0
100
AcDbLine
 10
39.11281475584793
 20
2.736197530617541
 30
0.0
 11
39.11281475584793
 21
2.024047371978448
 31
0.0
  0
LINE
  5
146
330
AC
100
AcDbEntity
  8
0
  6
ByBlock
 62
     0
100
AcDbLine
 10
40.45342126472367
 20
2.736197530617541
 30
0.0
 11
40.45342126472367
 21
2.024047371978448
 31
0.0
  0
LINE
  5
147
330
AC
100
AcDbEntity
  8
0
  6
ByBlock
 62
     0
100
AcDbLine
 10
39.11281475584793
 20
2.204047371978448
 30
0.0
 11
38.86281475584793
 21
2.204047371978448
 31
0.0
  0
LINE
  5
148
330
AC
100
AcDbEntity
  8
0
  6
ByBlock
 62
     0
100
AcDbLine
 10
40.45342126472367
 20
2.204047371978448
 30
0.0
 11
40.70342126472367
 21
2.204047371978448
 31
0.0
  0
LINE
  5
149
330
AC
100
AcDbEntity
  8
0
  6
ByBlock
 62
     0
100
AcDbLine
 10
38.98781475584793
 20
2.079047371978448
 30
0.0
 11
39.23781475584793
 21
2.329047371978448
 31
0.0
  0
LINE
  5
14A
330
AC
100
AcDbEntity
  8
0
  6
ByBlock
 62
     0
100
AcDbLine
 10
40.32842126472367
 20
2.079047371978448
 30
0.0
 11
40.57842126472367
 21
2.329047371978448
 31
0.0
  0
TEXT
  5
14B
330
AC
100
AcDbEntity
  8
0
  6
ByBlock
 62
     0
100
AcDbText
 10
40.82842126472367
 20
2.141547371978448
 30
0.0
 40
0.125
  1
1 5/16
 72
     1
 11
41.14092126472367
 21
2.204047371978448
 31
0.0
100
AcDbText
 73
     2
  0
POINT
  5
14C
330
AC
100
AcDbEntity
  8
DEFPOINTS
  6
ByBlock
 62
     0
100
AcDbPoint
 10
39.11281475584793
 20
2.798697530617541
 30
0.0
  0
POINT
  5
14D
330
AC
100
AcDbEntity
  8
DEFPOINTS
  6
ByBlock
 62
     0
100
AcDbPoint
 10
40.45342126472367
 20
2.798697530617541
 30
0.0
  0
POINT
  5
14E
330
AC
100
AcDbEntity
  8
DEFPOINTS
  6
ByBlock
 62
     0
100
AcDbPoint
 10
40.45342126472367
 20
2.204047371978448
 30
0.0
  0
ENDBLK
  5
14F
330
AC
100
AcDbEntity
  8
0
100
AcDbBlockEnd
  0
BLOCK
  5
32B
330
320
100
AcDbEntity
  8
0
 62
     3
100
AcDbBlockBegin
  2
*D3
 70
     1
 10
0.0
 20
0.0
 30
0.0
  3
*D3
  1

  0
LINE
  5
525
330
320
100
AcDbEntity
  8
ADPDIM
 62
     0
370
    -2
100
AcDbLine
 10
40.51592126472367
 20
38.79869753061754
 30
0.0
 11
41.53054540570916
 21
38.79869753061754
 31
0.0
  0
LINE
  5
526
330
320
100
AcDbEntity
  8
ADPDIM
 62
     0
370
    -2
100
AcDbLine
 10
40.51592126472367
 20
34.42369753061754
 30
0.0
 11
41.53054540570916
 21
34.42369753061754
 31
0.0
  0
LINE
  5
527
330
320
100
AcDbEntity
  8
ADPDIM
 62
     0
370
    -2
100
AcDbLine
 10
41.35054540570917
 20
38.79869753061754
 30
0.0
 11
41.35054540570917
 21
37.90286419728421
 31
0.0
  0
LINE
  5
528
330
320
100
AcDbEntity
  8
ADPDIM
 62
     0
370
    -2
100
AcDbLine
 10
41.35054540570917
 20
34.42369753061754
 30
0.0
 11
41.35054540570917
 21
35.31953086395088
 31
0.0
  0
LINE
  5
529
330
320
100
AcDbEntity
  8
ADPDIM
 62
     0
370
    -2
100
AcDbLine
 10
41.47554540570917
 20
34.29869753061755
 30
0.0
 11
41.22554540570916
 21
34.54869753061755
 31
0.0
  0
LINE
  5
52A
330
320
100
AcDbEntity
  8
ADPDIM
 62
     0
370
    -2
100
AcDbLine
 10
41.47554540570917
 20
38.67369753061755
 30
0.0
 11
41.22554540570916
 21
38.92369753061755
 31
0.0
  0
MTEXT
  5
52B
330
320
100
AcDbEntity
  8
ADPDIM
 62
     0
100
AcDbMText
 10
41.35054540570916
 20
36.61119753061755
 30
0.0
 40
0.5
 41
0.0
 71
     5
 72
     1
  1
\A1;4 3/8
 11
0.0000000000000001
 21
1.0
 31
0.0
 73
     1
 44
1.0
1001
ACAD
1000
MTEXTBEGIN
1070
    73
1070
     1
1070
    44
1040
1.0
1070
    74
1070
     0
1000
MTEXTEND
  0
POINT
  5
52C
330
320
100
AcDbEntity
  8
DEFPOINTS
 62
     0
100
AcDbPoint
 10
40.45342126472367
 20
38.79869753061754
 30
0.0
  0
POINT
  5
52D
330
320
100
AcDbEntity
  8
DEFPOINTS
 62
     0
100
AcDbPoint
 10
40.45342126472367
 20
34.42369753061754
 30
0.0
  0
POINT
  5
52E
330
320
100
AcDbEntity
  8
DEFPOINTS
 62
     0
100
AcDbPoint
 10
41.35054540570917
 20
34.42369753061754
 30
0.0
  0
ENDBLK
  5
32C
330
320
100
AcDbEntity
  8
0
 62
     3
100
AcDbBlockEnd
  0
BLOCK
  5
347
330
33C
100
AcDbEntity
  8
0
 62
     3
100
AcDbBlockBegin
  2
*D4
 70
     1
 10
0.0
 20
0.0
 30
0.0
  3
*D4
  1

  0
LINE
  5
52F
330
33C
100
AcDbEntity
  8
ADPDIM
 62
     0
370
    -2
100
AcDbLine
 10
40.51592126472367
 20
2.798697530617541
 30
0.0
 11
41.47589298762922
 21
2.798697530617541
 31
0.0
  0
LINE
  5
530
330
33C
100
AcDbEntity
  8
ADPDIM
 62
     0
370
    -2
100
AcDbLine
 10
40.51592126472367
 20
7.173697530617541
 30
0.0
 11
41.47589298762922
 21
7.173697530617541
 31
0.0
  0
LINE
  5
531
330
33C
100
AcDbEntity
  8
ADPDIM
 62
     0
370
    -2
100
AcDbLine
 10
41.29589298762923
 20
2.798697530617541
 30
0.0
 11
41.29589298762923
 21
3.694530863950874
 31
0.0
  0
LINE
  5
532
330
33C
100
AcDbEntity
  8
ADPDIM
 62
     0
370
    -2
100
AcDbLine
 10
41.29589298762923
 20
7.173697530617541
 30
0.0
 11
41.29589298762923
 21
6.277864197284208
 31
0.0
  0
LINE
  5
533
330
33C
100
AcDbEntity
  8
ADPDIM
 62
     0
370
    -2
100
AcDbLine
 10
41.42089298762923
 20
7.048697530617541
 30
0.0
 11
41.17089298762922
 21
7.298697530617541
 31
0.0
  0
LINE
  5
534
330
33C
100
AcDbEntity
  8
ADPDIM
 62
     0
370
    -2
100
AcDbLine
 10
41.42089298762923
 20
2.673697530617541
 30
0.0
 11
41.17089298762922
 21
2.923697530617541
 31
0.0
  0
MTEXT
  5
535
330
33C
100
AcDbEntity
  8
ADPDIM
 62
     0
100
AcDbMText
 10
41.29589298762923
 20
4.986197530617547
 30
0.0
 40
0.5
 41
0.0
 71
     5
 72
     1
  1
\A1;4 3/8
 11
0.0000000000000001
 21
1.0
 31
0.0
 73
     1
 44
1.0
1001
ACAD
1000
MTEXTBEGIN
1070
    73
1070
     1
1070
    44
1040
1.0
1070
    74
1070
     0
1000
MTEXTEND
  0
POINT
  5
536
330
33C
100
AcDbEntity
  8
DEFPOINTS
 62
     0
100
AcDbPoint
 10
40.45342126472367
 20
2.798697530617541
 30
0.0
  0
POINT
  5
537
330
33C
100
AcDbEntity
  8
DEFPOINTS
 62
     0
100
AcDbPoint
 10
40.45342126472367
 20
7.173697530617541
 30
0.0
  0
POINT
  5
538
330
33C
100
AcDbEntity
  8
DEFPOINTS
 62
     0
100
AcDbPoint
 10
41.29589298762923
 20
7.173697530617541
 30
0.0
  0
ENDBLK
  5
348
330
33C
100
AcDbEntity
  8
0
 62
     3
100
AcDbBlockEnd
  0
BLOCK
  5
4C9
330
4BE
100
AcDbEntity
  8
0
100
AcDbBlockBegin
  2
*D9
 70
     1
 10
0.0
 20
0.0
 30
0.0
  3
*D9
  1

  0
LINE
  5
51B
330
4BE
100
AcDbEntity
  8
ADPDIM
 62
     0
370
    -2
100
AcDbLine
 10
39.11281475584793
 20
2.798697530617541
 30
0.0
 11
38.36310286335633
 21
2.798697530617542
 31
0.0
  0
LINE
  5
51C
330
4BE
100
AcDbEntity
  8
ADPDIM
 62
     0
370
    -2
100
AcDbLine
 10
39.11281475584793
 20
38.79869753061754
 30
0.0
 11
38.36310286335634
 21
38.79869753061754
 31
0.0
  0
LINE
  5
51D
330
4BE
100
AcDbEntity
  8
ADPDIM
 62
     0
370
    -2
100
AcDbLine
 10
38.54310286335633
 20
2.798697530617542
 30
0.0
 11
38.54310286335634
 21
20.25703086395088
 31
0.0
  0
LINE
  5
51E
330
4BE
100
AcDbEntity
  8
ADPDIM
 62
     0
370
    -2
100
AcDbLine
 10
38.54310286335634
 20
38.79869753061754
 30
0.0
 11
38.54310286335634
 21
21.34036419728421
 31
0.0
  0
LINE
  5
51F
330
4BE
100
AcDbEntity
  8
ADPDIM
 62
     0
370
    -2
100
AcDbLine
 10
38.66810286335634
 20
38.67369753061755
 30
0.0
 11
38.41810286335634
 21
38.92369753061755
 31
0.0
  0
LINE
  5
520
330
4BE
100
AcDbEntity
  8
ADPDIM
 62
     0
370
    -2
100
AcDbLine
 10
38.66810286335633
 20
2.673697530617542
 30
0.0
 11
38.41810286335633
 21
2.923697530617542
 31
0.0
  0
MTEXT
  5
521
330
4BE
100
AcDbEntity
  8
ADPDIM
 62
     0
100
AcDbMText
 10
38.54310286335633
 20
20.79869753061755
 30
0.0
 40
0.5
 41
0.0
 71
     5
 72
     1
  1
\A1;36
 11
0.0000000000000001
 21
1.0
 31
0.0
 73
     1
 44
1.0
1001
ACAD
1000
MTEXTBEGIN
1070
    73
1070
     1
1070
    44
1040
1.0
1070
    74
1070
     0
1000
MTEXTEND
  0
POINT
  5
522
330
4BE
100
AcDbEntity
  8
DEFPOINTS
 62
     0
100
AcDbPoint
 10
39.17531475584793
 20
2.798697530617541
 30
0.0
  0
POINT
  5
523
330
4BE
100
AcDbEntity
  8
DEFPOINTS
 62
     0
100
AcDbPoint
 10
39.17531475584793
 20
38.79869753061754
 30
0.0
  0
POINT
  5
524
330
4BE
100
AcDbEntity
  8
DEFPOINTS
 62
     0
100
AcDbPoint
 10
38.54310286335634
 20
38.79869753061754
 30
0.0
  0
ENDBLK
  5
4CA
330
4BE
100
AcDbEntity
  8
0
100
AcDbBlockEnd
  0
ENDSEC
  0
SECTION
  2
ENTITIES
  0
DIMENSION
  5
150
330
18
100
AcDbEntity
  8
ADPDIM
100
AcDbDimension
  2
*D9
 10
38.54310286335634
 20
38.79869753061754
 30
0.0
 11
38.54310286335633
 21
20.79869753061755
 31
0.0
 70
    32
 71
     5
 42
36.0
  3
STANDARD
100
AcDbAlignedDimension
 13
39.17531475584793
 23
2.798697530617541
 33
0.0
 14
39.17531475584793
 24
38.79869753061754
 34
0.0
 50
90.0
100
AcDbRotatedDimension
1001
ACAD
1000
DSTYLE
1002
{
1070
   276
1070
     2
1070
   277
1070
     5
1070
    41
1040
0.125
1070
    73
1070
     0
1070
    74
1070
     0
1070
    78
1070
     3
1070
   140
1040
0.5
1070
   141
1040
0.1875
1070
   142
1040
0.125
1070
   147
1040
0.125
1070
   171
1070
     1
1002
}
  0
INSERT
  5
151
330
18
100
AcDbEntity
  8
ADP1DETAIL
100
AcDbBlockReference
  2
335
 10
39.17531475584793
 20
2.798697530617541
 30
0.0
 41
1.001602564102564
 42
1.001602564102564
 43
1.001602564102564
  0
LWPOLYLINE
  5
152
330
18
100
AcDbEntity
  8
ADP1DETAIL
100
AcDbPolyline
 90
        4
 70
     1
 43
0.0
 10
39.18560227330479
 20
0.1552310881121812
 10
39.18560227330479
 20
1.405231088112181
 10
40.43560227330479
 20
1.405231088112181
 10
40.43560227330479
 20
0.1552310881121812
  0
DIMENSION
  5
158
330
18
100
AcDbEntity
  8
ADPDIM
100
AcDbDimension
  2
*D2
 10
40.45342126472367
 20
2.204047371978448
 30
0.0
 11
41.14092126472367
 21
2.204047371978448
 31
0.0
 71
     5
 42
-1.0
100
AcDbAlignedDimension
 13
39.11281475584793
 23
2.798697530617541
 33
0.0
 14
40.45342126472367
 24
2.798697530617541
 34
0.0
100
AcDbRotatedDimension
  0
TEXT
  5
166
330
18
100
AcDbEntity
  8
ADPDIM
100
AcDbText
 10
7.637064585719521
 20
-1.411174041667763
 30
0.0
 40
0.625
  1
J U L I U S  B L U M  &  C O . ,  I N C .      ( 8 0 0 )  5 2 6 - 6 2 9 3        W W W . J U L I U S B L U M . C O M        P A R T  N o .  3 3 5
 41
1.25
  7
ARIAL_WIDE
 72
     1
 11
39.81060227330479
 21
-0.7861740416677634
 31
0.0
100
AcDbText
 73
     3
  0
DIMENSION
  5
31F
330
18
100
AcDbEntity
  8
ADPDIM
 62
     3
100
AcDbDimension
  2
*D3
 10
41.35054540570917
 20
34.42369753061754
 30
0.0
 11
41.35054540570916
 21
36.61119753061755
 31
0.0
 70
    32
 71
     5
 42
4.375
  3
STANDARD
100
AcDbAlignedDimension
 13
40.45342126472367
 23
38.79869753061754
 33
0.0
 14
40.45342126472367
 24
34.42369753061754
 34
0.0
 50
90.0
100
AcDbRotatedDimension
1001
ACAD
1000
DSTYLE
1002
{
1070
   276
1070
     2
1070
   277
1070
     5
1070
    41
1040
0.125
1070
    73
1070
     0
1070
    74
1070
     0
1070
    78
1070
     3
1070
   140
1040
0.5
1070
   141
1040
0.1875
1070
   142
1040
0.125
1070
   147
1040
0.125
1070
   171
1070
     1
1002
}
  0
DIMENSION
  5
33B
330
18
100
AcDbEntity
  8
ADPDIM
 62
     3
100
AcDbDimension
  2
*D4
 10
41.29589298762923
 20
7.173697530617541
 30
0.0
 11
41.29589298762923
 21
4.986197530617547
 31
0.0
 70
    32
 71
     5
 42
4.375
  3
STANDARD
100
AcDbAlignedDimension
 13
40.45342126472367
 23
2.798697530617541
 33
0.0
 14
40.45342126472367
 24
7.173697530617541
 34
0.0
 50
90.0
100
AcDbRotatedDimension
1001
ACAD
1000
DSTYLE
1002
{
1070
   276
1070
     2
1070
   277
1070
     5
1070
    41
1040
0.125
1070
    73
1070
     0
1070
    74
1070
     0
1070
    78
1070
     3
1070
   140
1040
0.5
1070
   141
1040
0.1875
1070
   142
1040
0.125
1070
   147
1040
0.125
1070
   171
1070
     1
1002
}
  0
ENDSEC
  0
SECTION
  2
OBJECTS
  0
DICTIONARY
  5
C
330
0
100
AcDbDictionary
281
     1
  3
ACAD_COLOR
350
319
  3
ACAD_GROUP
350
D
  3
ACAD_LAYOUT
350
15F
  3
ACAD_MATERIAL
350
304
  3
ACAD_MLINESTYLE
350
E
  3
ACAD_PLOTSETTINGS
350
160
  3
ACAD_PLOTSTYLENAME
350
15D
  3
ACAD_TABLESTYLE
350
31A
  3
ACAD_VISUALSTYLE
350
308
  3
AcDbVariableDictionary
350
1C0
  3
ASE_INDEX_DICTIONARY
350
53A
  3
DWGPROPS
350
55A
  0
DICTIONARY
  5
1BA
330
18
100
AcDbDictionary
280
     1
281
     1
  3
ACAD_LAYOUTSELFREF
360
2FE
  0
DICTIONARY
  5
1B8
330
15
100
AcDbDictionary
280
     1
281
     1
  3
ACAD_LAYOUTSELFREF
360
2FD
  0
DICTIONARY
  5
4BA
330
80
100
AcDbDictionary
280
     1
281
     1
  0
DICTIONARY
  5
319
102
{ACAD_REACTORS
330
C
102
}
330
C
100
AcDbDictionary
281
     1
  0
DICTIONARY
  5
D
102
{ACAD_REACTORS
330
C
102
}
330
C
100
AcDbDictionary
281
     1
  0
DICTIONARY
  5
15F
102
{ACAD_REACTORS
330
C
102
}
330
C
100
AcDbDictionary
281
     1
  3
Layout1
350
162
  3
Model
350
161
  0
DICTIONARY
  5
304
102
{ACAD_REACTORS
330
C
102
}
330
C
100
AcDbDictionary
281
     1
  3
ByBlock
350
306
  3
ByLayer
350
305
  3
Global
350
307
  0
DICTIONARY
  5
E
102
{ACAD_REACTORS
330
C
102
}
330
C
100
AcDbDictionary
281
     1
  3
STANDARD
350
1B
  0
DICTIONARY
  5
160
102
{ACAD_REACTORS
330
C
102
}
330
C
100
AcDbDictionary
281
     1
  0
ACDBDICTIONARYWDFLT
  5
15D
102
{ACAD_REACTORS
330
C
102
}
330
C
100
AcDbDictionary
281
     1
  3
Normal
350
15E
100
AcDbDictionaryWithDefault
340
15E
  0
DICTIONARY
  5
31A
102
{ACAD_REACTORS
330
C
102
}
330
C
100
AcDbDictionary
281
     1
  3
Standard
350
31B
  0
DICTIONARY
  5
308
102
{ACAD_REACTORS
330
C
102
}
330
C
100
AcDbDictionary
281
     1
  3
2dWireframe
350
30E
  3
3D Hidden
350
310
  3
3dWireframe
350
30F
  3
Basic
350
30D
  3
Brighten
350
314
  3
ColorChange
350
318
  3
Conceptual
350
311
  3
Dim
350
313
  3
Facepattern
350
317
  3
Flat
350
309
  3
FlatWithEdges
350
30A
  3
Gouraud
350
30B
  3
GouraudWithEdges
350
30C
  3
Linepattern
350
316
  3
Realistic
350
312
  3
Thicken
350
315
  0
DICTIONARY
  5
1C0
102
{ACAD_REACTORS
330
C
102
}
330
C
100
AcDbDictionary
281
     1
  3
CTABLESTYLE
350
557
  3
DIMASSOC
350
1C1
  3
INDEXCTL
350
559
  3
SORTENTS
350
558
  0
DICTIONARY
  5
53A
102
{ACAD_REACTORS
330
C
102
}
330
C
100
AcDbDictionary
281
     1
  3
ASEBlockHierarchyIndexRecord
350
53C
1001
DCO15
1040
1567967757.455
  0
XRECORD
  5
55A
102
{ACAD_REACTORS
330
C
102
}
330
C
100
AcDbXrecord
280
     1
  1
DWGPROPS COOKIE
  2

  3

  4

  6

  7

  8
Yu Hu
  9

300
=
301
=
302
=
303
=
304
=
305
=
306
=
307
=
308
=
309
=
 40
0.0748659259259259
 41
2450374.486206979
 42
2453950.986822396
  1

 90
        0
  0
XRECORD
  5
2FE
102
{ACAD_REACTORS
330
1BA
102
}
330
1BA
100
AcDbXrecord
280
     1
340
18
  0
XRECORD
  5
2FD
102
{ACAD_REACTORS
330
1B8
102
}
330
1B8
100
AcDbXrecord
280
     1
340
15
  0
LAYOUT
  5
162
102
{ACAD_XDICTIONARY
360
55D
102
}
102
{ACAD_REACTORS
330
15F
102
}
330
15F
100
AcDbPlotSettings
  1

  2
Fax
  4

  6

 40
0.0
 41
0.0
 42
0.0
 43
0.0
 44
0.0
 45
0.0
 46
0.0
 47
0.0
 48
0.0
 49
0.0
140
0.0
141
0.0
142
1.0
143
1.0
 70
   688
 72
     0
 73
     0
 74
     5
  7
Default R14 pen assignments.ctb
 75
    16
147
1.0
148
0.0
149
0.0
100
AcDbLayout
  1
Layout1
 70
     1
 71
     1
 10
0.0
 20
0.0
 11
12.0
 21
9.0
 12
0.0
 22
0.0
 32
0.0
 14
1.000000000000000E+20
 24
1.000000000000000E+20
 34
1.000000000000000E+20
 15
-1.000000000000000E+20
 25
-1.000000000000000E+20
 35
-1.000000000000000E+20
146
0.0
 13
0.0
 23
0.0
 33
0.0
 16
1.0
 26
0.0
 36
0.0
 17
0.0
 27
1.0
 37
0.0
 76
     0
330
15
  0
LAYOUT
  5
161
102
{ACAD_XDICTIONARY
360
55B
102
}
102
{ACAD_REACTORS
330
15F
102
}
330
15F
100
AcDbPlotSettings
  1

  2
Fax
  4

  6

 40
0.0
 41
0.0
 42
0.0
 43
0.0
 44
0.0
 45
0.0
 46
0.0
 47
0.0
 48
0.0
 49
0.0
140
0.0
141
0.0
142
1.0
143
1.0
 70
  1712
 72
     0
 73
     0
 74
     0
  7
Default R14 pen assignments.ctb
 75
     0
147
1.0
148
0.0
149
0.0
100
AcDbLayout
  1
Model
 70
     1
 71
     0
 10
0.0
 20
0.0
 11
12.0
 21
9.0
 12
0.0
 22
0.0
 32
0.0
 14
0.0
 24
0.0
 34
0.0
 15
0.0
 25
0.0
 35
0.0
146
0.0
 13
0.0
 23
0.0
 33
0.0
 16
1.0
 26
0.0
 36
0.0
 17
0.0
 27
1.0
 37
0.0
 76
     0
330
18
331
2D8
  0
MATERIAL
  5
306
102
{ACAD_XDICTIONARY
360
561
102
}
102
{ACAD_REACTORS
330
304
102
}
330
304
100
AcDbMaterial
  1
ByBlock
  0
MATERIAL
  5
305
102
{ACAD_XDICTIONARY
360
55F
102
}
102
{ACAD_REACTORS
330
304
102
}
330
304
100
AcDbMaterial
  1
ByLayer
  0
MATERIAL
  5
307
102
{ACAD_XDICTIONARY
360
563
102
}
102
{ACAD_REACTORS
330
304
102
}
330
304
100
AcDbMaterial
  1
Global
  0
MLINESTYLE
  5
1B
102
{ACAD_REACTORS
330
E
102
}
330
E
100
AcDbMlineStyle
  2
STANDARD
 70
     0
  3

 62
     0
 51
90.0
 52
90.0
 71
     2
 49
0.5
 62
   256
  6
BYLAYER
 49
-0.5
 62
   256
  6
BYLAYER
  0
ACDBPLACEHOLDER
  5
15E
102
{ACAD_REACTORS
330
15D
102
}
330
15D
  0
TABLESTYLE
  5
31B
102
{ACAD_XDICTIONARY
360
565
102
}
102
{ACAD_REACTORS
330
31A
102
}
330
31A
100
AcDbTableStyle
  3
Standard
 70
     0
 71
     0
 40
0.06
 41
0.06
280
     0
281
     0
  7
STANDARD
140
0.18
170
     2
 62
     0
 63
     7
283
     0
274
    -2
284
     1
 64
     0
275
    -2
285
     1
 65
     0
276
    -2
286
     1
 66
     0
277
    -2
287
     1
 67
     0
278
    -2
288
     1
 68
     0
279
    -2
289
     1
 69
     0
  7
STANDARD
140
0.25
170
     5
 62
     0
 63
     7
283
     0
274
    -2
284
     1
 64
     0
275
    -2
285
     1
 65
     0
276
    -2
286
     1
 66
     0
277
    -2
287
     1
 67
     0
278
    -2
288
     1
 68
     0
279
    -2
289
     1
 69
     0
  7
STANDARD
140
0.18
170
     5
 62
     0
 63
     7
283
     0
274
    -2
284
     1
 64
     0
275
    -2
285
     1
 65
     0
276
    -2
286
     1
 66
     0
277
    -2
287
     1
 67
     0
278
    -2
288
     1
 68
     0
279
    -2
289
     1
 69
     0
  0
VISUALSTYLE
  5
30E
102
{ACAD_REACTORS
330
308
102
}
330
308
100
AcDbVisualStyle
  2
2dWireframe
 70
     4
 71
     0
 72
     2
 73
     0
 90
        0
 40
-0.6
 41
-30.0
 62
     5
 63
     7
 74
     1
 91
        4
 64
     7
 65
   257
 75
     1
175
     1
 42
1.0
 92
        0
 66
   257
 43
1.0
 76
     1
 77
     6
 78
     2
 67
     7
 79
     5
170
     0
171
     0
290
     0
174
     0
 93
        1
 44
0.0
173
     0
291
     0
 45
0.0
1001
ACAD
1000
AcDbSavedByObjectVersion
1070
     0
  0
VISUALSTYLE
  5
310
102
{ACAD_REACTORS
330
308
102
}
330
308
100
AcDbVisualStyle
  2
3D Hidden
 70
     6
 71
     1
 72
     2
 73
     2
 90
        0
 40
-0.6
 41
-30.0
 62
     5
 63
     7
 74
     2
 91
        2
 64
     7
 65
   257
 75
     2
175
     1
 42
40.0
 92
        0
 66
   257
 43
1.0
 76
     1
 77
     6
 78
     2
 67
     7
 79
     3
170
     0
171
     0
290
     0
174
     0
 93
        1
 44
0.0
173
     0
291
     0
 45
0.0
1001
ACAD
1000
AcDbSavedByObjectVersion
1070
     0
  0
VISUALSTYLE
  5
30F
102
{ACAD_REACTORS
330
308
102
}
330
308
100
AcDbVisualStyle
  2
3dWireframe
 70
     5
 71
     0
 72
     2
 73
     0
 90
        0
 40
-0.6
 41
-30.0
 62
     5
 63
     7
 74
     1
 91
        4
 64
     7
 65
   257
 75
     1
175
     1
 42
1.0
 92
        0
 66
   257
 43
1.0
 76
     1
 77
     6
 78
     2
 67
     7
 79
     5
170
     0
171
     0
290
     0
174
     0
 93
        1
 44
0.0
173
     0
291
     0
 45
0.0
1001
ACAD
1000
AcDbSavedByObjectVersion
1070
     0
  0
VISUALSTYLE
  5
30D
102
{ACAD_REACTORS
330
308
102
}
330
308
100
AcDbVisualStyle
  2
Basic
 70
     7
 71
     1
 72
     0
 73
     1
 90
        0
 40
-0.6
 41
-30.0
 62
     5
 63
     7
 74
     0
 91
        4
 64
     7
 65
   257
 75
     1
175
     1
 42
1.0
 92
        8
 66
     7
 43
1.0
 76
     1
 77
     6
 78
     2
 67
     7
 79
     5
170
     0
171
     0
290
     0
174
     0
 93
        1
 44
0.0
173
     0
291
     1
 45
0.0
1001
ACAD
1000
AcDbSavedByObjectVersion
1070
     0
  0
VISUALSTYLE
  5
314
102
{ACAD_REACTORS
330
308
102
}
330
308
100
AcDbVisualStyle
  2
Brighten
 70
    12
 71
     2
 72
     2
 73
     0
 90
        0
 40
-0.6
 41
-30.0
 62
     5
 63
     7
 74
     1
 91
        4
 64
     7
 65
   257
 75
     1
175
     1
 42
1.0
 92
        8
 66
     7
 43
1.0
 76
     1
 77
     6
 78
     2
 67
     7
 79
     5
170
     0
171
     0
290
     0
174
     0
 93
        1
 44
50.0
173
     0
291
     1
 45
0.0
1001
ACAD
1000
AcDbSavedByObjectVersion
1070
     0
  0
VISUALSTYLE
  5
318
102
{ACAD_REACTORS
330
308
102
}
330
308
100
AcDbVisualStyle
  2
ColorChange
 70
    16
 71
     2
 72
     2
 73
     3
 90
        0
 40
-0.6
 41
-30.0
 62
     5
 63
     8
 74
     1
 91
        4
 64
     7
 65
   257
 75
     1
175
     1
 42
1.0
 92
        8
 66
     8
 43
1.0
 76
     1
 77
     6
 78
     2
 67
     7
 79
     5
170
     0
171
     0
290
     0
174
     0
 93
        1
 44
0.0
173
     0
291
     1
 45
0.0
1001
ACAD
1000
AcDbSavedByObjectVersion
1070
     0
  0
VISUALSTYLE
  5
311
102
{ACAD_REACTORS
330
308
102
}
330
308
100
AcDbVisualStyle
  2
Conceptual
 70
     9
 71
     3
 72
     2
 73
     0
 90
        0
 40
-0.6
 41
-30.0
 62
     5
 63
     7
 74
     2
 91
        2
 64
     7
 65
   257
 75
     1
175
     1
 42
40.0
 92
        8
 66
     7
 43
1.0
 76
     1
 77
     6
 78
     2
 67
     7
 79
     3
170
     0
171
     0
290
     0
174
     0
 93
        1
 44
0.0
173
     0
291
     0
 45
0.0
1001
ACAD
1000
AcDbSavedByObjectVersion
1070
     0
  0
VISUALSTYLE
  5
313
102
{ACAD_REACTORS
330
308
102
}
330
308
100
AcDbVisualStyle
  2
Dim
 70
    11
 71
     2
 72
     2
 73
     0
 90
        0
 40
-0.6
 41
-30.0
 62
     5
 63
     7
 74
     1
 91
        4
 64
     7
 65
   257
 75
     1
175
     1
 42
1.0
 92
        8
 66
     7
 43
1.0
 76
     1
 77
     6
 78
     2
 67
     7
 79
     5
170
     0
171
     0
290
     0
174
     0
 93
        1
 44
-50.0
173
     0
291
     1
 45
0.0
1001
ACAD
1000
AcDbSavedByObjectVersion
1070
     0
  0
VISUALSTYLE
  5
317
102
{ACAD_REACTORS
330
308
102
}
330
308
100
AcDbVisualStyle
  2
Facepattern
 70
    15
 71
     2
 72
     2
 73
     0
 90
        0
 40
-0.6
 41
-30.0
 62
     5
 63
     7
 74
     1
 91
        4
 64
     7
 65
   257
 75
     1
175
     1
 42
1.0
 92
        8
 66
     7
 43
1.0
 76
     1
 77
     6
 78
     2
 67
     7
 79
     5
170
     0
171
     0
290
     0
174
     0
 93
        1
 44
0.0
173
     0
291
     1
 45
0.0
1001
ACAD
1000
AcDbSavedByObjectVersion
1070
     0
  0
VISUALSTYLE
  5
309
102
{ACAD_REACTORS
330
308
102
}
330
308
100
AcDbVisualStyle
  2
Flat
 70
     0
 71
     2
 72
     1
 73
     1
 90
        2
 40
-0.6
 41
30.0
 62
     5
 63
     7
 74
     0
 91
        4
 64
     7
 65
   257
 75
     1
175
     1
 42
1.0
 92
        8
 66
     7
 43
1.0
 76
     1
 77
     6
 78
     2
 67
     7
 79
     5
170
     0
171
     0
290
     0
174
     0
 93
       13
 44
0.0
173
     0
291
     1
 45
0.0
1001
ACAD
1000
AcDbSavedByObjectVersion
1070
     0
  0
VISUALSTYLE
  5
30A
102
{ACAD_REACTORS
330
308
102
}
330
308
100
AcDbVisualStyle
  2
FlatWithEdges
 70
     1
 71
     2
 72
     1
 73
     1
 90
        2
 40
-0.6
 41
30.0
 62
     5
 63
     7
 74
     1
 91
        4
 64
     7
 65
   257
 75
     1
175
     1
 42
1.0
 92
        0
 66
   257
 43
1.0
 76
     1
 77
     6
 78
     2
 67
     7
 79
     5
170
     0
171
     0
290
     0
174
     0
 93
       13
 44
0.0
173
     0
291
     1
 45
0.0
1001
ACAD
1000
AcDbSavedByObjectVersion
1070
     0
  0
VISUALSTYLE
  5
30B
102
{ACAD_REACTORS
330
308
102
}
330
308
100
AcDbVisualStyle
  2
Gouraud
 70
     2
 71
     2
 72
     2
 73
     1
 90
        2
 40
-0.6
 41
30.0
 62
     5
 63
     7
 74
     0
 91
        4
 64
     7
 65
   257
 75
     1
175
     1
 42
1.0
 92
        0
 66
     7
 43
1.0
 76
     1
 77
     6
 78
     2
 67
     7
 79
     5
170
     0
171
     0
290
     0
174
     0
 93
       13
 44
0.0
173
     0
291
     1
 45
0.0
1001
ACAD
1000
AcDbSavedByObjectVersion
1070
     0
  0
VISUALSTYLE
  5
30C
102
{ACAD_REACTORS
330
308
102
}
330
308
100
AcDbVisualStyle
  2
GouraudWithEdges
 70
     3
 71
     2
 72
     2
 73
     1
 90
        2
 40
-0.6
 41
30.0
 62
     5
 63
     7
 74
     1
 91
        4
 64
     7
 65
   257
 75
     1
175
     1
 42
1.0
 92
        0
 66
   257
 43
1.0
 76
     1
 77
     6
 78
     2
 67
     7
 79
     5
170
     0
171
     0
290
     0
174
     0
 93
       13
 44
0.0
173
     0
291
     1
 45
0.0
1001
ACAD
1000
AcDbSavedByObjectVersion
1070
     0
  0
VISUALSTYLE
  5
316
102
{ACAD_REACTORS
330
308
102
}
330
308
100
AcDbVisualStyle
  2
Linepattern
 70
    14
 71
     2
 72
     2
 73
     0
 90
        0
 40
-0.6
 41
-30.0
 62
     5
 63
     7
 74
     1
 91
        4
 64
     7
 65
   257
 75
     7
175
     7
 42
1.0
 92
        8
 66
     7
 43
1.0
 76
     1
 77
     6
 78
     2
 67
     7
 79
     5
170
     0
171
     0
290
     0
174
     0
 93
        1
 44
0.0
173
     0
291
     1
 45
0.0
1001
ACAD
1000
AcDbSavedByObjectVersion
1070
     0
  0
VISUALSTYLE
  5
312
102
{ACAD_REACTORS
330
308
102
}
330
308
100
AcDbVisualStyle
  2
Realistic
 70
     8
 71
     2
 72
     2
 73
     0
 90
        0
 40
-0.6
 41
-30.0
 62
     5
 63
     7
 74
     1
 91
        0
 64
     7
 65
   257
 75
     1
175
     1
 42
1.0
 92
        8
 66
     8
 43
1.0
 76
     1
 77
     6
 78
     2
 67
     7
 79
     5
170
     0
171
     0
290
     0
174
     0
 93
       13
 44
0.0
173
     0
291
     0
 45
0.0
1001
ACAD
1000
AcDbSavedByObjectVersion
1070
     0
  0
VISUALSTYLE
  5
315
102
{ACAD_REACTORS
330
308
102
}
330
308
100
AcDbVisualStyle
  2
Thicken
 70
    13
 71
     2
 72
     2
 73
     0
 90
        0
 40
-0.6
 41
-30.0
 62
     5
 63
     7
 74
     1
 91
        4
 64
     7
 65
   257
 75
     1
175
     1
 42
1.0
 92
       12
 66
     7
 43
1.0
 76
     1
 77
     6
 78
     2
 67
     7
 79
     5
170
     0
171
     0
290
     0
174
     0
 93
        1
 44
0.0
173
     0
291
     1
 45
0.0
1001
ACAD
1000
AcDbSavedByObjectVersion
1070
     0
  0
DICTIONARYVAR
  5
557
102
{ACAD_REACTORS
330
1C0
102
}
330
1C0
100
DictionaryVariables
280
     0
  1
STANDARD
  0
DICTIONARYVAR
  5
1C1
102
{ACAD_REACTORS
330
1C0
102
}
330
1C0
100
DictionaryVariables
280
     0
  1
1
  0
DICTIONARYVAR
  5
559
102
{ACAD_REACTORS
330
1C0
102
}
330
1C0
100
DictionaryVariables
280
     0
  1
0
  0
DICTIONARYVAR
  5
558
102
{ACAD_REACTORS
330
1C0
102
}
330
1C0
100
DictionaryVariables
280
     0
  1
127
  0
XRECORD
  5
53C
102
{ACAD_REACTORS
330
53A
102
}
330
53A
100
AcDbXrecord
280
     1
330
151
  0
DICTIONARY
  5
55D
330
162
100
AcDbDictionary
280
     1
281
     1
  3
ACAD_XREC_ROUNDTRIP
360
55E
  0
DICTIONARY
  5
55B
330
161
100
AcDbDictionary
280
     1
281
     1
  3
ACAD_XREC_ROUNDTRIP
360
55C
  0
DICTIONARY
  5
561
330
306
100
AcDbDictionary
280
     1
281
     1
  3
ACAD_XREC_ROUNDTRIP
360
562
  0
DICTIONARY
  5
55F
330
305
100
AcDbDictionary
280
     1
281
     1
  3
ACAD_XREC_ROUNDTRIP
360
560
  0
DICTIONARY
  5
563
330
307
100
AcDbDictionary
280
     1
281
     1
  3
ACAD_XREC_ROUNDTRIP
360
564
  0
DICTIONARY
  5
565
330
31B
100
AcDbDictionary
280
     1
281
     1
  3
ACAD_XREC_ROUNDTRIP
360
566
  0
XRECORD
  5
55E
102
{ACAD_REACTORS
330
55D
102
}
330
55D
100
AcDbXrecord
280
     1
102
SHADEPLOT
 70
     0
102
SHADEPLOTRESLEVEL
 70
     2
102
SHADEPLOTCUSTOMDPI
 70
   300
  0
XRECORD
  5
55C
102
{ACAD_REACTORS
330
55B
102
}
330
55B
100
AcDbXrecord
280
     1
102
SHADEPLOT
 70
     0
102
SHADEPLOTRESLEVEL
 70
     2
102
SHADEPLOTCUSTOMDPI
 70
   300
  0
XRECORD
  5
562
102
{ACAD_REACTORS
330
561
102
}
330
561
100
AcDbXrecord
280
     1
102
MATERIAL
148
0.0
149
0.0
149
0.0
 93
        0
 94
       63
282
     0
 72
     1
 77
     1
171
     1
175
     1
179
     1
273
     0
  0
XRECORD
  5
560
102
{ACAD_REACTORS
330
55F
102
}
330
55F
100
AcDbXrecord
280
     1
102
MATERIAL
148
0.0
149
0.0
149
0.0
 93
        0
 94
       63
282
     0
 72
     1
 77
     1
171
     1
175
     1
179
     1
273
     0
  0
XRECORD
  5
564
102
{ACAD_REACTORS
330
563
102
}
330
563
100
AcDbXrecord
280
     1
102
MATERIAL
148
0.0
149
0.0
149
0.0
 93
        0
 94
       63
282
     0
 72
     1
 77
     1
171
     1
175
     1
179
     1
273
     0
  0
XRECORD
  5
566
102
{ACAD_REACTORS
330
565
102
}
330
565
100
AcDbXrecord
280
     1
102
ACAD_ROUNDTRIP_PRE2007_TABLESTYLE
 90
      512
 91
        0
  1

 92
      512
 93
        0
  2

 94
      512
 95
        0
  3

  0
ENDSEC
  0
EOF
