  0
SECTION
  2
HEADER
  9
$ACADVER
  1
AC1015
  9
$ACADMAINTVER
 70
    20
  9
$DWGCODEPAGE
  3
ANSI_1252
  9
$INSBASE
 10
36.38707582823979
 20
2.798697530617541
 30
0.0
  9
$EXTMIN
 10
3.705745479164114
 20
-1.259379645034426
 30
0.0
  9
$EXTMAX
 10
68.05282085433464
 20
38.92369753061755
 30
0.0
  9
$LIMMIN
 10
0.0
 20
0.0
  9
$LIMMAX
 10
36.0
 20
36.0
  9
$ORTHOMODE
 70
     0
  9
$REGENMODE
 70
     1
  9
$FILLMODE
 70
     1
  9
$QTEXTMODE
 70
     0
  9
$MIRRTEXT
 70
     1
  9
$LTSCALE
 40
1.0
  9
$ATTMODE
 70
     1
  9
$TEXTSIZE
 40
0.2
  9
$TRACEWID
 40
0.05
  9
$TEXTSTYLE
  7
STANDARD
  9
$CLAYER
  8
ADPDIM
  9
$CELTYPE
  6
BYLAYER
  9
$CECOLOR
 62
   256
  9
$CELTSCALE
 40
1.0
  9
$DISPSILH
 70
     0
  9
$DIMSCALE
 40
1.0
  9
$DIMASZ
 40
0.125
  9
$DIMEXO
 40
0.0625
  9
$DIMDLI
 40
0.38
  9
$DIMRND
 40
0.0
  9
$DIMDLE
 40
0.0
  9
$DIMEXE
 40
0.18
  9
$DIMTP
 40
0.0
  9
$DIMTM
 40
0.0
  9
$DIMTXT
 40
0.125
  9
$DIMCEN
 40
0.1875
  9
$DIMTSZ
 40
0.125
  9
$DIMTOL
 70
     0
  9
$DIMLIM
 70
     0
  9
$DIMTIH
 70
     0
  9
$DIMTOH
 70
     0
  9
$DIMSE1
 70
     0
  9
$DIMSE2
 70
     0
  9
$DIMTAD
 70
     0
  9
$DIMZIN
 70
     3
  9
$DIMBLK
  1

  9
$DIMASO
 70
     1
  9
$DIMSHO
 70
     1
  9
$DIMPOST
  1

  9
$DIMAPOST
  1

  9
$DIMALT
 70
     0
  9
$DIMALTD
 70
     1
  9
$DIMALTF
 40
25.4
  9
$DIMLFAC
 40
1.0
  9
$DIMTOFL
 70
     0
  9
$DIMTVP
 40
0.0
  9
$DIMTIX
 70
     0
  9
$DIMSOXD
 70
     0
  9
$DIMSAH
 70
     0
  9
$DIMBLK1
  1

  9
$DIMBLK2
  1

  9
$DIMSTYLE
  2
STANDARD
  9
$DIMCLRD
 70
     0
  9
$DIMCLRE
 70
     0
  9
$DIMCLRT
 70
     0
  9
$DIMTFAC
 40
1.0
  9
$DIMGAP
 40
0.125
  9
$DIMJUST
 70
     0
  9
$DIMSD1
 70
     0
  9
$DIMSD2
 70
     0
  9
$DIMTOLJ
 70
     1
  9
$DIMTZIN
 70
     0
  9
$DIMALTZ
 70
     0
  9
$DIMALTTZ
 70
     0
  9
$DIMUPT
 70
     0
  9
$DIMDEC
 70
     4
  9
$DIMTDEC
 70
     4
  9
$DIMALTU
 70
     2
  9
$DIMALTTD
 70
     2
  9
$DIMTXSTY
  7
STANDARD
  9
$DIMAUNIT
 70
     0
  9
$DIMADEC
 70
     0
  9
$DIMALTRND
 40
0.0
  9
$DIMAZIN
 70
     0
  9
$DIMDSEP
 70
    46
  9
$DIMATFIT
 70
     3
  9
$DIMFRAC
 70
     0
  9
$DIMLDRBLK
  1

  9
$DIMLUNIT
 70
     2
  9
$DIMLWD
 70
    -2
  9
$DIMLWE
 70
    -2
  9
$DIMTMOVE
 70
     0
  9
$LUNITS
 70
     5
  9
$LUPREC
 70
     4
  9
$SKETCHINC
 40
0.1
  9
$FILLETRAD
 40
0.062
  9
$AUNITS
 70
     0
  9
$AUPREC
 70
     0
  9
$MENU
  1
acad
  9
$ELEVATION
 40
0.0
  9
$PELEVATION
 40
0.0
  9
$THICKNESS
 40
0.0
  9
$LIMCHECK
 70
     0
  9
$CHAMFERA
 40
0.0
  9
$CHAMFERB
 40
0.0
  9
$CHAMFERC
 40
0.0
  9
$CHAMFERD
 40
0.0
  9
$SKPOLY
 70
     0
  9
$TDCREATE
 40
2450374.485863426
  9
$TDUCREATE
 40
2450374.652530093
  9
$TDUPDATE
 40
2453950.962892037
  9
$TDUUPDATE
 40
2453951.129558704
  9
$TDINDWG
 40
0.0722367130
  9
$TDUSRTIMER
 40
0.0722367130
  9
$USRTIMER
 70
     1
  9
$ANGBASE
 50
0.0
  9
$ANGDIR
 70
     0
  9
$PDMODE
 70
     0
  9
$PDSIZE
 40
0.0
  9
$PLINEWID
 40
0.0
  9
$SPLFRAME
 70
     0
  9
$SPLINETYPE
 70
     6
  9
$SPLINESEGS
 70
     8
  9
$HANDSEED
  5
48B
  9
$SURFTAB1
 70
     6
  9
$SURFTAB2
 70
     6
  9
$SURFTYPE
 70
     6
  9
$SURFU
 70
     6
  9
$SURFV
 70
     6
  9
$UCSBASE
  2

  9
$UCSNAME
  2

  9
$UCSORG
 10
0.0
 20
0.0
 30
0.0
  9
$UCSXDIR
 10
1.0
 20
0.0
 30
0.0
  9
$UCSYDIR
 10
0.0
 20
1.0
 30
0.0
  9
$UCSORTHOREF
  2

  9
$UCSORTHOVIEW
 70
     0
  9
$UCSORGTOP
 10
0.0
 20
0.0
 30
0.0
  9
$UCSORGBOTTOM
 10
0.0
 20
0.0
 30
0.0
  9
$UCSORGLEFT
 10
0.0
 20
0.0
 30
0.0
  9
$UCSORGRIGHT
 10
0.0
 20
0.0
 30
0.0
  9
$UCSORGFRONT
 10
0.0
 20
0.0
 30
0.0
  9
$UCSORGBACK
 10
0.0
 20
0.0
 30
0.0
  9
$PUCSBASE
  2

  9
$PUCSNAME
  2

  9
$PUCSORG
 10
0.0
 20
0.0
 30
0.0
  9
$PUCSXDIR
 10
1.0
 20
0.0
 30
0.0
  9
$PUCSYDIR
 10
0.0
 20
1.0
 30
0.0
  9
$PUCSORTHOREF
  2

  9
$PUCSORTHOVIEW
 70
     0
  9
$PUCSORGTOP
 10
0.0
 20
0.0
 30
0.0
  9
$PUCSORGBOTTOM
 10
0.0
 20
0.0
 30
0.0
  9
$PUCSORGLEFT
 10
0.0
 20
0.0
 30
0.0
  9
$PUCSORGRIGHT
 10
0.0
 20
0.0
 30
0.0
  9
$PUCSORGFRONT
 10
0.0
 20
0.0
 30
0.0
  9
$PUCSORGBACK
 10
0.0
 20
0.0
 30
0.0
  9
$USERI1
 70
     0
  9
$USERI2
 70
     0
  9
$USERI3
 70
     0
  9
$USERI4
 70
     0
  9
$USERI5
 70
     0
  9
$USERR1
 40
0.0
  9
$USERR2
 40
0.0
  9
$USERR3
 40
0.0
  9
$USERR4
 40
0.0
  9
$USERR5
 40
0.0
  9
$WORLDVIEW
 70
     1
  9
$SHADEDGE
 70
     3
  9
$SHADEDIF
 70
    70
  9
$TILEMODE
 70
     1
  9
$MAXACTVP
 70
    15
  9
$PINSBASE
 10
0.0
 20
0.0
 30
0.0
  9
$PLIMCHECK
 70
     0
  9
$PEXTMIN
 10
1.000000000000000E+20
 20
1.000000000000000E+20
 30
1.000000000000000E+20
  9
$PEXTMAX
 10
-1.000000000000000E+20
 20
-1.000000000000000E+20
 30
-1.000000000000000E+20
  9
$PLIMMIN
 10
0.0
 20
0.0
  9
$PLIMMAX
 10
12.0
 20
9.0
  9
$UNITMODE
 70
     0
  9
$VISRETAIN
 70
     0
  9
$PLINEGEN
 70
     0
  9
$PSLTSCALE
 70
     1
  9
$TREEDEPTH
 70
  3020
  9
$CMLSTYLE
  2
STANDARD
  9
$CMLJUST
 70
     0
  9
$CMLSCALE
 40
1.0
  9
$PROXYGRAPHICS
 70
     1
  9
$MEASUREMENT
 70
     0
  9
$CELWEIGHT
370
    -1
  9
$ENDCAPS
280
     0
  9
$JOINSTYLE
280
     0
  9
$LWDISPLAY
290
     0
  9
$INSUNITS
 70
     0
  9
$HYPERLINKBASE
  1

  9
$STYLESHEET
  1

  9
$XEDIT
290
     1
  9
$CEPSNTYPE
380
     0
  9
$PSTYLEMODE
290
     1
  9
$FINGERPRINTGUID
  2
{9CFD6846-1275-4312-A123-73A4590B97F1}
  9
$VERSIONGUID
  2
{6022C458-CB09-4C00-871D-2832E5186C28}
  9
$EXTNAMES
290
     1
  9
$PSVPSCALE
 40
0.0
  9
$OLESTARTUP
290
     0
  0
ENDSEC
  0
SECTION
  2
CLASSES
  0
CLASS
  1
ACDBDICTIONARYWDFLT
  2
AcDbDictionaryWithDefault
  3
ObjectDBX Classes
 90
        0
280
     0
281
     0
  0
CLASS
  1
ACDBPLACEHOLDER
  2
AcDbPlaceHolder
  3
ObjectDBX Classes
 90
        0
280
     0
281
     0
  0
CLASS
  1
LAYOUT
  2
AcDbLayout
  3
ObjectDBX Classes
 90
        0
280
     0
281
     0
  0
CLASS
  1
DICTIONARYVAR
  2
AcDbDictionaryVar
  3
ObjectDBX Classes
 90
        0
280
     0
281
     0
  0
CLASS
  1
MATERIAL
  2
AcDbMaterial
  3
ObjectDBX Classes
 90
     1024
280
     0
281
     0
  0
CLASS
  1
VISUALSTYLE
  2
AcDbVisualStyle
  3
ObjectDBX Classes
 90
     4095
280
     0
281
     0
  0
CLASS
  1
TABLESTYLE
  2
AcDbTableStyle
  3
ObjectDBX Classes
 90
     4095
280
     0
281
     0
  0
CLASS
  1
ACAD_EVALUATION_GRAPH
  2
AcDbEvalGraph
  3
ObjectDBX Classes
 90
     1153
280
     0
281
     0
  0
CLASS
  1
ACAECUSTOBJ
  2
AcAeEditorObj
  3
AcAeEditorObj
 90
     1024
280
     0
281
     0
  0
CLASS
  1
ACDB_DYNAMICBLOCKPURGEPREVENTER_VERSION
  2
AcDbDynamicBlockPurgePreventer
  3
ObjectDBX Classes
 90
     1153
280
     0
281
     0
  0
ENDSEC
  0
SECTION
  2
TABLES
  0
TABLE
  2
VPORT
  5
8
330
0
100
AcDbSymbolTable
 70
     1
  0
VPORT
  5
328
330
8
100
AcDbSymbolTableRecord
100
AcDbViewportTableRecord
  2
*Active
 70
     0
 10
0.0
 20
0.0
 11
1.0
 21
1.0
 12
41.07580563852978
 22
18.80495740658851
 13
0.0
 23
0.0
 14
0.5740882589684922
 24
0.5740882589684922
 15
0.5
 25
0.5
 16
0.0
 26
0.0
 36
1.0
 17
0.0
 27
0.0
 37
0.0
 40
40.57775668395191
 41
1.774011299435028
 42
50.0
 43
0.0
 44
0.0
 50
0.0
 51
0.0
 71
     0
 72
   100
 73
     1
 74
     0
 75
     0
 76
     0
 77
     0
 78
     0
281
     0
 65
     1
110
0.0
120
0.0
130
0.0
111
1.0
121
0.0
131
0.0
112
0.0
122
1.0
132
0.0
 79
     0
146
0.0
  0
ENDTAB
  0
TABLE
  2
LTYPE
  5
5
330
0
100
AcDbSymbolTable
 70
     2
  0
LTYPE
  5
12
330
5
100
AcDbSymbolTableRecord
100
AcDbLinetypeTableRecord
  2
BYBLOCK
 70
     0
  3

 72
    65
 73
     0
 40
0.0
  0
LTYPE
  5
13
330
5
100
AcDbSymbolTableRecord
100
AcDbLinetypeTableRecord
  2
BYLAYER
 70
     0
  3

 72
    65
 73
     0
 40
0.0
  0
LTYPE
  5
14
330
5
100
AcDbSymbolTableRecord
100
AcDbLinetypeTableRecord
  2
CONTINUOUS
 70
     0
  3
Solid line
 72
    65
 73
     0
 40
0.0
  0
ENDTAB
  0
TABLE
  2
LAYER
  5
2
330
0
100
AcDbSymbolTable
 70
     4
  0
LAYER
  5
F
330
2
100
AcDbSymbolTableRecord
100
AcDbLayerTableRecord
  2
0
 70
     0
 62
     7
  6
CONTINUOUS
370
    -3
390
1AE
  0
LAYER
  5
AD
330
2
100
AcDbSymbolTableRecord
100
AcDbLayerTableRecord
  2
ADPDIM
 70
     0
 62
     3
  6
CONTINUOUS
370
    -3
390
1AE
  0
LAYER
  5
AF
330
2
100
AcDbSymbolTableRecord
100
AcDbLayerTableRecord
  2
ADP1DETAIL
 70
     0
 62
     7
  6
CONTINUOUS
370
    -3
390
1AE
  0
LAYER
  5
B1
330
2
100
AcDbSymbolTableRecord
100
AcDbLayerTableRecord
  2
DEFPOINTS
 70
     0
 62
     7
  6
CONTINUOUS
290
     0
370
    -3
390
1AE
  0
ENDTAB
  0
TABLE
  2
STYLE
  5
3
330
0
100
AcDbSymbolTable
 70
     2
  0
STYLE
  5
10
330
3
100
AcDbSymbolTableRecord
100
AcDbTextStyleTableRecord
  2
STANDARD
 70
     0
 40
0.0
 41
1.0
 50
0.0
 71
     0
 42
0.2
  3
txt
  4

  0
STYLE
  5
1B5
330
3
100
AcDbSymbolTableRecord
100
AcDbTextStyleTableRecord
  2
ARIAL_WIDE
 70
     0
 40
0.0
 41
1.25
 50
0.0
 71
     0
 42
0.2
  3
ARIAL.TTF
  4

1001
ACAD
1000
Arial
1071
       34
  0
ENDTAB
  0
TABLE
  2
VIEW
  5
6
330
0
100
AcDbSymbolTable
 70
     0
  0
ENDTAB
  0
TABLE
  2
UCS
  5
7
330
0
100
AcDbSymbolTable
 70
     0
  0
ENDTAB
  0
TABLE
  2
APPID
  5
9
330
0
100
AcDbSymbolTable
 70
     6
  0
APPID
  5
11
330
9
100
AcDbSymbolTableRecord
100
AcDbRegAppTableRecord
  2
ACAD
 70
     0
  0
APPID
  5
38A
330
9
100
AcDbSymbolTableRecord
100
AcDbRegAppTableRecord
  2
DCO15
 70
     0
  0
APPID
  5
414
330
9
100
AcDbSymbolTableRecord
100
AcDbRegAppTableRecord
  2
ACAUTHENVIRON
 70
     0
  0
APPID
  5
41E
330
9
100
AcDbSymbolTableRecord
100
AcDbRegAppTableRecord
  2
AcDbDynamicBlockTrueName
 70
     0
  0
APPID
  5
41F
330
9
100
AcDbSymbolTableRecord
100
AcDbRegAppTableRecord
  2
AcDbDynamicBlockGUID
 70
     0
  0
APPID
  5
421
330
9
100
AcDbSymbolTableRecord
100
AcDbRegAppTableRecord
  2
AcDbBlockRepETag
 70
     0
  0
ENDTAB
  0
TABLE
  2
DIMSTYLE
  5
A
330
0
100
AcDbSymbolTable
 70
     2
100
AcDbDimStyleTable
 71
     1
340
1A9
  0
DIMSTYLE
105
1A9
102
{ACAD_REACTORS
330
36F
330
391
102
}
330
A
100
AcDbSymbolTableRecord
100
AcDbDimStyleTableRecord
  2
STANDARD
 70
     0
340
10
  0
ENDTAB
  0
TABLE
  2
BLOCK_RECORD
  5
1
330
0
100
AcDbSymbolTable
 70
     9
  0
BLOCK_RECORD
  5
18
102
{ACAD_XDICTIONARY
360
20A
102
}
330
1
100
AcDbSymbolTableRecord
100
AcDbBlockTableRecord
  2
*MODEL_SPACE
340
1B1
  0
BLOCK_RECORD
  5
15
102
{ACAD_XDICTIONARY
360
208
102
}
330
1
100
AcDbSymbolTableRecord
100
AcDbBlockTableRecord
  2
*PAPER_SPACE
340
1B2
  0
BLOCK_RECORD
  5
7C
102
{ACAD_XDICTIONARY
360
415
102
}
330
1
100
AcDbSymbolTableRecord
100
AcDbBlockTableRecord
  2
334
340
0
102
{BLKREFS
331
1A6
102
}
1001
AcDbDynamicBlockGUID
1000
{07CCEE17-D718-482C-BA9E-81C92F053457}
1001
AcDbBlockRepETag
1070
     1
1071
      104
  0
BLOCK_RECORD
  5
A3
330
1
100
AcDbSymbolTableRecord
100
AcDbBlockTableRecord
  2
*D1
340
0
  0
BLOCK_RECORD
  5
AB
330
1
100
AcDbSymbolTableRecord
100
AcDbBlockTableRecord
  2
*D2
340
0
  0
BLOCK_RECORD
  5
370
330
1
100
AcDbSymbolTableRecord
100
AcDbBlockTableRecord
  2
*D3
340
0
  0
BLOCK_RECORD
  5
37D
330
1
100
AcDbSymbolTableRecord
100
AcDbBlockTableRecord
  2
*D4
340
0
  0
BLOCK_RECORD
  5
392
330
1
100
AcDbSymbolTableRecord
100
AcDbBlockTableRecord
  2
*D6
340
0
  0
ENDTAB
  0
ENDSEC
  0
SECTION
  2
BLOCKS
  0
BLOCK
  5
B4
330
18
100
AcDbEntity
  8
0
100
AcDbBlockBegin
  2
*MODEL_SPACE
 70
     0
 10
0.0
 20
0.0
 30
0.0
  3
*MODEL_SPACE
  1

  0
ENDBLK
  5
B5
330
18
100
AcDbEntity
  8
0
100
AcDbBlockEnd
  0
BLOCK
  5
B2
330
15
100
AcDbEntity
 67
     1
  8
0
100
AcDbBlockBegin
  2
*PAPER_SPACE
 70
     0
 10
0.0
 20
0.0
 30
0.0
  3
*PAPER_SPACE
  1

  0
ENDBLK
  5
B3
330
15
100
AcDbEntity
 67
     1
  8
0
100
AcDbBlockEnd
  0
BLOCK
  5
B7
330
7C
100
AcDbEntity
  8
0
100
AcDbBlockBegin
  2
334
 70
     0
 10
0.0
 20
0.0
 30
0.0
  3
334
  1

  0
ARC
  5
3AC
330
7C
100
AcDbEntity
  8
0
 62
     7
100
AcDbCircle
 10
1.446977898090665
 20
19.13265655025771
 30
0.0
 40
0.8208605528383206
100
AcDbArc
 50
111.8605950610277
 51
171.1735083316465
1001
AcDbBlockRepETag
1070
     1
1071
        0
1005
3AC
  0
ARC
  5
3AD
330
7C
100
AcDbEntity
  8
0
 62
     7
100
AcDbCircle
 10
-0.4367625134752871
 20
19.13265655025771
 30
0.0
 40
0.8208605528383206
100
AcDbArc
 50
8.826491668353497
 51
68.13940493897231
1001
AcDbBlockRepETag
1070
     1
1071
        1
1005
3AD
  0
ARC
  5
3AE
330
7C
100
AcDbEntity
  8
0
 62
     7
100
AcDbCircle
 10
-3.271569694519847
 20
20.10523919440571
 30
0.0
 40
4.404197253032999
100
AcDbArc
 50
346.4811041120661
 51
17.35345790057676
1001
AcDbBlockRepETag
1070
     1
1071
        2
1005
3AE
  0
LWPOLYLINE
  5
3AF
330
7C
100
AcDbEntity
  8
0
 62
     7
100
AcDbPolyline
 90
        4
 70
     0
 43
0.0
 10
0.5051076923076892
 20
21.83697194707615
 42
-0.1466379883255973
 10
1.001884612288193
 20
21.36659544663066
 42
-0.0910434449531988
 10
1.489946215332693
 20
20.2516287192291
 42
-0.3125600725606255
 10
1.09775377881273
 20
19.07568746811535
 42
-14.60514073324043
1001
AcDbBlockRepETag
1070
     1
1071
        3
1005
3AF
  0
ARC
  5
3B0
330
7C
100
AcDbEntity
  8
0
 62
     7
100
AcDbCircle
 10
4.281785079135232
 20
20.10523919440571
 30
0.0
 40
4.404197253032999
100
AcDbArc
 50
162.6465420994232
 51
193.5188958879339
1001
AcDbBlockRepETag
1070
     1
1071
        4
1005
3B0
  0
LWPOLYLINE
  5
3B1
330
7C
100
AcDbEntity
  8
0
 62
     7
100
AcDbPolyline
 90
        4
 70
     0
 43
0.0
 10
0.0519078104929207
 20
21.45370223405713
 42
-0.1489525582881374
 10
0.2872231817077448
 20
21.05301101189528
 42
-0.0652650985037436
 10
0.4441000202699854
 20
19.56348532604615
 42
-0.1520817404271813
 10
0.2785076380288558
 20
19.07568746811535
 42
-1.058455286006532
1001
AcDbBlockRepETag
1070
     1
1071
        5
1005
3B1
  0
LWPOLYLINE
  5
3B2
330
7C
100
AcDbEntity
  8
0
 62
     7
100
AcDbPolyline
 90
        4
 70
     0
 43
0.0
 10
0.5051076923076892
 20
21.83697194707615
 42
0.1466379883255973
 10
0.0083307723271844
 20
21.36659544663066
 42
0.0910434449531988
 10
-0.4797308307173154
 20
20.2516287192291
 42
0.3125600725606255
 10
-0.0875383941973525
 20
19.07568746811535
 42
14.60514073324043
1001
AcDbBlockRepETag
1070
     1
1071
        6
1005
3B2
  0
LWPOLYLINE
  5
3B3
330
7C
100
AcDbEntity
  8
0
 62
     7
100
AcDbPolyline
 90
        4
 70
     0
 43
0.0
 10
0.9583075741224575
 20
21.45370223405713
 42
0.1489525582881374
 10
0.7229922029076335
 20
21.05301101189528
 42
0.0652650985037436
 10
0.5661153643453929
 20
19.56348532604615
 42
0.1520817404271813
 10
0.7317077465865225
 20
19.07568746811535
 42
1.058455286006532
1001
AcDbBlockRepETag
1070
     1
1071
        7
1005
3B3
  0
LWPOLYLINE
  5
3B4
330
7C
100
AcDbEntity
  8
0
 62
     7
100
AcDbPolyline
 90
        4
 70
     0
 43
0.0
 10
1.089969230769213
 20
5.396676923076925
 10
1.089969230769213
 20
5.556686695001045
 42
0.2753116167442796
 10
1.344239661449478
 20
5.867293800994123
 42
-0.1690836254115244
 10
1.06338461538462
 20
6.273969230769229
1001
AcDbBlockRepETag
1070
     1
1071
        8
1005
3B4
  0
LWPOLYLINE
  5
3B5
330
7C
100
AcDbEntity
  8
0
 62
     7
100
AcDbPolyline
 90
        4
 70
     0
 43
0.0
 10
-0.1063384615384564
 20
5.396676923076925
 10
-0.1063384615384564
 20
5.556686695001045
 42
-0.2753116167442796
 10
-0.3606088922187212
 20
5.867293800994123
 42
0.1677848578957405
 10
-0.0797538461538494
 20
6.273969230769229
1001
AcDbBlockRepETag
1070
     1
1071
        9
1005
3B5
  0
LINE
  5
3B6
330
7C
100
AcDbEntity
  8
0
 62
     7
100
AcDbLine
 10
-0.0495107974594191
 20
5.396676923076925
 30
0.0
 11
0.0
 21
0.0
 31
0.0
1001
AcDbBlockRepETag
1070
     1
1071
       10
1005
3B6
  0
LINE
  5
3B7
330
7C
100
AcDbEntity
  8
0
 62
     7
100
AcDbLine
 10
0.983630769230757
 20
0.0
 30
0.0
 11
1.033141566690176
 21
5.396676923076925
 31
0.0
1001
AcDbBlockRepETag
1070
     1
1071
       11
1005
3B7
  0
LINE
  5
3B8
330
7C
100
AcDbEntity
  8
0
 62
     7
100
AcDbLine
 10
0.0
 20
0.0
 30
0.0
 11
0.983630769230757
 21
0.0
 31
0.0
1001
AcDbBlockRepETag
1070
     1
1071
       12
1005
3B8
  0
LINE
  5
3B9
330
7C
100
AcDbEntity
  8
0
 62
     7
100
AcDbLine
 10
0.983630769230757
 20
0.0
 30
0.0
 11
0.983630769230757
 21
0.0
 31
0.0
1001
AcDbBlockRepETag
1070
     1
1071
       13
1005
3B9
  0
LINE
  5
3BA
330
7C
100
AcDbEntity
  8
0
 62
     7
100
AcDbLine
 10
1.089969230769227
 20
5.396676923076925
 30
0.0
 11
0.5316923076923104
 21
5.396676923076925
 31
0.0
1001
AcDbBlockRepETag
1070
     1
1071
       14
1005
3BA
  0
LINE
  5
3BB
330
7C
100
AcDbEntity
  8
0
 62
     7
100
AcDbLine
 10
0.5316923076923104
 20
5.556184615384609
 30
0.0
 11
1.089969230769227
 21
5.556184615384609
 31
0.0
1001
AcDbBlockRepETag
1070
     1
1071
       15
1005
3BB
  0
LINE
  5
3BC
330
7C
100
AcDbEntity
  8
0
 62
     7
100
AcDbLine
 10
0.5316923076923104
 20
5.396676923076925
 30
0.0
 11
-0.1063384615384564
 21
5.396676923076925
 31
0.0
1001
AcDbBlockRepETag
1070
     1
1071
       16
1005
3BC
  0
LINE
  5
3BD
330
7C
100
AcDbEntity
  8
0
 62
     7
100
AcDbLine
 10
-0.1063384615384564
 20
5.556184615384609
 30
0.0
 11
0.5316923076923104
 21
5.556184615384609
 31
0.0
1001
AcDbBlockRepETag
1070
     1
1071
       17
1005
3BD
  0
LINE
  5
3BE
330
7C
100
AcDbEntity
  8
0
 62
     7
100
AcDbLine
 10
1.041190119971759
 20
6.27396923076923
 30
0.0
 11
1.111476128636638
 21
14.05643492784811
 31
0.0
1001
AcDbBlockRepETag
1070
     1
1071
       18
1005
3BE
  0
LINE
  5
3BF
330
7C
100
AcDbEntity
  8
0
 62
     7
100
AcDbLine
 10
-0.128724825415037
 20
14.031005970239
 30
0.0
 11
-0.0575593507410019
 21
6.273969230769229
 31
0.0
1001
AcDbBlockRepETag
1070
     1
1071
       19
1005
3BF
  0
LINE
  5
3C0
330
7C
100
AcDbEntity
  8
0
 62
     7
100
AcDbLine
 10
0.5316923076923104
 20
6.273969230769229
 30
0.0
 11
1.06338461538462
 21
6.273969230769229
 31
0.0
1001
AcDbBlockRepETag
1070
     1
1071
       20
1005
3C0
  0
LINE
  5
3C1
330
7C
100
AcDbEntity
  8
0
 62
     7
100
AcDbLine
 10
1.329230769230775
 20
5.875199999999996
 30
0.0
 11
0.5316923076923104
 21
5.875199999999996
 31
0.0
1001
AcDbBlockRepETag
1070
     1
1071
       21
1005
3C1
  0
LINE
  5
3C2
330
7C
100
AcDbEntity
  8
0
 62
     7
100
AcDbLine
 10
0.5316923076923104
 20
5.875199999999996
 30
0.0
 11
-0.3456000000000046
 21
5.875199999999996
 31
0.0
1001
AcDbBlockRepETag
1070
     1
1071
       22
1005
3C2
  0
LINE
  5
3C3
330
7C
100
AcDbEntity
  8
0
 62
     7
100
AcDbLine
 10
-0.0797538461538494
 20
6.273969230769229
 30
0.0
 11
0.5316923076923104
 21
6.273969230769229
 31
0.0
1001
AcDbBlockRepETag
1070
     1
1071
       23
1005
3C3
  0
LINE
  5
3C4
330
7C
100
AcDbEntity
  8
0
 62
     7
100
AcDbLine
 10
0.5316923076923104
 20
6.273969230769229
 30
0.0
 11
0.5316923076923104
 21
6.273969230769229
 31
0.0
1001
AcDbBlockRepETag
1070
     1
1071
       24
1005
3C4
  0
LINE
  5
3C5
330
7C
100
AcDbEntity
  8
0
 62
     7
100
AcDbLine
 10
0.5316923076923104
 20
5.875199999999996
 30
0.0
 11
0.5316923076923104
 21
5.875199999999996
 31
0.0
1001
AcDbBlockRepETag
1070
     1
1071
       25
1005
3C5
  0
ARC
  5
3C6
330
7C
100
AcDbEntity
  8
0
 62
     7
100
AcDbCircle
 10
0.9591958147485115
 20
16.33600175088441
 30
0.0
 40
0.4390780027786576
100
AcDbArc
 50
294.5075032775865
 51
13.92960787331238
1001
AcDbBlockRepETag
1070
     1
1071
       26
1005
3C6
  0
ARC
  5
3C7
330
7C
100
AcDbEntity
  8
0
 62
     7
100
AcDbCircle
 10
1.446977898090665
 20
16.70702679279409
 30
0.0
 40
0.8208605528383206
100
AcDbArc
 50
188.8264916683535
 51
248.1394049389723
1001
AcDbBlockRepETag
1070
     1
1071
       27
1005
3C7
  0
ARC
  5
3C8
330
7C
100
AcDbEntity
  8
0
 62
     7
100
AcDbCircle
 10
1.806881618857545
 20
16.45644156513563
 30
0.0
 40
1.243934509561016
100
AcDbArc
 50
187.9260849408037
 51
236.2165345858329
1001
AcDbBlockRepETag
1070
     1
1071
       28
1005
3C8
  0
LWPOLYLINE
  5
3C9
330
7C
100
AcDbEntity
  8
0
 62
     7
100
AcDbPolyline
 90
        4
 70
     0
 43
0.0
 10
0.9583075741224575
 20
14.38598110899468
 42
-0.1489525582881374
 10
0.7229922029076335
 20
14.78667233115653
 42
-0.0652650985037436
 10
0.5661153643453929
 20
16.27619801700566
 42
-0.1520817404271813
 10
0.7317077465865225
 20
16.76399587493646
 42
-1.058455286006532
1001
AcDbBlockRepETag
1070
     1
1071
       29
1005
3C9
  0
LWPOLYLINE
  5
3CA
330
7C
100
AcDbEntity
  8
0
 62
     7
100
AcDbPolyline
 90
        4
 70
     0
 43
0.0
 10
0.5051076923076892
 20
14.00271139597566
 42
0.1466379883255973
 10
1.001884612288193
 20
14.47308789642115
 42
0.0910434449531988
 10
1.489946215332693
 20
15.5880546238227
 42
0.3125600725606255
 10
1.09775377881273
 20
16.76399587493646
 42
14.60514073324043
1001
AcDbBlockRepETag
1070
     1
1071
       30
1005
3CA
  0
LWPOLYLINE
  5
3CB
330
7C
100
AcDbEntity
  8
0
 62
     7
100
AcDbPolyline
 90
        4
 70
     0
 43
0.0
 10
0.0519078104929207
 20
14.38598110899468
 42
0.1489525582881374
 10
0.2872231817077448
 20
14.78667233115653
 42
0.0652650985037436
 10
0.4441000202699854
 20
16.27619801700566
 42
0.1520817404271813
 10
0.2785076380288558
 20
16.76399587493646
 42
1.058455286006532
1001
AcDbBlockRepETag
1070
     1
1071
       31
1005
3CB
  0
ARC
  5
3CC
330
7C
100
AcDbEntity
  8
0
 62
     7
100
AcDbCircle
 10
-3.271569694519847
 20
15.7344441486461
 30
0.0
 40
4.404197253032999
100
AcDbArc
 50
342.6465420994233
 51
13.51889588793394
1001
AcDbBlockRepETag
1070
     1
1071
       32
1005
3CC
  0
ARC
  5
3CD
330
7C
100
AcDbEntity
  8
0
 62
     7
100
AcDbCircle
 10
0.3958196810601606
 20
16.26210155861859
 30
0.0
 40
1.104714707086763
100
AcDbArc
 50
311.2287051534847
 51
356.6632311952786
1001
AcDbBlockRepETag
1070
     1
1071
       33
1005
3CD
  0
ARC
  5
3CE
330
7C
100
AcDbEntity
  8
0
 62
     7
100
AcDbCircle
 10
0.0510195698668667
 20
16.33600175088441
 30
0.0
 40
0.4390780027786576
100
AcDbArc
 50
166.0703921266876
 51
245.4924967224136
1001
AcDbBlockRepETag
1070
     1
1071
       34
1005
3CE
  0
ARC
  5
3CF
330
7C
100
AcDbEntity
  8
0
 62
     7
100
AcDbCircle
 10
0.6143957035552177
 20
16.26210155861859
 30
0.0
 40
1.104714707086763
100
AcDbArc
 50
183.3367688047214
 51
228.7712948465153
1001
AcDbBlockRepETag
1070
     1
1071
       35
1005
3CF
  0
ARC
  5
3D0
330
7C
100
AcDbEntity
  8
0
 62
     7
100
AcDbCircle
 10
-0.7966662342421671
 20
16.45644156513563
 30
0.0
 40
1.243934509561016
100
AcDbArc
 50
303.7834654141671
 51
352.0739150591963
1001
AcDbBlockRepETag
1070
     1
1071
       36
1005
3D0
  0
LWPOLYLINE
  5
3D1
330
7C
100
AcDbEntity
  8
0
 62
     7
100
AcDbPolyline
 90
        4
 70
     0
 43
0.0
 10
0.5051076923076892
 20
14.00271139597566
 42
-0.1466379883255973
 10
0.0083307723271844
 20
14.47308789642115
 42
-0.0910434449531988
 10
-0.4797308307173154
 20
15.5880546238227
 42
-0.3125600725606255
 10
-0.0875383941973525
 20
16.76399587493646
 42
-14.60514073324043
1001
AcDbBlockRepETag
1070
     1
1071
       37
1005
3D1
  0
ARC
  5
3D2
330
7C
100
AcDbEntity
  8
0
 62
     7
100
AcDbCircle
 10
4.281785079135232
 20
15.7344441486461
 30
0.0
 40
4.404197253032999
100
AcDbArc
 50
166.481104112066
 51
197.3534579005767
1001
AcDbBlockRepETag
1070
     1
1071
       38
1005
3D2
  0
ARC
  5
3D3
330
7C
100
AcDbEntity
  8
0
 62
     7
100
AcDbCircle
 10
-0.4367625134752871
 20
16.70702679279409
 30
0.0
 40
0.8208605528383206
100
AcDbArc
 50
291.8605950610277
 51
351.1735083316465
1001
AcDbBlockRepETag
1070
     1
1071
       39
1005
3D3
  0
ARC
  5
3D4
330
7C
100
AcDbEntity
  8
0
 62
     7
100
AcDbCircle
 10
1.470676258965255
 20
15.88738340635914
 30
0.0
 40
0.925717331138472
100
AcDbArc
 50
196.6012526038452
 51
245.0595316172569
1001
AcDbBlockRepETag
1070
     1
1071
       40
1005
3D4
  0
LWPOLYLINE
  5
3D5
330
7C
100
AcDbEntity
  8
0
 62
     7
100
AcDbPolyline
 90
        6
 70
     0
 43
0.0
 10
-0.2967075878613059
 20
15.05670329634987
 42
0.1033242436265531
 10
-0.2356999158236022
 20
14.56890543841907
 42
-0.2070592920297566
 10
-0.2792769539893385
 20
14.01142215054708
 42
0.8542472729954219
 10
-0.2444154595025054
 20
13.98529003849035
 42
0.3740018067679395
 10
-0.0439615827745286
 20
14.19434632831393
 10
0.0083307723271844
 20
14.46437729350729
1001
AcDbBlockRepETag
1070
     1
1071
       41
1005
3D5
  0
ARC
  5
3D6
330
7C
100
AcDbEntity
  8
0
 62
     7
100
AcDbCircle
 10
0.9456302940613028
 20
16.11471999473796
 30
0.0
 40
1.479686784512563
100
AcDbArc
 50
189.3035317607624
 51
227.1122178597156
1001
AcDbBlockRepETag
1070
     1
1071
       42
1005
3D6
  0
LINE
  5
3D7
330
7C
100
AcDbEntity
  8
0
 62
     7
100
AcDbLine
 10
0.5071025852955416
 20
14.44652491784012
 30
0.0
 11
0.4007641237570852
 21
15.29723261014781
 31
0.0
1001
AcDbBlockRepETag
1070
     1
1071
       43
1005
3D7
  0
LINE
  5
3D8
330
7C
100
AcDbEntity
  8
0
 62
     7
100
AcDbLine
 10
0.613441046833998
 20
15.29723261014781
 30
0.0
 11
0.5071025852955416
 21
14.44652491784012
 31
0.0
1001
AcDbBlockRepETag
1070
     1
1071
       44
1005
3D8
  0
ARC
  5
3D9
330
7C
100
AcDbEntity
  8
0
 62
     7
100
AcDbCircle
 10
-0.4604608743498773
 20
15.88738340635914
 30
0.0
 40
0.925717331138472
100
AcDbArc
 50
294.9404683827431
 51
343.3987473961549
1001
AcDbBlockRepETag
1070
     1
1071
       45
1005
3D9
  0
LWPOLYLINE
  5
3DA
330
7C
100
AcDbEntity
  8
0
 62
     7
100
AcDbPolyline
 90
        6
 70
     0
 43
0.0
 10
1.306922972476684
 20
15.05670329634987
 42
-0.1033242436265531
 10
1.24591530043898
 20
14.56890543841907
 42
0.2070592920297566
 10
1.289492338604716
 20
14.01142215054708
 42
-0.8542472729954219
 10
1.254630844117883
 20
13.98529003849035
 42
-0.3740018067679395
 10
1.054176967389906
 20
14.19434632831393
 10
1.001884612288193
 20
14.46437729350729
1001
AcDbBlockRepETag
1070
     1
1071
       46
1005
3DA
  0
ARC
  5
3DB
330
7C
100
AcDbEntity
  8
0
 62
     7
100
AcDbCircle
 10
0.0645850905540755
 20
16.11471999473796
 30
0.0
 40
1.479686784512563
100
AcDbArc
 50
312.8877821402844
 51
350.6964682392375
1001
AcDbBlockRepETag
1070
     1
1071
       47
1005
3DB
  0
CIRCLE
  5
3DC
330
7C
100
AcDbEntity
  8
0
 62
     7
100
AcDbCircle
 10
0.7494007219964658
 20
17.82148728256971
 30
0.0
 40
0.1114402766826892
1001
AcDbBlockRepETag
1070
     1
1071
       48
1005
3DC
  0
LINE
  5
3DD
330
7C
100
AcDbEntity
  8
0
 62
     7
100
AcDbLine
 10
-0.2106820300890746
 20
18.70811227136553
 30
0.0
 11
1.251471816064764
 21
18.70811227136553
 31
0.0
1001
AcDbBlockRepETag
1070
     1
1071
       49
1005
3DD
  0
LINE
  5
3DE
330
7C
100
AcDbEntity
  8
0
 62
     7
100
AcDbLine
 10
1.09196412375708
 20
18.89420457905785
 30
0.0
 11
-0.077758953165997
 21
18.89420457905785
 31
0.0
1001
AcDbBlockRepETag
1070
     1
1071
       50
1005
3DE
  0
LINE
  5
3DF
330
7C
100
AcDbEntity
  8
0
 62
     7
100
AcDbLine
 10
1.09196412375708
 20
19.08029688675015
 30
0.0
 11
-0.077758953165997
 21
19.08029688675015
 31
0.0
1001
AcDbBlockRepETag
1070
     1
1071
       51
1005
3DF
  0
LINE
  5
3E0
330
7C
100
AcDbEntity
  8
0
 62
     7
100
AcDbLine
 10
-0.5562820300890792
 20
17.56497380982708
 30
0.0
 11
1.543902585295541
 21
17.56497380982708
 31
0.0
1001
AcDbBlockRepETag
1070
     1
1071
       52
1005
3E0
  0
LINE
  5
3E1
330
7C
100
AcDbEntity
  8
0
 62
     7
100
AcDbLine
 10
1.543902585295541
 20
18.09666611751938
 30
0.0
 11
-0.5562820300890792
 21
18.09666611751938
 31
0.0
1001
AcDbBlockRepETag
1070
     1
1071
       53
1005
3E1
  0
LINE
  5
3E2
330
7C
100
AcDbEntity
  8
0
 62
     7
100
AcDbLine
 10
-0.2106820300890746
 20
16.95352765598093
 30
0.0
 11
1.251471816064764
 21
16.95352765598093
 31
0.0
1001
AcDbBlockRepETag
1070
     1
1071
       54
1005
3E2
  0
LINE
  5
3E3
330
7C
100
AcDbEntity
  8
0
 62
     7
100
AcDbLine
 10
1.09196412375708
 20
16.75938645630166
 30
0.0
 11
-0.077758953165997
 21
16.75938645630166
 31
0.0
1001
AcDbBlockRepETag
1070
     1
1071
       55
1005
3E3
  0
LINE
  5
3E4
330
7C
100
AcDbEntity
  8
0
 62
     7
100
AcDbLine
 10
-0.077758953165997
 20
16.76743534828861
 30
0.0
 11
1.09196412375708
 21
16.76743534828861
 31
0.0
1001
AcDbBlockRepETag
1070
     1
1071
       56
1005
3E4
  0
LINE
  5
3E5
330
7C
100
AcDbEntity
  8
0
 62
     7
100
AcDbLine
 10
-0.5562820300890792
 20
18.09666611751938
 30
0.0
 11
-0.5562820300890792
 21
17.56497380982708
 31
0.0
1001
AcDbBlockRepETag
1070
     1
1071
       57
1005
3E5
  0
LWPOLYLINE
  5
3E6
330
7C
100
AcDbEntity
  8
0
 62
     7
100
AcDbPolyline
 90
        4
 70
     0
 43
0.0
 10
-0.0788230772613616
 20
16.76735813211475
 42
-0.3768206980318931
 10
-0.2269845988876256
 20
16.95028230988161
 42
0.329142767501598
 10
0.0344769498780409
 20
17.28128810210227
 42
0.2864246696396941
 10
-0.5581691366269866
 20
17.5600296702095
 42
5.509514788838981
1001
AcDbBlockRepETag
1070
     1
1071
       58
1005
3E6
  0
CIRCLE
  5
3E7
330
7C
100
AcDbEntity
  8
0
 62
     7
100
AcDbCircle
 10
-0.4752481235387052
 20
17.82148728256971
 30
0.0
 40
0.1114402766826892
1001
AcDbBlockRepETag
1070
     1
1071
       59
1005
3E7
  0
LWPOLYLINE
  5
3E8
330
7C
100
AcDbEntity
  8
0
 62
     7
100
AcDbPolyline
 90
        4
 70
     0
 43
0.0
 10
-0.0788230772613616
 20
18.88405253577707
 42
0.3768206980318931
 10
-0.2269845988876256
 20
18.70112835801021
 42
-0.329142767501598
 10
0.0344769498780409
 20
18.37012256578955
 42
-0.2864246696396941
 10
-0.5581691366269866
 20
18.09138099768232
 42
-5.509514788838981
1001
AcDbBlockRepETag
1070
     1
1071
       60
1005
3E8
  0
CIRCLE
  5
3E9
330
7C
100
AcDbEntity
  8
0
 62
     7
100
AcDbCircle
 10
0.2595412744795595
 20
17.82148728256971
 30
0.0
 40
0.1114402766826892
1001
AcDbBlockRepETag
1070
     1
1071
       61
1005
3E9
  0
CIRCLE
  5
3EA
330
7C
100
AcDbEntity
  8
0
 62
     7
100
AcDbCircle
 10
-0.2303183997802449
 20
17.82148728256971
 30
0.0
 40
0.1114402766826892
1001
AcDbBlockRepETag
1070
     1
1071
       62
1005
3EA
  0
CIRCLE
  5
3EB
330
7C
100
AcDbEntity
  8
0
 62
     7
100
AcDbCircle
 10
0.0146115507210993
 20
17.83678710261921
 30
0.0
 40
0.1114402766826892
1001
AcDbBlockRepETag
1070
     1
1071
       63
1005
3EB
  0
CIRCLE
  5
3EC
330
7C
100
AcDbEntity
  8
0
 62
     7
100
AcDbCircle
 10
0.4891629046745436
 20
17.82148728256971
 30
0.0
 40
0.1114402766826892
1001
AcDbBlockRepETag
1070
     1
1071
       64
1005
3EC
  0
LINE
  5
3ED
330
7C
100
AcDbEntity
  8
0
 62
     7
100
AcDbLine
 10
-0.077758953165997
 20
19.08029688675015
 30
0.0
 11
-0.077758953165997
 21
18.89420457905785
 31
0.0
1001
AcDbBlockRepETag
1070
     1
1071
       65
1005
3ED
  0
LINE
  5
3EE
330
7C
100
AcDbEntity
  8
0
 62
     7
100
AcDbLine
 10
1.543902585295541
 20
17.56497380982708
 30
0.0
 11
1.543902585295541
 21
18.09666611751938
 31
0.0
1001
AcDbBlockRepETag
1070
     1
1071
       66
1005
3EE
  0
LWPOLYLINE
  5
3EF
330
7C
100
AcDbEntity
  8
0
 62
     7
100
AcDbPolyline
 90
        4
 70
     0
 43
0.0
 10
1.089038461876739
 20
16.76735813211475
 42
0.3768206980318931
 10
1.237199983503003
 20
16.95028230988161
 42
-0.329142767501598
 10
0.9757384347373374
 20
17.28128810210227
 42
-0.2864246696396941
 10
1.568384521242364
 20
17.5600296702095
 42
-5.509514788838981
1001
AcDbBlockRepETag
1070
     1
1071
       67
1005
3EF
  0
LWPOLYLINE
  5
3F0
330
7C
100
AcDbEntity
  8
0
 62
     7
100
AcDbPolyline
 90
        4
 70
     0
 43
0.0
 10
1.089038461876739
 20
18.88405253577707
 42
-0.3768206980318931
 10
1.237199983503003
 20
18.70112835801021
 42
0.329142767501598
 10
0.9757384347373374
 20
18.37012256578955
 42
0.2864246696396941
 10
1.568384521242364
 20
18.09138099768232
 42
5.509514788838981
1001
AcDbBlockRepETag
1070
     1
1071
       68
1005
3F0
  0
CIRCLE
  5
3F1
330
7C
100
AcDbEntity
  8
0
 62
     7
100
AcDbCircle
 10
1.484190120014716
 20
17.82148728256971
 30
0.0
 40
0.1114402766826892
1001
AcDbBlockRepETag
1070
     1
1071
       69
1005
3F1
  0
CIRCLE
  5
3F2
330
7C
100
AcDbEntity
  8
0
 62
     7
100
AcDbCircle
 10
1.23926039625627
 20
17.82148728256971
 30
0.0
 40
0.1114402766826892
1001
AcDbBlockRepETag
1070
     1
1071
       70
1005
3F2
  0
CIRCLE
  5
3F3
330
7C
100
AcDbEntity
  8
0
 62
     7
100
AcDbCircle
 10
0.979022578934348
 20
17.82148728256971
 30
0.0
 40
0.1114402766826892
1001
AcDbBlockRepETag
1070
     1
1071
       71
1005
3F3
  0
LINE
  5
3F4
330
7C
100
AcDbEntity
  8
0
 62
     7
100
AcDbLine
 10
1.09196412375708
 20
18.89420457905785
 30
0.0
 11
1.09196412375708
 21
19.08029688675015
 31
0.0
1001
AcDbBlockRepETag
1070
     1
1071
       72
1005
3F4
  0
LINE
  5
3F5
330
7C
100
AcDbEntity
  8
0
 62
     7
100
AcDbLine
 10
1.03302295081967
 20
30.46596923076922
 30
0.0
 11
0.983630769230757
 21
35.88923076923077
 31
0.0
1001
AcDbBlockRepETag
1070
     1
1071
       73
1005
3F5
  0
LINE
  5
3F6
330
7C
100
AcDbEntity
  8
0
 62
     7
100
AcDbLine
 10
0.0
 20
35.88923076923077
 30
0.0
 11
-0.0493921815888996
 21
30.46596923076923
 31
0.0
1001
AcDbBlockRepETag
1070
     1
1071
       74
1005
3F6
  0
LINE
  5
3F7
330
7C
100
AcDbEntity
  8
0
 62
     7
100
AcDbLine
 10
-0.0573820933165195
 20
29.58867692307693
 30
0.0
 11
-0.1282416308404219
 21
21.80829970295318
 31
0.0
1001
AcDbBlockRepETag
1070
     1
1071
       75
1005
3F7
  0
LINE
  5
3F8
330
7C
100
AcDbEntity
  8
0
 62
     7
100
AcDbLine
 10
1.112094399730451
 20
21.78392414036638
 30
0.0
 11
1.04101286254729
 21
29.58867692307693
 31
0.0
1001
AcDbBlockRepETag
1070
     1
1071
       76
1005
3F8
  0
ARC
  5
3F9
330
7C
100
AcDbEntity
  8
0
 62
     7
100
AcDbCircle
 10
1.470676258965255
 20
19.95229993669267
 30
0.0
 40
0.925717331138472
100
AcDbArc
 50
114.940468382743
 51
163.3987473961548
1001
AcDbBlockRepETag
1070
     1
1071
       77
1005
3F9
  0
ARC
  5
3FA
330
7C
100
AcDbEntity
  8
0
 62
     7
100
AcDbCircle
 10
1.806881618857545
 20
19.38324177791618
 30
0.0
 40
1.243934509561016
100
AcDbArc
 50
123.7834654141671
 51
172.0739150591963
1001
AcDbBlockRepETag
1070
     1
1071
       78
1005
3FA
  0
LINE
  5
3FB
330
7C
100
AcDbEntity
  8
0
 62
     7
100
AcDbLine
 10
0.5071025852955416
 20
21.39315842521169
 30
0.0
 11
0.4007641237570852
 21
20.542450732904
 31
0.0
1001
AcDbBlockRepETag
1070
     1
1071
       79
1005
3FB
  0
LINE
  5
3FC
330
7C
100
AcDbEntity
  8
0
 62
     7
100
AcDbLine
 10
0.613441046833998
 20
20.542450732904
 30
0.0
 11
0.5071025852955416
 21
21.39315842521169
 31
0.0
1001
AcDbBlockRepETag
1070
     1
1071
       80
1005
3FC
  0
LWPOLYLINE
  5
3FD
330
7C
100
AcDbEntity
  8
0
 62
     7
100
AcDbPolyline
 90
        6
 70
     0
 43
0.0
 10
-0.2967075878613059
 20
20.78298004670194
 42
-0.1033242436265531
 10
-0.2356999158236022
 20
21.27077790463274
 42
0.2070592920297566
 10
-0.2792769539893385
 20
21.82826119250472
 42
-0.8542472729954219
 10
-0.2444154595025054
 20
21.85439330456146
 42
-0.3740018067679395
 10
-0.0439615827745286
 20
21.64533701473787
 10
0.0083307723271844
 20
21.37530604954452
1001
AcDbBlockRepETag
1070
     1
1071
       81
1005
3FD
  0
ARC
  5
3FE
330
7C
100
AcDbEntity
  8
0
 62
     7
100
AcDbCircle
 10
0.0510195698668667
 20
19.50368159216739
 30
0.0
 40
0.4390780027786576
100
AcDbArc
 50
114.5075032775864
 51
193.9296078733123
1001
AcDbBlockRepETag
1070
     1
1071
       82
1005
3FE
  0
ARC
  5
3FF
330
7C
100
AcDbEntity
  8
0
 62
     7
100
AcDbCircle
 10
0.9456302940613028
 20
19.72496334831385
 30
0.0
 40
1.479686784512563
100
AcDbArc
 50
132.8877821402844
 51
170.6964682392376
1001
AcDbBlockRepETag
1070
     1
1071
       83
1005
3FF
  0
ARC
  5
400
330
7C
100
AcDbEntity
  8
0
 62
     7
100
AcDbCircle
 10
0.6143957035552177
 20
19.57758178443322
 30
0.0
 40
1.104714707086763
100
AcDbArc
 50
131.2287051534847
 51
176.6632311952785
1001
AcDbBlockRepETag
1070
     1
1071
       84
1005
400
  0
ARC
  5
401
330
7C
100
AcDbEntity
  8
0
 62
     7
100
AcDbCircle
 10
-0.7966662342421671
 20
19.38324177791618
 30
0.0
 40
1.243934509561016
100
AcDbArc
 50
7.926084940803717
 51
56.21653458583289
1001
AcDbBlockRepETag
1070
     1
1071
       85
1005
401
  0
ARC
  5
402
330
7C
100
AcDbEntity
  8
0
 62
     7
100
AcDbCircle
 10
-0.4604608743498773
 20
19.95229993669267
 30
0.0
 40
0.925717331138472
100
AcDbArc
 50
16.60125260384516
 51
65.05953161725692
1001
AcDbBlockRepETag
1070
     1
1071
       86
1005
402
  0
LWPOLYLINE
  5
403
330
7C
100
AcDbEntity
  8
0
 62
     7
100
AcDbPolyline
 90
        6
 70
     0
 43
0.0
 10
1.306922972476684
 20
20.78298004670194
 42
0.1033242436265531
 10
1.24591530043898
 20
21.27077790463274
 42
-0.2070592920297566
 10
1.289492338604716
 20
21.82826119250472
 42
0.8542472729954219
 10
1.254630844117883
 20
21.85439330456146
 42
0.3740018067679395
 10
1.054176967389906
 20
21.64533701473787
 10
1.001884612288193
 20
21.37530604954452
1001
AcDbBlockRepETag
1070
     1
1071
       87
1005
403
  0
ARC
  5
404
330
7C
100
AcDbEntity
  8
0
 62
     7
100
AcDbCircle
 10
0.0645850905540755
 20
19.72496334831385
 30
0.0
 40
1.479686784512563
100
AcDbArc
 50
9.30353176076243
 51
47.11221785971555
1001
AcDbBlockRepETag
1070
     1
1071
       88
1005
404
  0
ARC
  5
405
330
7C
100
AcDbEntity
  8
0
 62
     7
100
AcDbCircle
 10
0.3958196810601606
 20
19.57758178443322
 30
0.0
 40
1.104714707086763
100
AcDbArc
 50
3.336768804721425
 51
48.77129484651533
1001
AcDbBlockRepETag
1070
     1
1071
       89
1005
405
  0
ARC
  5
406
330
7C
100
AcDbEntity
  8
0
 62
     7
100
AcDbCircle
 10
0.9591958147485115
 20
19.50368159216739
 30
0.0
 40
0.4390780027786576
100
AcDbArc
 50
346.0703921266877
 51
65.49249672241352
1001
AcDbBlockRepETag
1070
     1
1071
       90
1005
406
  0
LINE
  5
407
330
7C
100
AcDbEntity
  8
0
 62
     7
100
AcDbLine
 10
0.5316923076923104
 20
30.30646153846154
 30
0.0
 11
1.089969230769227
 21
30.30646153846154
 31
0.0
1001
AcDbBlockRepETag
1070
     1
1071
       91
1005
407
  0
LINE
  5
408
330
7C
100
AcDbEntity
  8
0
 62
     7
100
AcDbLine
 10
1.089969230769227
 20
30.46596923076923
 30
0.0
 11
0.5316923076923104
 21
30.46596923076923
 31
0.0
1001
AcDbBlockRepETag
1070
     1
1071
       92
1005
408
  0
LINE
  5
409
330
7C
100
AcDbEntity
  8
0
 62
     7
100
AcDbLine
 10
0.5316923076923104
 20
29.58867692307693
 30
0.0
 11
1.06338461538462
 21
29.58867692307693
 31
0.0
1001
AcDbBlockRepETag
1070
     1
1071
       93
1005
409
  0
LINE
  5
40A
330
7C
100
AcDbEntity
  8
0
 62
     7
100
AcDbLine
 10
1.329230769230775
 20
29.98744615384616
 30
0.0
 11
0.5316923076923104
 21
29.98744615384616
 31
0.0
1001
AcDbBlockRepETag
1070
     1
1071
       94
1005
40A
  0
LWPOLYLINE
  5
40B
330
7C
100
AcDbEntity
  8
0
 62
     7
100
AcDbPolyline
 90
        4
 70
     0
 43
0.0
 10
-0.1063384615384564
 20
30.46596923076923
 10
-0.1063384615384564
 20
30.30595945884511
 42
0.2753116167442796
 10
-0.3606088922187212
 20
29.99535235285203
 42
-0.2171216619591928
 10
-0.1063384615384564
 20
29.59062184341529
 42
-2.022033034273503
1001
AcDbBlockRepETag
1070
     1
1071
       95
1005
40B
  0
LINE
  5
40C
330
7C
100
AcDbEntity
  8
0
 62
     7
100
AcDbLine
 10
0.5316923076923104
 20
29.98744615384616
 30
0.0
 11
-0.3456000000000046
 21
29.98744615384616
 31
0.0
1001
AcDbBlockRepETag
1070
     1
1071
       96
1005
40C
  0
LINE
  5
40D
330
7C
100
AcDbEntity
  8
0
 62
     7
100
AcDbLine
 10
-0.0797538461538494
 20
29.58867692307693
 30
0.0
 11
0.5316923076923104
 21
29.58867692307693
 31
0.0
1001
AcDbBlockRepETag
1070
     1
1071
       97
1005
40D
  0
LINE
  5
40E
330
7C
100
AcDbEntity
  8
0
 62
     7
100
AcDbLine
 10
0.5316923076923104
 20
29.98744615384616
 30
0.0
 11
0.5316923076923104
 21
29.98744615384616
 31
0.0
1001
AcDbBlockRepETag
1070
     1
1071
       98
1005
40E
  0
LINE
  5
40F
330
7C
100
AcDbEntity
  8
0
 62
     7
100
AcDbLine
 10
0.5316923076923104
 20
29.58867692307693
 30
0.0
 11
0.5316923076923104
 21
29.58867692307693
 31
0.0
1001
AcDbBlockRepETag
1070
     1
1071
       99
1005
40F
  0
LINE
  5
410
330
7C
100
AcDbEntity
  8
0
 62
     7
100
AcDbLine
 10
-0.1063384615384564
 20
30.30646153846154
 30
0.0
 11
0.5316923076923104
 21
30.30646153846154
 31
0.0
1001
AcDbBlockRepETag
1070
     1
1071
      100
1005
410
  0
LINE
  5
411
330
7C
100
AcDbEntity
  8
0
 62
     7
100
AcDbLine
 10
0.5316923076923104
 20
30.46596923076923
 30
0.0
 11
-0.1063384615384564
 21
30.46596923076923
 31
0.0
1001
AcDbBlockRepETag
1070
     1
1071
      101
1005
411
  0
LWPOLYLINE
  5
412
330
7C
100
AcDbEntity
  8
0
 62
     7
100
AcDbPolyline
 90
        4
 70
     0
 43
0.0
 10
1.089969230769213
 20
30.46596923076923
 10
1.089969230769213
 20
30.30595945884511
 42
-0.2753116167442796
 10
1.344239661449478
 20
29.99535235285203
 42
0.2171216619591928
 10
1.089969230769213
 20
29.59062184341529
 42
2.022033034273503
1001
AcDbBlockRepETag
1070
     1
1071
      102
1005
412
  0
LINE
  5
413
330
7C
100
AcDbEntity
  8
0
 62
     7
100
AcDbLine
 10
0.983630769230757
 20
35.88923076923077
 30
0.0
 11
0.0
 21
35.88923076923077
 31
0.0
1001
AcDbBlockRepETag
1070
     1
1071
      103
1005
413
  0
ENDBLK
  5
18C
330
7C
100
AcDbEntity
  8
0
100
AcDbBlockEnd
  0
BLOCK
  5
18D
330
A3
100
AcDbEntity
  8
0
100
AcDbBlockBegin
  2
*D1
 70
     1
 10
0.0
 20
0.0
 30
0.0
  3
*D1
  1

  0
LINE
  5
18E
330
A3
100
AcDbEntity
  8
0
  6
ByBlock
 62
     0
100
AcDbLine
 10
35.33790916157313
 20
2.798697530617541
 30
0.0
 11
34.10432376199697
 21
2.798697530617541
 31
0.0
  0
LINE
  5
18F
330
A3
100
AcDbEntity
  8
0
  6
ByBlock
 62
     0
100
AcDbLine
 10
35.33790916157313
 20
38.79869753061754
 30
0.0
 11
34.10432376199697
 21
38.79869753061754
 31
0.0
  0
LINE
  5
190
330
A3
100
AcDbEntity
  8
0
  6
ByBlock
 62
     0
100
AcDbLine
 10
34.28432376199697
 20
2.798697530617541
 30
0.0
 11
34.28432376199697
 21
20.56953086395088
 31
0.0
  0
LINE
  5
191
330
A3
100
AcDbEntity
  8
0
  6
ByBlock
 62
     0
100
AcDbLine
 10
34.28432376199697
 20
38.79869753061754
 30
0.0
 11
34.28432376199697
 21
21.02786419728421
 31
0.0
  0
LINE
  5
192
330
A3
100
AcDbEntity
  8
0
  6
ByBlock
 62
     0
100
AcDbLine
 10
34.40932376199697
 20
2.673697530617541
 30
0.0
 11
34.15932376199697
 21
2.923697530617541
 31
0.0
  0
LINE
  5
193
330
A3
100
AcDbEntity
  8
0
  6
ByBlock
 62
     0
100
AcDbLine
 10
34.40932376199697
 20
38.67369753061755
 30
0.0
 11
34.15932376199697
 21
38.92369753061755
 31
0.0
  0
TEXT
  5
194
330
A3
100
AcDbEntity
  8
0
  6
ByBlock
 62
     0
100
AcDbText
 10
34.34682376199698
 20
20.69453086395087
 30
0.0
 40
0.125
  1
36
 50
90.0
 72
     1
 11
34.28432376199697
 21
20.79869753061754
 31
0.0
100
AcDbText
 73
     2
  0
POINT
  5
195
330
A3
100
AcDbEntity
  8
DEFPOINTS
  6
ByBlock
 62
     0
100
AcDbPoint
 10
35.40040916157313
 20
2.798697530617541
 30
0.0
  0
POINT
  5
196
330
A3
100
AcDbEntity
  8
DEFPOINTS
  6
ByBlock
 62
     0
100
AcDbPoint
 10
35.40040916157313
 20
38.79869753061754
 30
0.0
  0
POINT
  5
197
330
A3
100
AcDbEntity
  8
DEFPOINTS
  6
ByBlock
 62
     0
100
AcDbPoint
 10
34.28432376199697
 20
38.79869753061754
 30
0.0
  0
ENDBLK
  5
198
330
A3
100
AcDbEntity
  8
0
100
AcDbBlockEnd
  0
BLOCK
  5
199
330
AB
100
AcDbEntity
  8
0
100
AcDbBlockBegin
  2
*D2
 70
     1
 10
0.0
 20
0.0
 30
0.0
  3
*D2
  1

  0
LINE
  5
19A
330
AB
100
AcDbEntity
  8
0
  6
ByBlock
 62
     0
100
AcDbLine
 10
35.40040916157313
 20
2.736197530617541
 30
0.0
 11
35.40040916157313
 21
1.949340526168318
 31
0.0
  0
LINE
  5
19B
330
AB
100
AcDbEntity
  8
0
  6
ByBlock
 62
     0
100
AcDbLine
 10
36.38707582823979
 20
2.736197530617541
 30
0.0
 11
36.38707582823979
 21
1.949340526168318
 31
0.0
  0
LINE
  5
19C
330
AB
100
AcDbEntity
  8
0
  6
ByBlock
 62
     0
100
AcDbLine
 10
35.40040916157313
 20
2.129340526168318
 30
0.0
 11
35.74790916157313
 21
2.129340526168318
 31
0.0
  0
LINE
  5
19D
330
AB
100
AcDbEntity
  8
0
  6
ByBlock
 62
     0
100
AcDbLine
 10
36.38707582823979
 20
2.129340526168318
 30
0.0
 11
36.0395758282398
 21
2.129340526168318
 31
0.0
  0
LINE
  5
19E
330
AB
100
AcDbEntity
  8
0
  6
ByBlock
 62
     0
100
AcDbLine
 10
35.27540916157313
 20
2.004340526168318
 30
0.0
 11
35.52540916157313
 21
2.254340526168318
 31
0.0
  0
LINE
  5
19F
330
AB
100
AcDbEntity
  8
0
  6
ByBlock
 62
     0
100
AcDbLine
 10
36.26207582823979
 20
2.004340526168318
 30
0.0
 11
36.51207582823979
 21
2.254340526168318
 31
0.0
  0
TEXT
  5
1A0
330
AB
100
AcDbEntity
  8
0
  6
ByBlock
 62
     0
100
AcDbText
 10
35.87290916157313
 20
2.066840526168318
 30
0.0
 40
0.125
  1
1
 72
     1
 11
35.89374249490646
 21
2.129340526168318
 31
0.0
100
AcDbText
 73
     2
  0
POINT
  5
1A1
330
AB
100
AcDbEntity
  8
DEFPOINTS
  6
ByBlock
 62
     0
100
AcDbPoint
 10
35.40040916157313
 20
2.798697530617541
 30
0.0
  0
POINT
  5
1A2
330
AB
100
AcDbEntity
  8
DEFPOINTS
  6
ByBlock
 62
     0
100
AcDbPoint
 10
36.38707582823979
 20
2.798697530617541
 30
0.0
  0
POINT
  5
1A3
330
AB
100
AcDbEntity
  8
DEFPOINTS
  6
ByBlock
 62
     0
100
AcDbPoint
 10
36.38707582823979
 20
2.129340526168318
 30
0.0
  0
ENDBLK
  5
1A4
330
AB
100
AcDbEntity
  8
0
100
AcDbBlockEnd
  0
BLOCK
  5
37B
330
370
100
AcDbEntity
  8
0
 62
     3
100
AcDbBlockBegin
  2
*D3
 70
     1
 10
0.0
 20
0.0
 30
0.0
  3
*D3
  1

  0
LINE
  5
44A
330
370
100
AcDbEntity
  8
ADPDIM
 62
     0
370
    -2
100
AcDbLine
 10
36.44957582823979
 20
38.79869753061754
 30
0.0
 11
37.96380205920487
 21
38.79869753061754
 31
0.0
  0
LINE
  5
44B
330
370
100
AcDbEntity
  8
ADPDIM
 62
     0
370
    -2
100
AcDbLine
 10
36.44957582823979
 20
22.04869753061755
 30
0.0
 11
37.96380205920487
 21
22.04869753061755
 31
0.0
  0
LINE
  5
44C
330
370
100
AcDbEntity
  8
ADPDIM
 62
     0
370
    -2
100
AcDbLine
 10
37.78380205920488
 20
38.79869753061754
 30
0.0
 11
37.78380205920488
 21
31.88203086395088
 31
0.0
  0
LINE
  5
44D
330
370
100
AcDbEntity
  8
ADPDIM
 62
     0
370
    -2
100
AcDbLine
 10
37.78380205920488
 20
22.04869753061755
 30
0.0
 11
37.78380205920488
 21
28.96536419728422
 31
0.0
  0
LINE
  5
44E
330
370
100
AcDbEntity
  8
ADPDIM
 62
     0
370
    -2
100
AcDbLine
 10
37.90880205920487
 20
21.92369753061754
 30
0.0
 11
37.65880205920487
 21
22.17369753061754
 31
0.0
  0
LINE
  5
44F
330
370
100
AcDbEntity
  8
ADPDIM
 62
     0
370
    -2
100
AcDbLine
 10
37.90880205920487
 20
38.67369753061755
 30
0.0
 11
37.65880205920487
 21
38.92369753061755
 31
0.0
  0
MTEXT
  5
450
330
370
100
AcDbEntity
  8
ADPDIM
 62
     0
100
AcDbMText
 10
37.78380205920487
 20
30.42369753061755
 30
0.0
 40
0.5
 41
0.0
 71
     5
 72
     1
  1
\A1;16 3/4
 11
0.0000000000000001
 21
1.0
 31
0.0
 73
     1
 44
1.0
1001
ACAD
1000
MTEXTBEGIN
1070
    73
1070
     1
1070
    44
1040
1.0
1070
    74
1070
     0
1000
MTEXTEND
  0
POINT
  5
451
330
370
100
AcDbEntity
  8
DEFPOINTS
 62
     0
100
AcDbPoint
 10
36.38707582823979
 20
38.79869753061754
 30
0.0
  0
POINT
  5
452
330
370
100
AcDbEntity
  8
DEFPOINTS
 62
     0
100
AcDbPoint
 10
36.38707582823979
 20
22.04869753061755
 30
0.0
  0
POINT
  5
453
330
370
100
AcDbEntity
  8
DEFPOINTS
 62
     0
100
AcDbPoint
 10
37.78380205920488
 20
22.04869753061755
 30
0.0
  0
ENDBLK
  5
37C
330
370
100
AcDbEntity
  8
0
 62
     3
100
AcDbBlockEnd
  0
BLOCK
  5
37E
330
37D
100
AcDbEntity
  8
0
 62
     3
100
AcDbBlockBegin
  2
*D4
 70
     1
 10
0.0
 20
0.0
 30
0.0
  3
*D4
  1

  0
LINE
  5
37F
330
37D
100
AcDbEntity
  8
ADPDIM
 62
     0
370
    -2
100
AcDbLine
 10
36.44957582823979
 20
38.79869753061754
 30
0.0
 11
37.96380205920487
 21
38.79869753061754
 31
0.0
  0
LINE
  5
380
330
37D
100
AcDbEntity
  8
ADPDIM
 62
     0
370
    -2
100
AcDbLine
 10
36.44957582823979
 20
22.04869753061755
 30
0.0
 11
37.96380205920487
 21
22.04869753061755
 31
0.0
  0
LINE
  5
381
330
37D
100
AcDbEntity
  8
ADPDIM
 62
     0
370
    -2
100
AcDbLine
 10
37.78380205920488
 20
38.79869753061754
 30
0.0
 11
37.78380205920488
 21
30.88203086395088
 31
0.0
  0
LINE
  5
382
330
37D
100
AcDbEntity
  8
ADPDIM
 62
     0
370
    -2
100
AcDbLine
 10
37.78380205920488
 20
22.04869753061755
 30
0.0
 11
37.78380205920488
 21
29.96536419728422
 31
0.0
  0
LINE
  5
383
330
37D
100
AcDbEntity
  8
ADPDIM
 62
     0
370
    -2
100
AcDbLine
 10
37.90880205920487
 20
21.92369753061754
 30
0.0
 11
37.65880205920487
 21
22.17369753061754
 31
0.0
  0
LINE
  5
384
330
37D
100
AcDbEntity
  8
ADPDIM
 62
     0
370
    -2
100
AcDbLine
 10
37.90880205920487
 20
38.67369753061755
 30
0.0
 11
37.65880205920487
 21
38.92369753061755
 31
0.0
  0
MTEXT
  5
385
330
37D
100
AcDbEntity
  8
ADPDIM
 62
     0
100
AcDbMText
 10
37.78380205920487
 20
30.42369753061755
 30
0.0
 40
0.125
 41
0.0
 71
     5
 72
     1
  1
\A1;16.7500
 11
0.0000000000000001
 21
1.0
 31
0.0
 73
     1
 44
1.0
1001
ACAD
1000
MTEXTBEGIN
1070
    73
1070
     1
1070
    44
1040
1.0
1070
    74
1070
     0
1000
MTEXTEND
  0
POINT
  5
386
330
37D
100
AcDbEntity
  8
DEFPOINTS
 62
     0
100
AcDbPoint
 10
36.38707582823979
 20
38.79869753061754
 30
0.0
  0
POINT
  5
387
330
37D
100
AcDbEntity
  8
DEFPOINTS
 62
     0
100
AcDbPoint
 10
36.38707582823979
 20
22.04869753061755
 30
0.0
  0
POINT
  5
388
330
37D
100
AcDbEntity
  8
DEFPOINTS
 62
     0
100
AcDbPoint
 10
37.78380205920488
 20
22.04869753061755
 30
0.0
  0
ENDBLK
  5
389
330
37D
100
AcDbEntity
  8
0
 62
     3
100
AcDbBlockEnd
  0
BLOCK
  5
39D
330
392
100
AcDbEntity
  8
0
100
AcDbBlockBegin
  2
*D6
 70
     1
 10
0.0
 20
0.0
 30
0.0
  3
*D6
  1

  0
LINE
  5
454
330
392
100
AcDbEntity
  8
ADPDIM
 62
     0
370
    -2
100
AcDbLine
 10
36.44957581419462
 20
19.54335263373727
 30
0.0
 11
37.96380204515971
 21
19.54335263373727
 31
0.0
  0
LINE
  5
455
330
392
100
AcDbEntity
  8
ADPDIM
 62
     0
370
    -2
100
AcDbLine
 10
36.44957581419462
 20
2.793352633737271
 30
0.0
 11
37.9638020451597
 21
2.79335263373727
 31
0.0
  0
LINE
  5
456
330
392
100
AcDbEntity
  8
ADPDIM
 62
     0
370
    -2
100
AcDbLine
 10
37.78380204515971
 20
19.54335263373727
 30
0.0
 11
37.78380204515971
 21
12.6266859670706
 31
0.0
  0
LINE
  5
457
330
392
100
AcDbEntity
  8
ADPDIM
 62
     0
370
    -2
100
AcDbLine
 10
37.78380204515971
 20
2.79335263373727
 30
0.0
 11
37.78380204515971
 21
9.710019300403935
 31
0.0
  0
LINE
  5
458
330
392
100
AcDbEntity
  8
ADPDIM
 62
     0
370
    -2
100
AcDbLine
 10
37.9088020451597
 20
2.66835263373727
 30
0.0
 11
37.6588020451597
 21
2.91835263373727
 31
0.0
  0
LINE
  5
459
330
392
100
AcDbEntity
  8
ADPDIM
 62
     0
370
    -2
100
AcDbLine
 10
37.90880204515971
 20
19.41835263373727
 30
0.0
 11
37.65880204515971
 21
19.66835263373727
 31
0.0
  0
MTEXT
  5
45A
330
392
100
AcDbEntity
  8
ADPDIM
 62
     0
100
AcDbMText
 10
37.78380204515971
 20
11.16835263373727
 30
0.0
 40
0.5
 41
0.0
 71
     5
 72
     1
  1
\A1;16 3/4
 11
0.0000000000000001
 21
1.0
 31
0.0
 73
     1
 44
1.0
1001
ACAD
1000
MTEXTBEGIN
1070
    73
1070
     1
1070
    44
1040
1.0
1070
    74
1070
     0
1000
MTEXTEND
  0
POINT
  5
45B
330
392
100
AcDbEntity
  8
DEFPOINTS
 62
     0
100
AcDbPoint
 10
36.38707581419462
 20
19.54335263373727
 30
0.0
  0
POINT
  5
45C
330
392
100
AcDbEntity
  8
DEFPOINTS
 62
     0
100
AcDbPoint
 10
36.38707581419462
 20
2.793352633737271
 30
0.0
  0
POINT
  5
45D
330
392
100
AcDbEntity
  8
DEFPOINTS
 62
     0
100
AcDbPoint
 10
37.78380204515971
 20
2.79335263373727
 30
0.0
  0
ENDBLK
  5
39E
330
392
100
AcDbEntity
  8
0
100
AcDbBlockEnd
  0
ENDSEC
  0
SECTION
  2
ENTITIES
  0
DIMENSION
  5
1A5
330
18
100
AcDbEntity
  8
ADPDIM
100
AcDbDimension
  2
*D1
 10
34.28432376199697
 20
38.79869753061754
 30
0.0
 11
34.28432376199697
 21
20.79869753061754
 31
0.0
 71
     5
 42
-1.0
100
AcDbAlignedDimension
 13
35.40040916157313
 23
2.798697530617541
 33
0.0
 14
35.40040916157313
 24
38.79869753061754
 34
0.0
 50
90.0
100
AcDbRotatedDimension
  0
INSERT
  5
1A6
330
18
100
AcDbEntity
  8
ADP1DETAIL
100
AcDbBlockReference
  2
334
 10
35.40040916157313
 20
2.798697530617541
 30
0.0
 41
1.003086419753086
 42
1.003086419753086
 43
1.003086419753086
  0
CIRCLE
  5
1A7
330
18
100
AcDbEntity
  8
ADP1DETAIL
100
AcDbCircle
 10
35.87928316674938
 20
0.7853864633632513
 30
0.0
 40
0.5
  0
DIMENSION
  5
1A8
330
18
100
AcDbEntity
  8
ADPDIM
100
AcDbDimension
  2
*D2
 10
36.38707582823979
 20
2.129340526168318
 30
0.0
 11
35.89374249490646
 21
2.129340526168318
 31
0.0
 71
     5
 42
-1.0
100
AcDbAlignedDimension
 13
35.40040916157313
 23
2.798697530617541
 33
0.0
 14
36.38707582823979
 24
2.798697530617541
 34
0.0
100
AcDbRotatedDimension
  0
TEXT
  5
1B6
330
18
100
AcDbEntity
  8
ADPDIM
100
AcDbText
 10
3.705745479164114
 20
-1.074352359904821
 30
0.0
 40
0.625
  1
J U L I U S  B L U M  &  C O . ,  I N C .      ( 8 0 0 )  5 2 6 - 6 2 9 3        W W W . J U L I U S B L U M . C O M        P A R T  N o .  3 3 4
 41
1.25
  7
ARIAL_WIDE
 72
     1
 11
35.87928316674938
 21
-0.4493523599048216
 31
0.0
100
AcDbText
 73
     3
  0
DIMENSION
  5
36F
330
18
100
AcDbEntity
  8
ADPDIM
 62
     3
100
AcDbDimension
  2
*D3
 10
37.78380205920488
 20
22.04869753061755
 30
0.0
 11
37.78380205920487
 21
30.42369753061755
 31
0.0
 70
    32
 71
     5
 42
16.75
  3
STANDARD
100
AcDbAlignedDimension
 13
36.38707582823979
 23
38.79869753061754
 33
0.0
 14
36.38707582823979
 24
22.04869753061755
 34
0.0
 50
90.0
100
AcDbRotatedDimension
1001
ACAD
1000
DSTYLE
1002
{
1070
   276
1070
     2
1070
   277
1070
     5
1070
    41
1040
0.125
1070
    73
1070
     0
1070
    74
1070
     0
1070
    78
1070
     3
1070
   140
1040
0.5
1070
   141
1040
0.1875
1070
   142
1040
0.125
1070
   147
1040
0.125
1070
   171
1070
     1
1002
}
  0
DIMENSION
  5
391
330
18
100
AcDbEntity
  8
ADPDIM
 62
     3
100
AcDbDimension
  2
*D6
 10
37.78380204515971
 20
2.79335263373727
 30
0.0
 11
37.78380204515971
 21
11.16835263373727
 31
0.0
 70
    32
 71
     5
 42
16.75
  3
STANDARD
100
AcDbAlignedDimension
 13
36.38707581419462
 23
19.54335263373727
 33
0.0
 14
36.38707581419462
 24
2.793352633737271
 34
0.0
 50
90.0
100
AcDbRotatedDimension
1001
ACAD
1000
DSTYLE
1002
{
1070
   276
1070
     2
1070
   277
1070
     5
1070
    41
1040
0.125
1070
    73
1070
     0
1070
    74
1070
     0
1070
    78
1070
     3
1070
   140
1040
0.5
1070
   141
1040
0.1875
1070
   142
1040
0.125
1070
   147
1040
0.125
1070
   171
1070
     1
1002
}
  0
ENDSEC
  0
SECTION
  2
OBJECTS
  0
DICTIONARY
  5
C
330
0
100
AcDbDictionary
281
     1
  3
ACAD_COLOR
350
369
  3
ACAD_GROUP
350
D
  3
ACAD_LAYOUT
350
1AF
  3
ACAD_MATERIAL
350
354
  3
ACAD_MLINESTYLE
350
E
  3
ACAD_PLOTSETTINGS
350
1B0
  3
ACAD_PLOTSTYLENAME
350
1AD
  3
ACAD_TABLESTYLE
350
36A
  3
ACAD_VISUALSTYLE
350
358
  3
AcDbVariableDictionary
350
210
  3
ASE_INDEX_DICTIONARY
350
45F
  3
DWGPROPS
350
47E
  0
DICTIONARY
  5
20A
330
18
100
AcDbDictionary
280
     1
281
     1
  3
ACAD_LAYOUTSELFREF
360
34E
  0
DICTIONARY
  5
208
330
15
100
AcDbDictionary
280
     1
281
     1
  3
ACAD_LAYOUTSELFREF
360
34D
  0
DICTIONARY
  5
415
330
7C
100
AcDbDictionary
280
     1
281
     1
  0
DICTIONARY
  5
369
102
{ACAD_REACTORS
330
C
102
}
330
C
100
AcDbDictionary
281
     1
  0
DICTIONARY
  5
D
102
{ACAD_REACTORS
330
C
102
}
330
C
100
AcDbDictionary
281
     1
  0
DICTIONARY
  5
1AF
102
{ACAD_REACTORS
330
C
102
}
330
C
100
AcDbDictionary
281
     1
  3
Layout1
350
1B2
  3
Model
350
1B1
  0
DICTIONARY
  5
354
102
{ACAD_REACTORS
330
C
102
}
330
C
100
AcDbDictionary
281
     1
  3
ByBlock
350
356
  3
ByLayer
350
355
  3
Global
350
357
  0
DICTIONARY
  5
E
102
{ACAD_REACTORS
330
C
102
}
330
C
100
AcDbDictionary
281
     1
  3
STANDARD
350
1B
  0
DICTIONARY
  5
1B0
102
{ACAD_REACTORS
330
C
102
}
330
C
100
AcDbDictionary
281
     1
  0
ACDBDICTIONARYWDFLT
  5
1AD
102
{ACAD_REACTORS
330
C
102
}
330
C
100
AcDbDictionary
281
     1
  3
Normal
350
1AE
100
AcDbDictionaryWithDefault
340
1AE
  0
DICTIONARY
  5
36A
102
{ACAD_REACTORS
330
C
102
}
330
C
100
AcDbDictionary
281
     1
  3
Standard
350
36B
  0
DICTIONARY
  5
358
102
{ACAD_REACTORS
330
C
102
}
330
C
100
AcDbDictionary
281
     1
  3
2dWireframe
350
35E
  3
3D Hidden
350
360
  3
3dWireframe
350
35F
  3
Basic
350
35D
  3
Brighten
350
364
  3
ColorChange
350
368
  3
Conceptual
350
361
  3
Dim
350
363
  3
Facepattern
350
367
  3
Flat
350
359
  3
FlatWithEdges
350
35A
  3
Gouraud
350
35B
  3
GouraudWithEdges
350
35C
  3
Linepattern
350
366
  3
Realistic
350
362
  3
Thicken
350
365
  0
DICTIONARY
  5
210
102
{ACAD_REACTORS
330
C
102
}
330
C
100
AcDbDictionary
281
     1
  3
CTABLESTYLE
350
47B
  3
DIMASSOC
350
211
  3
INDEXCTL
350
47D
  3
SORTENTS
350
47C
  0
DICTIONARY
  5
45F
102
{ACAD_REACTORS
330
C
102
}
330
C
100
AcDbDictionary
281
     1
  3
ASEBlockHierarchyIndexRecord
350
460
1001
DCO15
1040
1567965689.872
  0
XRECORD
  5
47E
102
{ACAD_REACTORS
330
C
102
}
330
C
100
AcDbXrecord
280
     1
  1
DWGPROPS COOKIE
  2

  3

  4

  6

  7

  8
Yu Hu
  9

300
=
301
=
302
=
303
=
304
=
305
=
306
=
307
=
308
=
309
=
 40
0.0722365972222222
 41
2450374.485863426
 42
2453950.962892037
  1

 90
        0
  0
XRECORD
  5
34E
102
{ACAD_REACTORS
330
20A
102
}
330
20A
100
AcDbXrecord
280
     1
340
18
  0
XRECORD
  5
34D
102
{ACAD_REACTORS
330
208
102
}
330
208
100
AcDbXrecord
280
     1
340
15
  0
LAYOUT
  5
1B2
102
{ACAD_XDICTIONARY
360
481
102
}
102
{ACAD_REACTORS
330
1AF
102
}
330
1AF
100
AcDbPlotSettings
  1

  2
Fax
  4

  6

 40
0.0
 41
0.0
 42
0.0
 43
0.0
 44
0.0
 45
0.0
 46
0.0
 47
0.0
 48
0.0
 49
0.0
140
0.0
141
0.0
142
1.0
143
1.0
 70
   688
 72
     0
 73
     0
 74
     5
  7
Default R14 pen assignments.ctb
 75
    16
147
1.0
148
0.0
149
0.0
100
AcDbLayout
  1
Layout1
 70
     1
 71
     1
 10
0.0
 20
0.0
 11
12.0
 21
9.0
 12
0.0
 22
0.0
 32
0.0
 14
1.000000000000000E+20
 24
1.000000000000000E+20
 34
1.000000000000000E+20
 15
-1.000000000000000E+20
 25
-1.000000000000000E+20
 35
-1.000000000000000E+20
146
0.0
 13
0.0
 23
0.0
 33
0.0
 16
1.0
 26
0.0
 36
0.0
 17
0.0
 27
1.0
 37
0.0
 76
     0
330
15
  0
LAYOUT
  5
1B1
102
{ACAD_XDICTIONARY
360
47F
102
}
102
{ACAD_REACTORS
330
1AF
102
}
330
1AF
100
AcDbPlotSettings
  1

  2
Fax
  4

  6

 40
0.0
 41
0.0
 42
0.0
 43
0.0
 44
0.0
 45
0.0
 46
0.0
 47
0.0
 48
0.0
 49
0.0
140
0.0
141
0.0
142
1.0
143
1.0
 70
  1712
 72
     0
 73
     0
 74
     0
  7
Default R14 pen assignments.ctb
 75
     0
147
1.0
148
0.0
149
0.0
100
AcDbLayout
  1
Model
 70
     1
 71
     0
 10
0.0
 20
0.0
 11
12.0
 21
9.0
 12
0.0
 22
0.0
 32
0.0
 14
0.0
 24
0.0
 34
0.0
 15
0.0
 25
0.0
 35
0.0
146
0.0
 13
0.0
 23
0.0
 33
0.0
 16
1.0
 26
0.0
 36
0.0
 17
0.0
 27
1.0
 37
0.0
 76
     0
330
18
331
328
  0
MATERIAL
  5
356
102
{ACAD_XDICTIONARY
360
485
102
}
102
{ACAD_REACTORS
330
354
102
}
330
354
100
AcDbMaterial
  1
ByBlock
  0
MATERIAL
  5
355
102
{ACAD_XDICTIONARY
360
483
102
}
102
{ACAD_REACTORS
330
354
102
}
330
354
100
AcDbMaterial
  1
ByLayer
  0
MATERIAL
  5
357
102
{ACAD_XDICTIONARY
360
487
102
}
102
{ACAD_REACTORS
330
354
102
}
330
354
100
AcDbMaterial
  1
Global
  0
MLINESTYLE
  5
1B
102
{ACAD_REACTORS
330
E
102
}
330
E
100
AcDbMlineStyle
  2
STANDARD
 70
     0
  3

 62
     0
 51
90.0
 52
90.0
 71
     2
 49
0.5
 62
   256
  6
BYLAYER
 49
-0.5
 62
   256
  6
BYLAYER
  0
ACDBPLACEHOLDER
  5
1AE
102
{ACAD_REACTORS
330
1AD
102
}
330
1AD
  0
TABLESTYLE
  5
36B
102
{ACAD_XDICTIONARY
360
489
102
}
102
{ACAD_REACTORS
330
36A
102
}
330
36A
100
AcDbTableStyle
  3
Standard
 70
     0
 71
     0
 40
0.06
 41
0.06
280
     0
281
     0
  7
STANDARD
140
0.18
170
     2
 62
     0
 63
     7
283
     0
274
    -2
284
     1
 64
     0
275
    -2
285
     1
 65
     0
276
    -2
286
     1
 66
     0
277
    -2
287
     1
 67
     0
278
    -2
288
     1
 68
     0
279
    -2
289
     1
 69
     0
  7
STANDARD
140
0.25
170
     5
 62
     0
 63
     7
283
     0
274
    -2
284
     1
 64
     0
275
    -2
285
     1
 65
     0
276
    -2
286
     1
 66
     0
277
    -2
287
     1
 67
     0
278
    -2
288
     1
 68
     0
279
    -2
289
     1
 69
     0
  7
STANDARD
140
0.18
170
     5
 62
     0
 63
     7
283
     0
274
    -2
284
     1
 64
     0
275
    -2
285
     1
 65
     0
276
    -2
286
     1
 66
     0
277
    -2
287
     1
 67
     0
278
    -2
288
     1
 68
     0
279
    -2
289
     1
 69
     0
  0
VISUALSTYLE
  5
35E
102
{ACAD_REACTORS
330
358
102
}
330
358
100
AcDbVisualStyle
  2
2dWireframe
 70
     4
 71
     0
 72
     2
 73
     0
 90
        0
 40
-0.6
 41
-30.0
 62
     5
 63
     7
 74
     1
 91
        4
 64
     7
 65
   257
 75
     1
175
     1
 42
1.0
 92
        0
 66
   257
 43
1.0
 76
     1
 77
     6
 78
     2
 67
     7
 79
     5
170
     0
171
     0
290
     0
174
     0
 93
        1
 44
0.0
173
     0
291
     0
 45
0.0
1001
ACAD
1000
AcDbSavedByObjectVersion
1070
     0
  0
VISUALSTYLE
  5
360
102
{ACAD_REACTORS
330
358
102
}
330
358
100
AcDbVisualStyle
  2
3D Hidden
 70
     6
 71
     1
 72
     2
 73
     2
 90
        0
 40
-0.6
 41
-30.0
 62
     5
 63
     7
 74
     2
 91
        2
 64
     7
 65
   257
 75
     2
175
     1
 42
40.0
 92
        0
 66
   257
 43
1.0
 76
     1
 77
     6
 78
     2
 67
     7
 79
     3
170
     0
171
     0
290
     0
174
     0
 93
        1
 44
0.0
173
     0
291
     0
 45
0.0
1001
ACAD
1000
AcDbSavedByObjectVersion
1070
     0
  0
VISUALSTYLE
  5
35F
102
{ACAD_REACTORS
330
358
102
}
330
358
100
AcDbVisualStyle
  2
3dWireframe
 70
     5
 71
     0
 72
     2
 73
     0
 90
        0
 40
-0.6
 41
-30.0
 62
     5
 63
     7
 74
     1
 91
        4
 64
     7
 65
   257
 75
     1
175
     1
 42
1.0
 92
        0
 66
   257
 43
1.0
 76
     1
 77
     6
 78
     2
 67
     7
 79
     5
170
     0
171
     0
290
     0
174
     0
 93
        1
 44
0.0
173
     0
291
     0
 45
0.0
1001
ACAD
1000
AcDbSavedByObjectVersion
1070
     0
  0
VISUALSTYLE
  5
35D
102
{ACAD_REACTORS
330
358
102
}
330
358
100
AcDbVisualStyle
  2
Basic
 70
     7
 71
     1
 72
     0
 73
     1
 90
        0
 40
-0.6
 41
-30.0
 62
     5
 63
     7
 74
     0
 91
        4
 64
     7
 65
   257
 75
     1
175
     1
 42
1.0
 92
        8
 66
     7
 43
1.0
 76
     1
 77
     6
 78
     2
 67
     7
 79
     5
170
     0
171
     0
290
     0
174
     0
 93
        1
 44
0.0
173
     0
291
     1
 45
0.0
1001
ACAD
1000
AcDbSavedByObjectVersion
1070
     0
  0
VISUALSTYLE
  5
364
102
{ACAD_REACTORS
330
358
102
}
330
358
100
AcDbVisualStyle
  2
Brighten
 70
    12
 71
     2
 72
     2
 73
     0
 90
        0
 40
-0.6
 41
-30.0
 62
     5
 63
     7
 74
     1
 91
        4
 64
     7
 65
   257
 75
     1
175
     1
 42
1.0
 92
        8
 66
     7
 43
1.0
 76
     1
 77
     6
 78
     2
 67
     7
 79
     5
170
     0
171
     0
290
     0
174
     0
 93
        1
 44
50.0
173
     0
291
     1
 45
0.0
1001
ACAD
1000
AcDbSavedByObjectVersion
1070
     0
  0
VISUALSTYLE
  5
368
102
{ACAD_REACTORS
330
358
102
}
330
358
100
AcDbVisualStyle
  2
ColorChange
 70
    16
 71
     2
 72
     2
 73
     3
 90
        0
 40
-0.6
 41
-30.0
 62
     5
 63
     8
 74
     1
 91
        4
 64
     7
 65
   257
 75
     1
175
     1
 42
1.0
 92
        8
 66
     8
 43
1.0
 76
     1
 77
     6
 78
     2
 67
     7
 79
     5
170
     0
171
     0
290
     0
174
     0
 93
        1
 44
0.0
173
     0
291
     1
 45
0.0
1001
ACAD
1000
AcDbSavedByObjectVersion
1070
     0
  0
VISUALSTYLE
  5
361
102
{ACAD_REACTORS
330
358
102
}
330
358
100
AcDbVisualStyle
  2
Conceptual
 70
     9
 71
     3
 72
     2
 73
     0
 90
        0
 40
-0.6
 41
-30.0
 62
     5
 63
     7
 74
     2
 91
        2
 64
     7
 65
   257
 75
     1
175
     1
 42
40.0
 92
        8
 66
     7
 43
1.0
 76
     1
 77
     6
 78
     2
 67
     7
 79
     3
170
     0
171
     0
290
     0
174
     0
 93
        1
 44
0.0
173
     0
291
     0
 45
0.0
1001
ACAD
1000
AcDbSavedByObjectVersion
1070
     0
  0
VISUALSTYLE
  5
363
102
{ACAD_REACTORS
330
358
102
}
330
358
100
AcDbVisualStyle
  2
Dim
 70
    11
 71
     2
 72
     2
 73
     0
 90
        0
 40
-0.6
 41
-30.0
 62
     5
 63
     7
 74
     1
 91
        4
 64
     7
 65
   257
 75
     1
175
     1
 42
1.0
 92
        8
 66
     7
 43
1.0
 76
     1
 77
     6
 78
     2
 67
     7
 79
     5
170
     0
171
     0
290
     0
174
     0
 93
        1
 44
-50.0
173
     0
291
     1
 45
0.0
1001
ACAD
1000
AcDbSavedByObjectVersion
1070
     0
  0
VISUALSTYLE
  5
367
102
{ACAD_REACTORS
330
358
102
}
330
358
100
AcDbVisualStyle
  2
Facepattern
 70
    15
 71
     2
 72
     2
 73
     0
 90
        0
 40
-0.6
 41
-30.0
 62
     5
 63
     7
 74
     1
 91
        4
 64
     7
 65
   257
 75
     1
175
     1
 42
1.0
 92
        8
 66
     7
 43
1.0
 76
     1
 77
     6
 78
     2
 67
     7
 79
     5
170
     0
171
     0
290
     0
174
     0
 93
        1
 44
0.0
173
     0
291
     1
 45
0.0
1001
ACAD
1000
AcDbSavedByObjectVersion
1070
     0
  0
VISUALSTYLE
  5
359
102
{ACAD_REACTORS
330
358
102
}
330
358
100
AcDbVisualStyle
  2
Flat
 70
     0
 71
     2
 72
     1
 73
     1
 90
        2
 40
-0.6
 41
30.0
 62
     5
 63
     7
 74
     0
 91
        4
 64
     7
 65
   257
 75
     1
175
     1
 42
1.0
 92
        8
 66
     7
 43
1.0
 76
     1
 77
     6
 78
     2
 67
     7
 79
     5
170
     0
171
     0
290
     0
174
     0
 93
       13
 44
0.0
173
     0
291
     1
 45
0.0
1001
ACAD
1000
AcDbSavedByObjectVersion
1070
     0
  0
VISUALSTYLE
  5
35A
102
{ACAD_REACTORS
330
358
102
}
330
358
100
AcDbVisualStyle
  2
FlatWithEdges
 70
     1
 71
     2
 72
     1
 73
     1
 90
        2
 40
-0.6
 41
30.0
 62
     5
 63
     7
 74
     1
 91
        4
 64
     7
 65
   257
 75
     1
175
     1
 42
1.0
 92
        0
 66
   257
 43
1.0
 76
     1
 77
     6
 78
     2
 67
     7
 79
     5
170
     0
171
     0
290
     0
174
     0
 93
       13
 44
0.0
173
     0
291
     1
 45
0.0
1001
ACAD
1000
AcDbSavedByObjectVersion
1070
     0
  0
VISUALSTYLE
  5
35B
102
{ACAD_REACTORS
330
358
102
}
330
358
100
AcDbVisualStyle
  2
Gouraud
 70
     2
 71
     2
 72
     2
 73
     1
 90
        2
 40
-0.6
 41
30.0
 62
     5
 63
     7
 74
     0
 91
        4
 64
     7
 65
   257
 75
     1
175
     1
 42
1.0
 92
        0
 66
     7
 43
1.0
 76
     1
 77
     6
 78
     2
 67
     7
 79
     5
170
     0
171
     0
290
     0
174
     0
 93
       13
 44
0.0
173
     0
291
     1
 45
0.0
1001
ACAD
1000
AcDbSavedByObjectVersion
1070
     0
  0
VISUALSTYLE
  5
35C
102
{ACAD_REACTORS
330
358
102
}
330
358
100
AcDbVisualStyle
  2
GouraudWithEdges
 70
     3
 71
     2
 72
     2
 73
     1
 90
        2
 40
-0.6
 41
30.0
 62
     5
 63
     7
 74
     1
 91
        4
 64
     7
 65
   257
 75
     1
175
     1
 42
1.0
 92
        0
 66
   257
 43
1.0
 76
     1
 77
     6
 78
     2
 67
     7
 79
     5
170
     0
171
     0
290
     0
174
     0
 93
       13
 44
0.0
173
     0
291
     1
 45
0.0
1001
ACAD
1000
AcDbSavedByObjectVersion
1070
     0
  0
VISUALSTYLE
  5
366
102
{ACAD_REACTORS
330
358
102
}
330
358
100
AcDbVisualStyle
  2
Linepattern
 70
    14
 71
     2
 72
     2
 73
     0
 90
        0
 40
-0.6
 41
-30.0
 62
     5
 63
     7
 74
     1
 91
        4
 64
     7
 65
   257
 75
     7
175
     7
 42
1.0
 92
        8
 66
     7
 43
1.0
 76
     1
 77
     6
 78
     2
 67
     7
 79
     5
170
     0
171
     0
290
     0
174
     0
 93
        1
 44
0.0
173
     0
291
     1
 45
0.0
1001
ACAD
1000
AcDbSavedByObjectVersion
1070
     0
  0
VISUALSTYLE
  5
362
102
{ACAD_REACTORS
330
358
102
}
330
358
100
AcDbVisualStyle
  2
Realistic
 70
     8
 71
     2
 72
     2
 73
     0
 90
        0
 40
-0.6
 41
-30.0
 62
     5
 63
     7
 74
     1
 91
        0
 64
     7
 65
   257
 75
     1
175
     1
 42
1.0
 92
        8
 66
     8
 43
1.0
 76
     1
 77
     6
 78
     2
 67
     7
 79
     5
170
     0
171
     0
290
     0
174
     0
 93
       13
 44
0.0
173
     0
291
     0
 45
0.0
1001
ACAD
1000
AcDbSavedByObjectVersion
1070
     0
  0
VISUALSTYLE
  5
365
102
{ACAD_REACTORS
330
358
102
}
330
358
100
AcDbVisualStyle
  2
Thicken
 70
    13
 71
     2
 72
     2
 73
     0
 90
        0
 40
-0.6
 41
-30.0
 62
     5
 63
     7
 74
     1
 91
        4
 64
     7
 65
   257
 75
     1
175
     1
 42
1.0
 92
       12
 66
     7
 43
1.0
 76
     1
 77
     6
 78
     2
 67
     7
 79
     5
170
     0
171
     0
290
     0
174
     0
 93
        1
 44
0.0
173
     0
291
     1
 45
0.0
1001
ACAD
1000
AcDbSavedByObjectVersion
1070
     0
  0
DICTIONARYVAR
  5
47B
102
{ACAD_REACTORS
330
210
102
}
330
210
100
DictionaryVariables
280
     0
  1
STANDARD
  0
DICTIONARYVAR
  5
211
102
{ACAD_REACTORS
330
210
102
}
330
210
100
DictionaryVariables
280
     0
  1
1
  0
DICTIONARYVAR
  5
47D
102
{ACAD_REACTORS
330
210
102
}
330
210
100
DictionaryVariables
280
     0
  1
0
  0
DICTIONARYVAR
  5
47C
102
{ACAD_REACTORS
330
210
102
}
330
210
100
DictionaryVariables
280
     0
  1
127
  0
XRECORD
  5
460
102
{ACAD_REACTORS
330
45F
102
}
330
45F
100
AcDbXrecord
280
     1
330
1A6
  0
DICTIONARY
  5
481
330
1B2
100
AcDbDictionary
280
     1
281
     1
  3
ACAD_XREC_ROUNDTRIP
360
482
  0
DICTIONARY
  5
47F
330
1B1
100
AcDbDictionary
280
     1
281
     1
  3
ACAD_XREC_ROUNDTRIP
360
480
  0
DICTIONARY
  5
485
330
356
100
AcDbDictionary
280
     1
281
     1
  3
ACAD_XREC_ROUNDTRIP
360
486
  0
DICTIONARY
  5
483
330
355
100
AcDbDictionary
280
     1
281
     1
  3
ACAD_XREC_ROUNDTRIP
360
484
  0
DICTIONARY
  5
487
330
357
100
AcDbDictionary
280
     1
281
     1
  3
ACAD_XREC_ROUNDTRIP
360
488
  0
DICTIONARY
  5
489
330
36B
100
AcDbDictionary
280
     1
281
     1
  3
ACAD_XREC_ROUNDTRIP
360
48A
  0
XRECORD
  5
482
102
{ACAD_REACTORS
330
481
102
}
330
481
100
AcDbXrecord
280
     1
102
SHADEPLOT
 70
     0
102
SHADEPLOTRESLEVEL
 70
     2
102
SHADEPLOTCUSTOMDPI
 70
   300
  0
XRECORD
  5
480
102
{ACAD_REACTORS
330
47F
102
}
330
47F
100
AcDbXrecord
280
     1
102
SHADEPLOT
 70
     0
102
SHADEPLOTRESLEVEL
 70
     2
102
SHADEPLOTCUSTOMDPI
 70
   300
  0
XRECORD
  5
486
102
{ACAD_REACTORS
330
485
102
}
330
485
100
AcDbXrecord
280
     1
102
MATERIAL
148
0.0
149
0.0
149
0.0
 93
        0
 94
       63
282
     0
 72
     1
 77
     1
171
     1
175
     1
179
     1
273
     0
  0
XRECORD
  5
484
102
{ACAD_REACTORS
330
483
102
}
330
483
100
AcDbXrecord
280
     1
102
MATERIAL
148
0.0
149
0.0
149
0.0
 93
        0
 94
       63
282
     0
 72
     1
 77
     1
171
     1
175
     1
179
     1
273
     0
  0
XRECORD
  5
488
102
{ACAD_REACTORS
330
487
102
}
330
487
100
AcDbXrecord
280
     1
102
MATERIAL
148
0.0
149
0.0
149
0.0
 93
        0
 94
       63
282
     0
 72
     1
 77
     1
171
     1
175
     1
179
     1
273
     0
  0
XRECORD
  5
48A
102
{ACAD_REACTORS
330
489
102
}
330
489
100
AcDbXrecord
280
     1
102
ACAD_ROUNDTRIP_PRE2007_TABLESTYLE
 90
      512
 91
        0
  1

 92
      512
 93
        0
  2

 94
      512
 95
        0
  3

  0
ENDSEC
  0
EOF
