  0
SECTION
  2
HEADER
  9
$ACADVER
  1
AC1015
  9
$ACADMAINTVER
 70
    20
  9
$DWGCODEPAGE
  3
ANSI_1252
  9
$INSBASE
 10
30.28824412123679
 20
2.798697530617541
 30
0.0
  9
$EXTMIN
 10
-1.102405063943486
 20
-1.267234761608432
 30
0.0
  9
$EXTMAX
 10
63.24467031122704
 20
40.56654865089711
 30
0.0
  9
$LIMMIN
 10
0.0
 20
0.0
  9
$LIMMAX
 10
36.0
 20
36.0
  9
$ORTHOMODE
 70
     0
  9
$REGENMODE
 70
     1
  9
$FILLMODE
 70
     1
  9
$QTEXTMODE
 70
     0
  9
$MIRRTEXT
 70
     1
  9
$LTSCALE
 40
1.0
  9
$ATTMODE
 70
     1
  9
$TEXTSIZE
 40
0.2
  9
$TRACEWID
 40
0.05
  9
$TEXTSTYLE
  7
STANDARD
  9
$CLAYER
  8
ADPDIM
  9
$CELTYPE
  6
BYLAYER
  9
$CECOLOR
 62
   256
  9
$CELTSCALE
 40
1.0
  9
$DISPSILH
 70
     0
  9
$DIMSCALE
 40
1.0
  9
$DIMASZ
 40
0.125
  9
$DIMEXO
 40
0.0625
  9
$DIMDLI
 40
0.38
  9
$DIMRND
 40
0.0
  9
$DIMDLE
 40
0.0
  9
$DIMEXE
 40
0.18
  9
$DIMTP
 40
0.0
  9
$DIMTM
 40
0.0
  9
$DIMTXT
 40
0.125
  9
$DIMCEN
 40
0.1875
  9
$DIMTSZ
 40
0.125
  9
$DIMTOL
 70
     0
  9
$DIMLIM
 70
     0
  9
$DIMTIH
 70
     0
  9
$DIMTOH
 70
     0
  9
$DIMSE1
 70
     0
  9
$DIMSE2
 70
     0
  9
$DIMTAD
 70
     0
  9
$DIMZIN
 70
     3
  9
$DIMBLK
  1

  9
$DIMASO
 70
     1
  9
$DIMSHO
 70
     1
  9
$DIMPOST
  1

  9
$DIMAPOST
  1

  9
$DIMALT
 70
     0
  9
$DIMALTD
 70
     1
  9
$DIMALTF
 40
25.4
  9
$DIMLFAC
 40
1.0
  9
$DIMTOFL
 70
     0
  9
$DIMTVP
 40
0.0
  9
$DIMTIX
 70
     0
  9
$DIMSOXD
 70
     0
  9
$DIMSAH
 70
     0
  9
$DIMBLK1
  1

  9
$DIMBLK2
  1

  9
$DIMSTYLE
  2
STANDARD
  9
$DIMCLRD
 70
     0
  9
$DIMCLRE
 70
     0
  9
$DIMCLRT
 70
     0
  9
$DIMTFAC
 40
1.0
  9
$DIMGAP
 40
0.125
  9
$DIMJUST
 70
     0
  9
$DIMSD1
 70
     0
  9
$DIMSD2
 70
     0
  9
$DIMTOLJ
 70
     1
  9
$DIMTZIN
 70
     0
  9
$DIMALTZ
 70
     0
  9
$DIMALTTZ
 70
     0
  9
$DIMUPT
 70
     0
  9
$DIMDEC
 70
     4
  9
$DIMTDEC
 70
     4
  9
$DIMALTU
 70
     2
  9
$DIMALTTD
 70
     2
  9
$DIMTXSTY
  7
STANDARD
  9
$DIMAUNIT
 70
     0
  9
$DIMADEC
 70
     0
  9
$DIMALTRND
 40
0.0
  9
$DIMAZIN
 70
     0
  9
$DIMDSEP
 70
    46
  9
$DIMATFIT
 70
     3
  9
$DIMFRAC
 70
     0
  9
$DIMLDRBLK
  1

  9
$DIMLUNIT
 70
     2
  9
$DIMLWD
 70
    -2
  9
$DIMLWE
 70
    -2
  9
$DIMTMOVE
 70
     0
  9
$LUNITS
 70
     5
  9
$LUPREC
 70
     4
  9
$SKETCHINC
 40
0.1
  9
$FILLETRAD
 40
0.062
  9
$AUNITS
 70
     0
  9
$AUPREC
 70
     0
  9
$MENU
  1
acad
  9
$ELEVATION
 40
0.0
  9
$PELEVATION
 40
0.0
  9
$THICKNESS
 40
0.0
  9
$LIMCHECK
 70
     0
  9
$CHAMFERA
 40
0.0
  9
$CHAMFERB
 40
0.0
  9
$CHAMFERC
 40
0.0
  9
$CHAMFERD
 40
0.0
  9
$SKPOLY
 70
     0
  9
$TDCREATE
 40
2450374.485663380
  9
$TDUCREATE
 40
2450374.652330047
  9
$TDUPDATE
 40
2453950.959846216
  9
$TDUUPDATE
 40
2453951.126512882
  9
$TDINDWG
 40
0.0774376273
  9
$TDUSRTIMER
 40
0.0774376273
  9
$USRTIMER
 70
     1
  9
$ANGBASE
 50
0.0
  9
$ANGDIR
 70
     0
  9
$PDMODE
 70
     0
  9
$PDSIZE
 40
0.0
  9
$PLINEWID
 40
0.0
  9
$SPLFRAME
 70
     0
  9
$SPLINETYPE
 70
     6
  9
$SPLINESEGS
 70
     8
  9
$HANDSEED
  5
488
  9
$SURFTAB1
 70
     6
  9
$SURFTAB2
 70
     6
  9
$SURFTYPE
 70
     6
  9
$SURFU
 70
     6
  9
$SURFV
 70
     6
  9
$UCSBASE
  2

  9
$UCSNAME
  2

  9
$UCSORG
 10
0.0
 20
0.0
 30
0.0
  9
$UCSXDIR
 10
1.0
 20
0.0
 30
0.0
  9
$UCSYDIR
 10
0.0
 20
1.0
 30
0.0
  9
$UCSORTHOREF
  2

  9
$UCSORTHOVIEW
 70
     0
  9
$UCSORGTOP
 10
0.0
 20
0.0
 30
0.0
  9
$UCSORGBOTTOM
 10
0.0
 20
0.0
 30
0.0
  9
$UCSORGLEFT
 10
0.0
 20
0.0
 30
0.0
  9
$UCSORGRIGHT
 10
0.0
 20
0.0
 30
0.0
  9
$UCSORGFRONT
 10
0.0
 20
0.0
 30
0.0
  9
$UCSORGBACK
 10
0.0
 20
0.0
 30
0.0
  9
$PUCSBASE
  2

  9
$PUCSNAME
  2

  9
$PUCSORG
 10
0.0
 20
0.0
 30
0.0
  9
$PUCSXDIR
 10
1.0
 20
0.0
 30
0.0
  9
$PUCSYDIR
 10
0.0
 20
1.0
 30
0.0
  9
$PUCSORTHOREF
  2

  9
$PUCSORTHOVIEW
 70
     0
  9
$PUCSORGTOP
 10
0.0
 20
0.0
 30
0.0
  9
$PUCSORGBOTTOM
 10
0.0
 20
0.0
 30
0.0
  9
$PUCSORGLEFT
 10
0.0
 20
0.0
 30
0.0
  9
$PUCSORGRIGHT
 10
0.0
 20
0.0
 30
0.0
  9
$PUCSORGFRONT
 10
0.0
 20
0.0
 30
0.0
  9
$PUCSORGBACK
 10
0.0
 20
0.0
 30
0.0
  9
$USERI1
 70
     0
  9
$USERI2
 70
     0
  9
$USERI3
 70
     0
  9
$USERI4
 70
     0
  9
$USERI5
 70
     0
  9
$USERR1
 40
0.0
  9
$USERR2
 40
0.0
  9
$USERR3
 40
0.0
  9
$USERR4
 40
0.0
  9
$USERR5
 40
0.0
  9
$WORLDVIEW
 70
     1
  9
$SHADEDGE
 70
     3
  9
$SHADEDIF
 70
    70
  9
$TILEMODE
 70
     1
  9
$MAXACTVP
 70
    15
  9
$PINSBASE
 10
0.0
 20
0.0
 30
0.0
  9
$PLIMCHECK
 70
     0
  9
$PEXTMIN
 10
1.000000000000000E+20
 20
1.000000000000000E+20
 30
1.000000000000000E+20
  9
$PEXTMAX
 10
-1.000000000000000E+20
 20
-1.000000000000000E+20
 30
-1.000000000000000E+20
  9
$PLIMMIN
 10
0.0
 20
0.0
  9
$PLIMMAX
 10
12.0
 20
9.0
  9
$UNITMODE
 70
     0
  9
$VISRETAIN
 70
     0
  9
$PLINEGEN
 70
     0
  9
$PSLTSCALE
 70
     1
  9
$TREEDEPTH
 70
  3020
  9
$CMLSTYLE
  2
STANDARD
  9
$CMLJUST
 70
     0
  9
$CMLSCALE
 40
1.0
  9
$PROXYGRAPHICS
 70
     1
  9
$MEASUREMENT
 70
     0
  9
$CELWEIGHT
370
    -1
  9
$ENDCAPS
280
     0
  9
$JOINSTYLE
280
     0
  9
$LWDISPLAY
290
     0
  9
$INSUNITS
 70
     0
  9
$HYPERLINKBASE
  1

  9
$STYLESHEET
  1

  9
$XEDIT
290
     1
  9
$CEPSNTYPE
380
     0
  9
$PSTYLEMODE
290
     1
  9
$FINGERPRINTGUID
  2
{2511668B-BEFA-4372-8B6F-1CB01CCC9E4A}
  9
$VERSIONGUID
  2
{114FA17F-2E62-4412-87A2-8860D37B2D5A}
  9
$EXTNAMES
290
     1
  9
$PSVPSCALE
 40
0.0
  9
$OLESTARTUP
290
     0
  0
ENDSEC
  0
SECTION
  2
CLASSES
  0
CLASS
  1
ACDBDICTIONARYWDFLT
  2
AcDbDictionaryWithDefault
  3
ObjectDBX Classes
 90
        0
280
     0
281
     0
  0
CLASS
  1
ACDBPLACEHOLDER
  2
AcDbPlaceHolder
  3
ObjectDBX Classes
 90
        0
280
     0
281
     0
  0
CLASS
  1
LAYOUT
  2
AcDbLayout
  3
ObjectDBX Classes
 90
        0
280
     0
281
     0
  0
CLASS
  1
DICTIONARYVAR
  2
AcDbDictionaryVar
  3
ObjectDBX Classes
 90
        0
280
     0
281
     0
  0
CLASS
  1
MATERIAL
  2
AcDbMaterial
  3
ObjectDBX Classes
 90
     1024
280
     0
281
     0
  0
CLASS
  1
VISUALSTYLE
  2
AcDbVisualStyle
  3
ObjectDBX Classes
 90
     4095
280
     0
281
     0
  0
CLASS
  1
TABLESTYLE
  2
AcDbTableStyle
  3
ObjectDBX Classes
 90
     4095
280
     0
281
     0
  0
CLASS
  1
ACAD_EVALUATION_GRAPH
  2
AcDbEvalGraph
  3
ObjectDBX Classes
 90
     1153
280
     0
281
     0
  0
CLASS
  1
ACAECUSTOBJ
  2
AcAeEditorObj
  3
AcAeEditorObj
 90
     1024
280
     0
281
     0
  0
CLASS
  1
ACDB_DYNAMICBLOCKPURGEPREVENTER_VERSION
  2
AcDbDynamicBlockPurgePreventer
  3
ObjectDBX Classes
 90
     1153
280
     0
281
     0
  0
ENDSEC
  0
SECTION
  2
TABLES
  0
TABLE
  2
VPORT
  5
8
330
0
100
AcDbSymbolTable
 70
     1
  0
VPORT
  5
2FB
330
8
100
AcDbSymbolTableRecord
100
AcDbViewportTableRecord
  2
*Active
 70
     0
 10
0.0
 20
0.0
 11
1.0
 21
1.0
 12
38.93491255693082
 22
17.58271241873585
 13
0.0
 23
0.0
 14
0.5740882589684922
 24
0.5740882589684922
 15
0.5
 25
0.5
 16
0.0
 26
0.0
 36
1.0
 17
0.0
 27
0.0
 37
0.0
 40
46.88705675828422
 41
1.774011299435028
 42
50.0
 43
0.0
 44
0.0
 50
0.0
 51
0.0
 71
     0
 72
   100
 73
     1
 74
     0
 75
     0
 76
     0
 77
     0
 78
     0
281
     0
 65
     1
110
0.0
120
0.0
130
0.0
111
1.0
121
0.0
131
0.0
112
0.0
122
1.0
132
0.0
 79
     0
146
0.0
  0
ENDTAB
  0
TABLE
  2
LTYPE
  5
5
330
0
100
AcDbSymbolTable
 70
     2
  0
LTYPE
  5
12
330
5
100
AcDbSymbolTableRecord
100
AcDbLinetypeTableRecord
  2
BYBLOCK
 70
     0
  3

 72
    65
 73
     0
 40
0.0
  0
LTYPE
  5
13
330
5
100
AcDbSymbolTableRecord
100
AcDbLinetypeTableRecord
  2
BYLAYER
 70
     0
  3

 72
    65
 73
     0
 40
0.0
  0
LTYPE
  5
14
330
5
100
AcDbSymbolTableRecord
100
AcDbLinetypeTableRecord
  2
CONTINUOUS
 70
     0
  3
Solid line
 72
    65
 73
     0
 40
0.0
  0
ENDTAB
  0
TABLE
  2
LAYER
  5
2
330
0
100
AcDbSymbolTable
 70
     4
  0
LAYER
  5
F
330
2
100
AcDbSymbolTableRecord
100
AcDbLayerTableRecord
  2
0
 70
     0
 62
     7
  6
CONTINUOUS
370
    -3
390
181
  0
LAYER
  5
AC
330
2
100
AcDbSymbolTableRecord
100
AcDbLayerTableRecord
  2
ADPDIM
 70
     0
 62
     3
  6
CONTINUOUS
370
    -3
390
181
  0
LAYER
  5
AE
330
2
100
AcDbSymbolTableRecord
100
AcDbLayerTableRecord
  2
ADP1DETAIL
 70
     0
 62
     7
  6
CONTINUOUS
370
    -3
390
181
  0
LAYER
  5
B0
330
2
100
AcDbSymbolTableRecord
100
AcDbLayerTableRecord
  2
DEFPOINTS
 70
     0
 62
     7
  6
CONTINUOUS
290
     0
370
    -3
390
181
  0
ENDTAB
  0
TABLE
  2
STYLE
  5
3
330
0
100
AcDbSymbolTable
 70
     2
  0
STYLE
  5
10
330
3
100
AcDbSymbolTableRecord
100
AcDbTextStyleTableRecord
  2
STANDARD
 70
     0
 40
0.0
 41
1.0
 50
0.0
 71
     0
 42
0.2
  3
txt
  4

  0
STYLE
  5
188
330
3
100
AcDbSymbolTableRecord
100
AcDbTextStyleTableRecord
  2
ARIAL_WIDE
 70
     0
 40
0.0
 41
1.25
 50
0.0
 71
     0
 42
0.2
  3
ARIAL.TTF
  4

1001
ACAD
1000
Arial
1071
       34
  0
ENDTAB
  0
TABLE
  2
VIEW
  5
6
330
0
100
AcDbSymbolTable
 70
     0
  0
ENDTAB
  0
TABLE
  2
UCS
  5
7
330
0
100
AcDbSymbolTable
 70
     0
  0
ENDTAB
  0
TABLE
  2
APPID
  5
9
330
0
100
AcDbSymbolTable
 70
     7
  0
APPID
  5
11
330
9
100
AcDbSymbolTableRecord
100
AcDbRegAppTableRecord
  2
ACAD
 70
     0
  0
APPID
  5
39C
330
9
100
AcDbSymbolTableRecord
100
AcDbRegAppTableRecord
  2
ACAUTHENVIRON
 70
     0
  0
APPID
  5
3A1
330
9
100
AcDbSymbolTableRecord
100
AcDbRegAppTableRecord
  2
ACAD_EXEMPT_FROM_CAD_STANDARDS
 70
     0
  0
APPID
  5
3A8
330
9
100
AcDbSymbolTableRecord
100
AcDbRegAppTableRecord
  2
AcDbDynamicBlockTrueName
 70
     0
  0
APPID
  5
3A9
330
9
100
AcDbSymbolTableRecord
100
AcDbRegAppTableRecord
  2
AcDbDynamicBlockGUID
 70
     0
  0
APPID
  5
3AB
330
9
100
AcDbSymbolTableRecord
100
AcDbRegAppTableRecord
  2
AcDbBlockRepETag
 70
     0
  0
APPID
  5
45C
330
9
100
AcDbSymbolTableRecord
100
AcDbRegAppTableRecord
  2
DCO15
 70
     0
  0
ENDTAB
  0
TABLE
  2
DIMSTYLE
  5
A
330
0
100
AcDbSymbolTable
 70
     2
100
AcDbDimStyleTable
 71
     1
340
17C
  0
DIMSTYLE
105
17C
102
{ACAD_REACTORS
330
342
330
350
102
}
330
A
100
AcDbSymbolTableRecord
100
AcDbDimStyleTableRecord
  2
STANDARD
 70
     0
340
10
  0
ENDTAB
  0
TABLE
  2
BLOCK_RECORD
  5
1
330
0
100
AcDbSymbolTable
 70
    10
  0
BLOCK_RECORD
  5
18
102
{ACAD_XDICTIONARY
360
1DD
102
}
330
1
100
AcDbSymbolTableRecord
100
AcDbBlockTableRecord
  2
*MODEL_SPACE
340
184
  0
BLOCK_RECORD
  5
15
102
{ACAD_XDICTIONARY
360
1DB
102
}
330
1
100
AcDbSymbolTableRecord
100
AcDbBlockTableRecord
  2
*PAPER_SPACE
340
185
  0
BLOCK_RECORD
  5
77
102
{ACAD_XDICTIONARY
360
42E
102
}
330
1
100
AcDbSymbolTableRecord
100
AcDbBlockTableRecord
  2
333
340
0
102
{BLKREFS
331
172
102
}
1001
AcDbDynamicBlockGUID
1000
{62959455-BEB0-4EE6-896D-AE965B98511F}
1001
AcDbBlockRepETag
1070
     1
1071
       60
  0
BLOCK_RECORD
  5
A2
330
1
100
AcDbSymbolTableRecord
100
AcDbBlockTableRecord
  2
*D1
340
0
  0
BLOCK_RECORD
  5
A9
330
1
100
AcDbSymbolTableRecord
100
AcDbBlockTableRecord
  2
*D2
340
0
  0
BLOCK_RECORD
  5
AA
330
1
100
AcDbSymbolTableRecord
100
AcDbBlockTableRecord
  2
*D3
340
0
  0
BLOCK_RECORD
  5
343
330
1
100
AcDbSymbolTableRecord
100
AcDbBlockTableRecord
  2
*D4
340
0
  0
BLOCK_RECORD
  5
351
330
1
100
AcDbSymbolTableRecord
100
AcDbBlockTableRecord
  2
*D5
340
0
  0
ENDTAB
  0
ENDSEC
  0
SECTION
  2
BLOCKS
  0
BLOCK
  5
B3
330
18
100
AcDbEntity
  8
0
100
AcDbBlockBegin
  2
*MODEL_SPACE
 70
     0
 10
0.0
 20
0.0
 30
0.0
  3
*MODEL_SPACE
  1

  0
ENDBLK
  5
B4
330
18
100
AcDbEntity
  8
0
100
AcDbBlockEnd
  0
BLOCK
  5
B1
330
15
100
AcDbEntity
 67
     1
  8
0
100
AcDbBlockBegin
  2
*PAPER_SPACE
 70
     0
 10
0.0
 20
0.0
 30
0.0
  3
*PAPER_SPACE
  1

  0
ENDBLK
  5
B2
330
15
100
AcDbEntity
 67
     1
  8
0
100
AcDbBlockEnd
  0
BLOCK
  5
B6
330
77
100
AcDbEntity
  8
0
100
AcDbBlockBegin
  2
333
 70
     0
 10
0.0
 20
0.0
 30
0.0
  3
333
  1

  0
LINE
  5
3F2
330
77
100
AcDbEntity
  8
0
 62
     7
100
AcDbLine
 10
1.275267821011214
 20
29.09366026463028
 30
0.0
 11
1.440569165514933
 21
14.81162409950949
 31
0.0
1001
AcDbBlockRepETag
1070
     1
1071
        0
1005
3F2
  0
LINE
  5
3F3
330
77
100
AcDbEntity
  8
0
 62
     7
100
AcDbLine
 10
0.0719151097895853
 20
14.79023863352131
 30
0.0
 11
0.2462607212648748
 21
29.09366026463028
 31
0.0
1001
AcDbBlockRepETag
1070
     1
1071
        1
1005
3F3
  0
LWPOLYLINE
  5
3F4
330
77
100
AcDbEntity
  8
0
 62
     7
100
AcDbPolyline
 90
        4
 70
     0
 43
0.0
 10
0.2157824711189917
 20
8.302840200850351
 42
0.2512468299899751
 10
0.0158150332790481
 20
8.010416343142814
 42
-0.1058061298298001
 10
0.3741023787650306
 20
7.80881621008862
 42
-0.5443382940478432
 10
0.1626132403497635
 20
7.5318863546965
 42
-27.26639854656296
1001
AcDbBlockRepETag
1070
     1
1071
        2
1005
3F4
  0
LWPOLYLINE
  5
3F5
330
77
100
AcDbEntity
  8
0
 62
     7
100
AcDbPolyline
 90
        4
 70
     0
 43
0.0
 10
1.305751701888219
 20
8.302840200850351
 42
-0.3262876628216255
 10
1.545285197476992
 20
8.011248081673986
 42
0.1198417233326477
 10
1.188193864509727
 20
7.812436337306254
 42
0.6103088535143837
 10
1.358920932657447
 20
7.5318863546965
 42
27.26639854656296
1001
AcDbBlockRepETag
1070
     1
1071
        3
1005
3F5
  0
LINE
  5
3F6
330
77
100
AcDbEntity
  8
0
 62
     7
100
AcDbLine
 10
0.0
 20
0.0
 30
0.0
 11
0.0031055480420719
 21
6.920440200850348
 31
0.0
1001
AcDbBlockRepETag
1070
     1
1071
        4
1005
3F6
  0
LINE
  5
3F7
330
77
100
AcDbEntity
  8
0
 62
     7
100
AcDbLine
 10
1.518428624965146
 20
6.920440200850348
 30
0.0
 11
1.515323076923074
 21
0.0
 31
0.0
1001
AcDbBlockRepETag
1070
     1
1071
        5
1005
3F7
  0
LINE
  5
3F8
330
77
100
AcDbEntity
  8
0
 62
     7
100
AcDbLine
 10
1.515323076923074
 20
0.0
 30
0.0
 11
0.0
 21
0.0
 31
0.0
1001
AcDbBlockRepETag
1070
     1
1071
        6
1005
3F8
  0
LINE
  5
3F9
330
77
100
AcDbEntity
  8
0
 62
     7
100
AcDbLine
 10
1.518428624965146
 20
6.920440200850348
 30
0.0
 11
0.0031055480420719
 21
6.920440200850348
 31
0.0
1001
AcDbBlockRepETag
1070
     1
1071
        7
1005
3F9
  0
LINE
  5
3FA
330
77
100
AcDbEntity
  8
0
 62
     7
100
AcDbLine
 10
0.1626132403497635
 20
7.372378662388808
 30
0.0
 11
1.358920932657447
 21
7.372378662388808
 31
0.0
1001
AcDbBlockRepETag
1070
     1
1071
        8
1005
3FA
  0
LINE
  5
3FB
330
77
100
AcDbEntity
  8
0
 62
     7
100
AcDbLine
 10
1.358920932657447
 20
7.5318863546965
 30
0.0
 11
0.1626132403497635
 21
7.5318863546965
 31
0.0
1001
AcDbBlockRepETag
1070
     1
1071
        9
1005
3FB
  0
ARC
  5
3FC
330
77
100
AcDbEntity
  8
0
 62
     7
100
AcDbCircle
 10
0.2908978640522985
 20
7.146251316313382
 30
0.0
 40
0.2599817711333172
100
AcDbArc
 50
119.5667366807392
 51
240.2923305811624
1001
AcDbBlockRepETag
1070
     1
1071
       10
1005
3FC
  0
ARC
  5
3FD
330
77
100
AcDbEntity
  8
0
 62
     7
100
AcDbCircle
 10
0.0994376909600446
 20
6.892121060759638
 30
0.0
 40
0.2609009709292815
100
AcDbArc
 50
248.3032267580052
 51
6.231369388787123
1001
AcDbBlockRepETag
1070
     1
1071
       11
1005
3FD
  0
LINE
  5
3FE
330
77
100
AcDbEntity
  8
0
 62
     7
100
AcDbLine
 10
0.1626132403497635
 20
7.372378662388808
 30
0.0
 11
0.1626132403497635
 21
7.5318863546965
 31
0.0
1001
AcDbBlockRepETag
1070
     1
1071
       12
1005
3FE
  0
ARC
  5
3FF
330
77
100
AcDbEntity
  8
0
 62
     7
100
AcDbCircle
 10
1.292247112166745
 20
7.136525811359195
 30
0.0
 40
0.2450958295802355
100
AcDbArc
 50
298.1595023319106
 51
74.21480289370395
1001
AcDbBlockRepETag
1070
     1
1071
       13
1005
3FF
  0
ARC
  5
400
330
77
100
AcDbEntity
  8
0
 62
     7
100
AcDbCircle
 10
1.462956252117386
 20
6.894456360854096
 30
0.0
 40
0.2534624065651365
100
AcDbArc
 50
174.1159540088352
 51
282.6135752038357
1001
AcDbBlockRepETag
1070
     1
1071
       14
1005
400
  0
LINE
  5
401
330
77
100
AcDbEntity
  8
0
 62
     7
100
AcDbLine
 10
1.358920932657447
 20
7.5318863546965
 30
0.0
 11
1.358920932657447
 21
7.372378662388808
 31
0.0
1001
AcDbBlockRepETag
1070
     1
1071
       15
1005
401
  0
LWPOLYLINE
  5
402
330
77
100
AcDbEntity
  8
0
 62
     7
100
AcDbPolyline
 90
        4
 70
     0
 43
0.0
 10
0.2762356003213284
 20
14.19933398037093
 42
0.2206747768326179
 10
-0.0499875498746079
 20
14.91663699540262
 10
-0.1315433374235937
 20
12.21044834778307
 42
0.297936053380673
 10
0.1626132403497635
 20
11.65250173931188
 42
-22.54258213925182
1001
AcDbBlockRepETag
1070
     1
1071
       16
1005
402
  0
LWPOLYLINE
  5
403
330
77
100
AcDbEntity
  8
0
 62
     7
100
AcDbPolyline
 90
        2
 70
     0
 43
0.0
 10
0.1783686136087752
 20
10.93886573022689
 42
0.3152218505810997
 10
0.3898410372898118
 20
8.409178662388811
 42
0.4755903884260384
1001
AcDbBlockRepETag
1070
     1
1071
       17
1005
403
  0
LWPOLYLINE
  5
404
330
77
100
AcDbEntity
  8
0
 62
     7
100
AcDbPolyline
 90
        3
 70
     0
 43
0.0
 10
0.6677031306338393
 20
12.47128580779459
 42
0.2154028787027171
 10
0.21099101193591
 20
13.38421691783492
 42
0.2074956832087927
 10
-0.0989209390964661
 20
12.87884440871316
 42
1.151859767637135
1001
AcDbBlockRepETag
1070
     1
1071
       18
1005
404
  0
LWPOLYLINE
  5
405
330
77
100
AcDbEntity
  8
0
 62
     7
100
AcDbPolyline
 90
        3
 70
     0
 43
0.0
 10
0.5861475513536974
 20
12.06372734617715
 42
0.2862942767037924
 10
0.1783686136087752
 20
12.56909985529891
 42
0.148659435068889
 10
-0.1152321382600263
 20
12.04742493527586
 42
1.245077364926133
1001
AcDbBlockRepETag
1070
     1
1071
       19
1005
405
  0
LWPOLYLINE
  5
406
330
77
100
AcDbEntity
  8
0
 62
     7
100
AcDbPolyline
 90
        3
 70
     0
 43
0.0
 10
0.0641906360015057
 20
10.93886573022689
 42
0.2572748973057756
 10
-0.3925216909652676
 20
10.02593462018656
 42
0.1440020787066679
 10
0.2157824711189917
 20
8.409178662388811
 42
1.26352145994159
1001
AcDbBlockRepETag
1070
     1
1071
       20
1005
406
  0
LINE
  5
407
330
77
100
AcDbEntity
  8
0
 62
     7
100
AcDbLine
 10
0.6677209326574527
 20
13.43367097008112
 30
0.0
 11
0.7474747788113021
 21
14.17804020085035
 31
0.0
1001
AcDbBlockRepETag
1070
     1
1071
       21
1005
407
  0
LINE
  5
408
330
77
100
AcDbEntity
  8
0
 62
     7
100
AcDbLine
 10
0.8538132403497584
 20
13.43367097008112
 30
0.0
 11
0.7474747788113021
 21
14.17804020085035
 31
0.0
1001
AcDbBlockRepETag
1070
     1
1071
       22
1005
408
  0
LWPOLYLINE
  5
409
330
77
100
AcDbEntity
  8
0
 62
     7
100
AcDbPolyline
 90
        4
 70
     0
 43
0.0
 10
1.229222791930197
 20
14.20357175331268
 42
-0.2206747768326179
 10
1.549053716355189
 20
14.9237476616009
 10
1.654673729520148
 20
12.21839135312568
 42
-0.2996471989172198
 10
1.358920932657447
 20
11.65250173931188
 42
22.54258213925182
1001
AcDbBlockRepETag
1070
     1
1071
       23
1005
409
  0
LWPOLYLINE
  5
40A
330
77
100
AcDbEntity
  8
0
 62
     7
100
AcDbPolyline
 90
        8
 70
     0
 43
0.0
 10
0.7492589181828251
 20
14.9818463604055
 42
-0.2053128949751896
 10
1.180291337917658
 20
14.20313656489855
 42
-0.0592786904507321
 10
1.347963697009426
 20
11.85699783188693
 42
-0.3258650438559005
 10
1.202763957180145
 20
11.67637367262642
 42
-0.4818317243395803
 10
1.005733071689206
 20
11.82134811622648
 42
-0.1459955922700133
 10
0.874886166587089
 20
13.69502784455096
 42
-0.3001429859317048
 10
1.212767252575318
 20
14.21972845606688
 42
-0.1408596149696023
 10
1.57348341053261
 20
14.01099771942615
 42
-3.647346298617237
1001
AcDbBlockRepETag
1070
     1
1071
       24
1005
40A
  0
LWPOLYLINE
  5
40B
330
77
100
AcDbEntity
  8
0
 62
     7
100
AcDbPolyline
 90
        8
 70
     0
 43
0.0
 10
0.7492589181828251
 20
14.9818463604055
 42
0.2053128949751896
 10
0.3251689895431795
 20
14.19933398037093
 42
0.0592786904507321
 10
0.1783686136087752
 20
11.85179684026722
 42
0.3258650438559005
 10
0.3251689895431795
 20
11.67247115615986
 42
0.4818317243395803
 10
0.520902754699435
 20
11.81919215776578
 42
0.1459955922700133
 10
0.6350809405755485
 20
13.69396147124917
 42
0.3001429859317048
 10
0.2925467994848887
 20
14.21563639127221
 42
0.1408596149696023
 10
-0.0662987490381752
 20
14.00370588536229
 42
3.647346298617237
1001
AcDbBlockRepETag
1070
     1
1071
       25
1005
40B
  0
LINE
  5
40C
330
77
100
AcDbEntity
  8
0
 62
     7
100
AcDbLine
 10
0.0562747788113001
 20
10.96130173931189
 30
0.0
 11
0.0562747788113001
 21
11.09422481623496
 31
0.0
1001
AcDbBlockRepETag
1070
     1
1071
       26
1005
40C
  0
LINE
  5
40D
330
77
100
AcDbEntity
  8
0
 62
     7
100
AcDbLine
 10
1.491844009580532
 20
11.09422481623496
 30
0.0
 11
1.491844009580532
 21
10.96130173931189
 31
0.0
1001
AcDbBlockRepETag
1070
     1
1071
       27
1005
40D
  0
ARC
  5
40E
330
77
100
AcDbEntity
  8
0
 62
     7
100
AcDbCircle
 10
1.442315002608138
 20
11.31219315540224
 30
0.0
 40
0.2235247624112681
100
AcDbArc
 50
111.9060957676339
 51
282.8019535048909
1001
AcDbBlockRepETag
1070
     1
1071
       28
1005
40E
  0
LWPOLYLINE
  5
40F
330
77
100
AcDbEntity
  8
0
 62
     7
100
AcDbPolyline
 90
        3
 70
     0
 43
0.0
 10
1.470256299211932
 20
10.94511826654044
 42
-0.2572748973057756
 10
1.935069704284053
 20
10.03628502564961
 42
-0.1603318820907293
 10
1.305751701888219
 20
8.409178662388811
1001
AcDbBlockRepETag
1070
     1
1071
       29
1005
40F
  0
LWPOLYLINE
  5
410
330
77
100
AcDbEntity
  8
0
 62
     7
100
AcDbPolyline
 90
        2
 70
     0
 43
0.0
 10
1.356082837095797
 20
10.94410282629005
 42
-0.3157767288902336
 10
1.164285573314137
 20
8.409178662388811
 42
-0.4755903884260384
1001
AcDbBlockRepETag
1070
     1
1071
       30
1005
410
  0
LWPOLYLINE
  5
411
330
77
100
AcDbEntity
  8
0
 62
     7
100
AcDbPolyline
 90
        2
 70
     0
 43
0.0
 10
0.390413577928598
 20
10.92256345862674
 42
0.2145505724738437
 10
0.5045917638047115
 20
8.412002766714703
 42
0.6149334729559217
1001
AcDbBlockRepETag
1070
     1
1071
       31
1005
411
  0
LWPOLYLINE
  5
412
330
77
100
AcDbEntity
  8
0
 62
     7
100
AcDbPolyline
 90
        2
 70
     0
 43
0.0
 10
0.8830780180189918
 20
10.93989599816187
 42
-0.1104190557101421
 10
0.8566191845078137
 20
8.412697778179996
 42
-0.0625055521615166
1001
AcDbBlockRepETag
1070
     1
1071
       32
1005
412
  0
LWPOLYLINE
  5
413
330
77
100
AcDbEntity
  8
0
 62
     7
100
AcDbPolyline
 90
        2
 70
     0
 43
0.0
 10
1.144191242718932
 20
10.92591538047844
 42
-0.2145505724738437
 10
1.052345208818593
 20
8.414438533688773
 42
-0.6149334729559217
1001
AcDbBlockRepETag
1070
     1
1071
       33
1005
413
  0
LWPOLYLINE
  5
414
330
77
100
AcDbEntity
  8
0
 62
     7
100
AcDbPolyline
 90
        2
 70
     0
 43
0.0
 10
0.6513921397391158
 20
10.93886573022689
 42
0.1104190557101424
 10
0.7003255289609669
 20
8.412002766714703
 42
0.0625055521615166
1001
AcDbBlockRepETag
1070
     1
1071
       34
1005
414
  0
LINE
  5
415
330
77
100
AcDbEntity
  8
0
 62
     7
100
AcDbLine
 10
0.0158150332790481
 20
8.010416343142814
 30
0.0
 11
1.545285197476992
 21
8.011248081673986
 31
0.0
1001
AcDbBlockRepETag
1070
     1
1071
       35
1005
415
  0
LINE
  5
416
330
77
100
AcDbEntity
  8
0
 62
     7
100
AcDbLine
 10
0.2157824711189917
 20
8.302840200850351
 30
0.0
 11
1.305751701888219
 21
8.302840200850351
 31
0.0
1001
AcDbBlockRepETag
1070
     1
1071
       36
1005
416
  0
LINE
  5
417
330
77
100
AcDbEntity
  8
0
 62
     7
100
AcDbLine
 10
1.305751701888219
 20
8.409178662388811
 30
0.0
 11
0.2157824711189917
 21
8.409178662388811
 31
0.0
1001
AcDbBlockRepETag
1070
     1
1071
       37
1005
417
  0
LINE
  5
418
330
77
100
AcDbEntity
  8
0
 62
     7
100
AcDbLine
 10
0.2157824711189917
 20
8.302840200850351
 30
0.0
 11
0.2157824711189917
 21
8.409178662388811
 31
0.0
1001
AcDbBlockRepETag
1070
     1
1071
       38
1005
418
  0
LINE
  5
419
330
77
100
AcDbEntity
  8
0
 62
     7
100
AcDbLine
 10
0.0562747788113001
 20
10.93471712392727
 30
0.0
 11
1.491844009580532
 21
10.93471712392727
 31
0.0
1001
AcDbBlockRepETag
1070
     1
1071
       39
1005
419
  0
LWPOLYLINE
  5
41A
330
77
100
AcDbEntity
  8
0
 62
     7
100
AcDbPolyline
 90
        3
 70
     0
 43
0.0
 10
0.8531391156149936
 20
12.47211041027246
 42
-0.2154028787027171
 10
1.301714032253762
 20
13.38906717872316
 42
-0.2074956832087927
 10
1.616108250298239
 20
12.88647085359839
 42
-1.151859767637135
1001
AcDbBlockRepETag
1070
     1
1071
       40
1005
41A
  0
LWPOLYLINE
  5
41B
330
77
100
AcDbEntity
  8
0
 62
     7
100
AcDbPolyline
 90
        3
 70
     0
 43
0.0
 10
0.938316085039581
 20
12.06529338011353
 42
-0.2862942767037924
 10
1.341584372655844
 20
12.57427247914162
 42
-0.148659435068889
 10
1.639813021873095
 20
12.0552293244184
 42
-1.245077364926133
1001
AcDbBlockRepETag
1070
     1
1071
       41
1005
41B
  0
LINE
  5
41C
330
77
100
AcDbEntity
  8
0
 62
     7
100
AcDbLine
 10
0.0562747788113001
 20
11.09422481623496
 30
0.0
 11
1.491844009580532
 21
11.09422481623496
 31
0.0
1001
AcDbBlockRepETag
1070
     1
1071
       42
1005
41C
  0
LINE
  5
41D
330
77
100
AcDbEntity
  8
0
 62
     7
100
AcDbLine
 10
0.1626132403497635
 20
11.5195786623888
 30
0.0
 11
1.358920932657447
 21
11.5195786623888
 31
0.0
1001
AcDbBlockRepETag
1070
     1
1071
       43
1005
41D
  0
LINE
  5
41E
330
77
100
AcDbEntity
  8
0
 62
     7
100
AcDbLine
 10
1.358920932657447
 20
11.65250173931188
 30
0.0
 11
0.1626132403497635
 21
11.65250173931188
 31
0.0
1001
AcDbBlockRepETag
1070
     1
1071
       44
1005
41E
  0
ARC
  5
41F
330
77
100
AcDbEntity
  8
0
 62
     7
100
AcDbCircle
 10
0.093906131272547
 20
11.31078620888888
 30
0.0
 40
0.2198066320115663
100
AcDbArc
 50
260.142282160644
 51
71.78523090350235
1001
AcDbBlockRepETag
1070
     1
1071
       45
1005
41F
  0
LINE
  5
420
330
77
100
AcDbEntity
  8
0
 62
     7
100
AcDbLine
 10
0.1626132403497635
 20
11.5195786623888
 30
0.0
 11
0.1626132403497635
 21
11.65250173931188
 31
0.0
1001
AcDbBlockRepETag
1070
     1
1071
       46
1005
420
  0
LINE
  5
421
330
77
100
AcDbEntity
  8
0
 62
     7
100
AcDbLine
 10
1.358920932657447
 20
11.65250173931188
 30
0.0
 11
1.358920932657447
 21
11.5195786623888
 31
0.0
1001
AcDbBlockRepETag
1070
     1
1071
       47
1005
421
  0
LINE
  5
422
330
77
100
AcDbEntity
  8
0
 62
     7
100
AcDbLine
 10
1.196307692307684
 20
35.91581538461539
 30
0.0
 11
1.259076923076911
 21
29.97095257232258
 31
0.0
1001
AcDbBlockRepETag
1070
     1
1071
       48
1005
422
  0
LINE
  5
423
330
77
100
AcDbEntity
  8
0
 62
     7
100
AcDbLine
 10
0.2563911174276043
 20
29.97095257232258
 30
0.0
 11
0.3190153846153834
 21
35.91581538461539
 31
0.0
1001
AcDbBlockRepETag
1070
     1
1071
       49
1005
423
  0
LINE
  5
424
330
77
100
AcDbEntity
  8
0
 62
     7
100
AcDbLine
 10
0.2112435802879276
 20
29.09366026463028
 30
0.0
 11
1.302918038365163
 21
29.09366026463028
 31
0.0
1001
AcDbBlockRepETag
1070
     1
1071
       50
1005
424
  0
LINE
  5
425
330
77
100
AcDbEntity
  8
0
 62
     7
100
AcDbLine
 10
1.541722008304795
 20
29.4924294953995
 30
0.0
 11
-0.0265846153846212
 21
29.4924294953995
 31
0.0
1001
AcDbBlockRepETag
1070
     1
1071
       51
1005
425
  0
LINE
  5
426
330
77
100
AcDbEntity
  8
0
 62
     7
100
AcDbLine
 10
0.2126769230769199
 20
29.81144488001489
 30
0.0
 11
1.309741133896174
 21
29.81144488001489
 31
0.0
1001
AcDbBlockRepETag
1070
     1
1071
       52
1005
426
  0
LINE
  5
427
330
77
100
AcDbEntity
  8
0
 62
     7
100
AcDbLine
 10
1.302918038365163
 20
29.97095257232258
 30
0.0
 11
0.2126769230769199
 21
29.97095257232258
 31
0.0
1001
AcDbBlockRepETag
1070
     1
1071
       53
1005
427
  0
LWPOLYLINE
  5
428
330
77
100
AcDbEntity
  8
0
 62
     7
100
AcDbPolyline
 90
        4
 70
     0
 43
0.0
 10
0.2126769230769199
 20
29.97095257232258
 10
0.2126769230769199
 20
29.81094280039846
 42
0.2753116167442796
 10
-0.0415935076033449
 20
29.50033569440538
 42
-0.2171216619591928
 10
0.2126769230769199
 20
29.09560518496864
 42
-2.022033034273503
1001
AcDbBlockRepETag
1070
     1
1071
       54
1005
428
  0
LINE
  5
429
330
77
100
AcDbEntity
  8
0
 62
     7
100
AcDbLine
 10
0.7434348265333668
 20
29.09338344863076
 30
0.0
 11
0.7434348265333668
 21
29.09338344863076
 31
0.0
1001
AcDbBlockRepETag
1070
     1
1071
       55
1005
429
  0
LINE
  5
42A
330
77
100
AcDbEntity
  8
0
 62
     7
100
AcDbLine
 10
0.7434348265333668
 20
29.49215267939999
 30
0.0
 11
0.7434348265333668
 21
29.49215267939999
 31
0.0
1001
AcDbBlockRepETag
1070
     1
1071
       56
1005
42A
  0
LWPOLYLINE
  5
42B
330
77
100
AcDbEntity
  8
0
 62
     7
100
AcDbPolyline
 90
        4
 70
     0
 43
0.0
 10
1.301711749610284
 20
29.97067575632306
 10
1.301711749610284
 20
29.81066598439894
 42
-0.2753116167442796
 10
1.555982180290548
 20
29.50005887840586
 42
0.2171216619591928
 10
1.301711749610284
 20
29.09532836896912
 42
2.022033034273503
1001
AcDbBlockRepETag
1070
     1
1071
       57
1005
42B
  0
LINE
  5
42C
330
77
100
AcDbEntity
  8
0
 62
     7
100
AcDbLine
 10
0.3190153846153834
 20
35.91581538461539
 30
0.0
 11
1.196307692307684
 21
35.91581538461539
 31
0.0
1001
AcDbBlockRepETag
1070
     1
1071
       58
1005
42C
  0
LINE
  5
42D
330
77
100
AcDbEntity
  8
0
100
AcDbLine
 10
1.30575170188822
 20
8.409178662388811
 30
0.0
 11
1.305751701888215
 21
8.302840200850351
 31
0.0
1001
AcDbBlockRepETag
1070
     1
1071
       59
1005
42D
  0
ENDBLK
  5
14C
330
77
100
AcDbEntity
  8
0
100
AcDbBlockEnd
  0
BLOCK
  5
14D
330
A2
100
AcDbEntity
  8
0
100
AcDbBlockBegin
  2
*D1
 70
     1
 10
0.0
 20
0.0
 30
0.0
  3
*D1
  1

  0
LINE
  5
14E
330
A2
100
AcDbEntity
  8
0
  6
ByBlock
 62
     0
100
AcDbLine
 10
30.22574412123679
 20
2.798697530617541
 30
0.0
 11
29.24782143091583
 21
2.798697530617541
 31
0.0
  0
LINE
  5
14F
330
A2
100
AcDbEntity
  8
0
  6
ByBlock
 62
     0
100
AcDbLine
 10
30.54549464647551
 20
38.79727749707746
 30
0.0
 11
29.24782143091584
 21
38.79727749707746
 31
0.0
  0
LINE
  5
150
330
A2
100
AcDbEntity
  8
0
  6
ByBlock
 62
     0
100
AcDbLine
 10
29.42782143091584
 20
2.798697530617541
 30
0.0
 11
29.42782143091584
 21
20.56882084718083
 31
0.0
  0
LINE
  5
151
330
A2
100
AcDbEntity
  8
0
  6
ByBlock
 62
     0
100
AcDbLine
 10
29.42782143091584
 20
38.79727749707746
 30
0.0
 11
29.42782143091584
 21
21.02715418051417
 31
0.0
  0
LINE
  5
152
330
A2
100
AcDbEntity
  8
0
  6
ByBlock
 62
     0
100
AcDbLine
 10
29.55282143091583
 20
2.673697530617541
 30
0.0
 11
29.30282143091583
 21
2.923697530617541
 31
0.0
  0
LINE
  5
153
330
A2
100
AcDbEntity
  8
0
  6
ByBlock
 62
     0
100
AcDbLine
 10
29.55282143091584
 20
38.67227749707746
 30
0.0
 11
29.30282143091584
 21
38.92227749707746
 31
0.0
  0
TEXT
  5
154
330
A2
100
AcDbEntity
  8
0
  6
ByBlock
 62
     0
100
AcDbText
 10
29.49032143091584
 20
20.69382084718083
 30
0.0
 40
0.125
  1
36
 50
90.0
 72
     1
 11
29.42782143091584
 21
20.7979875138475
 31
0.0
100
AcDbText
 73
     2
  0
POINT
  5
155
330
A2
100
AcDbEntity
  8
DEFPOINTS
  6
ByBlock
 62
     0
100
AcDbPoint
 10
30.28824412123679
 20
2.798697530617541
 30
0.0
  0
POINT
  5
156
330
A2
100
AcDbEntity
  8
DEFPOINTS
  6
ByBlock
 62
     0
100
AcDbPoint
 10
30.60799464647551
 20
38.79727749707746
 30
0.0
  0
POINT
  5
157
330
A2
100
AcDbEntity
  8
DEFPOINTS
  6
ByBlock
 62
     0
100
AcDbPoint
 10
29.42782143091584
 20
38.79727749707746
 30
0.0
  0
ENDBLK
  5
158
330
A2
100
AcDbEntity
  8
0
100
AcDbBlockEnd
  0
BLOCK
  5
159
330
A9
100
AcDbEntity
  8
0
100
AcDbBlockBegin
  2
*D2
 70
     1
 10
0.0
 20
0.0
 30
0.0
  3
*D2
  1

  0
LINE
  5
15A
330
A9
100
AcDbEntity
  8
0
  6
ByBlock
 62
     0
100
AcDbLine
 10
30.60799464647551
 20
38.85977749707746
 30
0.0
 11
30.60799464647551
 21
39.43864846362158
 31
0.0
  0
LINE
  5
15B
330
A9
100
AcDbEntity
  8
0
  6
ByBlock
 62
     0
100
AcDbLine
 10
31.487308590882
 20
38.85977749707746
 30
0.0
 11
31.487308590882
 21
39.43864846362158
 31
0.0
  0
LINE
  5
15C
330
A9
100
AcDbEntity
  8
0
  6
ByBlock
 62
     0
100
AcDbLine
 10
30.60799464647551
 20
39.25864846362158
 30
0.0
 11
30.35799464647551
 21
39.25864846362158
 31
0.0
  0
LINE
  5
15D
330
A9
100
AcDbEntity
  8
0
  6
ByBlock
 62
     0
100
AcDbLine
 10
31.487308590882
 20
39.25864846362158
 30
0.0
 11
31.737308590882
 21
39.25864846362158
 31
0.0
  0
LINE
  5
15E
330
A9
100
AcDbEntity
  8
0
  6
ByBlock
 62
     0
100
AcDbLine
 10
30.48299464647551
 20
39.13364846362158
 30
0.0
 11
30.73299464647551
 21
39.38364846362158
 31
0.0
  0
LINE
  5
15F
330
A9
100
AcDbEntity
  8
0
  6
ByBlock
 62
     0
100
AcDbLine
 10
31.362308590882
 20
39.13364846362158
 30
0.0
 11
31.612308590882
 21
39.38364846362158
 31
0.0
  0
TEXT
  5
160
330
A9
100
AcDbEntity
  8
0
  6
ByBlock
 62
     0
100
AcDbText
 10
31.862308590882
 20
39.19614846362158
 30
0.0
 40
0.125
  1
7/8
 72
     1
 11
32.02897525754867
 21
39.25864846362158
 31
0.0
100
AcDbText
 73
     2
  0
POINT
  5
161
330
A9
100
AcDbEntity
  8
DEFPOINTS
  6
ByBlock
 62
     0
100
AcDbPoint
 10
30.60799464647551
 20
38.79727749707746
 30
0.0
  0
POINT
  5
162
330
A9
100
AcDbEntity
  8
DEFPOINTS
  6
ByBlock
 62
     0
100
AcDbPoint
 10
31.487308590882
 20
38.79727749707746
 30
0.0
  0
POINT
  5
163
330
A9
100
AcDbEntity
  8
DEFPOINTS
  6
ByBlock
 62
     0
100
AcDbPoint
 10
31.487308590882
 20
39.25864846362158
 30
0.0
  0
ENDBLK
  5
164
330
A9
100
AcDbEntity
  8
0
100
AcDbBlockEnd
  0
BLOCK
  5
165
330
AA
100
AcDbEntity
  8
0
100
AcDbBlockBegin
  2
*D3
 70
     1
 10
0.0
 20
0.0
 30
0.0
  3
*D3
  1

  0
LINE
  5
166
330
AA
100
AcDbEntity
  8
0
  6
ByBlock
 62
     0
100
AcDbLine
 10
30.28824412123679
 20
2.736197530617541
 30
0.0
 11
30.28824412123679
 21
2.024047371978448
 31
0.0
  0
LINE
  5
167
330
AA
100
AcDbEntity
  8
0
  6
ByBlock
 62
     0
100
AcDbLine
 10
31.80705911612073
 20
2.736197530617541
 30
0.0
 11
31.80705911612073
 21
2.024047371978448
 31
0.0
  0
LINE
  5
168
330
AA
100
AcDbEntity
  8
0
  6
ByBlock
 62
     0
100
AcDbLine
 10
30.28824412123679
 20
2.204047371978448
 30
0.0
 11
30.67265161867876
 21
2.204047371978448
 31
0.0
  0
LINE
  5
169
330
AA
100
AcDbEntity
  8
0
  6
ByBlock
 62
     0
100
AcDbLine
 10
31.80705911612073
 20
2.204047371978448
 30
0.0
 11
31.42265161867876
 21
2.204047371978448
 31
0.0
  0
LINE
  5
16A
330
AA
100
AcDbEntity
  8
0
  6
ByBlock
 62
     0
100
AcDbLine
 10
30.16324412123679
 20
2.079047371978448
 30
0.0
 11
30.41324412123679
 21
2.329047371978448
 31
0.0
  0
LINE
  5
16B
330
AA
100
AcDbEntity
  8
0
  6
ByBlock
 62
     0
100
AcDbLine
 10
31.68205911612073
 20
2.079047371978448
 30
0.0
 11
31.93205911612074
 21
2.329047371978448
 31
0.0
  0
TEXT
  5
16C
330
AA
100
AcDbEntity
  8
0
  6
ByBlock
 62
     0
100
AcDbText
 10
30.79765161867876
 20
2.141547371978448
 30
0.0
 40
0.125
  1
1 1/2
 72
     1
 11
31.04765161867876
 21
2.204047371978448
 31
0.0
100
AcDbText
 73
     2
  0
POINT
  5
16D
330
AA
100
AcDbEntity
  8
DEFPOINTS
  6
ByBlock
 62
     0
100
AcDbPoint
 10
30.28824412123679
 20
2.798697530617541
 30
0.0
  0
POINT
  5
16E
330
AA
100
AcDbEntity
  8
DEFPOINTS
  6
ByBlock
 62
     0
100
AcDbPoint
 10
31.80705911612073
 20
2.798697530617541
 30
0.0
  0
POINT
  5
16F
330
AA
100
AcDbEntity
  8
DEFPOINTS
  6
ByBlock
 62
     0
100
AcDbPoint
 10
31.80705911612073
 20
2.204047371978448
 30
0.0
  0
ENDBLK
  5
170
330
AA
100
AcDbEntity
  8
0
100
AcDbBlockEnd
  0
BLOCK
  5
34E
330
343
100
AcDbEntity
  8
0
 62
     3
100
AcDbBlockBegin
  2
*D4
 70
     1
 10
0.0
 20
0.0
 30
0.0
  3
*D4
  1

  0
LINE
  5
450
330
343
100
AcDbEntity
  8
ADPDIM
 62
     0
370
    -2
100
AcDbLine
 10
31.549808590882
 20
38.79727749707746
 30
0.0
 11
32.99184196470778
 21
38.79727749707746
 31
0.0
  0
LINE
  5
451
330
343
100
AcDbEntity
  8
ADPDIM
 62
     0
370
    -2
100
AcDbLine
 10
31.61924838443292
 20
32.79767933427759
 30
0.0
 11
32.99184196470778
 21
32.79767933427759
 31
0.0
  0
LINE
  5
452
330
343
100
AcDbEntity
  8
ADPDIM
 62
     0
370
    -2
100
AcDbLine
 10
32.81184196470778
 20
38.79727749707746
 30
0.0
 11
32.81184196470778
 21
36.08914508234419
 31
0.0
  0
LINE
  5
453
330
343
100
AcDbEntity
  8
ADPDIM
 62
     0
370
    -2
100
AcDbLine
 10
32.81184196470778
 20
32.79767933427759
 30
0.0
 11
32.81184196470778
 21
35.50581174901086
 31
0.0
  0
LINE
  5
454
330
343
100
AcDbEntity
  8
ADPDIM
 62
     0
370
    -2
100
AcDbLine
 10
32.93684196470778
 20
32.67267933427759
 30
0.0
 11
32.68684196470778
 21
32.92267933427759
 31
0.0
  0
LINE
  5
455
330
343
100
AcDbEntity
  8
ADPDIM
 62
     0
370
    -2
100
AcDbLine
 10
32.93684196470778
 20
38.67227749707746
 30
0.0
 11
32.68684196470778
 21
38.92227749707746
 31
0.0
  0
MTEXT
  5
456
330
343
100
AcDbEntity
  8
ADPDIM
 62
     0
100
AcDbMText
 10
32.81184196470777
 20
35.79747841567753
 30
0.0
 40
0.5
 41
0.0
 71
     5
 72
     1
  1
\A1;6
 11
0.0000000000000001
 21
1.0
 31
0.0
 73
     1
 44
1.0
1001
ACAD
1000
MTEXTBEGIN
1070
    73
1070
     1
1070
    44
1040
1.0
1070
    74
1070
     0
1000
MTEXTEND
  0
POINT
  5
457
330
343
100
AcDbEntity
  8
DEFPOINTS
 62
     0
100
AcDbPoint
 10
31.487308590882
 20
38.79727749707746
 30
0.0
  0
POINT
  5
458
330
343
100
AcDbEntity
  8
DEFPOINTS
 62
     0
100
AcDbPoint
 10
31.55674838443292
 20
32.79767933427759
 30
0.0
  0
POINT
  5
459
330
343
100
AcDbEntity
  8
DEFPOINTS
 62
     0
100
AcDbPoint
 10
32.81184196470778
 20
32.79767933427759
 30
0.0
  0
ENDBLK
  5
34F
330
343
100
AcDbEntity
  8
0
 62
     3
100
AcDbBlockEnd
  0
BLOCK
  5
35C
330
351
100
AcDbEntity
  8
0
 62
     3
100
AcDbBlockBegin
  2
*D5
 70
     1
 10
0.0
 20
0.0
 30
0.0
  3
*D5
  1

  0
LINE
  5
446
330
351
100
AcDbEntity
  8
ADPDIM
 62
     0
370
    -2
100
AcDbLine
 10
31.86955911612074
 20
2.798697530617541
 30
0.0
 11
33.37639043198708
 21
2.798697530617541
 31
0.0
  0
LINE
  5
447
330
351
100
AcDbEntity
  8
ADPDIM
 62
     0
370
    -2
100
AcDbLine
 10
31.86955911612074
 20
9.798697530617541
 30
0.0
 11
33.37639043198708
 21
9.798697530617541
 31
0.0
  0
LINE
  5
448
330
351
100
AcDbEntity
  8
ADPDIM
 62
     0
370
    -2
100
AcDbLine
 10
33.19639043198709
 20
2.798697530617541
 30
0.0
 11
33.19639043198709
 21
6.007030863950874
 31
0.0
  0
LINE
  5
449
330
351
100
AcDbEntity
  8
ADPDIM
 62
     0
370
    -2
100
AcDbLine
 10
33.19639043198709
 20
9.798697530617541
 30
0.0
 11
33.19639043198709
 21
6.590364197284208
 31
0.0
  0
LINE
  5
44A
330
351
100
AcDbEntity
  8
ADPDIM
 62
     0
370
    -2
100
AcDbLine
 10
33.32139043198708
 20
9.673697530617541
 30
0.0
 11
33.07139043198708
 21
9.923697530617541
 31
0.0
  0
LINE
  5
44B
330
351
100
AcDbEntity
  8
ADPDIM
 62
     0
370
    -2
100
AcDbLine
 10
33.32139043198708
 20
2.673697530617541
 30
0.0
 11
33.07139043198708
 21
2.923697530617541
 31
0.0
  0
MTEXT
  5
44C
330
351
100
AcDbEntity
  8
ADPDIM
 62
     0
100
AcDbMText
 10
33.19639043198709
 20
6.298697530617547
 30
0.0
 40
0.5
 41
0.0
 71
     5
 72
     1
  1
\A1;7
 11
0.0000000000000001
 21
1.0
 31
0.0
 73
     1
 44
1.0
1001
ACAD
1000
MTEXTBEGIN
1070
    73
1070
     1
1070
    44
1040
1.0
1070
    74
1070
     0
1000
MTEXTEND
  0
POINT
  5
44D
330
351
100
AcDbEntity
  8
DEFPOINTS
 62
     0
100
AcDbPoint
 10
31.80705911612073
 20
2.798697530617541
 30
0.0
  0
POINT
  5
44E
330
351
100
AcDbEntity
  8
DEFPOINTS
 62
     0
100
AcDbPoint
 10
31.80705911612073
 20
9.798697530617541
 30
0.0
  0
POINT
  5
44F
330
351
100
AcDbEntity
  8
DEFPOINTS
 62
     0
100
AcDbPoint
 10
33.19639043198709
 20
9.798697530617541
 30
0.0
  0
ENDBLK
  5
35D
330
351
100
AcDbEntity
  8
0
 62
     3
100
AcDbBlockEnd
  0
ENDSEC
  0
SECTION
  2
ENTITIES
  0
DIMENSION
  5
171
330
18
100
AcDbEntity
  8
ADPDIM
100
AcDbDimension
  2
*D1
 10
29.42782143091584
 20
38.79727749707746
 30
0.0
 11
29.42782143091584
 21
20.7979875138475
 31
0.0
 71
     5
 42
-1.0
100
AcDbAlignedDimension
 13
30.28824412123679
 23
2.798697530617541
 33
0.0
 14
30.60799464647551
 24
38.79727749707746
 34
0.0
 50
90.0
100
AcDbRotatedDimension
  0
INSERT
  5
172
330
18
100
AcDbEntity
  8
ADP1DETAIL
100
AcDbBlockReference
  2
333
 10
30.28824412123679
 20
2.798697530617541
 30
0.0
 41
1.002304404924633
 42
1.002304404924633
 43
1.002304404924633
  0
LWPOLYLINE
  5
173
330
18
100
AcDbEntity
  8
ADP1DETAIL
100
AcDbPolyline
 90
        4
 70
     1
 43
0.0
 10
30.32113262364178
 20
0.1552310881121812
 10
30.32113262364178
 20
1.655231088112181
 10
31.82113262364178
 20
1.655231088112181
 10
31.82113262364178
 20
0.1552310881121812
  0
DIMENSION
  5
179
330
18
100
AcDbEntity
  8
ADPDIM
100
AcDbDimension
  2
*D3
 10
31.80705911612073
 20
2.204047371978448
 30
0.0
 11
31.04765161867876
 21
2.204047371978448
 31
0.0
 71
     5
 42
-1.0
100
AcDbAlignedDimension
 13
30.28824412123679
 23
2.798697530617541
 33
0.0
 14
31.80705911612073
 24
2.798697530617541
 34
0.0
100
AcDbRotatedDimension
  0
CIRCLE
  5
17A
330
18
100
AcDbEntity
  8
ADP1DETAIL
100
AcDbCircle
 10
31.04204142914915
 20
40.12904865089711
 30
0.0
 40
0.4375
  0
DIMENSION
  5
17B
330
18
100
AcDbEntity
  8
ADPDIM
100
AcDbDimension
  2
*D2
 10
31.487308590882
 20
39.25864846362158
 30
0.0
 11
32.02897525754867
 21
39.25864846362158
 31
0.0
 71
     5
 42
-1.0
100
AcDbAlignedDimension
 13
30.60799464647551
 23
38.79727749707746
 33
0.0
 14
31.487308590882
 24
38.79727749707746
 34
0.0
100
AcDbRotatedDimension
  0
TEXT
  5
189
330
18
100
AcDbEntity
  8
ADPDIM
100
AcDbText
 10
-1.102405063943486
 20
-1.082207476478828
 30
0.0
 40
0.625
  1
J U L I U S  B L U M  &  C O . ,  I N C .      ( 8 0 0 )  5 2 6 - 6 2 9 3        W W W . J U L I U S B L U M . C O M        P A R T  N o .  3 3 3
 41
1.25
  7
ARIAL_WIDE
 72
     1
 11
31.07113262364178
 21
-0.4572074764788284
 31
0.0
100
AcDbText
 73
     3
  0
DIMENSION
  5
342
330
18
100
AcDbEntity
  8
ADPDIM
 62
     3
100
AcDbDimension
  2
*D4
 10
32.81184196470778
 20
32.79767933427759
 30
0.0
 11
32.81184196470777
 21
35.79747841567753
 31
0.0
 70
    32
 71
     5
 42
5.99959816279987
  3
STANDARD
100
AcDbAlignedDimension
 13
31.487308590882
 23
38.79727749707746
 33
0.0
 14
31.55674838443292
 24
32.79767933427759
 34
0.0
 50
90.0
100
AcDbRotatedDimension
1001
ACAD
1000
DSTYLE
1002
{
1070
   277
1070
     5
1070
    41
1040
0.125
1070
    73
1070
     0
1070
    74
1070
     0
1070
    78
1070
     3
1070
   140
1040
0.5
1070
   141
1040
0.1875
1070
   142
1040
0.125
1070
   147
1040
0.125
1070
   171
1070
     1
1002
}
  0
DIMENSION
  5
350
330
18
100
AcDbEntity
  8
ADPDIM
 62
     3
100
AcDbDimension
  2
*D5
 10
33.19639043198709
 20
9.798697530617541
 30
0.0
 11
33.19639043198709
 21
6.298697530617547
 31
0.0
 70
    32
 71
     5
 42
7.0
  3
STANDARD
100
AcDbAlignedDimension
 13
31.80705911612073
 23
2.798697530617541
 33
0.0
 14
31.80705911612073
 24
9.798697530617541
 34
0.0
 50
90.0
100
AcDbRotatedDimension
1001
ACAD
1000
DSTYLE
1002
{
1070
   277
1070
     5
1070
    41
1040
0.125
1070
    73
1070
     0
1070
    74
1070
     0
1070
    78
1070
     3
1070
   140
1040
0.5
1070
   141
1040
0.1875
1070
   142
1040
0.125
1070
   147
1040
0.125
1070
   171
1070
     1
1002
}
  0
ENDSEC
  0
SECTION
  2
OBJECTS
  0
DICTIONARY
  5
C
330
0
100
AcDbDictionary
281
     1
  3
ACAD_COLOR
350
33C
  3
ACAD_GROUP
350
D
  3
ACAD_LAYOUT
350
182
  3
ACAD_MATERIAL
350
327
  3
ACAD_MLINESTYLE
350
E
  3
ACAD_PLOTSETTINGS
350
183
  3
ACAD_PLOTSTYLENAME
350
180
  3
ACAD_TABLESTYLE
350
33D
  3
ACAD_VISUALSTYLE
350
32B
  3
AcDbVariableDictionary
350
1E3
  3
ASE_INDEX_DICTIONARY
350
45B
  3
DWGPROPS
350
47B
  0
DICTIONARY
  5
1DD
330
18
100
AcDbDictionary
280
     1
281
     1
  3
ACAD_LAYOUTSELFREF
360
321
  0
DICTIONARY
  5
1DB
330
15
100
AcDbDictionary
280
     1
281
     1
  3
ACAD_LAYOUTSELFREF
360
320
  0
DICTIONARY
  5
42E
330
77
100
AcDbDictionary
280
     1
281
     1
  0
DICTIONARY
  5
33C
102
{ACAD_REACTORS
330
C
102
}
330
C
100
AcDbDictionary
281
     1
  0
DICTIONARY
  5
D
102
{ACAD_REACTORS
330
C
102
}
330
C
100
AcDbDictionary
281
     1
  0
DICTIONARY
  5
182
102
{ACAD_REACTORS
330
C
102
}
330
C
100
AcDbDictionary
281
     1
  3
Layout1
350
185
  3
Model
350
184
  0
DICTIONARY
  5
327
102
{ACAD_REACTORS
330
C
102
}
330
C
100
AcDbDictionary
281
     1
  3
ByBlock
350
329
  3
ByLayer
350
328
  3
Global
350
32A
  0
DICTIONARY
  5
E
102
{ACAD_REACTORS
330
C
102
}
330
C
100
AcDbDictionary
281
     1
  3
STANDARD
350
1B
  0
DICTIONARY
  5
183
102
{ACAD_REACTORS
330
C
102
}
330
C
100
AcDbDictionary
281
     1
  0
ACDBDICTIONARYWDFLT
  5
180
102
{ACAD_REACTORS
330
C
102
}
330
C
100
AcDbDictionary
281
     1
  3
Normal
350
181
100
AcDbDictionaryWithDefault
340
181
  0
DICTIONARY
  5
33D
102
{ACAD_REACTORS
330
C
102
}
330
C
100
AcDbDictionary
281
     1
  3
Standard
350
33E
  0
DICTIONARY
  5
32B
102
{ACAD_REACTORS
330
C
102
}
330
C
100
AcDbDictionary
281
     1
  3
2dWireframe
350
331
  3
3D Hidden
350
333
  3
3dWireframe
350
332
  3
Basic
350
330
  3
Brighten
350
337
  3
ColorChange
350
33B
  3
Conceptual
350
334
  3
Dim
350
336
  3
Facepattern
350
33A
  3
Flat
350
32C
  3
FlatWithEdges
350
32D
  3
Gouraud
350
32E
  3
GouraudWithEdges
350
32F
  3
Linepattern
350
339
  3
Realistic
350
335
  3
Thicken
350
338
  0
DICTIONARY
  5
1E3
102
{ACAD_REACTORS
330
C
102
}
330
C
100
AcDbDictionary
281
     1
  3
CTABLESTYLE
350
478
  3
DIMASSOC
350
1E4
  3
INDEXCTL
350
47A
  3
SORTENTS
350
479
  0
DICTIONARY
  5
45B
102
{ACAD_REACTORS
330
C
102
}
330
C
100
AcDbDictionary
281
     1
  3
ASEBlockHierarchyIndexRecord
350
45D
1001
DCO15
1040
1567965426.713
  0
XRECORD
  5
47B
102
{ACAD_REACTORS
330
C
102
}
330
C
100
AcDbXrecord
280
     1
  1
DWGPROPS COOKIE
  2

  3

  4

  6

  7

  8
Yu Hu
  9

300
=
301
=
302
=
303
=
304
=
305
=
306
=
307
=
308
=
309
=
 40
0.0774375115740741
 41
2450374.48566338
 42
2453950.959846216
  1

 90
        0
  0
XRECORD
  5
321
102
{ACAD_REACTORS
330
1DD
102
}
330
1DD
100
AcDbXrecord
280
     1
340
18
  0
XRECORD
  5
320
102
{ACAD_REACTORS
330
1DB
102
}
330
1DB
100
AcDbXrecord
280
     1
340
15
  0
LAYOUT
  5
185
102
{ACAD_XDICTIONARY
360
47E
102
}
102
{ACAD_REACTORS
330
182
102
}
330
182
100
AcDbPlotSettings
  1

  2
Fax
  4

  6

 40
0.0
 41
0.0
 42
0.0
 43
0.0
 44
0.0
 45
0.0
 46
0.0
 47
0.0
 48
0.0
 49
0.0
140
0.0
141
0.0
142
1.0
143
1.0
 70
   688
 72
     0
 73
     0
 74
     5
  7
Default R14 pen assignments.ctb
 75
    16
147
1.0
148
0.0
149
0.0
100
AcDbLayout
  1
Layout1
 70
     1
 71
     1
 10
0.0
 20
0.0
 11
12.0
 21
9.0
 12
0.0
 22
0.0
 32
0.0
 14
1.000000000000000E+20
 24
1.000000000000000E+20
 34
1.000000000000000E+20
 15
-1.000000000000000E+20
 25
-1.000000000000000E+20
 35
-1.000000000000000E+20
146
0.0
 13
0.0
 23
0.0
 33
0.0
 16
1.0
 26
0.0
 36
0.0
 17
0.0
 27
1.0
 37
0.0
 76
     0
330
15
  0
LAYOUT
  5
184
102
{ACAD_XDICTIONARY
360
47C
102
}
102
{ACAD_REACTORS
330
182
102
}
330
182
100
AcDbPlotSettings
  1

  2
Fax
  4

  6

 40
0.0
 41
0.0
 42
0.0
 43
0.0
 44
0.0
 45
0.0
 46
0.0
 47
0.0
 48
0.0
 49
0.0
140
0.0
141
0.0
142
1.0
143
1.0
 70
  1712
 72
     0
 73
     0
 74
     0
  7
Default R14 pen assignments.ctb
 75
     0
147
1.0
148
0.0
149
0.0
100
AcDbLayout
  1
Model
 70
     1
 71
     0
 10
0.0
 20
0.0
 11
12.0
 21
9.0
 12
0.0
 22
0.0
 32
0.0
 14
0.0
 24
0.0
 34
0.0
 15
0.0
 25
0.0
 35
0.0
146
0.0
 13
0.0
 23
0.0
 33
0.0
 16
1.0
 26
0.0
 36
0.0
 17
0.0
 27
1.0
 37
0.0
 76
     0
330
18
331
2FB
  0
MATERIAL
  5
329
102
{ACAD_XDICTIONARY
360
482
102
}
102
{ACAD_REACTORS
330
327
102
}
330
327
100
AcDbMaterial
  1
ByBlock
  0
MATERIAL
  5
328
102
{ACAD_XDICTIONARY
360
480
102
}
102
{ACAD_REACTORS
330
327
102
}
330
327
100
AcDbMaterial
  1
ByLayer
  0
MATERIAL
  5
32A
102
{ACAD_XDICTIONARY
360
484
102
}
102
{ACAD_REACTORS
330
327
102
}
330
327
100
AcDbMaterial
  1
Global
  0
MLINESTYLE
  5
1B
102
{ACAD_REACTORS
330
E
102
}
330
E
100
AcDbMlineStyle
  2
STANDARD
 70
     0
  3

 62
     0
 51
90.0
 52
90.0
 71
     2
 49
0.5
 62
   256
  6
BYLAYER
 49
-0.5
 62
   256
  6
BYLAYER
  0
ACDBPLACEHOLDER
  5
181
102
{ACAD_REACTORS
330
180
102
}
330
180
  0
TABLESTYLE
  5
33E
102
{ACAD_XDICTIONARY
360
486
102
}
102
{ACAD_REACTORS
330
33D
102
}
330
33D
100
AcDbTableStyle
  3
Standard
 70
     0
 71
     0
 40
0.06
 41
0.06
280
     0
281
     0
  7
STANDARD
140
0.18
170
     2
 62
     0
 63
     7
283
     0
274
    -2
284
     1
 64
     0
275
    -2
285
     1
 65
     0
276
    -2
286
     1
 66
     0
277
    -2
287
     1
 67
     0
278
    -2
288
     1
 68
     0
279
    -2
289
     1
 69
     0
  7
STANDARD
140
0.25
170
     5
 62
     0
 63
     7
283
     0
274
    -2
284
     1
 64
     0
275
    -2
285
     1
 65
     0
276
    -2
286
     1
 66
     0
277
    -2
287
     1
 67
     0
278
    -2
288
     1
 68
     0
279
    -2
289
     1
 69
     0
  7
STANDARD
140
0.18
170
     5
 62
     0
 63
     7
283
     0
274
    -2
284
     1
 64
     0
275
    -2
285
     1
 65
     0
276
    -2
286
     1
 66
     0
277
    -2
287
     1
 67
     0
278
    -2
288
     1
 68
     0
279
    -2
289
     1
 69
     0
  0
VISUALSTYLE
  5
331
102
{ACAD_REACTORS
330
32B
102
}
330
32B
100
AcDbVisualStyle
  2
2dWireframe
 70
     4
 71
     0
 72
     2
 73
     0
 90
        0
 40
-0.6
 41
-30.0
 62
     5
 63
     7
 74
     1
 91
        4
 64
     7
 65
   257
 75
     1
175
     1
 42
1.0
 92
        0
 66
   257
 43
1.0
 76
     1
 77
     6
 78
     2
 67
     7
 79
     5
170
     0
171
     0
290
     0
174
     0
 93
        1
 44
0.0
173
     0
291
     0
 45
0.0
1001
ACAD
1000
AcDbSavedByObjectVersion
1070
     0
  0
VISUALSTYLE
  5
333
102
{ACAD_REACTORS
330
32B
102
}
330
32B
100
AcDbVisualStyle
  2
3D Hidden
 70
     6
 71
     1
 72
     2
 73
     2
 90
        0
 40
-0.6
 41
-30.0
 62
     5
 63
     7
 74
     2
 91
        2
 64
     7
 65
   257
 75
     2
175
     1
 42
40.0
 92
        0
 66
   257
 43
1.0
 76
     1
 77
     6
 78
     2
 67
     7
 79
     3
170
     0
171
     0
290
     0
174
     0
 93
        1
 44
0.0
173
     0
291
     0
 45
0.0
1001
ACAD
1000
AcDbSavedByObjectVersion
1070
     0
  0
VISUALSTYLE
  5
332
102
{ACAD_REACTORS
330
32B
102
}
330
32B
100
AcDbVisualStyle
  2
3dWireframe
 70
     5
 71
     0
 72
     2
 73
     0
 90
        0
 40
-0.6
 41
-30.0
 62
     5
 63
     7
 74
     1
 91
        4
 64
     7
 65
   257
 75
     1
175
     1
 42
1.0
 92
        0
 66
   257
 43
1.0
 76
     1
 77
     6
 78
     2
 67
     7
 79
     5
170
     0
171
     0
290
     0
174
     0
 93
        1
 44
0.0
173
     0
291
     0
 45
0.0
1001
ACAD
1000
AcDbSavedByObjectVersion
1070
     0
  0
VISUALSTYLE
  5
330
102
{ACAD_REACTORS
330
32B
102
}
330
32B
100
AcDbVisualStyle
  2
Basic
 70
     7
 71
     1
 72
     0
 73
     1
 90
        0
 40
-0.6
 41
-30.0
 62
     5
 63
     7
 74
     0
 91
        4
 64
     7
 65
   257
 75
     1
175
     1
 42
1.0
 92
        8
 66
     7
 43
1.0
 76
     1
 77
     6
 78
     2
 67
     7
 79
     5
170
     0
171
     0
290
     0
174
     0
 93
        1
 44
0.0
173
     0
291
     1
 45
0.0
1001
ACAD
1000
AcDbSavedByObjectVersion
1070
     0
  0
VISUALSTYLE
  5
337
102
{ACAD_REACTORS
330
32B
102
}
330
32B
100
AcDbVisualStyle
  2
Brighten
 70
    12
 71
     2
 72
     2
 73
     0
 90
        0
 40
-0.6
 41
-30.0
 62
     5
 63
     7
 74
     1
 91
        4
 64
     7
 65
   257
 75
     1
175
     1
 42
1.0
 92
        8
 66
     7
 43
1.0
 76
     1
 77
     6
 78
     2
 67
     7
 79
     5
170
     0
171
     0
290
     0
174
     0
 93
        1
 44
50.0
173
     0
291
     1
 45
0.0
1001
ACAD
1000
AcDbSavedByObjectVersion
1070
     0
  0
VISUALSTYLE
  5
33B
102
{ACAD_REACTORS
330
32B
102
}
330
32B
100
AcDbVisualStyle
  2
ColorChange
 70
    16
 71
     2
 72
     2
 73
     3
 90
        0
 40
-0.6
 41
-30.0
 62
     5
 63
     8
 74
     1
 91
        4
 64
     7
 65
   257
 75
     1
175
     1
 42
1.0
 92
        8
 66
     8
 43
1.0
 76
     1
 77
     6
 78
     2
 67
     7
 79
     5
170
     0
171
     0
290
     0
174
     0
 93
        1
 44
0.0
173
     0
291
     1
 45
0.0
1001
ACAD
1000
AcDbSavedByObjectVersion
1070
     0
  0
VISUALSTYLE
  5
334
102
{ACAD_REACTORS
330
32B
102
}
330
32B
100
AcDbVisualStyle
  2
Conceptual
 70
     9
 71
     3
 72
     2
 73
     0
 90
        0
 40
-0.6
 41
-30.0
 62
     5
 63
     7
 74
     2
 91
        2
 64
     7
 65
   257
 75
     1
175
     1
 42
40.0
 92
        8
 66
     7
 43
1.0
 76
     1
 77
     6
 78
     2
 67
     7
 79
     3
170
     0
171
     0
290
     0
174
     0
 93
        1
 44
0.0
173
     0
291
     0
 45
0.0
1001
ACAD
1000
AcDbSavedByObjectVersion
1070
     0
  0
VISUALSTYLE
  5
336
102
{ACAD_REACTORS
330
32B
102
}
330
32B
100
AcDbVisualStyle
  2
Dim
 70
    11
 71
     2
 72
     2
 73
     0
 90
        0
 40
-0.6
 41
-30.0
 62
     5
 63
     7
 74
     1
 91
        4
 64
     7
 65
   257
 75
     1
175
     1
 42
1.0
 92
        8
 66
     7
 43
1.0
 76
     1
 77
     6
 78
     2
 67
     7
 79
     5
170
     0
171
     0
290
     0
174
     0
 93
        1
 44
-50.0
173
     0
291
     1
 45
0.0
1001
ACAD
1000
AcDbSavedByObjectVersion
1070
     0
  0
VISUALSTYLE
  5
33A
102
{ACAD_REACTORS
330
32B
102
}
330
32B
100
AcDbVisualStyle
  2
Facepattern
 70
    15
 71
     2
 72
     2
 73
     0
 90
        0
 40
-0.6
 41
-30.0
 62
     5
 63
     7
 74
     1
 91
        4
 64
     7
 65
   257
 75
     1
175
     1
 42
1.0
 92
        8
 66
     7
 43
1.0
 76
     1
 77
     6
 78
     2
 67
     7
 79
     5
170
     0
171
     0
290
     0
174
     0
 93
        1
 44
0.0
173
     0
291
     1
 45
0.0
1001
ACAD
1000
AcDbSavedByObjectVersion
1070
     0
  0
VISUALSTYLE
  5
32C
102
{ACAD_REACTORS
330
32B
102
}
330
32B
100
AcDbVisualStyle
  2
Flat
 70
     0
 71
     2
 72
     1
 73
     1
 90
        2
 40
-0.6
 41
30.0
 62
     5
 63
     7
 74
     0
 91
        4
 64
     7
 65
   257
 75
     1
175
     1
 42
1.0
 92
        8
 66
     7
 43
1.0
 76
     1
 77
     6
 78
     2
 67
     7
 79
     5
170
     0
171
     0
290
     0
174
     0
 93
       13
 44
0.0
173
     0
291
     1
 45
0.0
1001
ACAD
1000
AcDbSavedByObjectVersion
1070
     0
  0
VISUALSTYLE
  5
32D
102
{ACAD_REACTORS
330
32B
102
}
330
32B
100
AcDbVisualStyle
  2
FlatWithEdges
 70
     1
 71
     2
 72
     1
 73
     1
 90
        2
 40
-0.6
 41
30.0
 62
     5
 63
     7
 74
     1
 91
        4
 64
     7
 65
   257
 75
     1
175
     1
 42
1.0
 92
        0
 66
   257
 43
1.0
 76
     1
 77
     6
 78
     2
 67
     7
 79
     5
170
     0
171
     0
290
     0
174
     0
 93
       13
 44
0.0
173
     0
291
     1
 45
0.0
1001
ACAD
1000
AcDbSavedByObjectVersion
1070
     0
  0
VISUALSTYLE
  5
32E
102
{ACAD_REACTORS
330
32B
102
}
330
32B
100
AcDbVisualStyle
  2
Gouraud
 70
     2
 71
     2
 72
     2
 73
     1
 90
        2
 40
-0.6
 41
30.0
 62
     5
 63
     7
 74
     0
 91
        4
 64
     7
 65
   257
 75
     1
175
     1
 42
1.0
 92
        0
 66
     7
 43
1.0
 76
     1
 77
     6
 78
     2
 67
     7
 79
     5
170
     0
171
     0
290
     0
174
     0
 93
       13
 44
0.0
173
     0
291
     1
 45
0.0
1001
ACAD
1000
AcDbSavedByObjectVersion
1070
     0
  0
VISUALSTYLE
  5
32F
102
{ACAD_REACTORS
330
32B
102
}
330
32B
100
AcDbVisualStyle
  2
GouraudWithEdges
 70
     3
 71
     2
 72
     2
 73
     1
 90
        2
 40
-0.6
 41
30.0
 62
     5
 63
     7
 74
     1
 91
        4
 64
     7
 65
   257
 75
     1
175
     1
 42
1.0
 92
        0
 66
   257
 43
1.0
 76
     1
 77
     6
 78
     2
 67
     7
 79
     5
170
     0
171
     0
290
     0
174
     0
 93
       13
 44
0.0
173
     0
291
     1
 45
0.0
1001
ACAD
1000
AcDbSavedByObjectVersion
1070
     0
  0
VISUALSTYLE
  5
339
102
{ACAD_REACTORS
330
32B
102
}
330
32B
100
AcDbVisualStyle
  2
Linepattern
 70
    14
 71
     2
 72
     2
 73
     0
 90
        0
 40
-0.6
 41
-30.0
 62
     5
 63
     7
 74
     1
 91
        4
 64
     7
 65
   257
 75
     7
175
     7
 42
1.0
 92
        8
 66
     7
 43
1.0
 76
     1
 77
     6
 78
     2
 67
     7
 79
     5
170
     0
171
     0
290
     0
174
     0
 93
        1
 44
0.0
173
     0
291
     1
 45
0.0
1001
ACAD
1000
AcDbSavedByObjectVersion
1070
     0
  0
VISUALSTYLE
  5
335
102
{ACAD_REACTORS
330
32B
102
}
330
32B
100
AcDbVisualStyle
  2
Realistic
 70
     8
 71
     2
 72
     2
 73
     0
 90
        0
 40
-0.6
 41
-30.0
 62
     5
 63
     7
 74
     1
 91
        0
 64
     7
 65
   257
 75
     1
175
     1
 42
1.0
 92
        8
 66
     8
 43
1.0
 76
     1
 77
     6
 78
     2
 67
     7
 79
     5
170
     0
171
     0
290
     0
174
     0
 93
       13
 44
0.0
173
     0
291
     0
 45
0.0
1001
ACAD
1000
AcDbSavedByObjectVersion
1070
     0
  0
VISUALSTYLE
  5
338
102
{ACAD_REACTORS
330
32B
102
}
330
32B
100
AcDbVisualStyle
  2
Thicken
 70
    13
 71
     2
 72
     2
 73
     0
 90
        0
 40
-0.6
 41
-30.0
 62
     5
 63
     7
 74
     1
 91
        4
 64
     7
 65
   257
 75
     1
175
     1
 42
1.0
 92
       12
 66
     7
 43
1.0
 76
     1
 77
     6
 78
     2
 67
     7
 79
     5
170
     0
171
     0
290
     0
174
     0
 93
        1
 44
0.0
173
     0
291
     1
 45
0.0
1001
ACAD
1000
AcDbSavedByObjectVersion
1070
     0
  0
DICTIONARYVAR
  5
478
102
{ACAD_REACTORS
330
1E3
102
}
330
1E3
100
DictionaryVariables
280
     0
  1
STANDARD
  0
DICTIONARYVAR
  5
1E4
102
{ACAD_REACTORS
330
1E3
102
}
330
1E3
100
DictionaryVariables
280
     0
  1
1
  0
DICTIONARYVAR
  5
47A
102
{ACAD_REACTORS
330
1E3
102
}
330
1E3
100
DictionaryVariables
280
     0
  1
0
  0
DICTIONARYVAR
  5
479
102
{ACAD_REACTORS
330
1E3
102
}
330
1E3
100
DictionaryVariables
280
     0
  1
127
  0
XRECORD
  5
45D
102
{ACAD_REACTORS
330
45B
102
}
330
45B
100
AcDbXrecord
280
     1
330
172
  0
DICTIONARY
  5
47E
330
185
100
AcDbDictionary
280
     1
281
     1
  3
ACAD_XREC_ROUNDTRIP
360
47F
  0
DICTIONARY
  5
47C
330
184
100
AcDbDictionary
280
     1
281
     1
  3
ACAD_XREC_ROUNDTRIP
360
47D
  0
DICTIONARY
  5
482
330
329
100
AcDbDictionary
280
     1
281
     1
  3
ACAD_XREC_ROUNDTRIP
360
483
  0
DICTIONARY
  5
480
330
328
100
AcDbDictionary
280
     1
281
     1
  3
ACAD_XREC_ROUNDTRIP
360
481
  0
DICTIONARY
  5
484
330
32A
100
AcDbDictionary
280
     1
281
     1
  3
ACAD_XREC_ROUNDTRIP
360
485
  0
DICTIONARY
  5
486
330
33E
100
AcDbDictionary
280
     1
281
     1
  3
ACAD_XREC_ROUNDTRIP
360
487
  0
XRECORD
  5
47F
102
{ACAD_REACTORS
330
47E
102
}
330
47E
100
AcDbXrecord
280
     1
102
SHADEPLOT
 70
     0
102
SHADEPLOTRESLEVEL
 70
     2
102
SHADEPLOTCUSTOMDPI
 70
   300
  0
XRECORD
  5
47D
102
{ACAD_REACTORS
330
47C
102
}
330
47C
100
AcDbXrecord
280
     1
102
SHADEPLOT
 70
     0
102
SHADEPLOTRESLEVEL
 70
     2
102
SHADEPLOTCUSTOMDPI
 70
   300
  0
XRECORD
  5
483
102
{ACAD_REACTORS
330
482
102
}
330
482
100
AcDbXrecord
280
     1
102
MATERIAL
148
0.0
149
0.0
149
0.0
 93
        0
 94
       63
282
     0
 72
     1
 77
     1
171
     1
175
     1
179
     1
273
     0
  0
XRECORD
  5
481
102
{ACAD_REACTORS
330
480
102
}
330
480
100
AcDbXrecord
280
     1
102
MATERIAL
148
0.0
149
0.0
149
0.0
 93
        0
 94
       63
282
     0
 72
     1
 77
     1
171
     1
175
     1
179
     1
273
     0
  0
XRECORD
  5
485
102
{ACAD_REACTORS
330
484
102
}
330
484
100
AcDbXrecord
280
     1
102
MATERIAL
148
0.0
149
0.0
149
0.0
 93
        0
 94
       63
282
     0
 72
     1
 77
     1
171
     1
175
     1
179
     1
273
     0
  0
XRECORD
  5
487
102
{ACAD_REACTORS
330
486
102
}
330
486
100
AcDbXrecord
280
     1
102
ACAD_ROUNDTRIP_PRE2007_TABLESTYLE
 90
      512
 91
        0
  1

 92
      512
 93
        0
  2

 94
      512
 95
        0
  3

  0
ENDSEC
  0
EOF
