  0
SECTION
  2
HEADER
  9
$ACADVER
  1
AC1015
  9
$ACADMAINTVER
 70
    20
  9
$DWGCODEPAGE
  3
ANSI_1252
  9
$INSBASE
 10
10.03316908994668
 20
4.70008402565048
 30
0.0
  9
$EXTMIN
 10
-101.6351442970743
 20
-0.2423418859303414
 30
0.0
  9
$EXTMAX
 10
-36.37785405150818
 20
44.56399212903359
 30
0.0
  9
$LIMMIN
 10
0.0
 20
0.0
  9
$LIMMAX
 10
36.0
 20
36.0
  9
$ORTHOMODE
 70
     0
  9
$REGENMODE
 70
     1
  9
$FILLMODE
 70
     1
  9
$QTEXTMODE
 70
     0
  9
$MIRRTEXT
 70
     1
  9
$LTSCALE
 40
1.0
  9
$ATTMODE
 70
     1
  9
$TEXTSIZE
 40
0.2
  9
$TRACEWID
 40
0.05
  9
$TEXTSTYLE
  7
STANDARD
  9
$CLAYER
  8
ADP1DETAIL
  9
$CELTYPE
  6
BYLAYER
  9
$CECOLOR
 62
   256
  9
$CELTSCALE
 40
1.0
  9
$DISPSILH
 70
     0
  9
$DIMSCALE
 40
1.0
  9
$DIMASZ
 40
0.125
  9
$DIMEXO
 40
0.0625
  9
$DIMDLI
 40
0.38
  9
$DIMRND
 40
0.0
  9
$DIMDLE
 40
0.0
  9
$DIMEXE
 40
0.18
  9
$DIMTP
 40
0.0
  9
$DIMTM
 40
0.0
  9
$DIMTXT
 40
0.125
  9
$DIMCEN
 40
0.1875
  9
$DIMTSZ
 40
0.125
  9
$DIMTOL
 70
     0
  9
$DIMLIM
 70
     0
  9
$DIMTIH
 70
     0
  9
$DIMTOH
 70
     0
  9
$DIMSE1
 70
     0
  9
$DIMSE2
 70
     0
  9
$DIMTAD
 70
     0
  9
$DIMZIN
 70
     3
  9
$DIMBLK
  1

  9
$DIMASO
 70
     1
  9
$DIMSHO
 70
     1
  9
$DIMPOST
  1

  9
$DIMAPOST
  1

  9
$DIMALT
 70
     0
  9
$DIMALTD
 70
     1
  9
$DIMALTF
 40
25.4
  9
$DIMLFAC
 40
1.0
  9
$DIMTOFL
 70
     0
  9
$DIMTVP
 40
0.0
  9
$DIMTIX
 70
     0
  9
$DIMSOXD
 70
     0
  9
$DIMSAH
 70
     0
  9
$DIMBLK1
  1

  9
$DIMBLK2
  1

  9
$DIMSTYLE
  2
STANDARD
  9
$DIMCLRD
 70
     0
  9
$DIMCLRE
 70
     0
  9
$DIMCLRT
 70
     0
  9
$DIMTFAC
 40
1.0
  9
$DIMGAP
 40
0.125
  9
$DIMJUST
 70
     0
  9
$DIMSD1
 70
     0
  9
$DIMSD2
 70
     0
  9
$DIMTOLJ
 70
     1
  9
$DIMTZIN
 70
     3
  9
$DIMALTZ
 70
     3
  9
$DIMALTTZ
 70
     3
  9
$DIMUPT
 70
     0
  9
$DIMDEC
 70
     4
  9
$DIMTDEC
 70
     4
  9
$DIMALTU
 70
     5
  9
$DIMALTTD
 70
     1
  9
$DIMTXSTY
  7
STANDARD
  9
$DIMAUNIT
 70
     0
  9
$DIMADEC
 70
     0
  9
$DIMALTRND
 40
0.0
  9
$DIMAZIN
 70
     0
  9
$DIMDSEP
 70
    46
  9
$DIMATFIT
 70
     3
  9
$DIMFRAC
 70
     0
  9
$DIMLDRBLK
  1

  9
$DIMLUNIT
 70
     5
  9
$DIMLWD
 70
    -2
  9
$DIMLWE
 70
    -2
  9
$DIMTMOVE
 70
     2
  9
$LUNITS
 70
     5
  9
$LUPREC
 70
     4
  9
$SKETCHINC
 40
0.1
  9
$FILLETRAD
 40
0.0
  9
$AUNITS
 70
     0
  9
$AUPREC
 70
     0
  9
$MENU
  1
acad
  9
$ELEVATION
 40
0.0
  9
$PELEVATION
 40
0.0
  9
$THICKNESS
 40
0.0
  9
$LIMCHECK
 70
     0
  9
$CHAMFERA
 40
0.0
  9
$CHAMFERB
 40
0.0
  9
$CHAMFERC
 40
0.0
  9
$CHAMFERD
 40
0.0
  9
$SKPOLY
 70
     0
  9
$TDCREATE
 40
2450373.679054004
  9
$TDUCREATE
 40
2450373.845720671
  9
$TDUPDATE
 40
2453950.926969664
  9
$TDUUPDATE
 40
2453951.093636332
  9
$TDINDWG
 40
0.1850137731
  9
$TDUSRTIMER
 40
0.1850137731
  9
$USRTIMER
 70
     1
  9
$ANGBASE
 50
0.0
  9
$ANGDIR
 70
     0
  9
$PDMODE
 70
     0
  9
$PDSIZE
 40
0.0
  9
$PLINEWID
 40
0.0
  9
$SPLFRAME
 70
     0
  9
$SPLINETYPE
 70
     6
  9
$SPLINESEGS
 70
     8
  9
$HANDSEED
  5
CB2
  9
$SURFTAB1
 70
     6
  9
$SURFTAB2
 70
     6
  9
$SURFTYPE
 70
     6
  9
$SURFU
 70
     6
  9
$SURFV
 70
     6
  9
$UCSBASE
  2

  9
$UCSNAME
  2

  9
$UCSORG
 10
0.0
 20
0.0
 30
0.0
  9
$UCSXDIR
 10
1.0
 20
0.0
 30
0.0
  9
$UCSYDIR
 10
0.0
 20
1.0
 30
0.0
  9
$UCSORTHOREF
  2

  9
$UCSORTHOVIEW
 70
     0
  9
$UCSORGTOP
 10
0.0
 20
0.0
 30
0.0
  9
$UCSORGBOTTOM
 10
0.0
 20
0.0
 30
0.0
  9
$UCSORGLEFT
 10
0.0
 20
0.0
 30
0.0
  9
$UCSORGRIGHT
 10
0.0
 20
0.0
 30
0.0
  9
$UCSORGFRONT
 10
0.0
 20
0.0
 30
0.0
  9
$UCSORGBACK
 10
0.0
 20
0.0
 30
0.0
  9
$PUCSBASE
  2

  9
$PUCSNAME
  2

  9
$PUCSORG
 10
0.0
 20
0.0
 30
0.0
  9
$PUCSXDIR
 10
1.0
 20
0.0
 30
0.0
  9
$PUCSYDIR
 10
0.0
 20
1.0
 30
0.0
  9
$PUCSORTHOREF
  2

  9
$PUCSORTHOVIEW
 70
     0
  9
$PUCSORGTOP
 10
0.0
 20
0.0
 30
0.0
  9
$PUCSORGBOTTOM
 10
0.0
 20
0.0
 30
0.0
  9
$PUCSORGLEFT
 10
0.0
 20
0.0
 30
0.0
  9
$PUCSORGRIGHT
 10
0.0
 20
0.0
 30
0.0
  9
$PUCSORGFRONT
 10
0.0
 20
0.0
 30
0.0
  9
$PUCSORGBACK
 10
0.0
 20
0.0
 30
0.0
  9
$USERI1
 70
     0
  9
$USERI2
 70
     0
  9
$USERI3
 70
     0
  9
$USERI4
 70
     0
  9
$USERI5
 70
     0
  9
$USERR1
 40
0.0
  9
$USERR2
 40
0.0
  9
$USERR3
 40
0.0
  9
$USERR4
 40
0.0
  9
$USERR5
 40
0.0
  9
$WORLDVIEW
 70
     1
  9
$SHADEDGE
 70
     3
  9
$SHADEDIF
 70
    70
  9
$TILEMODE
 70
     1
  9
$MAXACTVP
 70
    15
  9
$PINSBASE
 10
1.667196317885515E+99
 20
2.439420651286265E+99
 30
0.0
  9
$PLIMCHECK
 70
     0
  9
$PEXTMIN
 10
1.000000000000000E+20
 20
1.000000000000000E+20
 30
1.000000000000000E+20
  9
$PEXTMAX
 10
-1.000000000000000E+20
 20
-1.000000000000000E+20
 30
-1.000000000000000E+20
  9
$PLIMMIN
 10
0.0
 20
0.0
  9
$PLIMMAX
 10
12.0
 20
9.0
  9
$UNITMODE
 70
     0
  9
$VISRETAIN
 70
     0
  9
$PLINEGEN
 70
     0
  9
$PSLTSCALE
 70
     1
  9
$TREEDEPTH
 70
  3020
  9
$CMLSTYLE
  2
STANDARD
  9
$CMLJUST
 70
     0
  9
$CMLSCALE
 40
1.0
  9
$PROXYGRAPHICS
 70
     1
  9
$MEASUREMENT
 70
     0
  9
$CELWEIGHT
370
    -1
  9
$ENDCAPS
280
     0
  9
$JOINSTYLE
280
     0
  9
$LWDISPLAY
290
     0
  9
$INSUNITS
 70
     0
  9
$HYPERLINKBASE
  1

  9
$STYLESHEET
  1

  9
$XEDIT
290
     1
  9
$CEPSNTYPE
380
     0
  9
$PSTYLEMODE
290
     1
  9
$FINGERPRINTGUID
  2
{935E502A-BEE1-4375-AA7D-60A7CDEA19F0}
  9
$VERSIONGUID
  2
{F8AD9C6F-8B65-47A8-955C-5CA95DC439F7}
  9
$EXTNAMES
290
     1
  9
$PSVPSCALE
 40
0.0
  9
$OLESTARTUP
290
     0
  0
ENDSEC
  0
SECTION
  2
CLASSES
  0
CLASS
  1
DICTIONARYVAR
  2
AcDbDictionaryVar
  3
ObjectDBX Classes
 90
        0
280
     0
281
     0
  0
CLASS
  1
ACDBDICTIONARYWDFLT
  2
AcDbDictionaryWithDefault
  3
ObjectDBX Classes
 90
        0
280
     0
281
     0
  0
CLASS
  1
ACDBPLACEHOLDER
  2
AcDbPlaceHolder
  3
ObjectDBX Classes
 90
        0
280
     0
281
     0
  0
CLASS
  1
LAYOUT
  2
AcDbLayout
  3
ObjectDBX Classes
 90
        0
280
     0
281
     0
  0
CLASS
  1
MATERIAL
  2
AcDbMaterial
  3
ObjectDBX Classes
 90
     1024
280
     0
281
     0
  0
CLASS
  1
VISUALSTYLE
  2
AcDbVisualStyle
  3
ObjectDBX Classes
 90
     4095
280
     0
281
     0
  0
CLASS
  1
TABLESTYLE
  2
AcDbTableStyle
  3
ObjectDBX Classes
 90
     4095
280
     0
281
     0
  0
ENDSEC
  0
SECTION
  2
TABLES
  0
TABLE
  2
VPORT
  5
8
330
0
100
AcDbSymbolTable
 70
     1
  0
VPORT
  5
BC9
330
8
100
AcDbSymbolTableRecord
100
AcDbViewportTableRecord
  2
*Active
 70
     0
 10
0.0
 20
0.0
 11
1.0
 21
1.0
 12
-66.99722451118318
 22
27.49909784977904
 13
0.0
 23
0.0
 14
0.5740882589684922
 24
0.5740882589684922
 15
0.5
 25
0.5
 16
0.0
 26
0.0
 36
1.0
 17
0.0
 27
0.0
 37
0.0
 40
63.47757229223315
 41
1.774011299435028
 42
50.0
 43
0.0
 44
0.0
 50
0.0
 51
0.0
 71
     0
 72
   100
 73
     1
 74
     0
 75
     0
 76
     0
 77
     0
 78
     0
281
     0
 65
     1
110
0.0
120
0.0
130
0.0
111
1.0
121
0.0
131
0.0
112
0.0
122
1.0
132
0.0
 79
     0
146
0.0
  0
ENDTAB
  0
TABLE
  2
LTYPE
  5
5
330
0
100
AcDbSymbolTable
 70
     1
  0
LTYPE
  5
11
330
5
100
AcDbSymbolTableRecord
100
AcDbLinetypeTableRecord
  2
BYBLOCK
 70
     0
  3

 72
    65
 73
     0
 40
0.0
  0
LTYPE
  5
12
330
5
100
AcDbSymbolTableRecord
100
AcDbLinetypeTableRecord
  2
BYLAYER
 70
     0
  3

 72
    65
 73
     0
 40
0.0
  0
LTYPE
  5
13
330
5
100
AcDbSymbolTableRecord
100
AcDbLinetypeTableRecord
  2
CONTINUOUS
 70
     0
  3
Solid line
 72
    65
 73
     0
 40
0.0
  0
ENDTAB
  0
TABLE
  2
LAYER
  5
2
330
0
100
AcDbSymbolTable
 70
     4
  0
LAYER
  5
E
330
2
100
AcDbSymbolTableRecord
100
AcDbLayerTableRecord
  2
0
 70
     0
 62
     7
  6
CONTINUOUS
370
    -3
390
A27
  0
LAYER
  5
20
330
2
100
AcDbSymbolTableRecord
100
AcDbLayerTableRecord
  2
ADPDIM
 70
     0
 62
     3
  6
CONTINUOUS
370
    -3
390
A27
  0
LAYER
  5
21
330
2
100
AcDbSymbolTableRecord
100
AcDbLayerTableRecord
  2
ADP1DETAIL
 70
     0
 62
     7
  6
CONTINUOUS
370
    -3
390
A27
  0
LAYER
  5
C0E
330
2
100
AcDbSymbolTableRecord
100
AcDbLayerTableRecord
  2
Defpoints
 70
     0
 62
     7
  6
CONTINUOUS
290
     0
370
    -3
390
A27
  0
ENDTAB
  0
TABLE
  2
STYLE
  5
3
330
0
100
AcDbSymbolTable
 70
     2
  0
STYLE
  5
F
330
3
100
AcDbSymbolTableRecord
100
AcDbTextStyleTableRecord
  2
STANDARD
 70
     0
 40
0.0
 41
1.0
 50
0.0
 71
     0
 42
0.2
  3
txt
  4

  0
STYLE
  5
A2E
330
3
100
AcDbSymbolTableRecord
100
AcDbTextStyleTableRecord
  2
ARIAL_WIDE
 70
     0
 40
0.0
 41
1.25
 50
0.0
 71
     0
 42
0.2
  3
ARIAL.TTF
  4

1001
ACAD
1000
Arial
1071
       34
  0
ENDTAB
  0
TABLE
  2
VIEW
  5
6
330
0
100
AcDbSymbolTable
 70
     0
  0
ENDTAB
  0
TABLE
  2
UCS
  5
7
330
0
100
AcDbSymbolTable
 70
     0
  0
ENDTAB
  0
TABLE
  2
APPID
  5
9
330
0
100
AcDbSymbolTable
 70
     1
  0
APPID
  5
10
330
9
100
AcDbSymbolTableRecord
100
AcDbRegAppTableRecord
  2
ACAD
 70
     0
  0
ENDTAB
  0
TABLE
  2
DIMSTYLE
  5
A
330
0
100
AcDbSymbolTable
 70
     1
100
AcDbDimStyleTable
 71
     1
340
57
  0
DIMSTYLE
105
57
102
{ACAD_REACTORS
330
C0D
330
C1C
330
C2A
102
}
330
A
100
AcDbSymbolTableRecord
100
AcDbDimStyleTableRecord
  2
STANDARD
 70
     0
340
F
  0
ENDTAB
  0
TABLE
  2
BLOCK_RECORD
  5
1
330
0
100
AcDbSymbolTable
 70
     3
  0
BLOCK_RECORD
  5
17
102
{ACAD_XDICTIONARY
360
A84
102
}
330
1
100
AcDbSymbolTableRecord
100
AcDbBlockTableRecord
  2
*MODEL_SPACE
340
A2A
  0
BLOCK_RECORD
  5
14
102
{ACAD_XDICTIONARY
360
A82
102
}
330
1
100
AcDbSymbolTableRecord
100
AcDbBlockTableRecord
  2
*PAPER_SPACE
340
A2B
  0
BLOCK_RECORD
  5
C0F
330
1
100
AcDbSymbolTableRecord
100
AcDbBlockTableRecord
  2
*D0
340
0
  0
BLOCK_RECORD
  5
C1D
330
1
100
AcDbSymbolTableRecord
100
AcDbBlockTableRecord
  2
*D1
340
0
  0
BLOCK_RECORD
  5
C2B
330
1
100
AcDbSymbolTableRecord
100
AcDbBlockTableRecord
  2
*D2
340
0
  0
ENDTAB
  0
ENDSEC
  0
SECTION
  2
BLOCKS
  0
BLOCK
  5
25
330
17
100
AcDbEntity
  8
0
100
AcDbBlockBegin
  2
*MODEL_SPACE
 70
     0
 10
0.0
 20
0.0
 30
0.0
  3
*MODEL_SPACE
  1

  0
ENDBLK
  5
26
330
17
100
AcDbEntity
  8
0
100
AcDbBlockEnd
  0
BLOCK
  5
23
330
14
100
AcDbEntity
 67
     1
  8
0
100
AcDbBlockBegin
  2
*PAPER_SPACE
 70
     0
 10
0.0
 20
0.0
 30
0.0
  3
*PAPER_SPACE
  1

  0
ENDBLK
  5
24
330
14
100
AcDbEntity
 67
     1
  8
0
100
AcDbBlockEnd
  0
BLOCK
  5
C1A
330
C0F
100
AcDbEntity
  8
0
 62
     3
100
AcDbBlockBegin
  2
*D0
 70
     1
 10
0.0
 20
0.0
 30
0.0
  3
*D0
  1

  0
LINE
  5
C74
330
C0F
100
AcDbEntity
  8
ADPDIM
 62
     0
370
    -2
100
AcDbLine
 10
-69.31979917429128
 20
44.43899212903359
 30
0.0
 11
-70.47662464291973
 21
44.43899212903359
 31
0.0
  0
LINE
  5
C75
330
C0F
100
AcDbEntity
  8
ADPDIM
 62
     0
370
    -2
100
AcDbLine
 10
-69.31979917429128
 20
2.438992129033593
 30
0.0
 11
-70.47662464291974
 21
2.438992129033593
 31
0.0
  0
LINE
  5
C76
330
C0F
100
AcDbEntity
  8
ADPDIM
 62
     0
370
    -2
100
AcDbLine
 10
-70.29662464291972
 20
44.43899212903359
 30
0.0
 11
-70.29662464291973
 21
23.98065879570026
 31
0.0
  0
LINE
  5
C77
330
C0F
100
AcDbEntity
  8
ADPDIM
 62
     0
370
    -2
100
AcDbLine
 10
-70.29662464291973
 20
2.438992129033593
 30
0.0
 11
-70.29662464291973
 21
22.89732546236693
 31
0.0
  0
LINE
  5
C78
330
C0F
100
AcDbEntity
  8
ADPDIM
 62
     0
370
    -2
100
AcDbLine
 10
-70.17162464291974
 20
2.313992129033593
 30
0.0
 11
-70.42162464291974
 21
2.563992129033593
 31
0.0
  0
LINE
  5
C79
330
C0F
100
AcDbEntity
  8
ADPDIM
 62
     0
370
    -2
100
AcDbLine
 10
-70.17162464291972
 20
44.31399212903359
 30
0.0
 11
-70.42162464291973
 21
44.56399212903359
 31
0.0
  0
MTEXT
  5
C7A
330
C0F
100
AcDbEntity
  8
ADPDIM
 62
     0
100
AcDbMText
 10
-70.29662464291973
 20
23.43899212903358
 30
0.0
 40
0.5
 41
0.0
 71
     5
 72
     1
  1
\A1;42
 11
0.0000000000000001
 21
1.0
 31
0.0
 73
     1
 44
1.0
1001
ACAD
1000
MTEXTBEGIN
1070
    73
1070
     1
1070
    44
1040
1.0
1070
    74
1070
     0
1000
MTEXTEND
  0
POINT
  5
C7B
330
C0F
100
AcDbEntity
  8
Defpoints
 62
     0
100
AcDbPoint
 10
-69.25729917429127
 20
44.43899212903359
 30
0.0
  0
POINT
  5
C7C
330
C0F
100
AcDbEntity
  8
Defpoints
 62
     0
100
AcDbPoint
 10
-69.25729917429127
 20
2.438992129033593
 30
0.0
  0
POINT
  5
C7D
330
C0F
100
AcDbEntity
  8
Defpoints
 62
     0
100
AcDbPoint
 10
-70.29662464291973
 20
2.438992129033593
 30
0.0
  0
ENDBLK
  5
C1B
330
C0F
100
AcDbEntity
  8
0
 62
     3
100
AcDbBlockEnd
  0
BLOCK
  5
C28
330
C1D
100
AcDbEntity
  8
0
 62
     3
100
AcDbBlockBegin
  2
*D1
 70
     1
 10
0.0
 20
0.0
 30
0.0
  3
*D1
  1

  0
LINE
  5
C7E
330
C1D
100
AcDbEntity
  8
ADPDIM
 62
     0
370
    -2
100
AcDbLine
 10
-68.67479917429126
 20
2.438992129033593
 30
0.0
 11
-67.45297786259778
 21
2.438992129033593
 31
0.0
  0
LINE
  5
C7F
330
C1D
100
AcDbEntity
  8
ADPDIM
 62
     0
370
    -2
100
AcDbLine
 10
-68.67479917429126
 20
22.43899212903359
 30
0.0
 11
-67.45297786259778
 21
22.43899212903359
 31
0.0
  0
LINE
  5
C80
330
C1D
100
AcDbEntity
  8
ADPDIM
 62
     0
370
    -2
100
AcDbLine
 10
-67.63297786259778
 20
2.438992129033593
 30
0.0
 11
-67.63297786259778
 21
11.93899212903359
 31
0.0
  0
LINE
  5
C81
330
C1D
100
AcDbEntity
  8
ADPDIM
 62
     0
370
    -2
100
AcDbLine
 10
-67.63297786259778
 20
22.43899212903359
 30
0.0
 11
-67.63297786259778
 21
12.93899212903359
 31
0.0
  0
LINE
  5
C82
330
C1D
100
AcDbEntity
  8
ADPDIM
 62
     0
370
    -2
100
AcDbLine
 10
-67.50797786259778
 20
22.31399212903359
 30
0.0
 11
-67.75797786259778
 21
22.56399212903359
 31
0.0
  0
LINE
  5
C83
330
C1D
100
AcDbEntity
  8
ADPDIM
 62
     0
370
    -2
100
AcDbLine
 10
-67.50797786259778
 20
2.313992129033593
 30
0.0
 11
-67.75797786259778
 21
2.563992129033593
 31
0.0
  0
MTEXT
  5
C84
330
C1D
100
AcDbEntity
  8
ADPDIM
 62
     0
100
AcDbMText
 10
-67.63297786259778
 20
12.43899212903358
 30
0.0
 40
0.5
 41
0.0
 71
     5
 72
     1
  1
\A1;20
 11
0.0000000000000001
 21
1.0
 31
0.0
 73
     1
 44
1.0
1001
ACAD
1000
MTEXTBEGIN
1070
    73
1070
     1
1070
    44
1040
1.0
1070
    74
1070
     0
1000
MTEXTEND
  0
POINT
  5
C85
330
C1D
100
AcDbEntity
  8
Defpoints
 62
     0
100
AcDbPoint
 10
-68.73729917429127
 20
2.438992129033593
 30
0.0
  0
POINT
  5
C86
330
C1D
100
AcDbEntity
  8
Defpoints
 62
     0
100
AcDbPoint
 10
-68.73729917429127
 20
22.43899212903359
 30
0.0
  0
POINT
  5
C87
330
C1D
100
AcDbEntity
  8
Defpoints
 62
     0
100
AcDbPoint
 10
-67.63297786259778
 20
22.43899212903359
 30
0.0
  0
ENDBLK
  5
C29
330
C1D
100
AcDbEntity
  8
0
 62
     3
100
AcDbBlockEnd
  0
BLOCK
  5
C36
330
C2B
100
AcDbEntity
  8
0
 62
     3
100
AcDbBlockBegin
  2
*D2
 70
     1
 10
0.0
 20
0.0
 30
0.0
  3
*D2
  1

  0
LINE
  5
C6A
330
C2B
100
AcDbEntity
  8
ADPDIM
 62
     0
370
    -2
100
AcDbLine
 10
-68.67479917429126
 20
44.43899212903359
 30
0.0
 11
-67.45229917429124
 21
44.43899212903359
 31
0.0
  0
LINE
  5
C6B
330
C2B
100
AcDbEntity
  8
ADPDIM
 62
     0
370
    -2
100
AcDbLine
 10
-68.67479917429126
 20
24.43899212903359
 30
0.0
 11
-67.45229917429125
 21
24.43899212903359
 31
0.0
  0
LINE
  5
C6C
330
C2B
100
AcDbEntity
  8
ADPDIM
 62
     0
370
    -2
100
AcDbLine
 10
-67.63229917429125
 20
44.43899212903359
 30
0.0
 11
-67.63229917429125
 21
34.9389921290336
 31
0.0
  0
LINE
  5
C6D
330
C2B
100
AcDbEntity
  8
ADPDIM
 62
     0
370
    -2
100
AcDbLine
 10
-67.63229917429126
 20
24.43899212903359
 30
0.0
 11
-67.63229917429125
 21
33.9389921290336
 31
0.0
  0
LINE
  5
C6E
330
C2B
100
AcDbEntity
  8
ADPDIM
 62
     0
370
    -2
100
AcDbLine
 10
-67.50729917429126
 20
24.3139921290336
 30
0.0
 11
-67.75729917429126
 21
24.5639921290336
 31
0.0
  0
LINE
  5
C6F
330
C2B
100
AcDbEntity
  8
ADPDIM
 62
     0
370
    -2
100
AcDbLine
 10
-67.50729917429125
 20
44.31399212903359
 30
0.0
 11
-67.75729917429124
 21
44.56399212903359
 31
0.0
  0
MTEXT
  5
C70
330
C2B
100
AcDbEntity
  8
ADPDIM
 62
     0
100
AcDbMText
 10
-67.63229917429126
 20
34.43899212903359
 30
0.0
 40
0.5
 41
0.0
 71
     5
 72
     1
  1
\A1;20
 11
0.0000000000000001
 21
1.0
 31
0.0
 73
     1
 44
1.0
1001
ACAD
1000
MTEXTBEGIN
1070
    73
1070
     1
1070
    44
1040
1.0
1070
    74
1070
     0
1000
MTEXTEND
  0
POINT
  5
C71
330
C2B
100
AcDbEntity
  8
Defpoints
 62
     0
100
AcDbPoint
 10
-68.73729917429127
 20
44.43899212903359
 30
0.0
  0
POINT
  5
C72
330
C2B
100
AcDbEntity
  8
Defpoints
 62
     0
100
AcDbPoint
 10
-68.73729917429127
 20
24.43899212903359
 30
0.0
  0
POINT
  5
C73
330
C2B
100
AcDbEntity
  8
Defpoints
 62
     0
100
AcDbPoint
 10
-67.63229917429126
 20
24.43899212903359
 30
0.0
  0
ENDBLK
  5
C37
330
C2B
100
AcDbEntity
  8
0
 62
     3
100
AcDbBlockEnd
  0
ENDSEC
  0
SECTION
  2
ENTITIES
  0
TEXT
  5
A2F
330
17
100
AcDbEntity
  8
ADPDIM
100
AcDbText
 10
-101.6351442970743
 20
-0.057314600800737
 30
0.0
 40
0.625
  1
J U L I U S  B L U M  &  C O . ,  I N C .      ( 8 0 0 )  5 2 6 - 6 2 9 3        W W W . J U L I U S B L U M . C O M        P A R T  N o .  3 2 7 L
 41
1.25
  7
ARIAL_WIDE
 72
     1
 11
-69.00649917429126
 21
0.567685399199263
 31
0.0
100
AcDbText
 73
     3
  0
ARC
  5
AB9
330
17
100
AcDbEntity
  8
0
 62
     7
100
AcDbCircle
 10
-68.08692879155689
 20
23.34654766975234
 30
0.0
 40
0.1566062478830443
100
AcDbArc
 50
280.9059946774228
 51
17.16649225842798
  0
ARC
  5
ABA
330
17
100
AcDbEntity
  8
0
 62
     7
100
AcDbCircle
 10
-69.90766955702565
 20
23.34654766975234
 30
0.0
 40
0.1566062478830443
100
AcDbArc
 50
162.833507741572
 51
259.0940053225772
  0
LINE
  5
ABB
330
17
100
AcDbEntity
  8
0
 62
     7
100
AcDbLine
 10
-69.99657103055731
 20
23.21762116014356
 30
0.0
 11
-67.99802731802524
 21
23.21762116014355
 31
0.0
  0
LINE
  5
ABC
330
17
100
AcDbEntity
  8
0
 62
     7
100
AcDbLine
 10
-68.56034306987782
 20
22.32733574277277
 30
0.0
 11
-69.43425527870473
 21
22.32733574277277
 31
0.0
  0
ARC
  5
ABD
330
17
100
AcDbEntity
  8
0
 62
     7
100
AcDbCircle
 10
-69.54841028540238
 20
22.72832545494853
 30
0.0
 40
0.3314763086705835
100
AcDbArc
 50
309.559667968994
 51
66.70053673931855
  0
LINE
  5
ABE
330
17
100
AcDbEntity
  8
0
 62
     7
100
AcDbLine
 10
-69.49570693833725
 20
22.21465328707108
 30
0.0
 11
-69.25729917429127
 21
13.51276989939296
 31
0.0
  0
LINE
  5
ABF
330
17
100
AcDbEntity
  8
0
 62
     7
100
AcDbLine
 10
-69.48531731240096
 20
22.25074269222842
 30
0.0
 11
-69.33729917429127
 21
22.47276989939297
 31
0.0
  0
ARC
  5
AC0
330
17
100
AcDbEntity
  8
0
 62
     7
100
AcDbCircle
 10
-69.43373019415202
 20
22.21635128006246
 30
0.0
 40
0.062
100
AcDbArc
 50
146.3099324740204
 51
181.5693548047489
  0
ARC
  5
AC1
330
17
100
AcDbEntity
  8
0
 62
     7
100
AcDbCircle
 10
-70.41410282725943
 20
20.71815802724651
 30
0.0
 40
2.520128100167132
100
AcDbArc
 50
66.70053673931855
 51
79.09400532257645
  0
LINE
  5
AC2
330
17
100
AcDbEntity
  8
0
 62
     7
100
AcDbLine
 10
-69.25729917429127
 20
2.438992129033593
 30
0.0
 11
-69.25729917429127
 21
13.51276989939296
 31
0.0
  0
LINE
  5
AC3
330
17
100
AcDbEntity
  8
0
 62
     7
100
AcDbLine
 10
-68.73729917429127
 20
2.438992129033593
 30
0.0
 11
-68.73729917429127
 21
13.51276989939296
 31
0.0
  0
CIRCLE
  5
AC4
330
17
100
AcDbEntity
  8
ADP1DETAIL
100
AcDbCircle
 10
-69.00649917429126
 20
1.462536419525257
 30
0.0
 40
0.25
  0
TEXT
  5
AC5
330
17
100
AcDbEntity
  8
ADPDIM
100
AcDbText
 10
-68.29403614160414
 20
1.975826487645022
 30
0.0
 40
0.25
  1
2
100
AcDbText
  0
LINE
  5
AC6
330
17
100
AcDbEntity
  8
ADPDIM
100
AcDbLine
 10
-68.51232921377434
 20
1.974292069727873
 30
0.0
 11
-68.19189146335111
 21
2.529306534123946
 31
0.0
  0
LINE
  5
AC7
330
17
100
AcDbEntity
  8
ADPDIM
100
AcDbLine
 10
-68.75649917429126
 20
1.896476561007311
 30
0.0
 11
-68.12462097212506
 21
1.896476561007311
 31
0.0
  0
TEXT
  5
AC8
330
17
100
AcDbEntity
  8
ADPDIM
100
AcDbText
 10
-68.49791625296605
 20
2.312749771938477
 30
0.0
 40
0.25
  1
1
100
AcDbText
  0
LINE
  5
AC9
330
17
100
AcDbEntity
  8
ADPDIM
  6
ByBlock
100
AcDbLine
 10
-69.25649917429126
 20
1.896476561007311
 30
0.0
 11
-68.75649917429126
 21
1.896476561007311
 31
0.0
  0
LWPOLYLINE
  5
ACA
330
17
100
AcDbEntity
  8
ADPDIM
100
AcDbPolyline
 90
        2
 70
     1
 43
0.025
 10
-69.26899917429127
 20
1.896476561007311
 42
1.0
 10
-69.24399917429126
 20
1.896476561007311
 42
1.0
  0
LINE
  5
ACB
330
17
100
AcDbEntity
  8
ADPDIM
  6
ByBlock
100
AcDbLine
 10
-69.25649917429126
 20
1.773827122018808
 30
0.0
 11
-69.25649917429126
 21
2.235077122018807
 31
0.0
  0
POINT
  5
ACC
330
17
100
AcDbEntity
  8
ADPDIM
  6
ByBlock
100
AcDbPoint
 10
-68.75649917429126
 20
1.896476561007311
 30
0.0
  0
LWPOLYLINE
  5
ACD
330
17
100
AcDbEntity
  8
ADPDIM
100
AcDbPolyline
 90
        2
 70
     1
 43
0.025
 10
-68.76899917429127
 20
1.896476561007311
 42
1.0
 10
-68.74399917429126
 20
1.896476561007311
 42
1.0
  0
LINE
  5
ACE
330
17
100
AcDbEntity
  8
ADPDIM
  6
ByBlock
100
AcDbLine
 10
-68.75649917429126
 20
1.773827122018808
 30
0.0
 11
-68.75649917429126
 21
2.235077122018807
 31
0.0
  0
LINE
  5
ACF
330
17
100
AcDbEntity
  8
0
 62
     7
100
AcDbLine
 10
-69.25729917429127
 20
2.438992129033593
 30
0.0
 11
-68.73729917429127
 21
2.438992129033593
 31
0.0
  0
TEXT
  5
AD0
330
17
100
AcDbEntity
  8
ADPDIM
100
AcDbText
 10
-68.0761964267418
 20
2.325104115309052
 30
0.0
 40
0.2
  1
"
100
AcDbText
  0
LINE
  5
AD1
330
17
100
AcDbEntity
  8
0
 62
     7
100
AcDbLine
 10
-68.73729917429127
 20
13.51276989939296
 30
0.0
 11
-68.49889141024529
 21
22.21465328707108
 31
0.0
  0
ARC
  5
AD2
330
17
100
AcDbEntity
  8
0
 62
     7
100
AcDbCircle
 10
-67.58049552132312
 20
20.71815802724651
 30
0.0
 40
2.520128100167132
100
AcDbArc
 50
100.9059946774235
 51
113.2994632606814
  0
LINE
  5
AD3
330
17
100
AcDbEntity
  8
0
 62
     7
100
AcDbLine
 10
-68.50928103618158
 20
22.25074269222842
 30
0.0
 11
-68.65729917429127
 21
22.47276989939297
 31
0.0
  0
ARC
  5
AD4
330
17
100
AcDbEntity
  8
0
 62
     7
100
AcDbCircle
 10
-68.56086815443052
 20
22.21635128006246
 30
0.0
 40
0.062
100
AcDbArc
 50
358.430645195251
 51
33.69006752597954
  0
LINE
  5
AD5
330
17
100
AcDbEntity
  8
0
 62
     7
100
AcDbLine
 10
-69.33729917429127
 20
22.47276989939297
 30
0.0
 11
-68.65729917429127
 21
22.47276989939297
 31
0.0
  0
ARC
  5
AD6
330
17
100
AcDbEntity
  8
0
 62
     7
100
AcDbCircle
 10
-68.44618806318016
 20
22.72832545494853
 30
0.0
 40
0.3314763086705835
100
AcDbArc
 50
113.2994632606814
 51
230.440332031006
  0
LINE
  5
AD7
330
17
100
AcDbEntity
  8
0
 62
     7
100
AcDbLine
 10
-68.57729917429127
 20
24.43276989939296
 30
0.0
 11
-69.41729917429127
 21
24.43276989939296
 31
0.0
  0
LINE
  5
AD8
330
17
100
AcDbEntity
  8
0
 62
     7
100
AcDbLine
 10
-68.05729917429127
 20
23.59276989939296
 30
0.0
 11
-69.93729917429127
 21
23.59276989939296
 31
0.0
  0
LINE
  5
AD9
330
17
100
AcDbEntity
  8
0
 62
     7
100
AcDbLine
 10
-69.48742257555887
 20
24.53795500129435
 30
0.0
 11
-69.33729917429127
 21
24.31276989939297
 31
0.0
  0
ARC
  5
ADA
330
17
100
AcDbEntity
  8
0
 62
     7
100
AcDbCircle
 10
-69.54841028540238
 20
24.05721434383741
 30
0.0
 40
0.3314763086705835
100
AcDbArc
 50
293.2994632606814
 51
50.440332031006
  0
LINE
  5
ADB
330
17
100
AcDbEntity
  8
0
 62
     7
100
AcDbLine
 10
-69.49781220149514
 20
24.57404440645169
 30
0.0
 11
-69.25729917429127
 21
33.35276989939297
 31
0.0
  0
ARC
  5
ADC
330
17
100
AcDbEntity
  8
0
 62
     7
100
AcDbCircle
 10
-70.41410282725943
 20
26.06738177153943
 30
0.0
 40
2.520128100167132
100
AcDbArc
 50
280.9059946774236
 51
293.2994632606814
  0
ARC
  5
ADD
330
17
100
AcDbEntity
  8
0
 62
     7
100
AcDbCircle
 10
-69.90766955702565
 20
23.43899212903359
 30
0.0
 40
0.1566062478830443
100
AcDbArc
 50
100.9059946774227
 51
197.166492258428
  0
ARC
  5
ADE
330
17
100
AcDbEntity
  8
0
 62
     7
100
AcDbCircle
 10
-69.43583545730991
 20
24.57234641346031
 30
0.0
 40
0.062
100
AcDbArc
 50
178.430645195251
 51
213.6900675259795
  0
LINE
  5
ADF
330
17
100
AcDbEntity
  8
0
 62
     7
100
AcDbLine
 10
-68.73729917429127
 20
44.43899212903359
 30
0.0
 11
-68.73729917429127
 21
33.36521435867422
 31
0.0
  0
LINE
  5
AE0
330
17
100
AcDbEntity
  8
0
 62
     7
100
AcDbLine
 10
-69.25729917429127
 20
44.43899212903359
 30
0.0
 11
-69.25729917429127
 21
33.36521435867422
 31
0.0
  0
LINE
  5
AE1
330
17
100
AcDbEntity
  8
0
 62
     7
100
AcDbLine
 10
-68.73729917429127
 20
33.35276989939297
 30
0.0
 11
-68.49678614708739
 21
24.5740444064517
 31
0.0
  0
ARC
  5
AE2
330
17
100
AcDbEntity
  8
0
 62
     7
100
AcDbCircle
 10
-67.58049552132312
 20
26.06738177153943
 30
0.0
 40
2.520128100167132
100
AcDbArc
 50
246.7005367393186
 51
259.0940053225764
  0
ARC
  5
AE3
330
17
100
AcDbEntity
  8
0
 62
     7
100
AcDbCircle
 10
-68.44618806318016
 20
24.05721434383741
 30
0.0
 40
0.3314763086705835
100
AcDbArc
 50
129.559667968994
 51
246.7005367393186
  0
LINE
  5
AE4
330
17
100
AcDbEntity
  8
0
 62
     7
100
AcDbLine
 10
-69.33729917429127
 20
24.31276989939297
 30
0.0
 11
-68.65729917429127
 21
24.31276989939297
 31
0.0
  0
LINE
  5
AE5
330
17
100
AcDbEntity
  8
0
 62
     7
100
AcDbLine
 10
-68.50717577302368
 20
24.53795500129436
 30
0.0
 11
-68.65729917429127
 21
24.31276989939297
 31
0.0
  0
ARC
  5
AE6
330
17
100
AcDbEntity
  8
0
 62
     7
100
AcDbCircle
 10
-68.55876289127262
 20
24.57234641346032
 30
0.0
 40
0.062
100
AcDbArc
 50
326.3099324740204
 51
1.569354804748997
  0
ARC
  5
AE7
330
17
100
AcDbEntity
  8
0
 62
     7
100
AcDbCircle
 10
-68.08692879155689
 20
23.43899212903359
 30
0.0
 40
0.1566062478830443
100
AcDbArc
 50
342.833507741572
 51
79.09400532257726
  0
LINE
  5
AE8
330
17
100
AcDbEntity
  8
0
 62
     7
100
AcDbLine
 10
-69.25729917429127
 20
44.43899212903359
 30
0.0
 11
-68.73729917429127
 21
44.43899212903359
 31
0.0
  0
DIMENSION
  5
C0D
330
17
100
AcDbEntity
  8
ADPDIM
 62
     3
100
AcDbDimension
  2
*D0
 10
-70.29662464291973
 20
2.438992129033593
 30
0.0
 11
-70.29662464291973
 21
23.43899212903358
 31
0.0
 70
    32
 71
     5
 42
42.0
  3
STANDARD
100
AcDbAlignedDimension
 13
-69.25729917429127
 23
44.43899212903359
 33
0.0
 14
-69.25729917429127
 24
2.438992129033593
 34
0.0
 50
90.0
100
AcDbRotatedDimension
1001
ACAD
1000
DSTYLE
1002
{
1070
   276
1070
     2
1070
    41
1040
0.125
1070
    73
1070
     0
1070
    74
1070
     0
1070
    78
1070
     3
1070
   140
1040
0.5
1070
   141
1040
0.1875
1070
   142
1040
0.125
1070
   147
1040
0.125
1070
   171
1070
     1
1070
   273
1070
     5
1070
   274
1070
     1
1070
   277
1070
     5
1070
   279
1070
     2
1070
   284
1070
     3
1070
   285
1070
     3
1070
   286
1070
     3
1002
}
  0
DIMENSION
  5
C1C
330
17
100
AcDbEntity
  8
ADPDIM
 62
     3
100
AcDbDimension
  2
*D1
 10
-67.63297786259778
 20
22.43899212903359
 30
0.0
 11
-67.63297786259778
 21
12.43899212903358
 31
0.0
 70
    32
 71
     5
 42
20.0
  3
STANDARD
100
AcDbAlignedDimension
 13
-68.73729917429127
 23
2.438992129033593
 33
0.0
 14
-68.73729917429127
 24
22.43899212903359
 34
0.0
 50
90.0
100
AcDbRotatedDimension
1001
ACAD
1000
DSTYLE
1002
{
1070
   276
1070
     2
1070
    41
1040
0.125
1070
    73
1070
     0
1070
    74
1070
     0
1070
    78
1070
     3
1070
   140
1040
0.5
1070
   141
1040
0.1875
1070
   142
1040
0.125
1070
   147
1040
0.125
1070
   171
1070
     1
1070
   273
1070
     5
1070
   274
1070
     1
1070
   277
1070
     5
1070
   279
1070
     2
1070
   284
1070
     3
1070
   285
1070
     3
1070
   286
1070
     3
1002
}
  0
DIMENSION
  5
C2A
330
17
100
AcDbEntity
  8
ADPDIM
 62
     3
100
AcDbDimension
  2
*D2
 10
-67.63229917429126
 20
24.43899212903359
 30
0.0
 11
-67.63229917429126
 21
34.43899212903359
 31
0.0
 70
    32
 71
     5
 42
20.0
  3
STANDARD
100
AcDbAlignedDimension
 13
-68.73729917429127
 23
44.43899212903359
 33
0.0
 14
-68.73729917429127
 24
24.43899212903359
 34
0.0
 50
90.0
100
AcDbRotatedDimension
1001
ACAD
1000
DSTYLE
1002
{
1070
   276
1070
     2
1070
    41
1040
0.125
1070
    73
1070
     0
1070
    74
1070
     0
1070
    78
1070
     3
1070
   140
1040
0.5
1070
   141
1040
0.1875
1070
   142
1040
0.125
1070
   147
1040
0.125
1070
   171
1070
     1
1070
   273
1070
     5
1070
   274
1070
     1
1070
   277
1070
     5
1070
   279
1070
     2
1070
   284
1070
     3
1070
   285
1070
     3
1070
   286
1070
     3
1002
}
  0
ENDSEC
  0
SECTION
  2
OBJECTS
  0
DICTIONARY
  5
C
330
0
100
AcDbDictionary
281
     1
  3
ACAD_COLOR
350
C07
  3
ACAD_GROUP
350
D
  3
ACAD_LAYOUT
350
A28
  3
ACAD_MATERIAL
350
BF2
  3
ACAD_MLINESTYLE
350
1A
  3
ACAD_PLOTSETTINGS
350
A29
  3
ACAD_PLOTSTYLENAME
350
A26
  3
ACAD_TABLESTYLE
350
C08
  3
ACAD_VISUALSTYLE
350
BF6
  3
ACDBVARIABLEDICTIONARY
350
27
  3
DWGPROPS
350
CA5
  0
DICTIONARY
  5
A84
330
17
100
AcDbDictionary
280
     1
281
     1
  3
ACAD_LAYOUTSELFREF
360
BEE
  0
DICTIONARY
  5
A82
330
14
100
AcDbDictionary
280
     1
281
     1
  3
ACAD_LAYOUTSELFREF
360
BED
  0
DICTIONARY
  5
C07
102
{ACAD_REACTORS
330
C
102
}
330
C
100
AcDbDictionary
281
     1
  0
DICTIONARY
  5
D
102
{ACAD_REACTORS
330
C
102
}
330
C
100
AcDbDictionary
281
     1
  0
DICTIONARY
  5
A28
102
{ACAD_REACTORS
330
C
102
}
330
C
100
AcDbDictionary
281
     1
  3
Layout1
350
A2B
  3
Model
350
A2A
  0
DICTIONARY
  5
BF2
102
{ACAD_REACTORS
330
C
102
}
330
C
100
AcDbDictionary
281
     1
  3
ByBlock
350
BF4
  3
ByLayer
350
BF3
  3
Global
350
BF5
  0
DICTIONARY
  5
1A
102
{ACAD_REACTORS
330
C
102
}
330
C
100
AcDbDictionary
281
     1
  3
STANDARD
350
1B
  0
DICTIONARY
  5
A29
102
{ACAD_REACTORS
330
C
102
}
330
C
100
AcDbDictionary
281
     1
  0
ACDBDICTIONARYWDFLT
  5
A26
102
{ACAD_REACTORS
330
C
102
}
330
C
100
AcDbDictionary
281
     1
  3
Normal
350
A27
100
AcDbDictionaryWithDefault
340
A27
  0
DICTIONARY
  5
C08
102
{ACAD_REACTORS
330
C
102
}
330
C
100
AcDbDictionary
281
     1
  3
Standard
350
C09
  0
DICTIONARY
  5
BF6
102
{ACAD_REACTORS
330
C
102
}
330
C
100
AcDbDictionary
281
     1
  3
2dWireframe
350
BFC
  3
3D Hidden
350
BFE
  3
3dWireframe
350
BFD
  3
Basic
350
BFB
  3
Brighten
350
C02
  3
ColorChange
350
C06
  3
Conceptual
350
BFF
  3
Dim
350
C01
  3
Facepattern
350
C05
  3
Flat
350
BF7
  3
FlatWithEdges
350
BF8
  3
Gouraud
350
BF9
  3
GouraudWithEdges
350
BFA
  3
Linepattern
350
C04
  3
Realistic
350
C00
  3
Thicken
350
C03
  0
DICTIONARY
  5
27
102
{ACAD_REACTORS
330
C
102
}
330
C
100
AcDbDictionary
281
     1
  3
CTABLESTYLE
350
CA2
  3
DIMADEC
350
28
  3
DIMASSOC
350
A8A
  3
INDEXCTL
350
CA4
  3
SORTENTS
350
CA3
  0
XRECORD
  5
CA5
102
{ACAD_REACTORS
330
C
102
}
330
C
100
AcDbXrecord
280
     1
  1
DWGPROPS COOKIE
  2

  3

  4

  6

  7

  8
Yu Hu
  9

300
=
301
=
302
=
303
=
304
=
305
=
306
=
307
=
308
=
309
=
 40
0.1850137731481481
 41
2450373.679054004
 42
2453950.926969664
  1

 90
        0
  0
XRECORD
  5
BEE
102
{ACAD_REACTORS
330
A84
102
}
330
A84
100
AcDbXrecord
280
     1
340
17
  0
XRECORD
  5
BED
102
{ACAD_REACTORS
330
A82
102
}
330
A82
100
AcDbXrecord
280
     1
340
14
  0
LAYOUT
  5
A2B
102
{ACAD_XDICTIONARY
360
CA8
102
}
102
{ACAD_REACTORS
330
A28
102
}
330
A28
100
AcDbPlotSettings
  1

  2
Fax
  4

  6

 40
0.0
 41
0.0
 42
0.0
 43
0.0
 44
0.0
 45
0.0
 46
0.0
 47
0.0
 48
0.0
 49
0.0
140
0.0
141
0.0
142
1.0
143
1.0
 70
   688
 72
     0
 73
     0
 74
     5
  7
Default R14 pen assignments.ctb
 75
    16
147
1.0
148
0.0
149
0.0
100
AcDbLayout
  1
Layout1
 70
     1
 71
     1
 10
0.0
 20
0.0
 11
12.0
 21
9.0
 12
1.667196317885515E+99
 22
2.439420651286265E+99
 32
0.0
 14
1.000000000000000E+20
 24
1.000000000000000E+20
 34
1.000000000000000E+20
 15
-1.000000000000000E+20
 25
-1.000000000000000E+20
 35
-1.000000000000000E+20
146
0.0
 13
0.0
 23
0.0
 33
0.0
 16
1.0
 26
0.0
 36
0.0
 17
0.0
 27
1.0
 37
0.0
 76
     0
330
14
  0
LAYOUT
  5
A2A
102
{ACAD_XDICTIONARY
360
CA6
102
}
102
{ACAD_REACTORS
330
A28
102
}
330
A28
100
AcDbPlotSettings
  1

  2
Fax
  4

  6

 40
0.0
 41
0.0
 42
0.0
 43
0.0
 44
0.0
 45
0.0
 46
0.0
 47
0.0
 48
0.0
 49
0.0
140
0.0
141
0.0
142
1.0
143
1.0
 70
  1712
 72
     0
 73
     0
 74
     0
  7
Default R14 pen assignments.ctb
 75
     0
147
1.0
148
0.0
149
0.0
100
AcDbLayout
  1
Model
 70
     1
 71
     0
 10
0.0
 20
0.0
 11
12.0
 21
9.0
 12
0.0
 22
0.0
 32
0.0
 14
0.0
 24
0.0
 34
0.0
 15
0.0
 25
0.0
 35
0.0
146
0.0
 13
0.0
 23
0.0
 33
0.0
 16
1.0
 26
0.0
 36
0.0
 17
0.0
 27
1.0
 37
0.0
 76
     0
330
17
331
BC9
  0
MATERIAL
  5
BF4
102
{ACAD_XDICTIONARY
360
CAC
102
}
102
{ACAD_REACTORS
330
BF2
102
}
330
BF2
100
AcDbMaterial
  1
ByBlock
  0
MATERIAL
  5
BF3
102
{ACAD_XDICTIONARY
360
CAA
102
}
102
{ACAD_REACTORS
330
BF2
102
}
330
BF2
100
AcDbMaterial
  1
ByLayer
  0
MATERIAL
  5
BF5
102
{ACAD_XDICTIONARY
360
CAE
102
}
102
{ACAD_REACTORS
330
BF2
102
}
330
BF2
100
AcDbMaterial
  1
Global
  0
MLINESTYLE
  5
1B
102
{ACAD_REACTORS
330
1A
102
}
330
1A
100
AcDbMlineStyle
  2
STANDARD
 70
     0
  3

 62
   256
 51
90.0
 52
90.0
 71
     2
 49
0.5
 62
   256
  6
BYLAYER
 49
-0.5
 62
   256
  6
BYLAYER
  0
ACDBPLACEHOLDER
  5
A27
102
{ACAD_REACTORS
330
A26
102
}
330
A26
  0
TABLESTYLE
  5
C09
102
{ACAD_XDICTIONARY
360
CB0
102
}
102
{ACAD_REACTORS
330
C08
102
}
330
C08
100
AcDbTableStyle
  3
Standard
 70
     0
 71
     0
 40
0.06
 41
0.06
280
     0
281
     0
  7
STANDARD
140
0.18
170
     2
 62
     0
 63
     7
283
     0
274
    -2
284
     1
 64
     0
275
    -2
285
     1
 65
     0
276
    -2
286
     1
 66
     0
277
    -2
287
     1
 67
     0
278
    -2
288
     1
 68
     0
279
    -2
289
     1
 69
     0
  7
STANDARD
140
0.25
170
     5
 62
     0
 63
     7
283
     0
274
    -2
284
     1
 64
     0
275
    -2
285
     1
 65
     0
276
    -2
286
     1
 66
     0
277
    -2
287
     1
 67
     0
278
    -2
288
     1
 68
     0
279
    -2
289
     1
 69
     0
  7
STANDARD
140
0.18
170
     5
 62
     0
 63
     7
283
     0
274
    -2
284
     1
 64
     0
275
    -2
285
     1
 65
     0
276
    -2
286
     1
 66
     0
277
    -2
287
     1
 67
     0
278
    -2
288
     1
 68
     0
279
    -2
289
     1
 69
     0
  0
VISUALSTYLE
  5
BFC
102
{ACAD_REACTORS
330
BF6
102
}
330
BF6
100
AcDbVisualStyle
  2
2dWireframe
 70
     4
 71
     0
 72
     2
 73
     0
 90
        0
 40
-0.6
 41
-30.0
 62
     5
 63
     7
 74
     1
 91
        4
 64
     7
 65
   257
 75
     1
175
     1
 42
1.0
 92
        0
 66
   257
 43
1.0
 76
     1
 77
     6
 78
     2
 67
     7
 79
     5
170
     0
171
     0
290
     0
174
     0
 93
        1
 44
0.0
173
     0
291
     0
 45
0.0
1001
ACAD
1000
AcDbSavedByObjectVersion
1070
     0
  0
VISUALSTYLE
  5
BFE
102
{ACAD_REACTORS
330
BF6
102
}
330
BF6
100
AcDbVisualStyle
  2
3D Hidden
 70
     6
 71
     1
 72
     2
 73
     2
 90
        0
 40
-0.6
 41
-30.0
 62
     5
 63
     7
 74
     2
 91
        2
 64
     7
 65
   257
 75
     2
175
     1
 42
40.0
 92
        0
 66
   257
 43
1.0
 76
     1
 77
     6
 78
     2
 67
     7
 79
     3
170
     0
171
     0
290
     0
174
     0
 93
        1
 44
0.0
173
     0
291
     0
 45
0.0
1001
ACAD
1000
AcDbSavedByObjectVersion
1070
     0
  0
VISUALSTYLE
  5
BFD
102
{ACAD_REACTORS
330
BF6
102
}
330
BF6
100
AcDbVisualStyle
  2
3dWireframe
 70
     5
 71
     0
 72
     2
 73
     0
 90
        0
 40
-0.6
 41
-30.0
 62
     5
 63
     7
 74
     1
 91
        4
 64
     7
 65
   257
 75
     1
175
     1
 42
1.0
 92
        0
 66
   257
 43
1.0
 76
     1
 77
     6
 78
     2
 67
     7
 79
     5
170
     0
171
     0
290
     0
174
     0
 93
        1
 44
0.0
173
     0
291
     0
 45
0.0
1001
ACAD
1000
AcDbSavedByObjectVersion
1070
     0
  0
VISUALSTYLE
  5
BFB
102
{ACAD_REACTORS
330
BF6
102
}
330
BF6
100
AcDbVisualStyle
  2
Basic
 70
     7
 71
     1
 72
     0
 73
     1
 90
        0
 40
-0.6
 41
-30.0
 62
     5
 63
     7
 74
     0
 91
        4
 64
     7
 65
   257
 75
     1
175
     1
 42
1.0
 92
        8
 66
     7
 43
1.0
 76
     1
 77
     6
 78
     2
 67
     7
 79
     5
170
     0
171
     0
290
     0
174
     0
 93
        1
 44
0.0
173
     0
291
     1
 45
0.0
1001
ACAD
1000
AcDbSavedByObjectVersion
1070
     0
  0
VISUALSTYLE
  5
C02
102
{ACAD_REACTORS
330
BF6
102
}
330
BF6
100
AcDbVisualStyle
  2
Brighten
 70
    12
 71
     2
 72
     2
 73
     0
 90
        0
 40
-0.6
 41
-30.0
 62
     5
 63
     7
 74
     1
 91
        4
 64
     7
 65
   257
 75
     1
175
     1
 42
1.0
 92
        8
 66
     7
 43
1.0
 76
     1
 77
     6
 78
     2
 67
     7
 79
     5
170
     0
171
     0
290
     0
174
     0
 93
        1
 44
50.0
173
     0
291
     1
 45
0.0
1001
ACAD
1000
AcDbSavedByObjectVersion
1070
     0
  0
VISUALSTYLE
  5
C06
102
{ACAD_REACTORS
330
BF6
102
}
330
BF6
100
AcDbVisualStyle
  2
ColorChange
 70
    16
 71
     2
 72
     2
 73
     3
 90
        0
 40
-0.6
 41
-30.0
 62
     5
 63
     8
 74
     1
 91
        4
 64
     7
 65
   257
 75
     1
175
     1
 42
1.0
 92
        8
 66
     8
 43
1.0
 76
     1
 77
     6
 78
     2
 67
     7
 79
     5
170
     0
171
     0
290
     0
174
     0
 93
        1
 44
0.0
173
     0
291
     1
 45
0.0
1001
ACAD
1000
AcDbSavedByObjectVersion
1070
     0
  0
VISUALSTYLE
  5
BFF
102
{ACAD_REACTORS
330
BF6
102
}
330
BF6
100
AcDbVisualStyle
  2
Conceptual
 70
     9
 71
     3
 72
     2
 73
     0
 90
        0
 40
-0.6
 41
-30.0
 62
     5
 63
     7
 74
     2
 91
        2
 64
     7
 65
   257
 75
     1
175
     1
 42
40.0
 92
        8
 66
     7
 43
1.0
 76
     1
 77
     6
 78
     2
 67
     7
 79
     3
170
     0
171
     0
290
     0
174
     0
 93
        1
 44
0.0
173
     0
291
     0
 45
0.0
1001
ACAD
1000
AcDbSavedByObjectVersion
1070
     0
  0
VISUALSTYLE
  5
C01
102
{ACAD_REACTORS
330
BF6
102
}
330
BF6
100
AcDbVisualStyle
  2
Dim
 70
    11
 71
     2
 72
     2
 73
     0
 90
        0
 40
-0.6
 41
-30.0
 62
     5
 63
     7
 74
     1
 91
        4
 64
     7
 65
   257
 75
     1
175
     1
 42
1.0
 92
        8
 66
     7
 43
1.0
 76
     1
 77
     6
 78
     2
 67
     7
 79
     5
170
     0
171
     0
290
     0
174
     0
 93
        1
 44
-50.0
173
     0
291
     1
 45
0.0
1001
ACAD
1000
AcDbSavedByObjectVersion
1070
     0
  0
VISUALSTYLE
  5
C05
102
{ACAD_REACTORS
330
BF6
102
}
330
BF6
100
AcDbVisualStyle
  2
Facepattern
 70
    15
 71
     2
 72
     2
 73
     0
 90
        0
 40
-0.6
 41
-30.0
 62
     5
 63
     7
 74
     1
 91
        4
 64
     7
 65
   257
 75
     1
175
     1
 42
1.0
 92
        8
 66
     7
 43
1.0
 76
     1
 77
     6
 78
     2
 67
     7
 79
     5
170
     0
171
     0
290
     0
174
     0
 93
        1
 44
0.0
173
     0
291
     1
 45
0.0
1001
ACAD
1000
AcDbSavedByObjectVersion
1070
     0
  0
VISUALSTYLE
  5
BF7
102
{ACAD_REACTORS
330
BF6
102
}
330
BF6
100
AcDbVisualStyle
  2
Flat
 70
     0
 71
     2
 72
     1
 73
     1
 90
        2
 40
-0.6
 41
30.0
 62
     5
 63
     7
 74
     0
 91
        4
 64
     7
 65
   257
 75
     1
175
     1
 42
1.0
 92
        8
 66
     7
 43
1.0
 76
     1
 77
     6
 78
     2
 67
     7
 79
     5
170
     0
171
     0
290
     0
174
     0
 93
       13
 44
0.0
173
     0
291
     1
 45
0.0
1001
ACAD
1000
AcDbSavedByObjectVersion
1070
     0
  0
VISUALSTYLE
  5
BF8
102
{ACAD_REACTORS
330
BF6
102
}
330
BF6
100
AcDbVisualStyle
  2
FlatWithEdges
 70
     1
 71
     2
 72
     1
 73
     1
 90
        2
 40
-0.6
 41
30.0
 62
     5
 63
     7
 74
     1
 91
        4
 64
     7
 65
   257
 75
     1
175
     1
 42
1.0
 92
        0
 66
   257
 43
1.0
 76
     1
 77
     6
 78
     2
 67
     7
 79
     5
170
     0
171
     0
290
     0
174
     0
 93
       13
 44
0.0
173
     0
291
     1
 45
0.0
1001
ACAD
1000
AcDbSavedByObjectVersion
1070
     0
  0
VISUALSTYLE
  5
BF9
102
{ACAD_REACTORS
330
BF6
102
}
330
BF6
100
AcDbVisualStyle
  2
Gouraud
 70
     2
 71
     2
 72
     2
 73
     1
 90
        2
 40
-0.6
 41
30.0
 62
     5
 63
     7
 74
     0
 91
        4
 64
     7
 65
   257
 75
     1
175
     1
 42
1.0
 92
        0
 66
     7
 43
1.0
 76
     1
 77
     6
 78
     2
 67
     7
 79
     5
170
     0
171
     0
290
     0
174
     0
 93
       13
 44
0.0
173
     0
291
     1
 45
0.0
1001
ACAD
1000
AcDbSavedByObjectVersion
1070
     0
  0
VISUALSTYLE
  5
BFA
102
{ACAD_REACTORS
330
BF6
102
}
330
BF6
100
AcDbVisualStyle
  2
GouraudWithEdges
 70
     3
 71
     2
 72
     2
 73
     1
 90
        2
 40
-0.6
 41
30.0
 62
     5
 63
     7
 74
     1
 91
        4
 64
     7
 65
   257
 75
     1
175
     1
 42
1.0
 92
        0
 66
   257
 43
1.0
 76
     1
 77
     6
 78
     2
 67
     7
 79
     5
170
     0
171
     0
290
     0
174
     0
 93
       13
 44
0.0
173
     0
291
     1
 45
0.0
1001
ACAD
1000
AcDbSavedByObjectVersion
1070
     0
  0
VISUALSTYLE
  5
C04
102
{ACAD_REACTORS
330
BF6
102
}
330
BF6
100
AcDbVisualStyle
  2
Linepattern
 70
    14
 71
     2
 72
     2
 73
     0
 90
        0
 40
-0.6
 41
-30.0
 62
     5
 63
     7
 74
     1
 91
        4
 64
     7
 65
   257
 75
     7
175
     7
 42
1.0
 92
        8
 66
     7
 43
1.0
 76
     1
 77
     6
 78
     2
 67
     7
 79
     5
170
     0
171
     0
290
     0
174
     0
 93
        1
 44
0.0
173
     0
291
     1
 45
0.0
1001
ACAD
1000
AcDbSavedByObjectVersion
1070
     0
  0
VISUALSTYLE
  5
C00
102
{ACAD_REACTORS
330
BF6
102
}
330
BF6
100
AcDbVisualStyle
  2
Realistic
 70
     8
 71
     2
 72
     2
 73
     0
 90
        0
 40
-0.6
 41
-30.0
 62
     5
 63
     7
 74
     1
 91
        0
 64
     7
 65
   257
 75
     1
175
     1
 42
1.0
 92
        8
 66
     8
 43
1.0
 76
     1
 77
     6
 78
     2
 67
     7
 79
     5
170
     0
171
     0
290
     0
174
     0
 93
       13
 44
0.0
173
     0
291
     0
 45
0.0
1001
ACAD
1000
AcDbSavedByObjectVersion
1070
     0
  0
VISUALSTYLE
  5
C03
102
{ACAD_REACTORS
330
BF6
102
}
330
BF6
100
AcDbVisualStyle
  2
Thicken
 70
    13
 71
     2
 72
     2
 73
     0
 90
        0
 40
-0.6
 41
-30.0
 62
     5
 63
     7
 74
     1
 91
        4
 64
     7
 65
   257
 75
     1
175
     1
 42
1.0
 92
       12
 66
     7
 43
1.0
 76
     1
 77
     6
 78
     2
 67
     7
 79
     5
170
     0
171
     0
290
     0
174
     0
 93
        1
 44
0.0
173
     0
291
     1
 45
0.0
1001
ACAD
1000
AcDbSavedByObjectVersion
1070
     0
  0
DICTIONARYVAR
  5
CA2
102
{ACAD_REACTORS
330
27
102
}
330
27
100
DictionaryVariables
280
     0
  1
STANDARD
  0
DICTIONARYVAR
  5
28
102
{ACAD_REACTORS
330
27
102
}
330
27
100
DictionaryVariables
280
     0
  1
0
  0
DICTIONARYVAR
  5
A8A
102
{ACAD_REACTORS
330
27
102
}
330
27
100
DictionaryVariables
280
     0
  1
1
  0
DICTIONARYVAR
  5
CA4
102
{ACAD_REACTORS
330
27
102
}
330
27
100
DictionaryVariables
280
     0
  1
0
  0
DICTIONARYVAR
  5
CA3
102
{ACAD_REACTORS
330
27
102
}
330
27
100
DictionaryVariables
280
     0
  1
127
  0
DICTIONARY
  5
CA8
330
A2B
100
AcDbDictionary
280
     1
281
     1
  3
ACAD_XREC_ROUNDTRIP
360
CA9
  0
DICTIONARY
  5
CA6
330
A2A
100
AcDbDictionary
280
     1
281
     1
  3
ACAD_XREC_ROUNDTRIP
360
CA7
  0
DICTIONARY
  5
CAC
330
BF4
100
AcDbDictionary
280
     1
281
     1
  3
ACAD_XREC_ROUNDTRIP
360
CAD
  0
DICTIONARY
  5
CAA
330
BF3
100
AcDbDictionary
280
     1
281
     1
  3
ACAD_XREC_ROUNDTRIP
360
CAB
  0
DICTIONARY
  5
CAE
330
BF5
100
AcDbDictionary
280
     1
281
     1
  3
ACAD_XREC_ROUNDTRIP
360
CAF
  0
DICTIONARY
  5
CB0
330
C09
100
AcDbDictionary
280
     1
281
     1
  3
ACAD_XREC_ROUNDTRIP
360
CB1
  0
XRECORD
  5
CA9
102
{ACAD_REACTORS
330
CA8
102
}
330
CA8
100
AcDbXrecord
280
     1
102
SHADEPLOT
 70
     0
102
SHADEPLOTRESLEVEL
 70
     2
102
SHADEPLOTCUSTOMDPI
 70
   300
  0
XRECORD
  5
CA7
102
{ACAD_REACTORS
330
CA6
102
}
330
CA6
100
AcDbXrecord
280
     1
102
SHADEPLOT
 70
     0
102
SHADEPLOTRESLEVEL
 70
     2
102
SHADEPLOTCUSTOMDPI
 70
   300
  0
XRECORD
  5
CAD
102
{ACAD_REACTORS
330
CAC
102
}
330
CAC
100
AcDbXrecord
280
     1
102
MATERIAL
148
0.0
149
0.0
149
0.0
 93
        0
 94
       63
282
     0
 72
     1
 77
     1
171
     1
175
     1
179
     1
273
     0
  0
XRECORD
  5
CAB
102
{ACAD_REACTORS
330
CAA
102
}
330
CAA
100
AcDbXrecord
280
     1
102
MATERIAL
148
0.0
149
0.0
149
0.0
 93
        0
 94
       63
282
     0
 72
     1
 77
     1
171
     1
175
     1
179
     1
273
     0
  0
XRECORD
  5
CAF
102
{ACAD_REACTORS
330
CAE
102
}
330
CAE
100
AcDbXrecord
280
     1
102
MATERIAL
148
0.0
149
0.0
149
0.0
 93
        0
 94
       63
282
     0
 72
     1
 77
     1
171
     1
175
     1
179
     1
273
     0
  0
XRECORD
  5
CB1
102
{ACAD_REACTORS
330
CB0
102
}
330
CB0
100
AcDbXrecord
280
     1
102
ACAD_ROUNDTRIP_PRE2007_TABLESTYLE
 90
      512
 91
        0
  1

 92
      512
 93
        0
  2

 94
      512
 95
        0
  3

  0
ENDSEC
  0
EOF
