  0
SECTION
  2
HEADER
  9
$ACADVER
  1
AC1015
  9
$ACADMAINTVER
 70
    18
  9
$DWGCODEPAGE
  3
ANSI_1252
  9
$INSBASE
 10
0.0
 20
0.0
 30
0.0
  9
$EXTMIN
 10
1.000000000000000E+20
 20
1.000000000000000E+20
 30
1.000000000000000E+20
  9
$EXTMAX
 10
0.0
 20
0.0
 30
0.0
  9
$LIMMIN
 10
82.46938476562499
 20
116.823876953125
  9
$LIMMAX
 10
92.56558159722223
 20
162.2472886827256
  9
$ORTHOMODE
 70
     0
  9
$REGENMODE
 70
     1
  9
$FILLMODE
 70
     1
  9
$QTEXTMODE
 70
     0
  9
$MIRRTEXT
 70
     1
  9
$LTSCALE
 40
1.0
  9
$ATTMODE
 70
     1
  9
$TEXTSIZE
 40
0.0
  9
$TRACEWID
 40
0.05
  9
$TEXTSTYLE
  7
Standard
  9
$CLAYER
  8
0
  9
$CELTYPE
  6
Continuous
  9
$CECOLOR
 62
   256
  9
$CELTSCALE
 40
1.0
  9
$DISPSILH
 70
     0
  9
$DIMSCALE
 40
1.0
  9
$DIMASZ
 40
0.18
  9
$DIMEXO
 40
0.0625
  9
$DIMDLI
 40
0.38
  9
$DIMRND
 40
0.0
  9
$DIMDLE
 40
0.0
  9
$DIMEXE
 40
0.18
  9
$DIMTP
 40
0.0
  9
$DIMTM
 40
0.0
  9
$DIMTXT
 40
0.18
  9
$DIMCEN
 40
0.09
  9
$DIMTSZ
 40
0.0
  9
$DIMTOL
 70
     0
  9
$DIMLIM
 70
     0
  9
$DIMTIH
 70
     1
  9
$DIMTOH
 70
     1
  9
$DIMSE1
 70
     0
  9
$DIMSE2
 70
     0
  9
$DIMTAD
 70
     0
  9
$DIMZIN
 70
     0
  9
$DIMBLK
  1

  9
$DIMASO
 70
     1
  9
$DIMSHO
 70
     1
  9
$DIMPOST
  1

  9
$DIMAPOST
  1

  9
$DIMALT
 70
     0
  9
$DIMALTD
 70
     2
  9
$DIMALTF
 40
25.4
  9
$DIMLFAC
 40
1.0
  9
$DIMTOFL
 70
     0
  9
$DIMTVP
 40
0.0
  9
$DIMTIX
 70
     0
  9
$DIMSOXD
 70
     0
  9
$DIMSAH
 70
     0
  9
$DIMBLK1
  1

  9
$DIMBLK2
  1

  9
$DIMSTYLE
  2
Standard
  9
$DIMCLRD
 70
     0
  9
$DIMCLRE
 70
     0
  9
$DIMCLRT
 70
     0
  9
$DIMTFAC
 40
1.0
  9
$DIMGAP
 40
0.09
  9
$DIMJUST
 70
     0
  9
$DIMSD1
 70
     0
  9
$DIMSD2
 70
     0
  9
$DIMTOLJ
 70
     1
  9
$DIMTZIN
 70
     0
  9
$DIMALTZ
 70
     0
  9
$DIMALTTZ
 70
     0
  9
$DIMUPT
 70
     0
  9
$DIMDEC
 70
     4
  9
$DIMTDEC
 70
     4
  9
$DIMALTU
 70
     2
  9
$DIMALTTD
 70
     2
  9
$DIMTXSTY
  7
Standard
  9
$DIMAUNIT
 70
     0
  9
$DIMADEC
 70
     0
  9
$DIMALTRND
 40
0.0
  9
$DIMAZIN
 70
     0
  9
$DIMDSEP
 70
     0
  9
$DIMATFIT
 70
     3
  9
$DIMFRAC
 70
     0
  9
$DIMLDRBLK
  1

  9
$DIMLUNIT
 70
     2
  9
$DIMLWD
 70
     0
  9
$DIMLWE
 70
     0
  9
$DIMTMOVE
 70
     0
  9
$LUNITS
 70
     2
  9
$LUPREC
 70
     4
  9
$SKETCHINC
 40
0.1
  9
$FILLETRAD
 40
0.0
  9
$AUNITS
 70
     0
  9
$AUPREC
 70
     0
  9
$MENU
  1
acad
  9
$ELEVATION
 40
0.0
  9
$PELEVATION
 40
0.0
  9
$THICKNESS
 40
0.0
  9
$LIMCHECK
 70
     0
  9
$CHAMFERA
 40
0.0
  9
$CHAMFERB
 40
0.0
  9
$CHAMFERC
 40
0.0
  9
$CHAMFERD
 40
0.0
  9
$SKPOLY
 70
     0
  9
$TDCREATE
 40
2454257.554598519
  9
$TDUCREATE
 40
2454257.721265185
  9
$TDUPDATE
 40
2454263.499259433
  9
$TDUUPDATE
 40
2454263.665926100
  9
$TDINDWG
 40
0.0315299537
  9
$TDUSRTIMER
 40
0.0315299537
  9
$USRTIMER
 70
     1
  9
$ANGBASE
 50
0.0
  9
$ANGDIR
 70
     0
  9
$PDMODE
 70
     0
  9
$PDSIZE
 40
0.0
  9
$PLINEWID
 40
0.0
  9
$SPLFRAME
 70
     0
  9
$SPLINETYPE
 70
     6
  9
$SPLINESEGS
 70
     8
  9
$HANDSEED
  5
75
  9
$SURFTAB1
 70
     6
  9
$SURFTAB2
 70
     6
  9
$SURFTYPE
 70
     6
  9
$SURFU
 70
     6
  9
$SURFV
 70
     6
  9
$UCSBASE
  2

  9
$UCSNAME
  2

  9
$UCSORG
 10
0.0
 20
0.0
 30
0.0
  9
$UCSXDIR
 10
1.0
 20
0.0
 30
0.0
  9
$UCSYDIR
 10
0.0
 20
1.0
 30
0.0
  9
$UCSORTHOREF
  2

  9
$UCSORTHOVIEW
 70
     0
  9
$UCSORGTOP
 10
0.0
 20
0.0
 30
0.0
  9
$UCSORGBOTTOM
 10
0.0
 20
0.0
 30
0.0
  9
$UCSORGLEFT
 10
0.0
 20
0.0
 30
0.0
  9
$UCSORGRIGHT
 10
0.0
 20
0.0
 30
0.0
  9
$UCSORGFRONT
 10
0.0
 20
0.0
 30
0.0
  9
$UCSORGBACK
 10
0.0
 20
0.0
 30
0.0
  9
$PUCSBASE
  2

  9
$PUCSNAME
  2

  9
$PUCSORG
 10
0.0
 20
0.0
 30
0.0
  9
$PUCSXDIR
 10
1.0
 20
0.0
 30
0.0
  9
$PUCSYDIR
 10
0.0
 20
1.0
 30
0.0
  9
$PUCSORTHOREF
  2

  9
$PUCSORTHOVIEW
 70
     0
  9
$PUCSORGTOP
 10
0.0
 20
0.0
 30
0.0
  9
$PUCSORGBOTTOM
 10
0.0
 20
0.0
 30
0.0
  9
$PUCSORGLEFT
 10
0.0
 20
0.0
 30
0.0
  9
$PUCSORGRIGHT
 10
0.0
 20
0.0
 30
0.0
  9
$PUCSORGFRONT
 10
0.0
 20
0.0
 30
0.0
  9
$PUCSORGBACK
 10
0.0
 20
0.0
 30
0.0
  9
$USERI1
 70
     0
  9
$USERI2
 70
     0
  9
$USERI3
 70
     0
  9
$USERI4
 70
     0
  9
$USERI5
 70
     0
  9
$USERR1
 40
0.0
  9
$USERR2
 40
0.0
  9
$USERR3
 40
0.0
  9
$USERR4
 40
0.0
  9
$USERR5
 40
0.0
  9
$WORLDVIEW
 70
     1
  9
$SHADEDGE
 70
     3
  9
$SHADEDIF
 70
    70
  9
$TILEMODE
 70
     1
  9
$MAXACTVP
 70
    16
  9
$PINSBASE
 10
0.0
 20
0.0
 30
0.0
  9
$PLIMCHECK
 70
     0
  9
$PEXTMIN
 10
1.000000000000000E+20
 20
1.000000000000000E+20
 30
1.000000000000000E+20
  9
$PEXTMAX
 10
-1.000000000000000E+20
 20
-1.000000000000000E+20
 30
-1.000000000000000E+20
  9
$PLIMMIN
 10
0.0
 20
0.0
  9
$PLIMMAX
 10
12.0
 20
9.0
  9
$UNITMODE
 70
     0
  9
$VISRETAIN
 70
     0
  9
$PLINEGEN
 70
     1
  9
$PSLTSCALE
 70
     0
  9
$TREEDEPTH
 70
  3020
  9
$CMLSTYLE
  2
Standard
  9
$CMLJUST
 70
     0
  9
$CMLSCALE
 40
1.0
  9
$PROXYGRAPHICS
 70
     0
  9
$MEASUREMENT
 70
     1
  9
$CELWEIGHT
370
    -1
  9
$ENDCAPS
280
     0
  9
$JOINSTYLE
280
     0
  9
$LWDISPLAY
290
     0
  9
$INSUNITS
 70
     0
  9
$HYPERLINKBASE
  1

  9
$STYLESHEET
  1

  9
$XEDIT
290
     1
  9
$CEPSNTYPE
380
     0
  9
$PSTYLEMODE
290
     1
  9
$FINGERPRINTGUID
  2

  9
$VERSIONGUID
  2
{3A3B638E-099C-4FEA-9B07-DA9333681C27}
  9
$EXTNAMES
290
     1
  9
$PSVPSCALE
 40
0.0
  9
$OLESTARTUP
290
     0
  0
ENDSEC
  0
SECTION
  2
CLASSES
  0
CLASS
  1
IMAGE
  2
AcDbRasterImage
  3
ISM
 90
    32895
280
     0
281
     1
  0
CLASS
  1
DICTIONARYVAR
  2
AcDbDictionaryVar
  3
ObjectDBX Classes
 90
        0
280
     0
281
     0
  0
CLASS
  1
RASTERVARIABLES
  2
AcDbRasterVariables
  3
ISM
 90
    32768
280
     0
281
     0
  0
CLASS
  1
IMAGEDEF
  2
AcDbRasterImageDef
  3
ISM
 90
    32768
280
     0
281
     0
  0
CLASS
  1
IMAGEDEF_REACTOR
  2
AcDbRasterImageDefReactor
  3
ISM
 90
    32769
280
     0
281
     0
  0
CLASS
  1
IDBUFFER
  2
AcDbIdBuffer
  3
ObjectDBX Classes
 90
    32768
280
     0
281
     0
  0
CLASS
  1
SPATIAL_FILTER
  2
AcDbSpatialFilter
  3
ObjectDBX Classes
 90
    32768
280
     0
281
     0
  0
CLASS
  1
SORTENTSTABLE
  2
AcDbSortentsTable
  3
ObjectDBX Classes
 90
    32768
280
     0
281
     0
  0
CLASS
  1
LAYER_INDEX
  2
AcDbLayerIndex
  3
ObjectDBX Classes
 90
    32768
280
     0
281
     0
  0
CLASS
  1
SPATIAL_INDEX
  2
AcDbSpatialIndex
  3
ObjectDBX Classes
 90
    32768
280
     0
281
     0
  0
CLASS
  1
OBJECT_PTR
  2
CAseDLPNTableRecord
  3
ASE-LPNTableRecord
 90
    32769
280
     0
281
     0
  0
CLASS
  1
LAYOUT
  2
AcDbLayout
  3
ObjectDBX Classes
 90
        0
280
     0
281
     0
  0
CLASS
  1
PLOTSETTINGS
  2
AcDbPlotSettings
  3
ObjectDBX Classes
 90
    32768
280
     0
281
     0
  0
CLASS
  1
ACDBDICTIONARYWDFLT
  2
AcDbDictionaryWithDefault
  3
ObjectDBX Classes
 90
        0
280
     0
281
     0
  0
CLASS
  1
ACDBPLACEHOLDER
  2
AcDbPlaceHolder
  3
ObjectDBX Classes
 90
        0
280
     0
281
     0
  0
CLASS
  1
VBA_PROJECT
  2
AcDbVbaProject
  3
acad
 90
    32768
280
     0
281
     0
  0
CLASS
  1
WIPEOUT
  2
AcDbWipeout
  3
"WipeOut|Product Desc: Object Enabler for WipeOut entity^I^I^I^I^I^I|Company: Autodesk, Inc.^I^I^I^I^I^I|WEB Address: www.autodesk.com"
 90
    32895
280
     0
281
     1
  0
CLASS
  1
WIPEOUTVARIABLES
  2
AcDbWipeoutVariables
  3
"WipeOut|Product Desc:     WipeOut Dbx Application|Company:          Autodesk, Inc.|WEB Address:      www.autodesk.com"
 90
    32768
280
     0
281
     0
  0
CLASS
  1
RTEXT
  2
RText
  3
RText|AutoCAD Express Tool|expresstools@autodesk.com
 90
    32768
280
     1
281
     1
  0
CLASS
  1
ARCALIGNEDTEXT
  2
AcDbArcAlignedText
  3
ATEXT|AutoCAD Express Tool|expresstools@autodesk.com
 90
    32768
280
     1
281
     1
  0
ENDSEC
  0
SECTION
  2
TABLES
  0
TABLE
  2
VPORT
  5
5E
330
0
100
AcDbSymbolTable
 70
     1
  0
VPORT
  5
5F
330
5E
100
AcDbSymbolTableRecord
100
AcDbViewportTableRecord
  2
*Active
 70
     0
 10
0.0
 20
0.0
 11
1.0
 21
1.0
 12
91.18837065880487
 22
131.5378128717358
 13
0.0
 23
0.0
 14
1.0
 24
1.0
 15
0.0
 25
0.0
 16
0.0
 26
0.0
 36
1.0
 17
0.0
 27
0.0
 37
0.0
 40
43.57158907625272
 41
1.974155069582504
 42
50.0
 43
0.0
 44
0.0
 50
0.0
 51
0.0
 71
     0
 72
   100
 73
     1
 74
     1
 75
     0
 76
     0
 77
     0
 78
     0
281
     0
 65
     0
110
0.0
120
0.0
130
0.0
111
1.0
121
0.0
131
0.0
112
0.0
122
1.0
132
0.0
 79
     0
146
0.0
  0
ENDTAB
  0
TABLE
  2
LTYPE
  5
59
330
0
100
AcDbSymbolTable
 70
     1
  0
LTYPE
  5
5A
330
59
100
AcDbSymbolTableRecord
100
AcDbLinetypeTableRecord
  2
ByBlock
 70
     0
  3

 72
    65
 73
     0
 40
0.0
  0
LTYPE
  5
5B
330
59
100
AcDbSymbolTableRecord
100
AcDbLinetypeTableRecord
  2
ByLayer
 70
     0
  3

 72
    65
 73
     0
 40
0.0
  0
LTYPE
  5
8
330
59
100
AcDbSymbolTableRecord
100
AcDbLinetypeTableRecord
  2
Continuous
 70
     0
  3
Solid line
 72
    65
 73
     0
 40
0.0
  0
ENDTAB
  0
TABLE
  2
LAYER
  5
56
330
0
100
AcDbSymbolTable
 70
     4
  0
LAYER
  5
4
330
56
100
AcDbSymbolTableRecord
100
AcDbLayerTableRecord
  2
0
 70
     0
 62
     7
  6
Continuous
370
    -3
390
5
  0
LAYER
  5
A
330
56
100
AcDbSymbolTableRecord
100
AcDbLayerTableRecord
  2
ADP1DETAIL
 70
     0
 62
     1
  6
Continuous
370
    -3
390
5
  0
LAYER
  5
2D
330
56
100
AcDbSymbolTableRecord
100
AcDbLayerTableRecord
  2
ADPDIM
 70
     0
 62
     3
  6
Continuous
370
    -3
390
5
  0
LAYER
  5
3A
330
56
100
AcDbSymbolTableRecord
100
AcDbLayerTableRecord
  2
Defpoints
 70
     0
 62
     7
  6
Continuous
290
     0
370
    -3
390
5
  0
ENDTAB
  0
TABLE
  2
STYLE
  5
57
330
0
100
AcDbSymbolTable
 70
     2
  0
STYLE
  5
2E
330
57
100
AcDbSymbolTableRecord
100
AcDbTextStyleTableRecord
  2
Standard
 70
     0
 40
0.0
 41
1.0
 50
0.0
 71
     0
 42
0.0
  3
txt
  4

  0
STYLE
  5
4E
330
57
100
AcDbSymbolTableRecord
100
AcDbTextStyleTableRecord
  2
ARIAL_WIDE
 70
     0
 40
0.0
 41
1.25
 50
0.0
 71
     0
 42
0.2
  3
ARIAL.TTF
  4

1001
ACAD
1000
Arial
1071
       34
  0
ENDTAB
  0
TABLE
  2
VIEW
  5
5C
330
0
100
AcDbSymbolTable
 70
     0
  0
ENDTAB
  0
TABLE
  2
UCS
  5
5D
330
0
100
AcDbSymbolTable
 70
     0
  0
ENDTAB
  0
TABLE
  2
APPID
  5
60
330
0
100
AcDbSymbolTable
 70
     1
  0
APPID
  5
3E
330
60
100
AcDbSymbolTableRecord
100
AcDbRegAppTableRecord
  2
ACAD
 70
     0
  0
ENDTAB
  0
TABLE
  2
DIMSTYLE
  5
61
330
0
100
AcDbSymbolTable
 70
     1
100
AcDbDimStyleTable
 71
     1
340
2F
  0
DIMSTYLE
105
2F
102
{ACAD_REACTORS
330
2C
330
3F
102
}
330
61
100
AcDbSymbolTableRecord
100
AcDbDimStyleTableRecord
  2
Standard
 70
     0
340
2E
  0
ENDTAB
  0
TABLE
  2
BLOCK_RECORD
  5
1
330
0
100
AcDbSymbolTable
 70
     2
  0
BLOCK_RECORD
  5
2
330
1
100
AcDbSymbolTableRecord
100
AcDbBlockTableRecord
  2
*MODEL_SPACE
340
50
  0
BLOCK_RECORD
  5
52
330
1
100
AcDbSymbolTableRecord
100
AcDbBlockTableRecord
  2
*PAPER_SPACE
340
55
  0
BLOCK_RECORD
  5
30
330
1
100
AcDbSymbolTableRecord
100
AcDbBlockTableRecord
  2
*D0
340
0
  0
BLOCK_RECORD
  5
40
330
1
100
AcDbSymbolTableRecord
100
AcDbBlockTableRecord
  2
*D1
340
0
  0
ENDTAB
  0
ENDSEC
  0
SECTION
  2
BLOCKS
  0
BLOCK
  5
3
330
2
100
AcDbEntity
  8
0
100
AcDbBlockBegin
  2
*MODEL_SPACE
 70
     0
 10
0.0
 20
0.0
 30
0.0
  3
*MODEL_SPACE
  1

  0
ENDBLK
  5
4F
330
2
100
AcDbEntity
  8
0
100
AcDbBlockEnd
  0
BLOCK
  5
53
330
52
100
AcDbEntity
 67
     1
  8
0
100
AcDbBlockBegin
  2
*PAPER_SPACE
 70
     0
 10
0.0
 20
0.0
 30
0.0
  3
*PAPER_SPACE
  1

  0
ENDBLK
  5
54
330
52
100
AcDbEntity
 67
     1
  8
0
100
AcDbBlockEnd
  0
BLOCK
  5
31
330
30
100
AcDbEntity
  8
0
370
     0
100
AcDbBlockBegin
  2
*D0
 70
     1
 10
0.0
 20
0.0
 30
0.0
  3
*D0
  1

  0
LINE
  5
32
330
30
100
AcDbEntity
  8
ADPDIM
  6
Continuous
 62
     0
370
     0
100
AcDbLine
 10
90.05847601224633
 20
119.5896721056203
 30
0.0
 11
90.05847601224633
 21
118.9052976702539
 31
0.0
  0
LINE
  5
33
330
30
100
AcDbEntity
  8
ADPDIM
  6
Continuous
 62
     0
370
     0
100
AcDbLine
 10
90.55497739731952
 20
119.6369115474604
 30
0.0
 11
90.55497739731952
 21
118.9052976702539
 31
0.0
  0
LINE
  5
34
330
30
100
AcDbEntity
  8
ADPDIM
  6
Continuous
 62
     0
370
     0
100
AcDbLine
 10
89.87847601224633
 20
119.0852976702539
 30
0.0
 11
89.69847601224634
 21
119.0852976702539
 31
0.0
  0
LINE
  5
35
330
30
100
AcDbEntity
  8
ADPDIM
  6
Continuous
 62
     0
370
     0
100
AcDbLine
 10
90.73497739731953
 20
119.0852976702539
 30
0.0
 11
90.91497739731954
 21
119.0852976702539
 31
0.0
  0
SOLID
  5
36
330
30
100
AcDbEntity
  8
ADPDIM
  6
Continuous
 62
     0
370
     0
100
AcDbTrace
 10
89.87847601224633
 20
119.1152976702539
 30
0.0
 11
89.87847601224633
 21
119.0552976702539
 31
0.0
 12
90.05847601224633
 22
119.0852976702539
 32
0.0
 13
90.05847601224633
 23
119.0852976702539
 33
0.0
  0
SOLID
  5
37
330
30
100
AcDbEntity
  8
ADPDIM
  6
Continuous
 62
     0
370
     0
100
AcDbTrace
 10
90.73497739731953
 20
119.1152976702539
 30
0.0
 11
90.73497739731953
 21
119.0552976702539
 31
0.0
 12
90.55497739731952
 22
119.0852976702539
 32
0.0
 13
90.55497739731952
 23
119.0852976702539
 33
0.0
  0
MTEXT
  5
38
330
30
100
AcDbEntity
  8
ADPDIM
  6
Continuous
 62
     0
370
     0
100
AcDbMText
 10
91.75497739731953
 20
119.0852976702539
 30
0.0
 40
0.5
 41
0.0
 71
     5
 72
     1
  1
\A1;1/2"
 73
     1
 44
1.0
1001
ACAD
1000
MTEXTBEGIN
1070
    73
1070
     1
1070
    44
1040
1.0
1070
    74
1070
     0
1000
MTEXTEND
  0
POINT
  5
39
330
30
100
AcDbEntity
  8
Defpoints
  6
Continuous
 62
     0
370
     0
100
AcDbPoint
 10
90.05847601224633
 20
119.6521721056203
 30
0.0
  0
POINT
  5
3B
330
30
100
AcDbEntity
  8
Defpoints
  6
Continuous
 62
     0
370
     0
100
AcDbPoint
 10
90.55497739731952
 20
119.6994115474604
 30
0.0
  0
POINT
  5
3C
330
30
100
AcDbEntity
  8
Defpoints
  6
Continuous
 62
     0
370
     0
100
AcDbPoint
 10
90.55497739731952
 20
119.0852976702539
 30
0.0
  0
ENDBLK
  5
3D
330
30
100
AcDbEntity
  8
0
370
     0
100
AcDbBlockEnd
  0
BLOCK
  5
41
330
40
100
AcDbEntity
  8
0
370
     0
100
AcDbBlockBegin
  2
*D1
 70
     1
 10
0.0
 20
0.0
 30
0.0
  3
*D1
  1

  0
LINE
  5
42
330
40
100
AcDbEntity
  8
ADPDIM
  6
Continuous
 62
     0
370
     0
100
AcDbLine
 10
90.72865822135117
 20
162.2006498437482
 30
0.0
 11
92.37904097515595
 21
162.2006498437482
 31
0.0
  0
LINE
  5
43
330
40
100
AcDbEntity
  8
ADPDIM
  6
Continuous
 62
     0
370
     0
100
AcDbLine
 10
90.75466584160068
 20
120.2022172702573
 30
0.0
 11
92.37904097515594
 21
120.2022172702573
 31
0.0
  0
LINE
  5
44
330
40
100
AcDbEntity
  8
ADPDIM
  6
Continuous
 62
     0
370
     0
100
AcDbLine
 10
92.19904097515595
 20
162.0206498437481
 30
0.0
 11
92.19904097515593
 21
141.2052117377703
 31
0.0
  0
LINE
  5
45
330
40
100
AcDbEntity
  8
ADPDIM
  6
Continuous
 62
     0
370
     0
100
AcDbLine
 10
92.19904097515593
 20
120.3822172702573
 30
0.0
 11
92.19904097515593
 21
140.5252117377703
 31
0.0
  0
SOLID
  5
46
330
40
100
AcDbEntity
  8
ADPDIM
  6
Continuous
 62
     0
370
     0
100
AcDbTrace
 10
92.16904097515595
 20
162.0206498437481
 30
0.0
 11
92.22904097515595
 21
162.0206498437481
 31
0.0
 12
92.19904097515595
 22
162.2006498437482
 32
0.0
 13
92.19904097515595
 23
162.2006498437482
 33
0.0
  0
SOLID
  5
47
330
40
100
AcDbEntity
  8
ADPDIM
  6
Continuous
 62
     0
370
     0
100
AcDbTrace
 10
92.16904097515593
 20
120.3822172702573
 30
0.0
 11
92.22904097515593
 21
120.3822172702573
 31
0.0
 12
92.19904097515593
 22
120.2022172702573
 32
0.0
 13
92.19904097515593
 23
120.2022172702573
 33
0.0
  0
MTEXT
  5
48
330
40
100
AcDbEntity
  8
ADPDIM
  6
Continuous
 62
     0
370
     0
100
AcDbMText
 10
92.19904097515593
 20
140.8652117377704
 30
0.0
 40
0.5
 41
0.0
 71
     5
 72
     1
  1
\A1;42"
 73
     1
 44
1.0
1001
ACAD
1000
MTEXTBEGIN
1070
    73
1070
     1
1070
    44
1040
1.0
1070
    74
1070
     0
1000
MTEXTEND
  0
POINT
  5
49
330
40
100
AcDbEntity
  8
Defpoints
  6
Continuous
 62
     0
370
     0
100
AcDbPoint
 10
90.66615822135117
 20
162.2006498437482
 30
0.0
  0
POINT
  5
4A
330
40
100
AcDbEntity
  8
Defpoints
  6
Continuous
 62
     0
370
     0
100
AcDbPoint
 10
90.69216584160068
 20
120.2022172702573
 30
0.0
  0
POINT
  5
4B
330
40
100
AcDbEntity
  8
Defpoints
  6
Continuous
 62
     0
370
     0
100
AcDbPoint
 10
92.19904097515593
 20
120.2022172702573
 30
0.0
  0
ENDBLK
  5
4C
330
40
100
AcDbEntity
  8
0
370
     0
100
AcDbBlockEnd
  0
ENDSEC
  0
SECTION
  2
ENTITIES
  0
SPLINE
  5
9
330
2
100
AcDbEntity
  8
ADP1DETAIL
 62
     7
100
AcDbSpline
210
0.0
220
0.0
230
1.0
 70
    11
 71
     3
 72
    29
 73
    25
 74
     0
 42
0.0000000001
 43
0.0000000001
 40
0.0
 40
0.0
 40
0.0
 40
0.0
 40
1.0
 40
1.0
 40
1.0
 40
2.0
 40
2.0
 40
2.0
 40
3.0
 40
3.0
 40
3.0
 40
4.0
 40
4.0
 40
4.0
 40
5.0
 40
5.0
 40
5.0
 40
6.0
 40
6.0
 40
6.0
 40
7.0
 40
7.0
 40
7.0
 40
8.0
 40
8.0
 40
8.0
 40
8.0
 10
90.63610887439443
 20
131.4365939670138
 30
0.0
 10
90.63610887439443
 20
131.4365939670138
 30
0.0
 10
90.42079040651248
 20
131.2243760850694
 30
0.0
 10
90.56290059531455
 20
130.9646158854166
 30
0.0
 10
90.70518303889095
 20
130.7052001953125
 30
0.0
 10
91.26104919557498
 20
130.6039143880208
 30
0.0
 10
91.26104919557498
 20
130.6039143880208
 30
0.0
 10
91.26104919557498
 20
130.6039143880208
 30
0.0
 10
90.29039354236317
 20
130.6039143880208
 30
0.0
 10
90.29039354236317
 20
130.6039143880208
 30
0.0
 10
90.29039354236317
 20
130.6039143880208
 30
0.0
 10
89.31973788915136
 20
130.6039143880208
 30
0.0
 10
89.31973788915136
 20
130.6039143880208
 30
0.0
 10
89.31973788915136
 20
130.6039143880208
 30
0.0
 10
89.87560404583538
 20
130.7052001953125
 30
0.0
 10
90.01788648941177
 20
130.9646158854166
 30
0.0
 10
90.16016893298816
 20
131.2243760850694
 30
0.0
 10
89.94467821033193
 20
131.4365939670138
 30
0.0
 10
89.94467821033193
 20
131.4365939670138
 30
0.0
 10
89.94467821033193
 20
131.4365939670138
 30
0.0
 10
90.29056579713747
 20
131.4365939670138
 30
0.0
 10
90.29056579713747
 20
131.4365939670138
 30
0.0
 10
90.29056579713747
 20
131.4365939670138
 30
0.0
 10
90.63610887439443
 20
131.4365939670138
 30
0.0
 10
90.63610887439443
 20
131.4365939670138
 30
0.0
  0
SPLINE
  5
B
330
2
100
AcDbEntity
  8
ADP1DETAIL
 62
     7
100
AcDbSpline
210
0.0
220
0.0
230
1.0
 70
    11
 71
     3
 72
    29
 73
    25
 74
     0
 42
0.0000000001
 43
0.0000000001
 40
0.0
 40
0.0
 40
0.0
 40
0.0
 40
1.0
 40
1.0
 40
1.0
 40
2.0
 40
2.0
 40
2.0
 40
3.0
 40
3.0
 40
3.0
 40
4.0
 40
4.0
 40
4.0
 40
5.0
 40
5.0
 40
5.0
 40
6.0
 40
6.0
 40
6.0
 40
7.0
 40
7.0
 40
7.0
 40
8.0
 40
8.0
 40
8.0
 40
8.0
 10
90.63610887439443
 20
129.3574788411458
 30
0.0
 10
90.63610887439443
 20
129.3574788411458
 30
0.0
 10
90.42079040651248
 20
129.5696967230902
 30
0.0
 10
90.56290059531455
 20
129.8287679036458
 30
0.0
 10
90.70518303889095
 20
130.0888726128472
 30
0.0
 10
91.26104919557498
 20
130.1901584201389
 30
0.0
 10
91.26104919557498
 20
130.1901584201389
 30
0.0
 10
91.26104919557498
 20
130.1901584201389
 30
0.0
 10
90.29039354236317
 20
130.1901584201389
 30
0.0
 10
90.29039354236317
 20
130.1901584201389
 30
0.0
 10
90.29039354236317
 20
130.1901584201389
 30
0.0
 10
89.31973788915136
 20
130.1901584201389
 30
0.0
 10
89.31973788915136
 20
130.1901584201389
 30
0.0
 10
89.31973788915136
 20
130.1901584201389
 30
0.0
 10
89.87560404583538
 20
130.0888726128472
 30
0.0
 10
90.01788648941177
 20
129.8287679036458
 30
0.0
 10
90.16016893298816
 20
129.5696967230902
 30
0.0
 10
89.94467821033193
 20
129.3574788411458
 30
0.0
 10
89.94467821033193
 20
129.3574788411458
 30
0.0
 10
89.94467821033193
 20
129.3574788411458
 30
0.0
 10
90.29056579713747
 20
129.3574788411458
 30
0.0
 10
90.29056579713747
 20
129.3574788411458
 30
0.0
 10
90.29056579713747
 20
129.3574788411458
 30
0.0
 10
90.63610887439443
 20
129.3574788411458
 30
0.0
 10
90.63610887439443
 20
129.3574788411458
 30
0.0
  0
POLYLINE
  5
C
330
2
100
AcDbEntity
  8
ADP1DETAIL
 62
     7
100
AcDb2dPolyline
 66
     1
 10
0.0
 20
0.0
 30
0.0
 70
     1
  0
VERTEX
  5
D
330
C
100
AcDbEntity
  8
ADP1DETAIL
 62
     7
100
AcDbVertex
100
AcDb2dVertex
 10
89.88766188003678
 20
131.5795654296874
 30
0.0
  0
VERTEX
  5
E
330
C
100
AcDbEntity
  8
ADP1DETAIL
 62
     7
100
AcDbVertex
100
AcDb2dVertex
 10
89.94467821033193
 20
131.4365939670138
 30
0.0
  0
VERTEX
  5
F
330
C
100
AcDbEntity
  8
ADP1DETAIL
 62
     7
100
AcDbVertex
100
AcDb2dVertex
 10
90.63610887439443
 20
131.4365939670138
 30
0.0
  0
VERTEX
  5
10
330
C
100
AcDbEntity
  8
ADP1DETAIL
 62
     7
100
AcDbVertex
100
AcDb2dVertex
 10
90.69312520468956
 20
131.5795654296874
 30
0.0
  0
SEQEND
  5
11
330
C
100
AcDbEntity
  8
ADP1DETAIL
 62
     7
  0
SPLINE
  5
12
330
2
100
AcDbEntity
  8
ADP1DETAIL
 62
     7
100
AcDbSpline
210
0.0
220
0.0
230
1.0
 70
    11
 71
     3
 72
    29
 73
    25
 74
     0
 42
0.0000000001
 43
0.0000000001
 40
0.0
 40
0.0
 40
0.0
 40
0.0
 40
1.0
 40
1.0
 40
1.0
 40
2.0
 40
2.0
 40
2.0
 40
3.0
 40
3.0
 40
3.0
 40
4.0
 40
4.0
 40
4.0
 40
5.0
 40
5.0
 40
5.0
 40
6.0
 40
6.0
 40
6.0
 40
7.0
 40
7.0
 40
7.0
 40
8.0
 40
8.0
 40
8.0
 40
8.0
 10
89.33300150677288
 20
130.6039143880208
 30
0.0
 10
89.26306606840483
 20
130.6039143880208
 30
0.0
 10
89.2060497381097
 20
130.5384575737847
 30
0.0
 10
89.2060497381097
 20
130.4592203776042
 30
0.0
 10
89.2060497381097
 20
130.4592203776042
 30
0.0
 10
89.2060497381097
 20
130.3345079210069
 30
0.0
 10
89.2060497381097
 20
130.3345079210069
 30
0.0
 10
89.2060497381097
 20
130.2549262152778
 30
0.0
 10
89.26306606840483
 20
130.1901584201389
 30
0.0
 10
89.33300150677288
 20
130.1901584201389
 30
0.0
 10
89.33300150677288
 20
130.1901584201389
 30
0.0
 10
91.24795783272775
 20
130.1901584201389
 30
0.0
 10
91.24795783272775
 20
130.1901584201389
 30
0.0
 10
91.31754876154721
 20
130.1901584201389
 30
0.0
 10
91.37490960139095
 20
130.2549262152778
 30
0.0
 10
91.37490960139095
 20
130.3345079210069
 30
0.0
 10
91.37490960139095
 20
130.3345079210069
 30
0.0
 10
91.37490960139095
 20
130.4592203776042
 30
0.0
 10
91.37490960139095
 20
130.4592203776042
 30
0.0
 10
91.37490960139095
 20
130.5384575737847
 30
0.0
 10
91.31754876154721
 20
130.6039143880208
 30
0.0
 10
91.24795783272775
 20
130.6039143880208
 30
0.0
 10
91.24795783272775
 20
130.6039143880208
 30
0.0
 10
89.33300150677288
 20
130.6039143880208
 30
0.0
 10
89.33300150677288
 20
130.6039143880208
 30
0.0
  0
SPLINE
  5
13
330
2
100
AcDbEntity
  8
ADP1DETAIL
 62
     7
100
AcDbSpline
210
0.0
220
0.0
230
1.0
 70
    11
 71
     3
 72
    41
 73
    37
 74
     0
 42
0.0000000001
 43
0.0000000001
 40
0.0
 40
0.0
 40
0.0
 40
0.0
 40
1.0
 40
1.0
 40
1.0
 40
2.0
 40
2.0
 40
2.0
 40
3.0
 40
3.0
 40
3.0
 40
4.0
 40
4.0
 40
4.0
 40
5.0
 40
5.0
 40
5.0
 40
6.0
 40
6.0
 40
6.0
 40
7.0
 40
7.0
 40
7.0
 40
8.0
 40
8.0
 40
8.0
 40
9.0
 40
9.0
 40
9.0
 40
10.0
 40
10.0
 40
10.0
 40
11.0
 40
11.0
 40
11.0
 40
12.0
 40
12.0
 40
12.0
 40
12.0
 10
90.00341708837011
 20
120.1880126953125
 30
0.0
 10
90.00341708837011
 20
120.1880126953125
 30
0.0
 10
90.58322665868262
 20
120.1880126953125
 30
0.0
 10
90.58322665868262
 20
120.1880126953125
 30
0.0
 10
90.58322665868262
 20
120.1880126953125
 30
0.0
 10
90.80181796727636
 20
129.0591335720486
 30
0.0
 10
90.80181796727636
 20
129.0591335720486
 30
0.0
 10
90.80181796727636
 20
129.0591335720486
 30
0.0
 10
90.79510003107845
 20
129.0598225911458
 30
0.0
 10
90.79510003107845
 20
129.0598225911458
 30
0.0
 10
90.79527228585275
 20
129.0625786675347
 30
0.0
 10
90.79578905017568
 20
129.0653347439236
 30
0.0
 10
90.79578905017568
 20
129.0680908203124
 30
0.0
 10
90.79578905017568
 20
129.1483615451388
 30
0.0
 10
90.73860046510622
 20
129.2141628689236
 30
0.0
 10
90.66780375286665
 20
129.2141628689236
 30
0.0
 10
90.66625345989789
 20
129.2141628689236
 30
0.0
 10
90.66470316692914
 20
129.2134738498264
 30
0.0
 10
90.6631528739604
 20
129.2134738498264
 30
0.0
 10
90.6631528739604
 20
129.2134738498264
 30
0.0
 10
90.66298061918608
 20
129.2141628689236
 30
0.0
 10
90.66298061918608
 20
129.2141628689236
 30
0.0
 10
90.66298061918608
 20
129.2141628689236
 30
0.0
 10
89.90471510269303
 20
129.2141628689236
 30
0.0
 10
89.90471510269303
 20
129.2141628689236
 30
0.0
 10
89.90471510269303
 20
129.2141628689236
 30
0.0
 10
89.90471510269303
 20
129.2134738498264
 30
0.0
 10
89.90471510269303
 20
129.2134738498264
 30
0.0
 10
89.83615770251942
 20
129.2107177734375
 30
0.0
 10
89.78138068429025
 20
129.1469835069444
 30
0.0
 10
89.78138068429025
 20
129.0680908203124
 30
0.0
 10
89.78138068429025
 20
129.0560329861111
 30
0.0
 10
89.78310323203331
 20
129.0443196614583
 30
0.0
 10
89.7858593084222
 20
129.0326063368055
 30
0.0
 10
89.7858593084222
 20
129.0326063368055
 30
0.0
 10
90.00341708837011
 20
120.1880126953125
 30
0.0
 10
90.00341708837011
 20
120.1880126953125
 30
0.0
  0
POLYLINE
  5
14
330
2
100
AcDbEntity
  8
ADP1DETAIL
 62
     7
100
AcDb2dPolyline
 66
     1
 10
0.0
 20
0.0
 30
0.0
 70
     1
  0
VERTEX
  5
15
330
14
100
AcDbEntity
  8
ADP1DETAIL
 62
     7
100
AcDbVertex
100
AcDb2dVertex
 10
89.88766188003678
 20
129.2141628689236
 30
0.0
  0
VERTEX
  5
16
330
14
100
AcDbEntity
  8
ADP1DETAIL
 62
     7
100
AcDbVertex
100
AcDb2dVertex
 10
89.94467821033193
 20
129.3574788411458
 30
0.0
  0
VERTEX
  5
17
330
14
100
AcDbEntity
  8
ADP1DETAIL
 62
     7
100
AcDbVertex
100
AcDb2dVertex
 10
90.63610887439443
 20
129.3574788411458
 30
0.0
  0
VERTEX
  5
18
330
14
100
AcDbEntity
  8
ADP1DETAIL
 62
     7
100
AcDbVertex
100
AcDb2dVertex
 10
90.69312520468956
 20
129.2141628689236
 30
0.0
  0
SEQEND
  5
19
330
14
100
AcDbEntity
  8
ADP1DETAIL
 62
     7
  0
SPLINE
  5
1A
330
2
100
AcDbEntity
  8
ADP1DETAIL
 62
     7
100
AcDbSpline
210
0.0
220
0.0
230
1.0
 70
    11
 71
     3
 72
    29
 73
    25
 74
     0
 42
0.0000000001
 43
0.0000000001
 40
0.0
 40
0.0
 40
0.0
 40
0.0
 40
1.0
 40
1.0
 40
1.0
 40
2.0
 40
2.0
 40
2.0
 40
3.0
 40
3.0
 40
3.0
 40
4.0
 40
4.0
 40
4.0
 40
5.0
 40
5.0
 40
5.0
 40
6.0
 40
6.0
 40
6.0
 40
7.0
 40
7.0
 40
7.0
 40
8.0
 40
8.0
 40
8.0
 40
8.0
 10
89.94450595555761
 20
150.9082736545138
 30
0.0
 10
89.94450595555761
 20
150.9082736545138
 30
0.0
 10
90.15999667821388
 20
151.120319281684
 30
0.0
 10
90.01788648941177
 20
151.3799072265625
 30
0.0
 10
89.87560404583538
 20
151.6394951714409
 30
0.0
 10
89.31973788915136
 20
151.7409532335069
 30
0.0
 10
89.31973788915136
 20
151.7409532335069
 30
0.0
 10
89.31973788915136
 20
151.7409532335069
 30
0.0
 10
90.29039354236317
 20
151.7409532335069
 30
0.0
 10
90.29039354236317
 20
151.7409532335069
 30
0.0
 10
90.29039354236317
 20
151.7409532335069
 30
0.0
 10
91.26104919557498
 20
151.7409532335069
 30
0.0
 10
91.26104919557498
 20
151.7409532335069
 30
0.0
 10
91.26104919557498
 20
151.7409532335069
 30
0.0
 10
90.70518303889095
 20
151.6394951714409
 30
0.0
 10
90.56290059531455
 20
151.3799072265625
 30
0.0
 10
90.42079040651248
 20
151.120319281684
 30
0.0
 10
90.63610887439443
 20
150.9082736545138
 30
0.0
 10
90.63610887439443
 20
150.9082736545138
 30
0.0
 10
90.63610887439443
 20
150.9082736545138
 30
0.0
 10
90.29004903281457
 20
150.9082736545138
 30
0.0
 10
90.29004903281457
 20
150.9082736545138
 30
0.0
 10
90.29004903281457
 20
150.9082736545138
 30
0.0
 10
89.94450595555761
 20
150.9082736545138
 30
0.0
 10
89.94450595555761
 20
150.9082736545138
 30
0.0
  0
SPLINE
  5
1B
330
2
100
AcDbEntity
  8
ADP1DETAIL
 62
     7
100
AcDbSpline
210
0.0
220
0.0
230
1.0
 70
    11
 71
     3
 72
    29
 73
    25
 74
     0
 42
0.0000000001
 43
0.0000000001
 40
0.0
 40
0.0
 40
0.0
 40
0.0
 40
1.0
 40
1.0
 40
1.0
 40
2.0
 40
2.0
 40
2.0
 40
3.0
 40
3.0
 40
3.0
 40
4.0
 40
4.0
 40
4.0
 40
5.0
 40
5.0
 40
5.0
 40
6.0
 40
6.0
 40
6.0
 40
7.0
 40
7.0
 40
7.0
 40
8.0
 40
8.0
 40
8.0
 40
8.0
 10
89.94450595555761
 20
152.9875610351562
 30
0.0
 10
89.94450595555761
 20
152.9875610351562
 30
0.0
 10
90.15999667821388
 20
152.7751708984375
 30
0.0
 10
90.01788648941177
 20
152.5157552083333
 30
0.0
 10
89.87560404583538
 20
152.2559950086805
 30
0.0
 10
89.31973788915136
 20
152.1547092013888
 30
0.0
 10
89.31973788915136
 20
152.1547092013888
 30
0.0
 10
89.31973788915136
 20
152.1547092013888
 30
0.0
 10
90.29039354236317
 20
152.1547092013888
 30
0.0
 10
90.29039354236317
 20
152.1547092013888
 30
0.0
 10
90.29039354236317
 20
152.1547092013888
 30
0.0
 10
91.26104919557498
 20
152.1547092013888
 30
0.0
 10
91.26104919557498
 20
152.1547092013888
 30
0.0
 10
91.26104919557498
 20
152.1547092013888
 30
0.0
 10
90.70518303889095
 20
152.2559950086805
 30
0.0
 10
90.56290059531455
 20
152.5157552083333
 30
0.0
 10
90.42079040651248
 20
152.7751708984375
 30
0.0
 10
90.63610887439443
 20
152.9875610351562
 30
0.0
 10
90.63610887439443
 20
152.9875610351562
 30
0.0
 10
90.63610887439443
 20
152.9875610351562
 30
0.0
 10
90.29004903281457
 20
152.9875610351562
 30
0.0
 10
90.29004903281457
 20
152.9875610351562
 30
0.0
 10
90.29004903281457
 20
152.9875610351562
 30
0.0
 10
89.94450595555761
 20
152.9875610351562
 30
0.0
 10
89.94450595555761
 20
152.9875610351562
 30
0.0
  0
SPLINE
  5
1C
330
2
100
AcDbEntity
  8
ADP1DETAIL
 62
     7
100
AcDbSpline
210
0.0
220
0.0
230
1.0
 70
    11
 71
     3
 72
    71
 73
    67
 74
     0
 42
0.0000000001
 43
0.0000000001
 40
0.0
 40
0.0
 40
0.0
 40
0.0
 40
1.0
 40
1.0
 40
1.0
 40
2.0
 40
2.0
 40
2.0
 40
3.0
 40
3.0
 40
3.0
 40
4.0
 40
4.0
 40
4.0
 40
5.0
 40
5.0
 40
5.0
 40
6.0
 40
6.0
 40
6.0
 40
7.0
 40
7.0
 40
7.0
 40
8.0
 40
8.0
 40
8.0
 40
9.0
 40
9.0
 40
9.0
 40
10.0
 40
10.0
 40
10.0
 40
11.0
 40
11.0
 40
11.0
 40
12.0
 40
12.0
 40
12.0
 40
13.0
 40
13.0
 40
13.0
 40
14.0
 40
14.0
 40
14.0
 40
15.0
 40
15.0
 40
15.0
 40
16.0
 40
16.0
 40
16.0
 40
17.0
 40
17.0
 40
17.0
 40
18.0
 40
18.0
 40
18.0
 40
19.0
 40
19.0
 40
19.0
 40
20.0
 40
20.0
 40
20.0
 40
21.0
 40
21.0
 40
21.0
 40
22.0
 40
22.0
 40
22.0
 40
22.0
 10
90.80181796727636
 20
131.7345947265625
 30
0.0
 10
90.80181796727636
 20
131.7345947265625
 30
0.0
 10
90.56927402196386
 20
141.1765679253472
 30
0.0
 10
90.56927402196386
 20
141.1765679253472
 30
0.0
 10
90.56927402196386
 20
141.1765679253472
 30
0.0
 10
90.79510003107845
 20
150.5837456597222
 30
0.0
 10
90.79510003107845
 20
150.5837456597222
 30
0.0
 10
90.79768385269302
 20
150.5952867296007
 30
0.0
 10
90.79940640043608
 20
150.6066555447048
 30
0.0
 10
90.79940640043608
 20
150.6188856336805
 30
0.0
 10
90.79940640043608
 20
150.6979505750868
 30
0.0
 10
90.74462938220692
 20
150.7616848415798
 30
0.0
 10
90.67607198203331
 20
150.7647854275173
 30
0.0
 10
90.67607198203331
 20
150.7647854275173
 30
0.0
 10
90.67607198203331
 20
150.7653021918403
 30
0.0
 10
90.67607198203331
 20
150.7653021918403
 30
0.0
 10
90.67607198203331
 20
150.7653021918403
 30
0.0
 10
89.91780646554024
 20
150.7653021918403
 30
0.0
 10
89.91780646554024
 20
150.7653021918403
 30
0.0
 10
89.91780646554024
 20
150.7653021918403
 30
0.0
 10
89.91763421076596
 20
150.7647854275173
 30
0.0
 10
89.91763421076596
 20
150.7647854275173
 30
0.0
 10
89.91608391779719
 20
150.7647854275173
 30
0.0
 10
89.91453362482845
 20
150.7653021918403
 30
0.0
 10
89.91298333185971
 20
150.7653021918403
 30
0.0
 10
89.84235887439442
 20
150.7653021918403
 30
0.0
 10
89.78499803455067
 20
150.6998453776041
 30
0.0
 10
89.78499803455067
 20
150.6188856336805
 30
0.0
 10
89.78499803455067
 20
150.6161295572916
 30
0.0
 10
89.78568705364789
 20
150.613545735677
 30
0.0
 10
89.7858593084222
 20
150.6106174045138
 30
0.0
 10
89.7858593084222
 20
150.6106174045138
 30
0.0
 10
89.77914137222429
 20
150.6101006401909
 30
0.0
 10
89.77914137222429
 20
150.6101006401909
 30
0.0
 10
89.77914137222429
 20
150.6101006401909
 30
0.0
 10
90.01134080798818
 20
141.1765679253472
 30
0.0
 10
90.01134080798818
 20
141.1765679253472
 30
0.0
 10
90.01134080798818
 20
141.1765679253472
 30
0.0
 10
89.7858593084222
 20
131.7607774522569
 30
0.0
 10
89.7858593084222
 20
131.7607774522569
 30
0.0
 10
89.78310323203331
 20
131.7494086371527
 30
0.0
 10
89.78138068429025
 20
131.7380398220486
 30
0.0
 10
89.78138068429025
 20
131.7259819878472
 30
0.0
 10
89.78138068429025
 20
131.6467447916666
 30
0.0
 10
89.83615770251942
 20
131.5830105251736
 30
0.0
 10
89.90471510269303
 20
131.5799099392361
 30
0.0
 10
89.90471510269303
 20
131.5799099392361
 30
0.0
 10
89.90471510269303
 20
131.5795654296874
 30
0.0
 10
89.90471510269303
 20
131.5795654296874
 30
0.0
 10
89.90471510269303
 20
131.5795654296874
 30
0.0
 10
90.66298061918608
 20
131.5795654296874
 30
0.0
 10
90.66298061918608
 20
131.5795654296874
 30
0.0
 10
90.66298061918608
 20
131.5795654296874
 30
0.0
 10
90.6631528739604
 20
131.5799099392361
 30
0.0
 10
90.6631528739604
 20
131.5799099392361
 30
0.0
 10
90.66470316692914
 20
131.5799099392361
 30
0.0
 10
90.66625345989789
 20
131.5795654296874
 30
0.0
 10
90.66780375286665
 20
131.5795654296874
 30
0.0
 10
90.73860046510622
 20
131.5795654296874
 30
0.0
 10
90.79578905017568
 20
131.644677734375
 30
0.0
 10
90.79578905017568
 20
131.7259819878472
 30
0.0
 10
90.79578905017568
 20
131.7287380642361
 30
0.0
 10
90.79527228585275
 20
131.731494140625
 30
0.0
 10
90.79510003107845
 20
131.7342502170139
 30
0.0
 10
90.79510003107845
 20
131.7342502170139
 30
0.0
 10
90.80181796727636
 20
131.7345947265625
 30
0.0
 10
90.80181796727636
 20
131.7345947265625
 30
0.0
  0
POLYLINE
  5
1D
330
2
100
AcDbEntity
  8
ADP1DETAIL
 62
     7
100
AcDb2dPolyline
 66
     1
 10
0.0
 20
0.0
 30
0.0
 70
     1
  0
VERTEX
  5
1E
330
1D
100
AcDbEntity
  8
ADP1DETAIL
 62
     7
100
AcDbVertex
100
AcDb2dVertex
 10
90.69312520468956
 20
150.7653021918403
 30
0.0
  0
VERTEX
  5
1F
330
1D
100
AcDbEntity
  8
ADP1DETAIL
 62
     7
100
AcDbVertex
100
AcDb2dVertex
 10
90.63610887439443
 20
150.9082736545138
 30
0.0
  0
VERTEX
  5
20
330
1D
100
AcDbEntity
  8
ADP1DETAIL
 62
     7
100
AcDbVertex
100
AcDb2dVertex
 10
89.94450595555761
 20
150.9082736545138
 30
0.0
  0
VERTEX
  5
21
330
1D
100
AcDbEntity
  8
ADP1DETAIL
 62
     7
100
AcDbVertex
100
AcDb2dVertex
 10
89.88766188003678
 20
150.7653021918403
 30
0.0
  0
SEQEND
  5
22
330
1D
100
AcDbEntity
  8
ADP1DETAIL
 62
     7
  0
SPLINE
  5
23
330
2
100
AcDbEntity
  8
ADP1DETAIL
 62
     7
100
AcDbSpline
210
0.0
220
0.0
230
1.0
 70
    11
 71
     3
 72
    29
 73
    25
 74
     0
 42
0.0000000001
 43
0.0000000001
 40
0.0
 40
0.0
 40
0.0
 40
0.0
 40
1.0
 40
1.0
 40
1.0
 40
2.0
 40
2.0
 40
2.0
 40
3.0
 40
3.0
 40
3.0
 40
4.0
 40
4.0
 40
4.0
 40
5.0
 40
5.0
 40
5.0
 40
6.0
 40
6.0
 40
6.0
 40
7.0
 40
7.0
 40
7.0
 40
8.0
 40
8.0
 40
8.0
 40
8.0
 10
91.24778557795345
 20
151.7409532335069
 30
0.0
 10
91.31772101632149
 20
151.7409532335069
 30
0.0
 10
91.37473734661664
 20
151.8062377929687
 30
0.0
 10
91.37473734661664
 20
151.8854749891493
 30
0.0
 10
91.37473734661664
 20
151.8854749891493
 30
0.0
 10
91.37473734661664
 20
152.0100151909722
 30
0.0
 10
91.37473734661664
 20
152.0100151909722
 30
0.0
 10
91.37473734661664
 20
152.0897691514756
 30
0.0
 10
91.31772101632149
 20
152.1547092013888
 30
0.0
 10
91.24778557795345
 20
152.1547092013888
 30
0.0
 10
91.24778557795345
 20
152.1547092013888
 30
0.0
 10
89.33300150677288
 20
152.1547092013888
 30
0.0
 10
89.33300150677288
 20
152.1547092013888
 30
0.0
 10
89.26323832317914
 20
152.1547092013888
 30
0.0
 10
89.2058774833354
 20
152.0897691514756
 30
0.0
 10
89.2058774833354
 20
152.0100151909722
 30
0.0
 10
89.2058774833354
 20
152.0100151909722
 30
0.0
 10
89.2058774833354
 20
151.8854749891493
 30
0.0
 10
89.2058774833354
 20
151.8854749891493
 30
0.0
 10
89.2058774833354
 20
151.8062377929687
 30
0.0
 10
89.26323832317914
 20
151.7409532335069
 30
0.0
 10
89.33300150677288
 20
151.7409532335069
 30
0.0
 10
89.33300150677288
 20
151.7409532335069
 30
0.0
 10
91.24778557795345
 20
151.7409532335069
 30
0.0
 10
91.24778557795345
 20
151.7409532335069
 30
0.0
  0
SPLINE
  5
24
330
2
100
AcDbEntity
  8
ADP1DETAIL
 62
     7
100
AcDbSpline
210
0.0
220
0.0
230
1.0
 70
    11
 71
     3
 72
    41
 73
    37
 74
     0
 42
0.0000000001
 43
0.0000000001
 40
0.0
 40
0.0
 40
0.0
 40
0.0
 40
1.0
 40
1.0
 40
1.0
 40
2.0
 40
2.0
 40
2.0
 40
3.0
 40
3.0
 40
3.0
 40
4.0
 40
4.0
 40
4.0
 40
5.0
 40
5.0
 40
5.0
 40
6.0
 40
6.0
 40
6.0
 40
7.0
 40
7.0
 40
7.0
 40
8.0
 40
8.0
 40
8.0
 40
9.0
 40
9.0
 40
9.0
 40
10.0
 40
10.0
 40
10.0
 40
11.0
 40
11.0
 40
11.0
 40
12.0
 40
12.0
 40
12.0
 40
12.0
 10
90.57995381797082
 20
162.1718410915798
 30
0.0
 10
90.57995381797082
 20
162.1718410915798
 30
0.0
 10
89.99480434965484
 20
162.1718410915798
 30
0.0
 10
89.99480434965484
 20
162.1718410915798
 30
0.0
 10
89.99480434965484
 20
162.1718410915798
 30
0.0
 10
89.77914137222429
 20
153.2855617947048
 30
0.0
 10
89.77914137222429
 20
153.2855617947048
 30
0.0
 10
89.77914137222429
 20
153.2855617947048
 30
0.0
 10
89.7858593084222
 20
153.2850450303819
 30
0.0
 10
89.7858593084222
 20
153.2850450303819
 30
0.0
 10
89.78568705364789
 20
153.2821166992187
 30
0.0
 10
89.78499803455067
 20
153.2795328776041
 30
0.0
 10
89.78499803455067
 20
153.2766045464409
 30
0.0
 10
89.78499803455067
 20
153.1961615668402
 30
0.0
 10
89.84235887439442
 20
153.1305324978298
 30
0.0
 10
89.91298333185971
 20
153.1305324978298
 30
0.0
 10
89.91453362482845
 20
153.1305324978298
 30
0.0
 10
89.91608391779719
 20
153.131221516927
 30
0.0
 10
89.91763421076596
 20
153.131221516927
 30
0.0
 10
89.91763421076596
 20
153.131221516927
 30
0.0
 10
89.91780646554024
 20
153.1305324978298
 30
0.0
 10
89.91780646554024
 20
153.1305324978298
 30
0.0
 10
89.91780646554024
 20
153.1305324978298
 30
0.0
 10
90.67607198203331
 20
153.1305324978298
 30
0.0
 10
90.67607198203331
 20
153.1305324978298
 30
0.0
 10
90.67607198203331
 20
153.1305324978298
 30
0.0
 10
90.67607198203331
 20
153.131221516927
 30
0.0
 10
90.67607198203331
 20
153.131221516927
 30
0.0
 10
90.74462938220692
 20
153.1341498480902
 30
0.0
 10
90.79940640043608
 20
153.1978841145833
 30
0.0
 10
90.79940640043608
 20
153.2766045464409
 30
0.0
 10
90.79940640043608
 20
153.2888346354166
 30
0.0
 10
90.79768385269302
 20
153.3005479600694
 30
0.0
 10
90.79510003107845
 20
153.3119167751736
 30
0.0
 10
90.79510003107845
 20
153.3119167751736
 30
0.0
 10
90.57995381797082
 20
162.1718410915798
 30
0.0
 10
90.57995381797082
 20
162.1718410915798
 30
0.0
  0
POLYLINE
  5
25
330
2
100
AcDbEntity
  8
ADP1DETAIL
 62
     7
100
AcDb2dPolyline
 66
     1
 10
0.0
 20
0.0
 30
0.0
 70
     1
  0
VERTEX
  5
26
330
25
100
AcDbEntity
  8
ADP1DETAIL
 62
     7
100
AcDbVertex
100
AcDb2dVertex
 10
90.69312520468956
 20
153.1305324978298
 30
0.0
  0
VERTEX
  5
27
330
25
100
AcDbEntity
  8
ADP1DETAIL
 62
     7
100
AcDbVertex
100
AcDb2dVertex
 10
90.63610887439443
 20
152.9875610351562
 30
0.0
  0
VERTEX
  5
28
330
25
100
AcDbEntity
  8
ADP1DETAIL
 62
     7
100
AcDbVertex
100
AcDb2dVertex
 10
89.94450595555761
 20
152.9875610351562
 30
0.0
  0
VERTEX
  5
29
330
25
100
AcDbEntity
  8
ADP1DETAIL
 62
     7
100
AcDbVertex
100
AcDb2dVertex
 10
89.88766188003678
 20
153.1305324978298
 30
0.0
  0
SEQEND
  5
2A
330
25
100
AcDbEntity
  8
ADP1DETAIL
 62
     7
  0
CIRCLE
  5
2B
330
2
100
AcDbEntity
  8
ADP1DETAIL
 62
     7
100
AcDbCircle
 10
90.27127326241524
 20
118.4115492078993
 30
0.0
 40
0.2640665690104166
  0
DIMENSION
  5
2C
330
2
100
AcDbEntity
  8
ADPDIM
  6
Continuous
 62
     3
370
     0
100
AcDbDimension
  2
*D0
 10
90.55497739731952
 20
119.0852976702539
 30
0.0
 11
91.75497739731953
 21
119.0852976702539
 31
0.0
 70
   128
 71
     5
 42
0.4965013850732021
  3
Standard
100
AcDbAlignedDimension
 13
90.05847601224633
 23
119.6521721056203
 33
0.0
 14
90.55497739731952
 24
119.6994115474604
 34
0.0
100
AcDbRotatedDimension
1001
ACAD
1000
DSTYLE
1002
{
1070
   276
1070
     2
1070
     3
1000
"
1070
   277
1070
     5
1070
   140
1040
0.5
1070
   278
1070
     0
1070
   371
1070
     0
1070
   372
1070
     0
1002
}
  0
DIMENSION
  5
3F
330
2
100
AcDbEntity
  8
ADPDIM
  6
Continuous
 62
     3
370
     0
100
AcDbDimension
  2
*D1
 10
92.19904097515593
 20
120.2022172702573
 30
0.0
 11
92.19904097515593
 21
140.8652117377704
 31
0.0
 70
   128
 71
     5
 42
41.99843257349091
  3
Standard
100
AcDbAlignedDimension
 13
90.66615822135117
 23
162.2006498437482
 33
0.0
 14
90.69216584160068
 24
120.2022172702573
 34
0.0
 50
90.0
100
AcDbRotatedDimension
1001
ACAD
1000
DSTYLE
1002
{
1070
   276
1070
     2
1070
     3
1000
"
1070
   277
1070
     5
1070
   140
1040
0.5
1070
   278
1070
     0
1070
   371
1070
     0
1070
   372
1070
     0
1002
}
  0
TEXT
  5
4D
330
2
100
AcDbEntity
  8
ADPDIM
100
AcDbText
 10
53.10160626001046
 20
111.6714811628976
 30
0.0
 40
0.75
  1
J U L I U S  B L U M  &  C O . ,  I N C .      ( 8 0 0 )  5 2 6 - 6 2 9 3        W W W . J U L I U S B L U M . C O M        P A R T  N o .  3 2 7 D L
 41
1.25
  7
ARIAL_WIDE
 72
     1
 11
92.91082351785494
 21
112.4214811628976
 31
0.0
100
AcDbText
 73
     3
  0
ENDSEC
  0
SECTION
  2
OBJECTS
  0
DICTIONARY
  5
7
330
0
100
AcDbDictionary
281
     1
  3
ACAD_COLOR
350
67
  3
ACAD_GROUP
350
63
  3
ACAD_LAYOUT
350
51
  3
ACAD_MATERIAL
350
66
  3
ACAD_MLINESTYLE
350
64
  3
ACAD_PLOTSETTINGS
350
65
  3
ACAD_PLOTSTYLENAME
350
6
  3
ACDBHEADERROUNDTRIPXREC
350
6D
  3
AcDbVariableDictionary
350
69
  0
DICTIONARY
  5
67
102
{ACAD_REACTORS
330
7
102
}
330
7
100
AcDbDictionary
281
     1
  0
DICTIONARY
  5
63
102
{ACAD_REACTORS
330
7
102
}
330
7
100
AcDbDictionary
281
     1
  0
DICTIONARY
  5
51
102
{ACAD_REACTORS
330
7
102
}
330
7
100
AcDbDictionary
281
     1
  3
Layout1
350
55
  3
Model
350
50
  0
DICTIONARY
  5
66
102
{ACAD_REACTORS
330
7
102
}
330
7
100
AcDbDictionary
281
     1
  0
DICTIONARY
  5
64
102
{ACAD_REACTORS
330
7
102
}
330
7
100
AcDbDictionary
281
     1
  3
Standard
350
68
  0
DICTIONARY
  5
65
102
{ACAD_REACTORS
330
7
102
}
330
7
100
AcDbDictionary
281
     1
  0
ACDBDICTIONARYWDFLT
  5
6
102
{ACAD_REACTORS
330
7
102
}
330
7
100
AcDbDictionary
281
     1
  3
Normal
350
5
100
AcDbDictionaryWithDefault
340
5
  0
DICTIONARY
  5
6D
102
{ACAD_REACTORS
330
7
102
}
330
7
100
AcDbDictionary
281
     1
  3
COLORDICT
350
6F
  3
MATERIALDICT
350
6E
  0
DICTIONARY
  5
69
102
{ACAD_REACTORS
330
7
102
}
330
7
100
AcDbDictionary
281
     1
  3
DIMASSOC
350
6B
  3
HIDETEXT
350
6A
  3
PROJECTNAME
350
6C
  0
LAYOUT
  5
55
102
{ACAD_XDICTIONARY
360
73
102
}
102
{ACAD_REACTORS
330
51
102
}
330
51
100
AcDbPlotSettings
  1

  2

  4

  6

 40
0.0
 41
0.0
 42
0.0
 43
0.0
 44
0.0
 45
0.0
 46
0.0
 47
0.0
 48
0.0
 49
0.0
140
0.0
141
0.0
142
1.0
143
1.0
 70
     0
 72
     0
 73
     0
 74
     0
  7

 75
     0
147
1.0
148
0.0
149
0.0
100
AcDbLayout
  1
Layout1
 70
     0
 71
     1
 10
0.0
 20
0.0
 11
12.0
 21
9.0
 12
0.0
 22
0.0
 32
0.0
 14
1.000000000000000E+20
 24
1.000000000000000E+20
 34
1.000000000000000E+20
 15
-1.000000000000000E+20
 25
-1.000000000000000E+20
 35
-1.000000000000000E+20
146
0.0
 13
0.0
 23
0.0
 33
0.0
 16
1.0
 26
0.0
 36
0.0
 17
0.0
 27
1.0
 37
0.0
 76
     0
330
52
  0
LAYOUT
  5
50
102
{ACAD_XDICTIONARY
360
71
102
}
102
{ACAD_REACTORS
330
51
102
}
330
51
100
AcDbPlotSettings
  1

  2

  4

  6

 40
0.0
 41
0.0
 42
0.0
 43
0.0
 44
0.0
 45
0.0
 46
0.0
 47
0.0
 48
0.0
 49
0.0
140
0.0
141
0.0
142
1.0
143
1.0
 70
  1024
 72
     0
 73
     0
 74
     0
  7

 75
     0
147
1.0
148
0.0
149
0.0
100
AcDbLayout
  1
Model
 70
     0
 71
     0
 10
0.0
 20
0.0
 11
0.0
 21
0.0
 12
0.0
 22
0.0
 32
0.0
 14
0.0
 24
0.0
 34
0.0
 15
0.0
 25
0.0
 35
0.0
146
0.0
 13
0.0
 23
0.0
 33
0.0
 16
0.0
 26
0.0
 36
0.0
 17
0.0
 27
0.0
 37
0.0
 76
     0
330
2
  0
MLINESTYLE
  5
68
102
{ACAD_REACTORS
330
64
102
}
330
64
100
AcDbMlineStyle
  2
STANDARD
 70
     0
  3

 62
     0
 51
90.0
 52
90.0
 71
     2
 49
0.5
 62
   256
  6
BYLAYER
 49
-0.5
 62
   256
  6
BYLAYER
  0
ACDBPLACEHOLDER
  5
5
102
{ACAD_REACTORS
330
6
102
}
330
6
  0
XRECORD
  5
6F
102
{ACAD_REACTORS
330
6D
102
}
330
6D
100
AcDbXrecord
280
     1
340
67
  0
XRECORD
  5
6E
102
{ACAD_REACTORS
330
6D
102
}
330
6D
100
AcDbXrecord
280
     1
340
66
  0
DICTIONARYVAR
  5
6B
102
{ACAD_REACTORS
330
69
102
}
330
69
100
DictionaryVariables
280
     0
  1
1
  0
DICTIONARYVAR
  5
6A
102
{ACAD_REACTORS
330
69
102
}
330
69
100
DictionaryVariables
280
     0
  1
1
  0
DICTIONARYVAR
  5
6C
102
{ACAD_REACTORS
330
69
102
}
330
69
100
DictionaryVariables
280
     0
  1

  0
DICTIONARY
  5
73
330
55
100
AcDbDictionary
280
     1
281
     1
  3
ACAD_XREC_ROUNDTRIP
360
74
  0
DICTIONARY
  5
71
330
50
100
AcDbDictionary
280
     1
281
     1
  3
ACAD_XREC_ROUNDTRIP
360
72
  0
XRECORD
  5
74
102
{ACAD_REACTORS
330
73
102
}
330
73
100
AcDbXrecord
280
     1
102
SHADEPLOT
 70
     0
102
SHADEPLOTRESLEVEL
 70
     2
102
SHADEPLOTCUSTOMDPI
 70
   300
  0
XRECORD
  5
72
102
{ACAD_REACTORS
330
71
102
}
330
71
100
AcDbXrecord
280
     1
102
SHADEPLOT
 70
     0
102
SHADEPLOTRESLEVEL
 70
     2
102
SHADEPLOTCUSTOMDPI
 70
   300
  0
ENDSEC
  0
EOF
