  0
SECTION
  2
HEADER
  9
$ACADVER
  1
AC1015
  9
$ACADMAINTVER
 70
    20
  9
$DWGCODEPAGE
  3
ANSI_1252
  9
$INSBASE
 10
3.434967881829222
 20
8.099368302577662
 30
0.0
  9
$EXTMIN
 10
0.4796286631788105
 20
6.530741598947705
 30
0.0
  9
$EXTMAX
 10
13.34904373821292
 20
10.4444304727255
 30
0.0
  9
$LIMMIN
 10
0.0
 20
0.0
  9
$LIMMAX
 10
36.0
 20
36.0
  9
$ORTHOMODE
 70
     0
  9
$REGENMODE
 70
     1
  9
$FILLMODE
 70
     1
  9
$QTEXTMODE
 70
     0
  9
$MIRRTEXT
 70
     1
  9
$LTSCALE
 40
1.0
  9
$ATTMODE
 70
     1
  9
$TEXTSIZE
 40
0.2
  9
$TRACEWID
 40
0.05
  9
$TEXTSTYLE
  7
STANDARD
  9
$CLAYER
  8
ADP2DETAIL
  9
$CELTYPE
  6
BYLAYER
  9
$CECOLOR
 62
   256
  9
$CELTSCALE
 40
1.0
  9
$DISPSILH
 70
     0
  9
$DIMSCALE
 40
1.0
  9
$DIMASZ
 40
0.125
  9
$DIMEXO
 40
0.0625
  9
$DIMDLI
 40
0.38
  9
$DIMRND
 40
0.0
  9
$DIMDLE
 40
0.0
  9
$DIMEXE
 40
0.18
  9
$DIMTP
 40
0.0
  9
$DIMTM
 40
0.0
  9
$DIMTXT
 40
0.125
  9
$DIMCEN
 40
0.1875
  9
$DIMTSZ
 40
0.125
  9
$DIMTOL
 70
     0
  9
$DIMLIM
 70
     0
  9
$DIMTIH
 70
     0
  9
$DIMTOH
 70
     0
  9
$DIMSE1
 70
     0
  9
$DIMSE2
 70
     0
  9
$DIMTAD
 70
     0
  9
$DIMZIN
 70
     3
  9
$DIMBLK
  1

  9
$DIMASO
 70
     1
  9
$DIMSHO
 70
     1
  9
$DIMPOST
  1

  9
$DIMAPOST
  1

  9
$DIMALT
 70
     0
  9
$DIMALTD
 70
     1
  9
$DIMALTF
 40
25.4
  9
$DIMLFAC
 40
1.0
  9
$DIMTOFL
 70
     0
  9
$DIMTVP
 40
0.0
  9
$DIMTIX
 70
     0
  9
$DIMSOXD
 70
     0
  9
$DIMSAH
 70
     0
  9
$DIMBLK1
  1

  9
$DIMBLK2
  1

  9
$DIMSTYLE
  2
STANDARD
  9
$DIMCLRD
 70
     0
  9
$DIMCLRE
 70
     0
  9
$DIMCLRT
 70
     0
  9
$DIMTFAC
 40
1.0
  9
$DIMGAP
 40
0.125
  9
$DIMJUST
 70
     0
  9
$DIMSD1
 70
     0
  9
$DIMSD2
 70
     0
  9
$DIMTOLJ
 70
     1
  9
$DIMTZIN
 70
     0
  9
$DIMALTZ
 70
     0
  9
$DIMALTTZ
 70
     0
  9
$DIMUPT
 70
     0
  9
$DIMDEC
 70
     4
  9
$DIMTDEC
 70
     4
  9
$DIMALTU
 70
     2
  9
$DIMALTTD
 70
     2
  9
$DIMTXSTY
  7
STANDARD
  9
$DIMAUNIT
 70
     0
  9
$DIMADEC
 70
     0
  9
$DIMALTRND
 40
0.0
  9
$DIMAZIN
 70
     0
  9
$DIMDSEP
 70
    46
  9
$DIMATFIT
 70
     3
  9
$DIMFRAC
 70
     0
  9
$DIMLDRBLK
  1

  9
$DIMLUNIT
 70
     2
  9
$DIMLWD
 70
    -2
  9
$DIMLWE
 70
    -2
  9
$DIMTMOVE
 70
     0
  9
$LUNITS
 70
     5
  9
$LUPREC
 70
     4
  9
$SKETCHINC
 40
0.1
  9
$FILLETRAD
 40
0.062
  9
$AUNITS
 70
     0
  9
$AUPREC
 70
     0
  9
$MENU
  1
acad
  9
$ELEVATION
 40
0.0
  9
$PELEVATION
 40
0.0
  9
$THICKNESS
 40
0.0
  9
$LIMCHECK
 70
     0
  9
$CHAMFERA
 40
0.0
  9
$CHAMFERB
 40
0.0
  9
$CHAMFERC
 40
0.0
  9
$CHAMFERD
 40
0.0
  9
$SKPOLY
 70
     0
  9
$TDCREATE
 40
2450386.497785104
  9
$TDUCREATE
 40
2450386.664451771
  9
$TDUPDATE
 40
2453950.894623380
  9
$TDUUPDATE
 40
2453951.061290046
  9
$TDINDWG
 40
0.0807903935
  9
$TDUSRTIMER
 40
0.0807903935
  9
$USRTIMER
 70
     1
  9
$ANGBASE
 50
0.0
  9
$ANGDIR
 70
     0
  9
$PDMODE
 70
     0
  9
$PDSIZE
 40
0.0
  9
$PLINEWID
 40
0.0
  9
$SPLFRAME
 70
     0
  9
$SPLINETYPE
 70
     6
  9
$SPLINESEGS
 70
     8
  9
$HANDSEED
  5
480
  9
$SURFTAB1
 70
     6
  9
$SURFTAB2
 70
     6
  9
$SURFTYPE
 70
     6
  9
$SURFU
 70
     6
  9
$SURFV
 70
     6
  9
$UCSBASE
  2

  9
$UCSNAME
  2

  9
$UCSORG
 10
0.0
 20
0.0
 30
0.0
  9
$UCSXDIR
 10
1.0
 20
0.0
 30
0.0
  9
$UCSYDIR
 10
0.0
 20
1.0
 30
0.0
  9
$UCSORTHOREF
  2

  9
$UCSORTHOVIEW
 70
     0
  9
$UCSORGTOP
 10
0.0
 20
0.0
 30
0.0
  9
$UCSORGBOTTOM
 10
0.0
 20
0.0
 30
0.0
  9
$UCSORGLEFT
 10
0.0
 20
0.0
 30
0.0
  9
$UCSORGRIGHT
 10
0.0
 20
0.0
 30
0.0
  9
$UCSORGFRONT
 10
0.0
 20
0.0
 30
0.0
  9
$UCSORGBACK
 10
0.0
 20
0.0
 30
0.0
  9
$PUCSBASE
  2

  9
$PUCSNAME
  2

  9
$PUCSORG
 10
0.0
 20
0.0
 30
0.0
  9
$PUCSXDIR
 10
1.0
 20
0.0
 30
0.0
  9
$PUCSYDIR
 10
0.0
 20
1.0
 30
0.0
  9
$PUCSORTHOREF
  2

  9
$PUCSORTHOVIEW
 70
     0
  9
$PUCSORGTOP
 10
0.0
 20
0.0
 30
0.0
  9
$PUCSORGBOTTOM
 10
0.0
 20
0.0
 30
0.0
  9
$PUCSORGLEFT
 10
0.0
 20
0.0
 30
0.0
  9
$PUCSORGRIGHT
 10
0.0
 20
0.0
 30
0.0
  9
$PUCSORGFRONT
 10
0.0
 20
0.0
 30
0.0
  9
$PUCSORGBACK
 10
0.0
 20
0.0
 30
0.0
  9
$USERI1
 70
     0
  9
$USERI2
 70
     0
  9
$USERI3
 70
     0
  9
$USERI4
 70
     0
  9
$USERI5
 70
     0
  9
$USERR1
 40
0.0
  9
$USERR2
 40
0.0
  9
$USERR3
 40
0.0
  9
$USERR4
 40
0.0
  9
$USERR5
 40
0.0
  9
$WORLDVIEW
 70
     1
  9
$SHADEDGE
 70
     3
  9
$SHADEDIF
 70
    70
  9
$TILEMODE
 70
     1
  9
$MAXACTVP
 70
    15
  9
$PINSBASE
 10
4.403525741743744E+99
 20
7.061986388769092E+99
 30
0.0
  9
$PLIMCHECK
 70
     0
  9
$PEXTMIN
 10
1.000000000000000E+20
 20
1.000000000000000E+20
 30
1.000000000000000E+20
  9
$PEXTMAX
 10
-1.000000000000000E+20
 20
-1.000000000000000E+20
 30
-1.000000000000000E+20
  9
$PLIMMIN
 10
0.0
 20
0.0
  9
$PLIMMAX
 10
12.0
 20
9.0
  9
$UNITMODE
 70
     0
  9
$VISRETAIN
 70
     0
  9
$PLINEGEN
 70
     0
  9
$PSLTSCALE
 70
     1
  9
$TREEDEPTH
 70
  3020
  9
$CMLSTYLE
  2
STANDARD
  9
$CMLJUST
 70
     0
  9
$CMLSCALE
 40
1.0
  9
$PROXYGRAPHICS
 70
     1
  9
$MEASUREMENT
 70
     0
  9
$CELWEIGHT
370
    -1
  9
$ENDCAPS
280
     0
  9
$JOINSTYLE
280
     0
  9
$LWDISPLAY
290
     0
  9
$INSUNITS
 70
     0
  9
$HYPERLINKBASE
  1

  9
$STYLESHEET
  1

  9
$XEDIT
290
     1
  9
$CEPSNTYPE
380
     0
  9
$PSTYLEMODE
290
     1
  9
$FINGERPRINTGUID
  2
{05553681-05CA-4AF9-BE69-BD0FF472D81C}
  9
$VERSIONGUID
  2
{04AAAA50-CDC2-4573-AEA7-137A7E31FFFF}
  9
$EXTNAMES
290
     1
  9
$PSVPSCALE
 40
0.0
  9
$OLESTARTUP
290
     0
  0
ENDSEC
  0
SECTION
  2
CLASSES
  0
CLASS
  1
ACDBDICTIONARYWDFLT
  2
AcDbDictionaryWithDefault
  3
ObjectDBX Classes
 90
        0
280
     0
281
     0
  0
CLASS
  1
ACDBPLACEHOLDER
  2
AcDbPlaceHolder
  3
ObjectDBX Classes
 90
        0
280
     0
281
     0
  0
CLASS
  1
LAYOUT
  2
AcDbLayout
  3
ObjectDBX Classes
 90
        0
280
     0
281
     0
  0
CLASS
  1
DICTIONARYVAR
  2
AcDbDictionaryVar
  3
ObjectDBX Classes
 90
        0
280
     0
281
     0
  0
CLASS
  1
MATERIAL
  2
AcDbMaterial
  3
ObjectDBX Classes
 90
     1024
280
     0
281
     0
  0
CLASS
  1
VISUALSTYLE
  2
AcDbVisualStyle
  3
ObjectDBX Classes
 90
     4095
280
     0
281
     0
  0
CLASS
  1
TABLESTYLE
  2
AcDbTableStyle
  3
ObjectDBX Classes
 90
     4095
280
     0
281
     0
  0
ENDSEC
  0
SECTION
  2
TABLES
  0
TABLE
  2
VPORT
  5
8
330
0
100
AcDbSymbolTable
 70
     1
  0
VPORT
  5
3C0
330
8
100
AcDbSymbolTableRecord
100
AcDbViewportTableRecord
  2
*Active
 70
     0
 10
0.0
 20
0.0
 11
1.0
 21
1.0
 12
6.62776273492267
 22
8.176274713347449
 13
0.0
 23
0.0
 14
0.5740882589684922
 24
0.5740882589684922
 15
0.5
 25
0.5
 16
0.0
 26
0.0
 36
1.0
 17
0.0
 27
0.0
 37
0.0
 40
6.526271272242593
 41
1.774011299435028
 42
50.0
 43
0.0
 44
0.0
 50
0.0
 51
0.0
 71
     0
 72
   100
 73
     1
 74
     0
 75
     0
 76
     0
 77
     0
 78
     0
281
     0
 65
     1
110
0.0
120
0.0
130
0.0
111
1.0
121
0.0
131
0.0
112
0.0
122
1.0
132
0.0
 79
     0
146
0.0
  0
ENDTAB
  0
TABLE
  2
LTYPE
  5
5
330
0
100
AcDbSymbolTable
 70
     2
  0
LTYPE
  5
12
330
5
100
AcDbSymbolTableRecord
100
AcDbLinetypeTableRecord
  2
BYBLOCK
 70
     0
  3

 72
    65
 73
     0
 40
0.0
  0
LTYPE
  5
13
330
5
100
AcDbSymbolTableRecord
100
AcDbLinetypeTableRecord
  2
BYLAYER
 70
     0
  3

 72
    65
 73
     0
 40
0.0
  0
LTYPE
  5
14
330
5
100
AcDbSymbolTableRecord
100
AcDbLinetypeTableRecord
  2
CONTINUOUS
 70
     0
  3
Solid line
 72
    65
 73
     0
 40
0.0
  0
LTYPE
  5
12E
330
5
100
AcDbSymbolTableRecord
100
AcDbLinetypeTableRecord
  2
HIDDEN2
 70
     0
  3
_ _ _ _ _ _ _ _ _ _ _ _ _ _ _ _ _ _ _ _ _ _ _ _
 72
    65
 73
     2
 40
0.1875
 49
0.125
 74
     0
 49
-0.0625
 74
     0
  0
ENDTAB
  0
TABLE
  2
LAYER
  5
2
330
0
100
AcDbSymbolTable
 70
     5
  0
LAYER
  5
F
330
2
100
AcDbSymbolTableRecord
100
AcDbLayerTableRecord
  2
0
 70
     0
 62
     7
  6
CONTINUOUS
370
    -3
390
1F0
  0
LAYER
  5
132
330
2
100
AcDbSymbolTableRecord
100
AcDbLayerTableRecord
  2
ADP1DETAIL
 70
     0
 62
     7
  6
CONTINUOUS
370
    -3
390
1F0
  0
LAYER
  5
134
330
2
100
AcDbSymbolTableRecord
100
AcDbLayerTableRecord
  2
DEFPOINTS
 70
     0
 62
     7
  6
CONTINUOUS
290
     0
370
    -3
390
1F0
  0
LAYER
  5
135
330
2
100
AcDbSymbolTableRecord
100
AcDbLayerTableRecord
  2
ADP2DETAIL
 70
     0
 62
     5
  6
CONTINUOUS
370
    -3
390
1F0
  0
LAYER
  5
136
330
2
100
AcDbSymbolTableRecord
100
AcDbLayerTableRecord
  2
ADPDIM
 70
     0
 62
     3
  6
CONTINUOUS
370
    -3
390
1F0
  0
ENDTAB
  0
TABLE
  2
STYLE
  5
3
330
0
100
AcDbSymbolTable
 70
     2
  0
STYLE
  5
10
330
3
100
AcDbSymbolTableRecord
100
AcDbTextStyleTableRecord
  2
STANDARD
 70
     0
 40
0.0
 41
1.0
 50
0.0
 71
     0
 42
0.2
  3
txt
  4

  0
STYLE
  5
1F7
330
3
100
AcDbSymbolTableRecord
100
AcDbTextStyleTableRecord
  2
ARIAL_WIDE
 70
     0
 40
0.0
 41
1.25
 50
0.0
 71
     0
 42
0.2
  3
ARIAL.TTF
  4

1001
ACAD
1000
Arial
1071
       34
  0
ENDTAB
  0
TABLE
  2
VIEW
  5
6
330
0
100
AcDbSymbolTable
 70
     0
  0
ENDTAB
  0
TABLE
  2
UCS
  5
7
330
0
100
AcDbSymbolTable
 70
     0
  0
ENDTAB
  0
TABLE
  2
APPID
  5
9
330
0
100
AcDbSymbolTable
 70
     1
  0
APPID
  5
11
330
9
100
AcDbSymbolTableRecord
100
AcDbRegAppTableRecord
  2
ACAD
 70
     0
  0
ENDTAB
  0
TABLE
  2
DIMSTYLE
  5
A
330
0
100
AcDbSymbolTable
 70
     1
100
AcDbDimStyleTable
 71
     1
340
1EB
  0
DIMSTYLE
105
1EB
102
{ACAD_REACTORS
330
428
102
}
330
A
100
AcDbSymbolTableRecord
100
AcDbDimStyleTableRecord
  2
STANDARD
 70
     0
340
10
  0
ENDTAB
  0
TABLE
  2
BLOCK_RECORD
  5
1
330
0
100
AcDbSymbolTable
 70
     7
  0
BLOCK_RECORD
  5
18
102
{ACAD_XDICTIONARY
360
24C
102
}
330
1
100
AcDbSymbolTableRecord
100
AcDbBlockTableRecord
  2
*MODEL_SPACE
340
1F3
  0
BLOCK_RECORD
  5
15
102
{ACAD_XDICTIONARY
360
24A
102
}
330
1
100
AcDbSymbolTableRecord
100
AcDbBlockTableRecord
  2
*PAPER_SPACE
340
1F4
  0
BLOCK_RECORD
  5
128
330
1
100
AcDbSymbolTableRecord
100
AcDbBlockTableRecord
  2
*D0
340
0
  0
BLOCK_RECORD
  5
129
330
1
100
AcDbSymbolTableRecord
100
AcDbBlockTableRecord
  2
*D1
340
0
  0
BLOCK_RECORD
  5
12A
330
1
100
AcDbSymbolTableRecord
100
AcDbBlockTableRecord
  2
*D2
340
0
  0
BLOCK_RECORD
  5
12B
330
1
100
AcDbSymbolTableRecord
100
AcDbBlockTableRecord
  2
*D3
340
0
  0
BLOCK_RECORD
  5
12C
330
1
100
AcDbSymbolTableRecord
100
AcDbBlockTableRecord
  2
*D4
340
0
  0
BLOCK_RECORD
  5
407
330
1
100
AcDbSymbolTableRecord
100
AcDbBlockTableRecord
  2
*D5
340
0
  0
BLOCK_RECORD
  5
429
330
1
100
AcDbSymbolTableRecord
100
AcDbBlockTableRecord
  2
*D6
340
0
  0
ENDTAB
  0
ENDSEC
  0
SECTION
  2
BLOCKS
  0
BLOCK
  5
139
330
18
100
AcDbEntity
  8
0
100
AcDbBlockBegin
  2
*MODEL_SPACE
 70
     0
 10
0.0
 20
0.0
 30
0.0
  3
*MODEL_SPACE
  1

  0
ENDBLK
  5
13A
330
18
100
AcDbEntity
  8
0
100
AcDbBlockEnd
  0
BLOCK
  5
137
330
15
100
AcDbEntity
 67
     1
  8
0
100
AcDbBlockBegin
  2
*PAPER_SPACE
 70
     0
 10
0.0
 20
0.0
 30
0.0
  3
*PAPER_SPACE
  1

  0
ENDBLK
  5
138
330
15
100
AcDbEntity
 67
     1
  8
0
100
AcDbBlockEnd
  0
BLOCK
  5
13C
330
128
100
AcDbEntity
  8
0
100
AcDbBlockBegin
  2
*D0
 70
     1
 10
0.0
 20
0.0
 30
0.0
  3
*D0
  1

  0
LINE
  5
13D
330
128
100
AcDbEntity
  8
0
  6
ByBlock
 62
     0
100
AcDbLine
 10
5.216967881829223
 20
8.036868302577662
 30
0.0
 11
5.216967881829223
 21
7.646930472725506
 31
0.0
  0
LINE
  5
13E
330
128
100
AcDbEntity
  8
0
  6
ByBlock
 62
     0
100
AcDbLine
 10
5.965164513531082
 20
8.036868302577662
 30
0.0
 11
5.965164513531082
 21
7.646930472725506
 31
0.0
  0
LINE
  5
13F
330
128
100
AcDbEntity
  8
0
  6
ByBlock
 62
     0
100
AcDbLine
 10
5.216967881829223
 20
7.826930472725505
 30
0.0
 11
4.966967881829223
 21
7.826930472725505
 31
0.0
  0
LINE
  5
140
330
128
100
AcDbEntity
  8
0
  6
ByBlock
 62
     0
100
AcDbLine
 10
5.965164513531082
 20
7.826930472725505
 30
0.0
 11
6.215164513531082
 21
7.826930472725505
 31
0.0
  0
LINE
  5
141
330
128
100
AcDbEntity
  8
0
  6
ByBlock
 62
     0
100
AcDbLine
 10
5.091967881829223
 20
7.701930472725505
 30
0.0
 11
5.341967881829223
 21
7.951930472725505
 31
0.0
  0
LINE
  5
142
330
128
100
AcDbEntity
  8
0
  6
ByBlock
 62
     0
100
AcDbLine
 10
5.840164513531082
 20
7.701930472725505
 30
0.0
 11
6.090164513531082
 21
7.951930472725505
 31
0.0
  0
TEXT
  5
143
330
128
100
AcDbEntity
  8
0
  6
ByBlock
 62
     0
100
AcDbText
 10
6.340164513531082
 20
7.764430472725505
 30
0.0
 40
0.125
  1
0.750
 72
     1
 11
6.569331180197749
 21
7.826930472725505
 31
0.0
100
AcDbText
 73
     2
  0
POINT
  5
144
330
128
100
AcDbEntity
  8
DEFPOINTS
  6
ByBlock
 62
     0
100
AcDbPoint
 10
5.216967881829223
 20
8.099368302577662
 30
0.0
  0
POINT
  5
145
330
128
100
AcDbEntity
  8
DEFPOINTS
  6
ByBlock
 62
     0
100
AcDbPoint
 10
5.965164513531082
 20
8.099368302577662
 30
0.0
  0
POINT
  5
146
330
128
100
AcDbEntity
  8
DEFPOINTS
  6
ByBlock
 62
     0
100
AcDbPoint
 10
5.965164513531082
 20
7.826930472725505
 30
0.0
  0
ENDBLK
  5
147
330
128
100
AcDbEntity
  8
0
100
AcDbBlockEnd
  0
BLOCK
  5
148
330
129
100
AcDbEntity
  8
0
100
AcDbBlockBegin
  2
*D1
 70
     1
 10
0.0
 20
0.0
 30
0.0
  3
*D1
  1

  0
LINE
  5
149
330
129
100
AcDbEntity
  8
0
  6
ByBlock
 62
     0
100
AcDbLine
 10
6.090164513531082
 20
9.801969454206549
 30
0.0
 11
6.944005116511487
 21
9.801969454206549
 31
0.0
  0
LINE
  5
14A
330
129
100
AcDbEntity
  8
0
  6
ByBlock
 62
     0
100
AcDbLine
 10
6.277164513531083
 20
8.551969454206549
 30
0.0
 11
6.944005116511487
 21
8.551969454206549
 31
0.0
  0
LINE
  5
14B
330
129
100
AcDbEntity
  8
0
  6
ByBlock
 62
     0
100
AcDbLine
 10
6.764005116511487
 20
9.801969454206549
 30
0.0
 11
6.764005116511487
 21
9.551969454206549
 31
0.0
  0
LINE
  5
14C
330
129
100
AcDbEntity
  8
0
  6
ByBlock
 62
     0
100
AcDbLine
 10
6.764005116511487
 20
8.551969454206549
 30
0.0
 11
6.764005116511487
 21
8.801969454206549
 31
0.0
  0
LINE
  5
14D
330
129
100
AcDbEntity
  8
0
  6
ByBlock
 62
     0
100
AcDbLine
 10
6.889005116511487
 20
9.676969454206549
 30
0.0
 11
6.639005116511487
 21
9.926969454206549
 31
0.0
  0
LINE
  5
14E
330
129
100
AcDbEntity
  8
0
  6
ByBlock
 62
     0
100
AcDbLine
 10
6.889005116511487
 20
8.426969454206549
 30
0.0
 11
6.639005116511487
 21
8.676969454206549
 31
0.0
  0
TEXT
  5
14F
330
129
100
AcDbEntity
  8
0
  6
ByBlock
 62
     0
100
AcDbText
 10
6.826505116511487
 20
8.926969454206549
 30
0.0
 40
0.125
  1
1 1/4
 50
90.0
 72
     1
 11
6.764005116511487
 21
9.176969454206549
 31
0.0
100
AcDbText
 73
     2
  0
POINT
  5
150
330
129
100
AcDbEntity
  8
DEFPOINTS
  6
ByBlock
 62
     0
100
AcDbPoint
 10
6.027664513531082
 20
9.801969454206549
 30
0.0
  0
POINT
  5
151
330
129
100
AcDbEntity
  8
DEFPOINTS
  6
ByBlock
 62
     0
100
AcDbPoint
 10
6.214664513531083
 20
8.551969454206549
 30
0.0
  0
POINT
  5
152
330
129
100
AcDbEntity
  8
DEFPOINTS
  6
ByBlock
 62
     0
100
AcDbPoint
 10
6.764005116511487
 20
8.551969454206549
 30
0.0
  0
ENDBLK
  5
153
330
129
100
AcDbEntity
  8
0
100
AcDbBlockEnd
  0
BLOCK
  5
154
330
12A
100
AcDbEntity
  8
0
100
AcDbBlockBegin
  2
*D2
 70
     1
 10
0.0
 20
0.0
 30
0.0
  3
*D2
  1

  0
LINE
  5
155
330
12A
100
AcDbEntity
  8
0
  6
ByBlock
 62
     0
100
AcDbLine
 10
3.340967881829221
 20
9.161868302577662
 30
0.0
 11
3.340967881829221
 21
10.3194304727255
 31
0.0
  0
LINE
  5
156
330
12A
100
AcDbEntity
  8
0
  6
ByBlock
 62
     0
100
AcDbLine
 10
5.591288402628311
 20
9.864469454206549
 30
0.0
 11
5.591288402628311
 21
10.3194304727255
 31
0.0
  0
LINE
  5
157
330
12A
100
AcDbEntity
  8
0
  6
ByBlock
 62
     0
100
AcDbLine
 10
3.340967881829221
 20
10.1394304727255
 30
0.0
 11
4.070294808895433
 21
10.1394304727255
 31
0.0
  0
LINE
  5
158
330
12A
100
AcDbEntity
  8
0
  6
ByBlock
 62
     0
100
AcDbLine
 10
5.591288402628311
 20
10.1394304727255
 30
0.0
 11
4.861961475562099
 21
10.1394304727255
 31
0.0
  0
LINE
  5
159
330
12A
100
AcDbEntity
  8
0
  6
ByBlock
 62
     0
100
AcDbLine
 10
3.215967881829221
 20
10.0144304727255
 30
0.0
 11
3.465967881829221
 21
10.2644304727255
 31
0.0
  0
LINE
  5
15A
330
12A
100
AcDbEntity
  8
0
  6
ByBlock
 62
     0
100
AcDbLine
 10
5.466288402628311
 20
10.0144304727255
 30
0.0
 11
5.716288402628311
 21
10.2644304727255
 31
0.0
  0
TEXT
  5
15B
330
12A
100
AcDbEntity
  8
0
  6
ByBlock
 62
     0
100
AcDbText
 10
4.195294808895433
 20
10.0769304727255
 30
0.0
 40
0.125
  1
2 1/4
 72
     1
 11
4.466128142228766
 21
10.1394304727255
 31
0.0
100
AcDbText
 73
     2
  0
POINT
  5
15C
330
12A
100
AcDbEntity
  8
DEFPOINTS
  6
ByBlock
 62
     0
100
AcDbPoint
 10
3.340967881829221
 20
9.099368302577662
 30
0.0
  0
POINT
  5
15D
330
12A
100
AcDbEntity
  8
DEFPOINTS
  6
ByBlock
 62
     0
100
AcDbPoint
 10
5.591288402628311
 20
9.801969454206549
 30
0.0
  0
POINT
  5
15E
330
12A
100
AcDbEntity
  8
DEFPOINTS
  6
ByBlock
 62
     0
100
AcDbPoint
 10
5.591288402628311
 20
10.1394304727255
 30
0.0
  0
ENDBLK
  5
15F
330
12A
100
AcDbEntity
  8
0
100
AcDbBlockEnd
  0
BLOCK
  5
160
330
12B
100
AcDbEntity
  8
0
100
AcDbBlockBegin
  2
*D3
 70
     1
 10
0.0
 20
0.0
 30
0.0
  3
*D3
  1

  0
LINE
  5
161
330
12B
100
AcDbEntity
  8
0
  6
ByBlock
 62
     0
100
AcDbLine
 10
7.928613633727302
 20
9.764430472725505
 30
0.0
 11
7.928613633727302
 21
10.1319304727255
 31
0.0
  0
LINE
  5
162
330
12B
100
AcDbEntity
  8
0
  6
ByBlock
 62
     0
100
AcDbLine
 10
10.1161136337273
 20
9.764430472725505
 30
0.0
 11
10.1161136337273
 21
10.1319304727255
 31
0.0
  0
LINE
  5
163
330
12B
100
AcDbEntity
  8
0
  6
ByBlock
 62
     0
100
AcDbLine
 10
7.928613633727302
 20
9.951930472725505
 30
0.0
 11
8.564030300393968
 21
9.951930472725505
 31
0.0
  0
LINE
  5
164
330
12B
100
AcDbEntity
  8
0
  6
ByBlock
 62
     0
100
AcDbLine
 10
10.1161136337273
 20
9.951930472725505
 30
0.0
 11
9.480696967060636
 21
9.951930472725505
 31
0.0
  0
LINE
  5
165
330
12B
100
AcDbEntity
  8
0
  6
ByBlock
 62
     0
100
AcDbLine
 10
7.803613633727302
 20
9.826930472725505
 30
0.0
 11
8.053613633727302
 21
10.0769304727255
 31
0.0
  0
LINE
  5
166
330
12B
100
AcDbEntity
  8
0
  6
ByBlock
 62
     0
100
AcDbLine
 10
9.991113633727302
 20
9.826930472725505
 30
0.0
 11
10.2411136337273
 21
10.0769304727255
 31
0.0
  0
TEXT
  5
167
330
12B
100
AcDbEntity
  8
0
  6
ByBlock
 62
     0
100
AcDbText
 10
8.689030300393968
 20
9.889430472725505
 30
0.0
 40
0.125
  1
2 3/16
 72
     1
 11
9.022363633727302
 21
9.951930472725505
 31
0.0
100
AcDbText
 73
     2
  0
POINT
  5
168
330
12B
100
AcDbEntity
  8
DEFPOINTS
  6
ByBlock
 62
     0
100
AcDbPoint
 10
7.928613633727302
 20
9.701930472725505
 30
0.0
  0
POINT
  5
169
330
12B
100
AcDbEntity
  8
DEFPOINTS
  6
ByBlock
 62
     0
100
AcDbPoint
 10
10.1161136337273
 20
9.701930472725505
 30
0.0
  0
POINT
  5
16A
330
12B
100
AcDbEntity
  8
DEFPOINTS
  6
ByBlock
 62
     0
100
AcDbPoint
 10
10.1161136337273
 20
9.951930472725505
 30
0.0
  0
ENDBLK
  5
16B
330
12B
100
AcDbEntity
  8
0
100
AcDbBlockEnd
  0
BLOCK
  5
16C
330
12C
100
AcDbEntity
  8
0
100
AcDbBlockBegin
  2
*D4
 70
     1
 10
0.0
 20
0.0
 30
0.0
  3
*D4
  1

  0
LINE
  5
16D
330
12C
100
AcDbEntity
  8
0
  6
ByBlock
 62
     0
100
AcDbLine
 10
7.522613633727303
 20
9.764430472725505
 30
0.0
 11
7.522613633727303
 21
10.4444304727255
 31
0.0
  0
LINE
  5
16E
330
12C
100
AcDbEntity
  8
0
  6
ByBlock
 62
     0
100
AcDbLine
 10
10.5226136337273
 20
9.764430472725505
 30
0.0
 11
10.5226136337273
 21
10.4444304727255
 31
0.0
  0
LINE
  5
16F
330
12C
100
AcDbEntity
  8
0
  6
ByBlock
 62
     0
100
AcDbLine
 10
7.522613633727303
 20
10.2644304727255
 30
0.0
 11
8.855946967060637
 21
10.2644304727255
 31
0.0
  0
LINE
  5
170
330
12C
100
AcDbEntity
  8
0
  6
ByBlock
 62
     0
100
AcDbLine
 10
10.5226136337273
 20
10.2644304727255
 30
0.0
 11
9.189280300393969
 21
10.2644304727255
 31
0.0
  0
LINE
  5
171
330
12C
100
AcDbEntity
  8
0
  6
ByBlock
 62
     0
100
AcDbLine
 10
7.397613633727303
 20
10.1394304727255
 30
0.0
 11
7.647613633727303
 21
10.3894304727255
 31
0.0
  0
LINE
  5
172
330
12C
100
AcDbEntity
  8
0
  6
ByBlock
 62
     0
100
AcDbLine
 10
10.3976136337273
 20
10.1394304727255
 30
0.0
 11
10.6476136337273
 21
10.3894304727255
 31
0.0
  0
TEXT
  5
173
330
12C
100
AcDbEntity
  8
0
  6
ByBlock
 62
     0
100
AcDbText
 10
8.980946967060637
 20
10.2019304727255
 30
0.0
 40
0.125
  1
3
 72
     1
 11
9.022613633727303
 21
10.2644304727255
 31
0.0
100
AcDbText
 73
     2
  0
POINT
  5
174
330
12C
100
AcDbEntity
  8
DEFPOINTS
  6
ByBlock
 62
     0
100
AcDbPoint
 10
7.522613633727303
 20
9.701930472725505
 30
0.0
  0
POINT
  5
175
330
12C
100
AcDbEntity
  8
DEFPOINTS
  6
ByBlock
 62
     0
100
AcDbPoint
 10
10.5226136337273
 20
9.701930472725505
 30
0.0
  0
POINT
  5
176
330
12C
100
AcDbEntity
  8
DEFPOINTS
  6
ByBlock
 62
     0
100
AcDbPoint
 10
10.5226136337273
 20
10.2644304727255
 30
0.0
  0
ENDBLK
  5
177
330
12C
100
AcDbEntity
  8
0
100
AcDbBlockEnd
  0
BLOCK
  5
412
330
407
100
AcDbEntity
  8
0
100
AcDbBlockBegin
  2
*D5
 70
     1
 10
0.0
 20
0.0
 30
0.0
  3
*D5
  1

  0
LINE
  5
41E
330
407
100
AcDbEntity
  8
ADPDIM
 62
     0
370
    -2
100
AcDbLine
 10
5.216967881829223
 20
8.036868302577662
 30
0.0
 11
5.216967881829223
 21
7.646930472725506
 31
0.0
  0
LINE
  5
41F
330
407
100
AcDbEntity
  8
ADPDIM
 62
     0
370
    -2
100
AcDbLine
 10
5.965164513531082
 20
8.036868302577662
 30
0.0
 11
5.965164513531082
 21
7.646930472725506
 31
0.0
  0
LINE
  5
420
330
407
100
AcDbEntity
  8
ADPDIM
 62
     0
370
    -2
100
AcDbLine
 10
5.216967881829223
 20
7.826930472725505
 30
0.0
 11
4.966967881829223
 21
7.826930472725505
 31
0.0
  0
LINE
  5
421
330
407
100
AcDbEntity
  8
ADPDIM
 62
     0
370
    -2
100
AcDbLine
 10
5.965164513531082
 20
7.826930472725505
 30
0.0
 11
6.215164513531082
 21
7.826930472725505
 31
0.0
  0
LINE
  5
422
330
407
100
AcDbEntity
  8
ADPDIM
 62
     0
370
    -2
100
AcDbLine
 10
5.840164513531082
 20
7.701930472725505
 30
0.0
 11
6.090164513531082
 21
7.951930472725505
 31
0.0
  0
LINE
  5
423
330
407
100
AcDbEntity
  8
ADPDIM
 62
     0
370
    -2
100
AcDbLine
 10
5.091967881829223
 20
7.701930472725505
 30
0.0
 11
5.341967881829223
 21
7.951930472725505
 31
0.0
  0
MTEXT
  5
424
330
407
100
AcDbEntity
  8
ADPDIM
 62
     0
100
AcDbMText
 10
5.591066197680152
 20
7.826930472725505
 30
0.0
 40
0.125
 41
0.0
 71
     5
 72
     1
  1
\A1;0.750
 73
     1
 44
1.0
1001
ACAD
1000
MTEXTBEGIN
1070
    73
1070
     1
1070
    44
1040
1.0
1070
    74
1070
     0
1000
MTEXTEND
  0
POINT
  5
425
330
407
100
AcDbEntity
  8
DEFPOINTS
 62
     0
100
AcDbPoint
 10
5.216967881829223
 20
8.099368302577662
 30
0.0
  0
POINT
  5
426
330
407
100
AcDbEntity
  8
DEFPOINTS
 62
     0
100
AcDbPoint
 10
5.965164513531082
 20
8.099368302577662
 30
0.0
  0
POINT
  5
427
330
407
100
AcDbEntity
  8
DEFPOINTS
 62
     0
100
AcDbPoint
 10
5.965164513531082
 20
7.826930472725505
 30
0.0
  0
ENDBLK
  5
413
330
407
100
AcDbEntity
  8
0
100
AcDbBlockEnd
  0
BLOCK
  5
434
330
429
100
AcDbEntity
  8
0
 62
     3
100
AcDbBlockBegin
  2
*D6
 70
     1
 10
0.0
 20
0.0
 30
0.0
  3
*D6
  1

  0
LINE
  5
44A
330
429
100
AcDbEntity
  8
ADPDIM
 62
     0
370
    -2
100
AcDbLine
 10
5.216967881829223
 20
8.036868302577662
 30
0.0
 11
5.216967881829223
 21
7.412093213897962
 31
0.0
  0
LINE
  5
44B
330
429
100
AcDbEntity
  8
ADPDIM
 62
     0
370
    -2
100
AcDbLine
 10
5.966967881829223
 20
8.036868302577662
 30
0.0
 11
5.966967881829223
 21
7.412093213897962
 31
0.0
  0
LINE
  5
44C
330
429
100
AcDbEntity
  8
ADPDIM
 62
     0
370
    -2
100
AcDbLine
 10
5.216967881829223
 20
7.592093213897962
 30
0.0
 11
5.425301215162556
 21
7.592093213897962
 31
0.0
  0
LINE
  5
44D
330
429
100
AcDbEntity
  8
ADPDIM
 62
     0
370
    -2
100
AcDbLine
 10
5.966967881829223
 20
7.592093213897962
 30
0.0
 11
5.75863454849589
 21
7.592093213897962
 31
0.0
  0
LINE
  5
44E
330
429
100
AcDbEntity
  8
ADPDIM
 62
     0
370
    -2
100
AcDbLine
 10
5.841967881829223
 20
7.467093213897962
 30
0.0
 11
6.091967881829223
 21
7.717093213897962
 31
0.0
  0
LINE
  5
44F
330
429
100
AcDbEntity
  8
ADPDIM
 62
     0
370
    -2
100
AcDbLine
 10
5.091967881829223
 20
7.467093213897962
 30
0.0
 11
5.341967881829223
 21
7.717093213897962
 31
0.0
  0
MTEXT
  5
450
330
429
100
AcDbEntity
  8
ADPDIM
 62
     0
100
AcDbMText
 10
5.591967881829223
 20
7.592093213897962
 30
0.0
 40
0.125
 41
0.0
 71
     5
 72
     1
  1
\A1;{\H1.000000x;\S3/4;}
 73
     1
 44
1.0
1001
ACAD
1000
MTEXTBEGIN
1070
    73
1070
     1
1070
    44
1040
1.0
1070
    74
1070
     0
1000
MTEXTEND
  0
POINT
  5
451
330
429
100
AcDbEntity
  8
DEFPOINTS
 62
     0
100
AcDbPoint
 10
5.216967881829223
 20
8.099368302577662
 30
0.0
  0
POINT
  5
452
330
429
100
AcDbEntity
  8
DEFPOINTS
 62
     0
100
AcDbPoint
 10
5.966967881829223
 20
8.099368302577662
 30
0.0
  0
POINT
  5
453
330
429
100
AcDbEntity
  8
DEFPOINTS
 62
     0
100
AcDbPoint
 10
5.966967881829223
 20
7.592093213897962
 30
0.0
  0
ENDBLK
  5
435
330
429
100
AcDbEntity
  8
0
 62
     3
100
AcDbBlockEnd
  0
ENDSEC
  0
SECTION
  2
ENTITIES
  0
LINE
  5
178
330
18
100
AcDbEntity
  8
ADP2DETAIL
  6
HIDDEN2
100
AcDbLine
 10
7.514005116511487
 20
9.589290972994453
 30
0.0
 11
8.701505116511487
 21
9.589290972994453
 31
0.0
  0
DIMENSION
  5
179
330
18
100
AcDbEntity
  8
ADPDIM
100
AcDbDimension
  2
*D4
 10
10.5226136337273
 20
10.2644304727255
 30
0.0
 11
9.022613633727303
 21
10.2644304727255
 31
0.0
 71
     5
 42
-1.0
100
AcDbAlignedDimension
 13
7.522613633727303
 23
9.701930472725505
 33
0.0
 14
10.5226136337273
 24
9.701930472725505
 34
0.0
100
AcDbRotatedDimension
  0
DIMENSION
  5
17A
330
18
100
AcDbEntity
  8
ADPDIM
100
AcDbDimension
  2
*D3
 10
10.1161136337273
 20
9.951930472725505
 30
0.0
 11
9.022363633727302
 21
9.951930472725505
 31
0.0
 71
     5
 42
-1.0
100
AcDbAlignedDimension
 13
7.928613633727302
 23
9.701930472725505
 33
0.0
 14
10.1161136337273
 24
9.701930472725505
 34
0.0
100
AcDbRotatedDimension
  0
LINE
  5
17B
330
18
100
AcDbEntity
  8
ADP1DETAIL
100
AcDbLine
 10
8.389005116511487
 20
9.464290972994453
 30
0.0
 11
7.514005116511487
 21
9.464290972994453
 31
0.0
  0
LINE
  5
17C
330
18
100
AcDbEntity
  8
ADP1DETAIL
100
AcDbLine
 10
7.514005116511487
 20
9.714290972994453
 30
0.0
 11
8.701505116511487
 21
9.714290972994453
 31
0.0
  0
DIMENSION
  5
17D
330
18
100
AcDbEntity
  8
ADPDIM
100
AcDbDimension
  2
*D2
 10
5.591288402628311
 20
10.1394304727255
 30
0.0
 11
4.466128142228766
 21
10.1394304727255
 31
0.0
 71
     5
 42
-1.0
100
AcDbAlignedDimension
 13
3.340967881829221
 23
9.099368302577662
 33
0.0
 14
5.591288402628311
 24
9.801969454206549
 34
0.0
100
AcDbRotatedDimension
  0
ARC
  5
17E
330
18
100
AcDbEntity
  8
ADP1DETAIL
100
AcDbCircle
 10
4.28063967929879
 20
6.716319843661025
 30
0.0
 40
1.568487103921047
100
AcDbArc
 50
61.85689779872536
 51
118.1431022012746
  0
ARC
  5
17F
330
18
100
AcDbEntity
  8
ADP1DETAIL
100
AcDbCircle
 10
4.28063967929879
 20
10.45867249112486
 30
0.0
 40
1.550880667470914
100
AcDbArc
 50
241.2197222637633
 51
298.7802777362367
  0
LINE
  5
180
330
18
100
AcDbEntity
  8
ADP1DETAIL
100
AcDbLine
 10
3.340967881829221
 20
8.099368302577662
 30
0.0
 11
3.340967881829221
 21
9.099368302577662
 31
0.0
  0
LINE
  5
181
330
18
100
AcDbEntity
  8
ADP1DETAIL
100
AcDbLine
 10
3.528967881829224
 20
9.099368302577662
 30
0.0
 11
3.528967881829224
 21
8.099368302577662
 31
0.0
  0
LINE
  5
182
330
18
100
AcDbEntity
  8
ADP1DETAIL
100
AcDbLine
 10
3.103814862763619
 20
8.354801907951969
 30
0.0
 11
3.072814862763621
 21
8.41680190795197
 31
0.0
  0
LINE
  5
183
330
18
100
AcDbEntity
  8
ADP1DETAIL
100
AcDbLine
 10
3.106045995030871
 20
8.792801907951968
 30
0.0
 11
3.075045995030869
 21
8.854801907951969
 31
0.0
  0
LINE
  5
184
330
18
100
AcDbEntity
  8
ADP1DETAIL
100
AcDbLine
 10
3.042539754730877
 20
8.792801907951968
 30
0.0
 11
3.072814862763621
 21
8.41680190795197
 31
0.0
  0
LINE
  5
185
330
18
100
AcDbEntity
  8
ADP1DETAIL
100
AcDbLine
 10
3.072814862763621
 20
8.41680190795197
 30
0.0
 11
3.041814862763618
 21
8.354801907951969
 31
0.0
  0
LINE
  5
186
330
18
100
AcDbEntity
  8
ADP1DETAIL
100
AcDbLine
 10
3.040308622463626
 20
8.354801907951969
 30
0.0
 11
3.009308622463627
 21
8.41680190795197
 31
0.0
  0
LINE
  5
187
330
18
100
AcDbEntity
  8
ADP1DETAIL
100
AcDbLine
 10
3.07353975473088
 20
8.854801907951969
 30
0.0
 11
3.042539754730877
 21
8.792801907951968
 31
0.0
  0
LINE
  5
188
330
18
100
AcDbEntity
  8
ADP1DETAIL
100
AcDbLine
 10
3.042539754730877
 20
8.792801907951968
 30
0.0
 11
3.011539754730879
 21
8.854801907951969
 31
0.0
  0
LINE
  5
189
330
18
100
AcDbEntity
  8
ADP1DETAIL
100
AcDbLine
 10
2.852020987015655
 20
8.792801907951968
 30
0.0
 11
2.882296095048399
 21
8.41680190795197
 31
0.0
  0
LINE
  5
18A
330
18
100
AcDbEntity
  8
ADP1DETAIL
100
AcDbLine
 10
2.794288049800254
 20
8.792801907951968
 30
0.0
 11
2.824563157832997
 21
8.41680190795197
 31
0.0
  0
LINE
  5
18B
330
18
100
AcDbEntity
  8
ADP1DETAIL
100
AcDbLine
 10
2.697516304813514
 20
8.854801907951969
 30
0.0
 11
2.697516304813514
 21
8.415791993439679
 31
0.0
  0
LINE
  5
18C
330
18
100
AcDbEntity
  8
ADP1DETAIL
100
AcDbLine
 10
2.730781809500264
 20
8.792801907951968
 30
0.0
 11
2.761056917533003
 21
8.41680190795197
 31
0.0
  0
LINE
  5
18D
330
18
100
AcDbEntity
  8
ADP1DETAIL
100
AcDbLine
 10
2.915527274130894
 20
8.792801907951968
 30
0.0
 11
2.945802382163637
 21
8.41680190795197
 31
0.0
  0
LINE
  5
18E
330
18
100
AcDbEntity
  8
ADP1DETAIL
100
AcDbLine
 10
2.792056917533006
 20
8.354801907951969
 30
0.0
 11
2.761056917533003
 21
8.41680190795197
 31
0.0
  0
LINE
  5
18F
330
18
100
AcDbEntity
  8
ADP1DETAIL
100
AcDbLine
 10
2.697516304813514
 20
8.415791993439679
 30
0.0
 11
2.730056917533004
 21
8.354801907951969
 31
0.0
  0
LINE
  5
190
330
18
100
AcDbEntity
  8
ADP1DETAIL
100
AcDbLine
 10
2.761056917533003
 20
8.41680190795197
 30
0.0
 11
2.730056917533004
 21
8.354801907951969
 31
0.0
  0
LINE
  5
191
330
18
100
AcDbEntity
  8
ADP1DETAIL
100
AcDbLine
 10
2.913296095048398
 20
8.354801907951969
 30
0.0
 11
2.882296095048399
 21
8.41680190795197
 31
0.0
  0
LINE
  5
192
330
18
100
AcDbEntity
  8
ADP1DETAIL
100
AcDbLine
 10
2.976802382163636
 20
8.354801907951969
 30
0.0
 11
2.945802382163637
 21
8.41680190795197
 31
0.0
  0
LINE
  5
193
330
18
100
AcDbEntity
  8
ADP1DETAIL
100
AcDbLine
 10
2.945802382163637
 20
8.41680190795197
 30
0.0
 11
2.914802382163635
 21
8.354801907951969
 31
0.0
  0
LINE
  5
194
330
18
100
AcDbEntity
  8
ADP1DETAIL
100
AcDbLine
 10
2.851296095048396
 20
8.354801907951969
 30
0.0
 11
2.824563157832997
 21
8.41680190795197
 31
0.0
  0
LINE
  5
195
330
18
100
AcDbEntity
  8
ADP1DETAIL
100
AcDbLine
 10
2.824563157832997
 20
8.41680190795197
 30
0.0
 11
2.793563157832998
 21
8.354801907951969
 31
0.0
  0
LINE
  5
196
330
18
100
AcDbEntity
  8
ADP1DETAIL
100
AcDbLine
 10
2.882296095048399
 20
8.41680190795197
 30
0.0
 11
2.851296095048396
 21
8.354801907951969
 31
0.0
  0
LINE
  5
197
330
18
100
AcDbEntity
  8
ADP1DETAIL
100
AcDbLine
 10
2.794288049800254
 20
8.792801907951968
 30
0.0
 11
2.763288049800255
 21
8.854801907951969
 31
0.0
  0
LINE
  5
198
330
18
100
AcDbEntity
  8
ADP1DETAIL
100
AcDbLine
 10
2.730781809500264
 20
8.792801907951968
 30
0.0
 11
2.699781809500265
 21
8.854801907951969
 31
0.0
  0
LINE
  5
199
330
18
100
AcDbEntity
  8
ADP1DETAIL
100
AcDbLine
 10
2.761781809500262
 20
8.854801907951969
 30
0.0
 11
2.730781809500264
 21
8.792801907951968
 31
0.0
  0
LINE
  5
19A
330
18
100
AcDbEntity
  8
ADP1DETAIL
100
AcDbLine
 10
2.915527274130894
 20
8.792801907951968
 30
0.0
 11
2.884527274130895
 21
8.854801907951969
 31
0.0
  0
LINE
  5
19B
330
18
100
AcDbEntity
  8
ADP1DETAIL
100
AcDbLine
 10
2.883020987015658
 20
8.854801907951969
 30
0.0
 11
2.852020987015655
 21
8.792801907951968
 31
0.0
  0
LINE
  5
19C
330
18
100
AcDbEntity
  8
ADP1DETAIL
100
AcDbLine
 10
2.821020987015657
 20
8.854801907951969
 30
0.0
 11
2.794288049800254
 21
8.792801907951968
 31
0.0
  0
LINE
  5
19D
330
18
100
AcDbEntity
  8
ADP1DETAIL
100
AcDbLine
 10
2.852020987015655
 20
8.792801907951968
 30
0.0
 11
2.821020987015657
 21
8.854801907951969
 31
0.0
  0
LINE
  5
19E
330
18
100
AcDbEntity
  8
ADP1DETAIL
100
AcDbLine
 10
2.979033514430888
 20
8.792801907951968
 30
0.0
 11
2.948033514430889
 21
8.854801907951969
 31
0.0
  0
LINE
  5
19F
330
18
100
AcDbEntity
  8
ADP1DETAIL
100
AcDbLine
 10
2.946527274130896
 20
8.854801907951969
 30
0.0
 11
2.915527274130894
 21
8.792801907951968
 31
0.0
  0
LINE
  5
1A0
330
18
100
AcDbEntity
  8
ADP1DETAIL
100
AcDbLine
 10
2.979033514430888
 20
8.792801907951968
 30
0.0
 11
3.009308622463627
 21
8.41680190795197
 31
0.0
  0
LINE
  5
1A1
330
18
100
AcDbEntity
  8
ADP1DETAIL
100
AcDbLine
 10
3.009308622463627
 20
8.41680190795197
 30
0.0
 11
2.978308622463628
 21
8.354801907951969
 31
0.0
  0
LINE
  5
1A2
330
18
100
AcDbEntity
  8
ADP1DETAIL
100
AcDbLine
 10
3.010033514430886
 20
8.854801907951969
 30
0.0
 11
2.979033514430888
 21
8.792801907951968
 31
0.0
  0
LINE
  5
1A3
330
18
100
AcDbEntity
  8
ADP1DETAIL
100
AcDbLine
 10
3.229516304813514
 20
8.792801907951968
 30
0.0
 11
3.259791412846254
 21
8.41680190795197
 31
0.0
  0
LINE
  5
1A4
330
18
100
AcDbEntity
  8
ADP1DETAIL
100
AcDbLine
 10
3.167516304813513
 20
8.792801907951968
 30
0.0
 11
3.197791412846256
 21
8.41680190795197
 31
0.0
  0
LINE
  5
1A5
330
18
100
AcDbEntity
  8
ADP1DETAIL
100
AcDbLine
 10
3.106045995030871
 20
8.792801907951968
 30
0.0
 11
3.136321103063611
 21
8.41680190795197
 31
0.0
  0
LINE
  5
1A6
330
18
100
AcDbEntity
  8
ADP1DETAIL
100
AcDbLine
 10
3.291516304813512
 20
8.792801907951968
 30
0.0
 11
3.321791412846255
 21
8.41680190795197
 31
0.0
  0
LINE
  5
1A7
330
18
100
AcDbEntity
  8
ADP1DETAIL
100
AcDbLine
 10
3.528967881829224
 20
8.099368302577662
 30
0.0
 11
3.340967881829221
 21
8.099368302577662
 31
0.0
  0
LINE
  5
1A8
330
18
100
AcDbEntity
  8
ADP1DETAIL
100
AcDbLine
 10
3.136321103063611
 20
8.41680190795197
 30
0.0
 11
3.105321103063612
 21
8.354801907951969
 31
0.0
  0
LINE
  5
1A9
330
18
100
AcDbEntity
  8
ADP1DETAIL
100
AcDbLine
 10
3.197791412846256
 20
8.41680190795197
 30
0.0
 11
3.166791412846254
 21
8.354801907951969
 31
0.0
  0
LINE
  5
1AA
330
18
100
AcDbEntity
  8
ADP1DETAIL
100
AcDbLine
 10
3.167321103063613
 20
8.354801907951969
 30
0.0
 11
3.136321103063611
 21
8.41680190795197
 31
0.0
  0
LINE
  5
1AB
330
18
100
AcDbEntity
  8
ADP1DETAIL
100
AcDbLine
 10
3.290791412846253
 20
8.354801907951969
 30
0.0
 11
3.259791412846254
 21
8.41680190795197
 31
0.0
  0
LINE
  5
1AC
330
18
100
AcDbEntity
  8
ADP1DETAIL
100
AcDbLine
 10
3.228791412846255
 20
8.354801907951969
 30
0.0
 11
3.197791412846256
 21
8.41680190795197
 31
0.0
  0
LINE
  5
1AD
330
18
100
AcDbEntity
  8
ADP1DETAIL
100
AcDbLine
 10
3.259791412846254
 20
8.41680190795197
 30
0.0
 11
3.228791412846255
 21
8.354801907951969
 31
0.0
  0
LINE
  5
1AE
330
18
100
AcDbEntity
  8
ADP1DETAIL
100
AcDbLine
 10
3.321791412846255
 20
8.41680190795197
 30
0.0
 11
3.290791412846253
 21
8.354801907951969
 31
0.0
  0
LINE
  5
1AF
330
18
100
AcDbEntity
  8
ADP1DETAIL
100
AcDbLine
 10
3.13704599503087
 20
8.854801907951969
 30
0.0
 11
3.106045995030871
 21
8.792801907951968
 31
0.0
  0
LINE
  5
1B0
330
18
100
AcDbEntity
  8
ADP1DETAIL
100
AcDbLine
 10
3.260516304813513
 20
8.854801907951969
 30
0.0
 11
3.229516304813514
 21
8.792801907951968
 31
0.0
  0
LINE
  5
1B1
330
18
100
AcDbEntity
  8
ADP1DETAIL
100
AcDbLine
 10
3.198516304813512
 20
8.854801907951969
 30
0.0
 11
3.167516304813513
 21
8.792801907951968
 31
0.0
  0
LINE
  5
1B2
330
18
100
AcDbEntity
  8
ADP1DETAIL
100
AcDbLine
 10
3.167516304813513
 20
8.792801907951968
 30
0.0
 11
3.136516304813514
 21
8.854801907951969
 31
0.0
  0
LINE
  5
1B3
330
18
100
AcDbEntity
  8
ADP1DETAIL
100
AcDbLine
 10
3.229516304813514
 20
8.792801907951968
 30
0.0
 11
3.198516304813512
 21
8.854801907951969
 31
0.0
  0
LINE
  5
1B4
330
18
100
AcDbEntity
  8
ADP1DETAIL
100
AcDbLine
 10
3.291516304813512
 20
8.792801907951968
 30
0.0
 11
3.260516304813513
 21
8.854801907951969
 31
0.0
  0
LINE
  5
1B5
330
18
100
AcDbEntity
  8
ADP1DETAIL
100
AcDbLine
 10
3.322516304813514
 20
8.854801907951969
 30
0.0
 11
3.291516304813512
 21
8.792801907951968
 31
0.0
  0
LINE
  5
1B6
330
18
100
AcDbEntity
  8
ADP1DETAIL
100
AcDbLine
 10
3.340967881829221
 20
9.099368302577662
 30
0.0
 11
3.528967881829224
 21
9.099368302577662
 31
0.0
  0
LINE
  5
1B7
330
18
100
AcDbEntity
  8
ADP1DETAIL
100
AcDbLine
 10
5.965164513531082
 20
9.099368302577662
 30
0.0
 11
6.027164513531083
 21
9.099368302577662
 31
0.0
  0
LINE
  5
1B8
330
18
100
AcDbEntity
  8
ADP1DETAIL
100
AcDbLine
 10
6.027164513531083
 20
8.099368302577662
 30
0.0
 11
5.965164513531082
 21
8.099368302577662
 31
0.0
  0
LINE
  5
1BA
330
18
100
AcDbEntity
  8
ADP1DETAIL
100
AcDbLine
 10
5.966967881829223
 20
8.099368302577662
 30
0.0
 11
5.966967881829223
 21
9.724368302577662
 31
0.0
  0
LINE
  5
1BB
330
18
100
AcDbEntity
  8
ADP1DETAIL
100
AcDbLine
 10
5.216967881829223
 20
9.724368302577662
 30
0.0
 11
5.216967881829223
 21
8.099368302577662
 31
0.0
  0
LINE
  5
1BC
330
18
100
AcDbEntity
  8
ADP1DETAIL
100
AcDbLine
 10
5.028967881829224
 20
8.099368302577662
 30
0.0
 11
5.028967881829224
 21
9.099368302577662
 31
0.0
  0
LINE
  5
1BD
330
18
100
AcDbEntity
  8
ADP1DETAIL
100
AcDbLine
 10
5.216967881829223
 20
8.099368302577662
 30
0.0
 11
5.965554646856286
 21
8.099368302577662
 31
0.0
  0
LINE
  5
1BE
330
18
100
AcDbEntity
  8
ADP1DETAIL
100
AcDbLine
 10
5.216967881829223
 20
8.099368302577662
 30
0.0
 11
5.028967881829224
 21
8.099368302577662
 31
0.0
  0
ARC
  5
1BF
330
18
100
AcDbEntity
  8
ADP1DETAIL
100
AcDbCircle
 10
5.591261264342755
 20
10.61196945375193
 30
0.0
 40
0.8100000000000001
100
AcDbArc
 50
251.6220373370479
 51
288.3818019449915
  0
LINE
  5
1C0
330
18
100
AcDbEntity
  8
ADP1DETAIL
100
AcDbLine
 10
5.965554646856286
 20
9.599368302577662
 30
0.0
 11
5.216967881829223
 21
9.599368302577662
 31
0.0
  0
LINE
  5
1C1
330
18
100
AcDbEntity
  8
ADP1DETAIL
100
AcDbLine
 10
5.028967881829224
 20
9.099368302577662
 30
0.0
 11
5.216967881829223
 21
9.099368302577662
 31
0.0
  0
LINE
  5
1C2
330
18
100
AcDbEntity
  8
ADP1DETAIL
100
AcDbLine
 10
5.341967881829223
 20
9.849368302577662
 30
0.0
 11
5.216967881829223
 21
9.724368302577662
 31
0.0
  0
LINE
  5
1C3
330
18
100
AcDbEntity
  8
ADP2DETAIL
  6
HIDDEN2
100
AcDbLine
 10
5.503377866687866
 20
9.806751155141775
 30
0.0
 11
5.503377866687866
 21
9.668760604435387
 31
0.0
  0
LINE
  5
1C4
330
18
100
AcDbEntity
  8
ADP2DETAIL
  6
HIDDEN2
100
AcDbLine
 10
5.503377866687866
 20
9.668760604435387
 30
0.0
 11
5.441377866687869
 21
9.606760604435386
 31
0.0
  0
LINE
  5
1C5
330
18
100
AcDbEntity
  8
ADP2DETAIL
  6
HIDDEN2
100
AcDbLine
 10
5.691377866687869
 20
9.668760604435387
 30
0.0
 11
5.753377866687866
 21
9.606760604435386
 31
0.0
  0
LINE
  5
1C6
330
18
100
AcDbEntity
  8
ADP2DETAIL
  6
HIDDEN2
100
AcDbLine
 10
5.691377866687869
 20
9.808180510101376
 30
0.0
 11
5.691377866687869
 21
9.668760604435387
 31
0.0
  0
LINE
  5
1C7
330
18
100
AcDbEntity
  8
ADP1DETAIL
100
AcDbLine
 10
5.840554646856286
 20
9.849368302577662
 30
0.0
 11
5.966967881829223
 21
9.724368302577662
 31
0.0
  0
LINE
  5
1C8
330
18
100
AcDbEntity
  8
ADP1DETAIL
100
AcDbLine
 10
6.152164513531083
 20
8.974368302577662
 30
0.0
 11
6.152164513531083
 21
8.224368302577662
 31
0.0
  0
DIMENSION
  5
1C9
330
18
100
AcDbEntity
  8
ADPDIM
100
AcDbDimension
  2
*D1
 10
6.764005116511487
 20
8.551969454206549
 30
0.0
 11
6.764005116511487
 21
9.176969454206549
 31
0.0
 71
     5
 42
-1.0
100
AcDbAlignedDimension
 13
6.027664513531082
 23
9.801969454206549
 33
0.0
 14
6.214664513531083
 24
8.551969454206549
 34
0.0
 50
90.0
100
AcDbRotatedDimension
  0
LINE
  5
1CA
330
18
100
AcDbEntity
  8
ADP1DETAIL
100
AcDbLine
 10
6.027164513531083
 20
8.099368302577662
 30
0.0
 11
6.027164513531083
 21
9.099368302577662
 31
0.0
  0
LINE
  5
1CB
330
18
100
AcDbEntity
  8
ADP1DETAIL
100
AcDbLine
 10
6.152164513531083
 20
8.224368302577662
 30
0.0
 11
6.027164513531083
 21
8.099368302577662
 31
0.0
  0
LINE
  5
1CC
330
18
100
AcDbEntity
  8
ADP1DETAIL
100
AcDbLine
 10
6.027164513531083
 20
9.099368302577662
 30
0.0
 11
6.152164513531083
 21
8.974368302577662
 31
0.0
  0
LINE
  5
1CD
330
18
100
AcDbEntity
  8
ADP1DETAIL
100
AcDbLine
 10
7.514005116511487
 20
9.464290972994453
 30
0.0
 11
7.514005116511487
 21
9.714290972994453
 31
0.0
  0
LINE
  5
1CE
330
18
100
AcDbEntity
  8
ADP2DETAIL
  6
HIDDEN2
100
AcDbLine
 10
7.834613633727304
 20
9.544930472725507
 30
0.0
 11
7.772613633727303
 21
9.482930472725506
 31
0.0
  0
LINE
  5
1CF
330
18
100
AcDbEntity
  8
ADP2DETAIL
  6
HIDDEN2
100
AcDbLine
 10
7.834613633727302
 20
9.589290972994453
 30
0.0
 11
7.834613633727304
 21
9.544930472725507
 31
0.0
  0
LINE
  5
1D0
330
18
100
AcDbEntity
  8
ADP2DETAIL
  6
HIDDEN2
100
AcDbLine
 10
8.022613633727303
 20
9.544930472725507
 30
0.0
 11
8.084613633727304
 21
9.482930472725506
 31
0.0
  0
LINE
  5
1D1
330
18
100
AcDbEntity
  8
ADP2DETAIL
  6
HIDDEN2
100
AcDbLine
 10
8.022613633727301
 20
9.589290972994453
 30
0.0
 11
8.022613633727303
 21
9.544930472725507
 31
0.0
  0
ARC
  5
1D2
330
18
100
AcDbEntity
  8
ADP1DETAIL
100
AcDbCircle
 10
9.639005116511487
 20
9.339290972994456
 30
0.0
 40
0.125
100
AcDbArc
 50
89.99999999999991
 51
180.0
  0
LINE
  5
1D3
330
18
100
AcDbEntity
  8
ADP2DETAIL
  6
HIDDEN2
100
AcDbLine
 10
9.326505116511487
 20
9.589290972994453
 30
0.0
 11
10.51400511651149
 21
9.589290972994453
 31
0.0
  0
CIRCLE
  5
1D4
330
18
100
AcDbEntity
  8
ADP1DETAIL
100
AcDbCircle
 10
9.014005116511487
 20
8.467808800649406
 30
0.0
 40
0.5
  0
LINE
  5
1D5
330
18
100
AcDbEntity
  8
ADP1DETAIL
100
AcDbLine
 10
9.326505116511487
 20
9.714290972994453
 30
0.0
 11
10.51400511651149
 21
9.714290972994453
 31
0.0
  0
LINE
  5
1D6
330
18
100
AcDbEntity
  8
ADP1DETAIL
100
AcDbLine
 10
8.514005116511487
 20
8.451930472725505
 30
0.0
 11
8.514005116511487
 21
9.339290972994453
 31
0.0
  0
LINE
  5
1D7
330
18
100
AcDbEntity
  8
ADP1DETAIL
100
AcDbLine
 10
8.701505116511487
 20
8.858121175549305
 30
0.0
 11
8.701505116511487
 21
9.76327508859495
 31
0.0
  0
LINE
  5
1D8
330
18
100
AcDbEntity
  8
ADP1DETAIL
100
AcDbLine
 10
8.701505116511487
 20
9.708896677032511
 30
0.0
 11
8.701505116511487
 21
8.858121175549305
 31
0.0
  0
LINE
  5
1D9
330
18
100
AcDbEntity
  8
ADP1DETAIL
100
AcDbLine
 10
9.326505116511487
 20
9.76327508859495
 30
0.0
 11
9.326505116511487
 21
8.858121175549305
 31
0.0
  0
LINE
  5
1DA
330
18
100
AcDbEntity
  8
ADP1DETAIL
100
AcDbLine
 10
9.326505116511487
 20
8.858121175549305
 30
0.0
 11
9.326505116511487
 21
9.708896677032511
 31
0.0
  0
CIRCLE
  5
1DB
330
18
100
AcDbEntity
  8
ADP1DETAIL
100
AcDbCircle
 10
9.014005116511487
 20
8.467808800649406
 30
0.0
 40
0.375
  0
LWPOLYLINE
  5
1DC
330
18
100
AcDbEntity
  8
ADP1DETAIL
100
AcDbPolyline
 90
        2
 70
     0
 43
0.0
 10
8.517813664846901
 20
8.406212994826313
 10
8.514005116511487
 20
8.399937332983705
  0
LINE
  5
1E0
330
18
100
AcDbEntity
  8
ADP2DETAIL
  6
HIDDEN2
100
AcDbLine
 10
8.701505116511487
 20
9.631899083081981
 30
0.0
 11
9.326505116511487
 21
9.631899083081981
 31
0.0
  0
LINE
  5
1E1
330
18
100
AcDbEntity
  8
ADP1DETAIL
100
AcDbLine
 10
8.701505116511487
 20
9.76327508859495
 30
0.0
 11
9.326505116511487
 21
9.76327508859495
 31
0.0
  0
ARC
  5
1E2
330
18
100
AcDbEntity
  8
ADP1DETAIL
100
AcDbCircle
 10
8.389005116511487
 20
9.339290972994453
 30
0.0
 40
0.125
100
AcDbArc
 50
0.0
 51
90.0
  0
LINE
  5
1E3
330
18
100
AcDbEntity
  8
ADP1DETAIL
100
AcDbLine
 10
9.514005116511487
 20
9.339290972994456
 30
0.0
 11
9.514005116511487
 21
8.451930472725505
 31
0.0
  0
LINE
  5
1E4
330
18
100
AcDbEntity
  8
ADP1DETAIL
100
AcDbLine
 10
9.514005116511487
 20
8.399937332983705
 30
0.0
 11
9.510196568176059
 21
8.406212994826313
 31
0.0
  0
LINE
  5
1E5
330
18
100
AcDbEntity
  8
ADP1DETAIL
100
AcDbLine
 10
10.51400511651149
 20
9.464290972994453
 30
0.0
 11
9.639005116511487
 21
9.464290972994456
 31
0.0
  0
LINE
  5
1E6
330
18
100
AcDbEntity
  8
ADP2DETAIL
  6
HIDDEN2
100
AcDbLine
 10
10.0226136337273
 20
9.589290972994453
 30
0.0
 11
10.0226136337273
 21
9.544930472725507
 31
0.0
  0
LINE
  5
1E7
330
18
100
AcDbEntity
  8
ADP2DETAIL
  6
HIDDEN2
100
AcDbLine
 10
10.0226136337273
 20
9.544930472725507
 30
0.0
 11
9.960613633727302
 21
9.482930472725506
 31
0.0
  0
LINE
  5
1E8
330
18
100
AcDbEntity
  8
ADP2DETAIL
  6
HIDDEN2
100
AcDbLine
 10
10.2106136337273
 20
9.544930472725507
 30
0.0
 11
10.2726136337273
 21
9.482930472725506
 31
0.0
  0
LINE
  5
1E9
330
18
100
AcDbEntity
  8
ADP2DETAIL
  6
HIDDEN2
100
AcDbLine
 10
10.2106136337273
 20
9.589290972994453
 30
0.0
 11
10.2106136337273
 21
9.544930472725507
 31
0.0
  0
LINE
  5
1EA
330
18
100
AcDbEntity
  8
ADP1DETAIL
100
AcDbLine
 10
10.51400511651149
 20
9.714290972994453
 30
0.0
 11
10.51400511651149
 21
9.464290972994453
 31
0.0
  0
TEXT
  5
1F8
330
18
100
AcDbEntity
  8
ADPDIM
100
AcDbText
 10
0.4796286631788105
 20
6.567747055973626
 30
0.0
 40
0.125
  1
J U L I U S  B L U M  &  C O . ,  I N C .      ( 8 0 0 )  5 2 6 - 6 2 9 3        W W W . J U L I U S B L U M . C O M        P A R T  N o .  3 2 2
 41
1.25
  7
ARIAL_WIDE
 72
     1
 11
6.914336200695863
 21
6.692747055973626
 31
0.0
100
AcDbText
 73
     3
  0
DIMENSION
  5
428
330
18
100
AcDbEntity
  8
ADPDIM
 62
     3
100
AcDbDimension
  2
*D6
 10
5.966967881829223
 20
7.592093213897962
 30
0.0
 11
5.591967881829223
 21
7.592093213897962
 31
0.0
 70
    32
 71
     5
 42
0.75
  3
STANDARD
100
AcDbAlignedDimension
 13
5.216967881829223
 23
8.099368302577662
 33
0.0
 14
5.966967881829223
 24
8.099368302577662
 34
0.0
100
AcDbRotatedDimension
1001
ACAD
1000
DSTYLE
1002
{
1070
   277
1070
     5
1070
    41
1040
0.125
1070
    73
1070
     0
1070
    74
1070
     0
1070
    78
1070
     3
1070
   140
1040
0.125
1070
   141
1040
0.1875
1070
   142
1040
0.125
1070
   147
1040
0.125
1070
   171
1070
     1
1002
}
  0
ENDSEC
  0
SECTION
  2
OBJECTS
  0
DICTIONARY
  5
C
330
0
100
AcDbDictionary
281
     1
  3
ACAD_COLOR
350
401
  3
ACAD_GROUP
350
D
  3
ACAD_LAYOUT
350
1F1
  3
ACAD_MATERIAL
350
3EC
  3
ACAD_MLINESTYLE
350
E
  3
ACAD_PLOTSETTINGS
350
1F2
  3
ACAD_PLOTSTYLENAME
350
1EF
  3
ACAD_TABLESTYLE
350
402
  3
ACAD_VISUALSTYLE
350
3F0
  3
AcDbVariableDictionary
350
252
  3
DWGPROPS
350
473
  0
DICTIONARY
  5
24C
330
18
100
AcDbDictionary
280
     1
281
     1
  3
ACAD_LAYOUTSELFREF
360
3E6
  0
DICTIONARY
  5
24A
330
15
100
AcDbDictionary
280
     1
281
     1
  3
ACAD_LAYOUTSELFREF
360
3E5
  0
DICTIONARY
  5
401
102
{ACAD_REACTORS
330
C
102
}
330
C
100
AcDbDictionary
281
     1
  0
DICTIONARY
  5
D
102
{ACAD_REACTORS
330
C
102
}
330
C
100
AcDbDictionary
281
     1
  0
DICTIONARY
  5
1F1
102
{ACAD_REACTORS
330
C
102
}
330
C
100
AcDbDictionary
281
     1
  3
Layout1
350
1F4
  3
Model
350
1F3
  0
DICTIONARY
  5
3EC
102
{ACAD_REACTORS
330
C
102
}
330
C
100
AcDbDictionary
281
     1
  3
ByBlock
350
3EE
  3
ByLayer
350
3ED
  3
Global
350
3EF
  0
DICTIONARY
  5
E
102
{ACAD_REACTORS
330
C
102
}
330
C
100
AcDbDictionary
281
     1
  3
STANDARD
350
1B
  0
DICTIONARY
  5
1F2
102
{ACAD_REACTORS
330
C
102
}
330
C
100
AcDbDictionary
281
     1
  0
ACDBDICTIONARYWDFLT
  5
1EF
102
{ACAD_REACTORS
330
C
102
}
330
C
100
AcDbDictionary
281
     1
  3
Normal
350
1F0
100
AcDbDictionaryWithDefault
340
1F0
  0
DICTIONARY
  5
402
102
{ACAD_REACTORS
330
C
102
}
330
C
100
AcDbDictionary
281
     1
  3
Standard
350
403
  0
DICTIONARY
  5
3F0
102
{ACAD_REACTORS
330
C
102
}
330
C
100
AcDbDictionary
281
     1
  3
2dWireframe
350
3F6
  3
3D Hidden
350
3F8
  3
3dWireframe
350
3F7
  3
Basic
350
3F5
  3
Brighten
350
3FC
  3
ColorChange
350
400
  3
Conceptual
350
3F9
  3
Dim
350
3FB
  3
Facepattern
350
3FF
  3
Flat
350
3F1
  3
FlatWithEdges
350
3F2
  3
Gouraud
350
3F3
  3
GouraudWithEdges
350
3F4
  3
Linepattern
350
3FE
  3
Realistic
350
3FA
  3
Thicken
350
3FD
  0
DICTIONARY
  5
252
102
{ACAD_REACTORS
330
C
102
}
330
C
100
AcDbDictionary
281
     1
  3
CTABLESTYLE
350
470
  3
DIMASSOC
350
253
  3
INDEXCTL
350
472
  3
SORTENTS
350
471
  0
XRECORD
  5
473
102
{ACAD_REACTORS
330
C
102
}
330
C
100
AcDbXrecord
280
     1
  1
DWGPROPS COOKIE
  2

  3

  4

  6

  7

  8
Yu Hu
  9

300
=
301
=
302
=
303
=
304
=
305
=
306
=
307
=
308
=
309
=
 40
0.0807903935185185
 41
2450386.497785104
 42
2453950.89462338
  1

 90
        0
  0
XRECORD
  5
3E6
102
{ACAD_REACTORS
330
24C
102
}
330
24C
100
AcDbXrecord
280
     1
340
18
  0
XRECORD
  5
3E5
102
{ACAD_REACTORS
330
24A
102
}
330
24A
100
AcDbXrecord
280
     1
340
15
  0
LAYOUT
  5
1F4
102
{ACAD_XDICTIONARY
360
476
102
}
102
{ACAD_REACTORS
330
1F1
102
}
330
1F1
100
AcDbPlotSettings
  1

  2
Fax
  4

  6

 40
0.0
 41
0.0
 42
0.0
 43
0.0
 44
0.0
 45
0.0
 46
0.0
 47
0.0
 48
0.0
 49
0.0
140
0.0
141
0.0
142
1.0
143
1.0
 70
   688
 72
     0
 73
     0
 74
     5
  7
Default R14 pen assignments.ctb
 75
    16
147
1.0
148
0.0
149
0.0
100
AcDbLayout
  1
Layout1
 70
     1
 71
     1
 10
0.0
 20
0.0
 11
12.0
 21
9.0
 12
4.403525741743744E+99
 22
7.061986388769092E+99
 32
0.0
 14
1.000000000000000E+20
 24
1.000000000000000E+20
 34
1.000000000000000E+20
 15
-1.000000000000000E+20
 25
-1.000000000000000E+20
 35
-1.000000000000000E+20
146
0.0
 13
0.0
 23
0.0
 33
0.0
 16
1.0
 26
0.0
 36
0.0
 17
0.0
 27
1.0
 37
0.0
 76
     0
330
15
  0
LAYOUT
  5
1F3
102
{ACAD_XDICTIONARY
360
474
102
}
102
{ACAD_REACTORS
330
1F1
102
}
330
1F1
100
AcDbPlotSettings
  1

  2
Fax
  4

  6

 40
0.0
 41
0.0
 42
0.0
 43
0.0
 44
0.0
 45
0.0
 46
0.0
 47
0.0
 48
0.0
 49
0.0
140
0.0
141
0.0
142
1.0
143
1.0
 70
  1712
 72
     0
 73
     0
 74
     0
  7
Default R14 pen assignments.ctb
 75
     0
147
1.0
148
0.0
149
0.0
100
AcDbLayout
  1
Model
 70
     1
 71
     0
 10
0.0
 20
0.0
 11
12.0
 21
9.0
 12
0.0
 22
0.0
 32
0.0
 14
0.0
 24
0.0
 34
0.0
 15
0.0
 25
0.0
 35
0.0
146
0.0
 13
0.0
 23
0.0
 33
0.0
 16
1.0
 26
0.0
 36
0.0
 17
0.0
 27
1.0
 37
0.0
 76
     0
330
18
331
3C0
  0
MATERIAL
  5
3EE
102
{ACAD_XDICTIONARY
360
47A
102
}
102
{ACAD_REACTORS
330
3EC
102
}
330
3EC
100
AcDbMaterial
  1
ByBlock
  0
MATERIAL
  5
3ED
102
{ACAD_XDICTIONARY
360
478
102
}
102
{ACAD_REACTORS
330
3EC
102
}
330
3EC
100
AcDbMaterial
  1
ByLayer
  0
MATERIAL
  5
3EF
102
{ACAD_XDICTIONARY
360
47C
102
}
102
{ACAD_REACTORS
330
3EC
102
}
330
3EC
100
AcDbMaterial
  1
Global
  0
MLINESTYLE
  5
1B
102
{ACAD_REACTORS
330
E
102
}
330
E
100
AcDbMlineStyle
  2
STANDARD
 70
     0
  3

 62
     0
 51
90.0
 52
90.0
 71
     2
 49
0.5
 62
   256
  6
BYLAYER
 49
-0.5
 62
   256
  6
BYLAYER
  0
ACDBPLACEHOLDER
  5
1F0
102
{ACAD_REACTORS
330
1EF
102
}
330
1EF
  0
TABLESTYLE
  5
403
102
{ACAD_XDICTIONARY
360
47E
102
}
102
{ACAD_REACTORS
330
402
102
}
330
402
100
AcDbTableStyle
  3
Standard
 70
     0
 71
     0
 40
0.06
 41
0.06
280
     0
281
     0
  7
STANDARD
140
0.18
170
     2
 62
     0
 63
     7
283
     0
274
    -2
284
     1
 64
     0
275
    -2
285
     1
 65
     0
276
    -2
286
     1
 66
     0
277
    -2
287
     1
 67
     0
278
    -2
288
     1
 68
     0
279
    -2
289
     1
 69
     0
  7
STANDARD
140
0.25
170
     5
 62
     0
 63
     7
283
     0
274
    -2
284
     1
 64
     0
275
    -2
285
     1
 65
     0
276
    -2
286
     1
 66
     0
277
    -2
287
     1
 67
     0
278
    -2
288
     1
 68
     0
279
    -2
289
     1
 69
     0
  7
STANDARD
140
0.18
170
     5
 62
     0
 63
     7
283
     0
274
    -2
284
     1
 64
     0
275
    -2
285
     1
 65
     0
276
    -2
286
     1
 66
     0
277
    -2
287
     1
 67
     0
278
    -2
288
     1
 68
     0
279
    -2
289
     1
 69
     0
  0
VISUALSTYLE
  5
3F6
102
{ACAD_REACTORS
330
3F0
102
}
330
3F0
100
AcDbVisualStyle
  2
2dWireframe
 70
     4
 71
     0
 72
     2
 73
     0
 90
        0
 40
-0.6
 41
-30.0
 62
     5
 63
     7
 74
     1
 91
        4
 64
     7
 65
   257
 75
     1
175
     1
 42
1.0
 92
        0
 66
   257
 43
1.0
 76
     1
 77
     6
 78
     2
 67
     7
 79
     5
170
     0
171
     0
290
     0
174
     0
 93
        1
 44
0.0
173
     0
291
     0
 45
0.0
1001
ACAD
1000
AcDbSavedByObjectVersion
1070
     0
  0
VISUALSTYLE
  5
3F8
102
{ACAD_REACTORS
330
3F0
102
}
330
3F0
100
AcDbVisualStyle
  2
3D Hidden
 70
     6
 71
     1
 72
     2
 73
     2
 90
        0
 40
-0.6
 41
-30.0
 62
     5
 63
     7
 74
     2
 91
        2
 64
     7
 65
   257
 75
     2
175
     1
 42
40.0
 92
        0
 66
   257
 43
1.0
 76
     1
 77
     6
 78
     2
 67
     7
 79
     3
170
     0
171
     0
290
     0
174
     0
 93
        1
 44
0.0
173
     0
291
     0
 45
0.0
1001
ACAD
1000
AcDbSavedByObjectVersion
1070
     0
  0
VISUALSTYLE
  5
3F7
102
{ACAD_REACTORS
330
3F0
102
}
330
3F0
100
AcDbVisualStyle
  2
3dWireframe
 70
     5
 71
     0
 72
     2
 73
     0
 90
        0
 40
-0.6
 41
-30.0
 62
     5
 63
     7
 74
     1
 91
        4
 64
     7
 65
   257
 75
     1
175
     1
 42
1.0
 92
        0
 66
   257
 43
1.0
 76
     1
 77
     6
 78
     2
 67
     7
 79
     5
170
     0
171
     0
290
     0
174
     0
 93
        1
 44
0.0
173
     0
291
     0
 45
0.0
1001
ACAD
1000
AcDbSavedByObjectVersion
1070
     0
  0
VISUALSTYLE
  5
3F5
102
{ACAD_REACTORS
330
3F0
102
}
330
3F0
100
AcDbVisualStyle
  2
Basic
 70
     7
 71
     1
 72
     0
 73
     1
 90
        0
 40
-0.6
 41
-30.0
 62
     5
 63
     7
 74
     0
 91
        4
 64
     7
 65
   257
 75
     1
175
     1
 42
1.0
 92
        8
 66
     7
 43
1.0
 76
     1
 77
     6
 78
     2
 67
     7
 79
     5
170
     0
171
     0
290
     0
174
     0
 93
        1
 44
0.0
173
     0
291
     1
 45
0.0
1001
ACAD
1000
AcDbSavedByObjectVersion
1070
     0
  0
VISUALSTYLE
  5
3FC
102
{ACAD_REACTORS
330
3F0
102
}
330
3F0
100
AcDbVisualStyle
  2
Brighten
 70
    12
 71
     2
 72
     2
 73
     0
 90
        0
 40
-0.6
 41
-30.0
 62
     5
 63
     7
 74
     1
 91
        4
 64
     7
 65
   257
 75
     1
175
     1
 42
1.0
 92
        8
 66
     7
 43
1.0
 76
     1
 77
     6
 78
     2
 67
     7
 79
     5
170
     0
171
     0
290
     0
174
     0
 93
        1
 44
50.0
173
     0
291
     1
 45
0.0
1001
ACAD
1000
AcDbSavedByObjectVersion
1070
     0
  0
VISUALSTYLE
  5
400
102
{ACAD_REACTORS
330
3F0
102
}
330
3F0
100
AcDbVisualStyle
  2
ColorChange
 70
    16
 71
     2
 72
     2
 73
     3
 90
        0
 40
-0.6
 41
-30.0
 62
     5
 63
     8
 74
     1
 91
        4
 64
     7
 65
   257
 75
     1
175
     1
 42
1.0
 92
        8
 66
     8
 43
1.0
 76
     1
 77
     6
 78
     2
 67
     7
 79
     5
170
     0
171
     0
290
     0
174
     0
 93
        1
 44
0.0
173
     0
291
     1
 45
0.0
1001
ACAD
1000
AcDbSavedByObjectVersion
1070
     0
  0
VISUALSTYLE
  5
3F9
102
{ACAD_REACTORS
330
3F0
102
}
330
3F0
100
AcDbVisualStyle
  2
Conceptual
 70
     9
 71
     3
 72
     2
 73
     0
 90
        0
 40
-0.6
 41
-30.0
 62
     5
 63
     7
 74
     2
 91
        2
 64
     7
 65
   257
 75
     1
175
     1
 42
40.0
 92
        8
 66
     7
 43
1.0
 76
     1
 77
     6
 78
     2
 67
     7
 79
     3
170
     0
171
     0
290
     0
174
     0
 93
        1
 44
0.0
173
     0
291
     0
 45
0.0
1001
ACAD
1000
AcDbSavedByObjectVersion
1070
     0
  0
VISUALSTYLE
  5
3FB
102
{ACAD_REACTORS
330
3F0
102
}
330
3F0
100
AcDbVisualStyle
  2
Dim
 70
    11
 71
     2
 72
     2
 73
     0
 90
        0
 40
-0.6
 41
-30.0
 62
     5
 63
     7
 74
     1
 91
        4
 64
     7
 65
   257
 75
     1
175
     1
 42
1.0
 92
        8
 66
     7
 43
1.0
 76
     1
 77
     6
 78
     2
 67
     7
 79
     5
170
     0
171
     0
290
     0
174
     0
 93
        1
 44
-50.0
173
     0
291
     1
 45
0.0
1001
ACAD
1000
AcDbSavedByObjectVersion
1070
     0
  0
VISUALSTYLE
  5
3FF
102
{ACAD_REACTORS
330
3F0
102
}
330
3F0
100
AcDbVisualStyle
  2
Facepattern
 70
    15
 71
     2
 72
     2
 73
     0
 90
        0
 40
-0.6
 41
-30.0
 62
     5
 63
     7
 74
     1
 91
        4
 64
     7
 65
   257
 75
     1
175
     1
 42
1.0
 92
        8
 66
     7
 43
1.0
 76
     1
 77
     6
 78
     2
 67
     7
 79
     5
170
     0
171
     0
290
     0
174
     0
 93
        1
 44
0.0
173
     0
291
     1
 45
0.0
1001
ACAD
1000
AcDbSavedByObjectVersion
1070
     0
  0
VISUALSTYLE
  5
3F1
102
{ACAD_REACTORS
330
3F0
102
}
330
3F0
100
AcDbVisualStyle
  2
Flat
 70
     0
 71
     2
 72
     1
 73
     1
 90
        2
 40
-0.6
 41
30.0
 62
     5
 63
     7
 74
     0
 91
        4
 64
     7
 65
   257
 75
     1
175
     1
 42
1.0
 92
        8
 66
     7
 43
1.0
 76
     1
 77
     6
 78
     2
 67
     7
 79
     5
170
     0
171
     0
290
     0
174
     0
 93
       13
 44
0.0
173
     0
291
     1
 45
0.0
1001
ACAD
1000
AcDbSavedByObjectVersion
1070
     0
  0
VISUALSTYLE
  5
3F2
102
{ACAD_REACTORS
330
3F0
102
}
330
3F0
100
AcDbVisualStyle
  2
FlatWithEdges
 70
     1
 71
     2
 72
     1
 73
     1
 90
        2
 40
-0.6
 41
30.0
 62
     5
 63
     7
 74
     1
 91
        4
 64
     7
 65
   257
 75
     1
175
     1
 42
1.0
 92
        0
 66
   257
 43
1.0
 76
     1
 77
     6
 78
     2
 67
     7
 79
     5
170
     0
171
     0
290
     0
174
     0
 93
       13
 44
0.0
173
     0
291
     1
 45
0.0
1001
ACAD
1000
AcDbSavedByObjectVersion
1070
     0
  0
VISUALSTYLE
  5
3F3
102
{ACAD_REACTORS
330
3F0
102
}
330
3F0
100
AcDbVisualStyle
  2
Gouraud
 70
     2
 71
     2
 72
     2
 73
     1
 90
        2
 40
-0.6
 41
30.0
 62
     5
 63
     7
 74
     0
 91
        4
 64
     7
 65
   257
 75
     1
175
     1
 42
1.0
 92
        0
 66
     7
 43
1.0
 76
     1
 77
     6
 78
     2
 67
     7
 79
     5
170
     0
171
     0
290
     0
174
     0
 93
       13
 44
0.0
173
     0
291
     1
 45
0.0
1001
ACAD
1000
AcDbSavedByObjectVersion
1070
     0
  0
VISUALSTYLE
  5
3F4
102
{ACAD_REACTORS
330
3F0
102
}
330
3F0
100
AcDbVisualStyle
  2
GouraudWithEdges
 70
     3
 71
     2
 72
     2
 73
     1
 90
        2
 40
-0.6
 41
30.0
 62
     5
 63
     7
 74
     1
 91
        4
 64
     7
 65
   257
 75
     1
175
     1
 42
1.0
 92
        0
 66
   257
 43
1.0
 76
     1
 77
     6
 78
     2
 67
     7
 79
     5
170
     0
171
     0
290
     0
174
     0
 93
       13
 44
0.0
173
     0
291
     1
 45
0.0
1001
ACAD
1000
AcDbSavedByObjectVersion
1070
     0
  0
VISUALSTYLE
  5
3FE
102
{ACAD_REACTORS
330
3F0
102
}
330
3F0
100
AcDbVisualStyle
  2
Linepattern
 70
    14
 71
     2
 72
     2
 73
     0
 90
        0
 40
-0.6
 41
-30.0
 62
     5
 63
     7
 74
     1
 91
        4
 64
     7
 65
   257
 75
     7
175
     7
 42
1.0
 92
        8
 66
     7
 43
1.0
 76
     1
 77
     6
 78
     2
 67
     7
 79
     5
170
     0
171
     0
290
     0
174
     0
 93
        1
 44
0.0
173
     0
291
     1
 45
0.0
1001
ACAD
1000
AcDbSavedByObjectVersion
1070
     0
  0
VISUALSTYLE
  5
3FA
102
{ACAD_REACTORS
330
3F0
102
}
330
3F0
100
AcDbVisualStyle
  2
Realistic
 70
     8
 71
     2
 72
     2
 73
     0
 90
        0
 40
-0.6
 41
-30.0
 62
     5
 63
     7
 74
     1
 91
        0
 64
     7
 65
   257
 75
     1
175
     1
 42
1.0
 92
        8
 66
     8
 43
1.0
 76
     1
 77
     6
 78
     2
 67
     7
 79
     5
170
     0
171
     0
290
     0
174
     0
 93
       13
 44
0.0
173
     0
291
     0
 45
0.0
1001
ACAD
1000
AcDbSavedByObjectVersion
1070
     0
  0
VISUALSTYLE
  5
3FD
102
{ACAD_REACTORS
330
3F0
102
}
330
3F0
100
AcDbVisualStyle
  2
Thicken
 70
    13
 71
     2
 72
     2
 73
     0
 90
        0
 40
-0.6
 41
-30.0
 62
     5
 63
     7
 74
     1
 91
        4
 64
     7
 65
   257
 75
     1
175
     1
 42
1.0
 92
       12
 66
     7
 43
1.0
 76
     1
 77
     6
 78
     2
 67
     7
 79
     5
170
     0
171
     0
290
     0
174
     0
 93
        1
 44
0.0
173
     0
291
     1
 45
0.0
1001
ACAD
1000
AcDbSavedByObjectVersion
1070
     0
  0
DICTIONARYVAR
  5
470
102
{ACAD_REACTORS
330
252
102
}
330
252
100
DictionaryVariables
280
     0
  1
STANDARD
  0
DICTIONARYVAR
  5
253
102
{ACAD_REACTORS
330
252
102
}
330
252
100
DictionaryVariables
280
     0
  1
1
  0
DICTIONARYVAR
  5
472
102
{ACAD_REACTORS
330
252
102
}
330
252
100
DictionaryVariables
280
     0
  1
0
  0
DICTIONARYVAR
  5
471
102
{ACAD_REACTORS
330
252
102
}
330
252
100
DictionaryVariables
280
     0
  1
127
  0
DICTIONARY
  5
476
330
1F4
100
AcDbDictionary
280
     1
281
     1
  3
ACAD_XREC_ROUNDTRIP
360
477
  0
DICTIONARY
  5
474
330
1F3
100
AcDbDictionary
280
     1
281
     1
  3
ACAD_XREC_ROUNDTRIP
360
475
  0
DICTIONARY
  5
47A
330
3EE
100
AcDbDictionary
280
     1
281
     1
  3
ACAD_XREC_ROUNDTRIP
360
47B
  0
DICTIONARY
  5
478
330
3ED
100
AcDbDictionary
280
     1
281
     1
  3
ACAD_XREC_ROUNDTRIP
360
479
  0
DICTIONARY
  5
47C
330
3EF
100
AcDbDictionary
280
     1
281
     1
  3
ACAD_XREC_ROUNDTRIP
360
47D
  0
DICTIONARY
  5
47E
330
403
100
AcDbDictionary
280
     1
281
     1
  3
ACAD_XREC_ROUNDTRIP
360
47F
  0
XRECORD
  5
477
102
{ACAD_REACTORS
330
476
102
}
330
476
100
AcDbXrecord
280
     1
102
SHADEPLOT
 70
     0
102
SHADEPLOTRESLEVEL
 70
     2
102
SHADEPLOTCUSTOMDPI
 70
   300
  0
XRECORD
  5
475
102
{ACAD_REACTORS
330
474
102
}
330
474
100
AcDbXrecord
280
     1
102
SHADEPLOT
 70
     0
102
SHADEPLOTRESLEVEL
 70
     2
102
SHADEPLOTCUSTOMDPI
 70
   300
  0
XRECORD
  5
47B
102
{ACAD_REACTORS
330
47A
102
}
330
47A
100
AcDbXrecord
280
     1
102
MATERIAL
148
0.0
149
0.0
149
0.0
 93
        0
 94
       63
282
     0
 72
     1
 77
     1
171
     1
175
     1
179
     1
273
     0
  0
XRECORD
  5
479
102
{ACAD_REACTORS
330
478
102
}
330
478
100
AcDbXrecord
280
     1
102
MATERIAL
148
0.0
149
0.0
149
0.0
 93
        0
 94
       63
282
     0
 72
     1
 77
     1
171
     1
175
     1
179
     1
273
     0
  0
XRECORD
  5
47D
102
{ACAD_REACTORS
330
47C
102
}
330
47C
100
AcDbXrecord
280
     1
102
MATERIAL
148
0.0
149
0.0
149
0.0
 93
        0
 94
       63
282
     0
 72
     1
 77
     1
171
     1
175
     1
179
     1
273
     0
  0
XRECORD
  5
47F
102
{ACAD_REACTORS
330
47E
102
}
330
47E
100
AcDbXrecord
280
     1
102
ACAD_ROUNDTRIP_PRE2007_TABLESTYLE
 90
      512
 91
        0
  1

 92
      512
 93
        0
  2

 94
      512
 95
        0
  3

  0
ENDSEC
  0
EOF
