  0
SECTION
  2
HEADER
  9
$ACADVER
  1
AC1014
  9
$ACADMAINTVER
 70
     9
  9
$DWGCODEPAGE
  3
ANSI_1252
  9
$INSBASE
 10
18.7213199542155
 20
-4.29485930581708
 30
0.0
  9
$EXTMIN
 10
16.560897894609
 20
-5.662739615966019
 30
0.0
  9
$EXTMAX
 10
29.43031296964311
 20
-0.5874833125623871
 30
0.0
  9
$LIMMIN
 10
0.0
 20
0.0
  9
$LIMMAX
 10
36.0
 20
36.0
  9
$ORTHOMODE
 70
     1
  9
$REGENMODE
 70
     1
  9
$FILLMODE
 70
     1
  9
$QTEXTMODE
 70
     0
  9
$MIRRTEXT
 70
     1
  9
$DRAGMODE
 70
     0
  9
$LTSCALE
 40
1.0
  9
$OSMODE
 70
    37
  9
$ATTMODE
 70
     1
  9
$TEXTSIZE
 40
0.2
  9
$TRACEWID
 40
0.05
  9
$TEXTSTYLE
  7
STANDARD
  9
$CLAYER
  8
ADP1DETAIL
  9
$CELTYPE
  6
BYLAYER
  9
$CECOLOR
 62
   256
  9
$CELTSCALE
 40
1.0
  9
$DELOBJ
 70
     1
  9
$DISPSILH
 70
     0
  9
$DIMSCALE
 40
1.0
  9
$DIMASZ
 40
0.125
  9
$DIMEXO
 40
0.0625
  9
$DIMDLI
 40
0.38
  9
$DIMRND
 40
0.0
  9
$DIMDLE
 40
0.0
  9
$DIMEXE
 40
0.18
  9
$DIMTP
 40
0.0
  9
$DIMTM
 40
0.0
  9
$DIMTXT
 40
0.125
  9
$DIMCEN
 40
0.1875
  9
$DIMTSZ
 40
0.125
  9
$DIMTOL
 70
     0
  9
$DIMLIM
 70
     0
  9
$DIMTIH
 70
     0
  9
$DIMTOH
 70
     0
  9
$DIMSE1
 70
     0
  9
$DIMSE2
 70
     0
  9
$DIMTAD
 70
     0
  9
$DIMZIN
 70
     3
  9
$DIMBLK
  1

  9
$DIMASO
 70
     1
  9
$DIMSHO
 70
     1
  9
$DIMPOST
  1

  9
$DIMAPOST
  1

  9
$DIMALT
 70
     0
  9
$DIMALTD
 70
     1
  9
$DIMALTF
 40
25.4
  9
$DIMLFAC
 40
1.0
  9
$DIMTOFL
 70
     0
  9
$DIMTVP
 40
0.0
  9
$DIMTIX
 70
     0
  9
$DIMSOXD
 70
     0
  9
$DIMSAH
 70
     0
  9
$DIMBLK1
  1

  9
$DIMBLK2
  1

  9
$DIMSTYLE
  2
STANDARD
  9
$DIMCLRD
 70
     0
  9
$DIMCLRE
 70
     0
  9
$DIMCLRT
 70
     0
  9
$DIMTFAC
 40
1.0
  9
$DIMGAP
 40
0.125
  9
$DIMJUST
 70
     0
  9
$DIMSD1
 70
     0
  9
$DIMSD2
 70
     0
  9
$DIMTOLJ
 70
     1
  9
$DIMTZIN
 70
     0
  9
$DIMALTZ
 70
     0
  9
$DIMALTTZ
 70
     0
  9
$DIMFIT
 70
     3
  9
$DIMUPT
 70
     0
  9
$DIMUNIT
 70
     2
  9
$DIMDEC
 70
     4
  9
$DIMTDEC
 70
     4
  9
$DIMALTU
 70
     2
  9
$DIMALTTD
 70
     2
  9
$DIMTXSTY
  7
STANDARD
  9
$DIMAUNIT
 70
     0
  9
$LUNITS
 70
     5
  9
$LUPREC
 70
     4
  9
$SKETCHINC
 40
0.1
  9
$FILLETRAD
 40
0.062
  9
$AUNITS
 70
     0
  9
$AUPREC
 70
     0
  9
$MENU
  1
acad
  9
$ELEVATION
 40
0.0
  9
$PELEVATION
 40
0.0
  9
$THICKNESS
 40
0.0
  9
$LIMCHECK
 70
     0
  9
$BLIPMODE
 70
     0
  9
$CHAMFERA
 40
0.0
  9
$CHAMFERB
 40
0.0
  9
$CHAMFERC
 40
0.0
  9
$CHAMFERD
 40
0.0
  9
$SKPOLY
 70
     0
  9
$TDCREATE
 40
2450382.696146794
  9
$TDUPDATE
 40
2452297.067561666
  9
$TDINDWG
 40
0.0113869676
  9
$TDUSRTIMER
 40
0.0113869676
  9
$USRTIMER
 70
     1
  9
$ANGBASE
 50
0.0
  9
$ANGDIR
 70
     0
  9
$PDMODE
 70
     0
  9
$PDSIZE
 40
0.0
  9
$PLINEWID
 40
0.0
  9
$COORDS
 70
     2
  9
$SPLFRAME
 70
     0
  9
$SPLINETYPE
 70
     6
  9
$SPLINESEGS
 70
     8
  9
$ATTDIA
 70
     0
  9
$ATTREQ
 70
     1
  9
$HANDLING
 70
 22529
  9
$HANDSEED
  5
379
  9
$SURFTAB1
 70
     6
  9
$SURFTAB2
 70
     6
  9
$SURFTYPE
 70
     6
  9
$SURFU
 70
     6
  9
$SURFV
 70
     6
  9
$UCSNAME
  2

  9
$UCSORG
 10
0.0
 20
0.0
 30
0.0
  9
$UCSXDIR
 10
1.0
 20
0.0
 30
0.0
  9
$UCSYDIR
 10
0.0
 20
1.0
 30
0.0
  9
$PUCSNAME
  2

  9
$PUCSORG
 10
0.0
 20
0.0
 30
0.0
  9
$PUCSXDIR
 10
1.0
 20
0.0
 30
0.0
  9
$PUCSYDIR
 10
0.0
 20
1.0
 30
0.0
  9
$USERI1
 70
     0
  9
$USERI2
 70
     0
  9
$USERI3
 70
     0
  9
$USERI4
 70
     0
  9
$USERI5
 70
     0
  9
$USERR1
 40
0.0
  9
$USERR2
 40
0.0
  9
$USERR3
 40
0.0
  9
$USERR4
 40
0.0
  9
$USERR5
 40
0.0
  9
$WORLDVIEW
 70
     1
  9
$SHADEDGE
 70
     3
  9
$SHADEDIF
 70
    70
  9
$TILEMODE
 70
     1
  9
$MAXACTVP
 70
    15
  9
$PINSBASE
 10
0.0
 20
0.0
 30
0.0
  9
$PLIMCHECK
 70
     0
  9
$PEXTMIN
 10
1.000000000000000E+20
 20
1.000000000000000E+20
 30
1.000000000000000E+20
  9
$PEXTMAX
 10
-1.000000000000000E+20
 20
-1.000000000000000E+20
 30
-1.000000000000000E+20
  9
$PLIMMIN
 10
0.0
 20
0.0
  9
$PLIMMAX
 10
12.0
 20
9.0
  9
$UNITMODE
 70
     0
  9
$VISRETAIN
 70
     0
  9
$PLINEGEN
 70
     0
  9
$PSLTSCALE
 70
     1
  9
$TREEDEPTH
 70
  3020
  9
$PICKSTYLE
 70
     1
  9
$CMLSTYLE
  2
STANDARD
  9
$CMLJUST
 70
     0
  9
$CMLSCALE
 40
1.0
  9
$PROXYGRAPHICS
 70
     1
  9
$MEASUREMENT
 70
     0
  0
ENDSEC
  0
SECTION
  2
CLASSES
  0
CLASS
  1
ACDBDICTIONARYWDFLT
  2
AcDbDictionaryWithDefault
  3
AutoCAD 2000
 90
        0
280
     0
281
     0
  0
CLASS
  1
ACDBPLACEHOLDER
  2
AcDbPlaceHolder
  3
AutoCAD 2000
 90
        0
280
     0
281
     0
  0
CLASS
  1
LAYOUT
  2
AcDbLayout
  3
AutoCAD 2000
 90
        0
280
     0
281
     0
  0
CLASS
  1
DICTIONARYVAR
  2
AcDbDictionaryVar
  3
AutoCAD 2000
 90
        0
280
     0
281
     0
  0
CLASS
  1
LONG_TRANSACTION
  2
AcDbLongTransaction
  3
AutoCAD 2000
 90
        0
280
     0
281
     0
  0
CLASS
  1
LWPOLYLINE
  2
AcDbPolyline
  3
AutoCAD 2000
 90
        0
280
     0
281
     1
  0
CLASS
  1
HATCH
  2
AcDbHatch
  3
AutoCAD 2000
 90
        0
280
     0
281
     1
  0
CLASS
  1
XRECORD
  2
AcDbXrecord
  3
AutoCAD 2000
 90
        0
280
     0
281
     0
  0
CLASS
  1
LONG_TRANSACTION
  2
AcDbLongTransaction
  3
AutoCAD 2000
 90
        0
280
     0
281
     0
  0
CLASS
  1
LWPOLYLINE
  2
AcDbPolyline
  3
AutoCAD 2000
 90
        0
280
     0
281
     1
  0
CLASS
  1
HATCH
  2
AcDbHatch
  3
AutoCAD 2000
 90
        0
280
     0
281
     1
  0
CLASS
  1
XRECORD
  2
AcDbXrecord
  3
AutoCAD 2000
 90
        0
280
     0
281
     0
  0
CLASS
  1
LONG_TRANSACTION
  2
AcDbLongTransaction
  3
AutoCAD 2000
 90
        0
280
     0
281
     0
  0
CLASS
  1
LWPOLYLINE
  2
AcDbPolyline
  3
AutoCAD 2000
 90
        0
280
     0
281
     1
  0
CLASS
  1
HATCH
  2
AcDbHatch
  3
AutoCAD 2000
 90
        0
280
     0
281
     1
  0
CLASS
  1
XRECORD
  2
AcDbXrecord
  3
AutoCAD 2000
 90
        0
280
     0
281
     0
  0
CLASS
  1
LONG_TRANSACTION
  2
AcDbLongTransaction
  3
AutoCAD 2000
 90
        0
280
     0
281
     0
  0
CLASS
  1
LWPOLYLINE
  2
AcDbPolyline
  3
AutoCAD 2000
 90
        0
280
     0
281
     1
  0
CLASS
  1
HATCH
  2
AcDbHatch
  3
AutoCAD 2000
 90
        0
280
     0
281
     1
  0
CLASS
  1
XRECORD
  2
AcDbXrecord
  3
AutoCAD 2000
 90
        0
280
     0
281
     0
  0
CLASS
  1
LONG_TRANSACTION
  2
AcDbLongTransaction
  3
AutoCAD 2000
 90
        0
280
     0
281
     0
  0
CLASS
  1
LWPOLYLINE
  2
AcDbPolyline
  3
AutoCAD 2000
 90
        0
280
     0
281
     1
  0
CLASS
  1
HATCH
  2
AcDbHatch
  3
AutoCAD 2000
 90
        0
280
     0
281
     1
  0
CLASS
  1
XRECORD
  2
AcDbXrecord
  3
AutoCAD 2000
 90
        0
280
     0
281
     0
  0
CLASS
  1
LONG_TRANSACTION
  2
AcDbLongTransaction
  3
AutoCAD 2000
 90
        0
280
     0
281
     0
  0
CLASS
  1
LWPOLYLINE
  2
AcDbPolyline
  3
AutoCAD 2000
 90
        0
280
     0
281
     1
  0
CLASS
  1
HATCH
  2
AcDbHatch
  3
AutoCAD 2000
 90
        0
280
     0
281
     1
  0
CLASS
  1
XRECORD
  2
AcDbXrecord
  3
AutoCAD 2000
 90
        0
280
     0
281
     0
  0
CLASS
  1
LONG_TRANSACTION
  2
AcDbLongTransaction
  3
AutoCAD 2000
 90
        0
280
     0
281
     0
  0
CLASS
  1
LWPOLYLINE
  2
AcDbPolyline
  3
AutoCAD 2000
 90
        0
280
     0
281
     1
  0
CLASS
  1
HATCH
  2
AcDbHatch
  3
AutoCAD 2000
 90
        0
280
     0
281
     1
  0
CLASS
  1
XRECORD
  2
AcDbXrecord
  3
AutoCAD 2000
 90
        0
280
     0
281
     0
  0
CLASS
  1
LONG_TRANSACTION
  2
AcDbLongTransaction
  3
AutoCAD 2000
 90
        0
280
     0
281
     0
  0
CLASS
  1
LWPOLYLINE
  2
AcDbPolyline
  3
AutoCAD 2000
 90
        0
280
     0
281
     1
  0
CLASS
  1
HATCH
  2
AcDbHatch
  3
AutoCAD 2000
 90
        0
280
     0
281
     1
  0
CLASS
  1
XRECORD
  2
AcDbXrecord
  3
AutoCAD 2000
 90
        0
280
     0
281
     0
  0
CLASS
  1
LONG_TRANSACTION
  2
AcDbLongTransaction
  3
AutoCAD 2000
 90
        0
280
     0
281
     0
  0
CLASS
  1
LWPOLYLINE
  2
AcDbPolyline
  3
AutoCAD 2000
 90
        0
280
     0
281
     1
  0
CLASS
  1
HATCH
  2
AcDbHatch
  3
AutoCAD 2000
 90
        0
280
     0
281
     1
  0
CLASS
  1
XRECORD
  2
AcDbXrecord
  3
AutoCAD 2000
 90
        0
280
     0
281
     0
  0
ENDSEC
  0
SECTION
  2
TABLES
  0
TABLE
  2
VPORT
  5
8
330
0
100
AcDbSymbolTable
 70
     2
  0
VPORT
  5
356
330
8
100
AcDbSymbolTableRecord
100
AcDbViewportTableRecord
  2
*ACTIVE
 70
     0
 10
0.0
 20
0.0
 11
1.0
 21
1.0
 12
22.99603280447893
 22
-3.126513385858165
 13
0.0
 23
0.0
 14
0.5740882589684922
 24
0.5740882589684922
 15
0.5
 25
0.5
 16
0.0
 26
0.0
 36
1.0
 17
0.0
 27
0.0
 37
0.0
 40
8.234380065871835
 41
1.570528967254408
 42
50.0
 43
0.0
 44
0.0
 50
0.0
 51
0.0
 71
     0
 72
   100
 73
     1
 74
     0
 75
     0
 76
     0
 77
     0
 78
     0
  0
ENDTAB
  0
TABLE
  2
LTYPE
  5
5
330
0
100
AcDbSymbolTable
 70
     2
  0
LTYPE
  5
12
330
5
100
AcDbSymbolTableRecord
100
AcDbLinetypeTableRecord
  2
BYBLOCK
 70
     0
  3

 72
    65
 73
     0
 40
0.0
  0
LTYPE
  5
13
330
5
100
AcDbSymbolTableRecord
100
AcDbLinetypeTableRecord
  2
BYLAYER
 70
     0
  3

 72
    65
 73
     0
 40
0.0
  0
LTYPE
  5
14
330
5
100
AcDbSymbolTableRecord
100
AcDbLinetypeTableRecord
  2
CONTINUOUS
 70
     0
  3
Solid line
 72
    65
 73
     0
 40
0.0
  0
LTYPE
  5
E3
330
5
100
AcDbSymbolTableRecord
100
AcDbLinetypeTableRecord
  2
HIDDEN2
 70
     0
  3
_ _ _ _ _ _ _ _ _ _ _ _ _ _ _ _ _ _ _ _ _ _ _ _
 72
    65
 73
     2
 40
0.1875
 49
0.125
 74
     0
 49
-0.0625
 74
     0
  0
ENDTAB
  0
TABLE
  2
LAYER
  5
2
330
0
100
AcDbSymbolTable
 70
     5
  0
LAYER
  5
F
330
2
100
AcDbSymbolTableRecord
100
AcDbLayerTableRecord
  2
0
 70
     0
 62
     7
  6
CONTINUOUS
  0
LAYER
  5
E7
330
2
100
AcDbSymbolTableRecord
100
AcDbLayerTableRecord
  2
ADP1DETAIL
 70
     0
 62
     7
  6
CONTINUOUS
  0
LAYER
  5
E9
330
2
100
AcDbSymbolTableRecord
100
AcDbLayerTableRecord
  2
DEFPOINTS
 70
     0
 62
     7
  6
CONTINUOUS
  0
LAYER
  5
EA
330
2
100
AcDbSymbolTableRecord
100
AcDbLayerTableRecord
  2
ADPDIM
 70
     0
 62
     3
  6
CONTINUOUS
  0
LAYER
  5
EC
330
2
100
AcDbSymbolTableRecord
100
AcDbLayerTableRecord
  2
ADP2DETAIL
 70
     0
 62
     5
  6
CONTINUOUS
  0
ENDTAB
  0
TABLE
  2
STYLE
  5
3
330
0
100
AcDbSymbolTable
 70
     2
  0
STYLE
  5
10
330
3
100
AcDbSymbolTableRecord
100
AcDbTextStyleTableRecord
  2
STANDARD
 70
     0
 40
0.0
 41
1.0
 50
0.0
 71
     0
 42
0.2
  3
txt
  4

  0
STYLE
  5
181
330
3
100
AcDbSymbolTableRecord
100
AcDbTextStyleTableRecord
  2
ARIAL_WIDE
 70
     0
 40
0.0
 41
1.25
 50
0.0
 71
     0
 42
0.2
  3
ARIAL.TTF
  4

1001
ACAD
1000
Arial
1071
       34
  0
ENDTAB
  0
TABLE
  2
VIEW
  5
6
330
0
100
AcDbSymbolTable
 70
     0
  0
ENDTAB
  0
TABLE
  2
UCS
  5
7
330
0
100
AcDbSymbolTable
 70
     0
  0
ENDTAB
  0
TABLE
  2
APPID
  5
9
330
0
100
AcDbSymbolTable
 70
     1
  0
APPID
  5
11
330
9
100
AcDbSymbolTableRecord
100
AcDbRegAppTableRecord
  2
ACAD
 70
     0
  0
ENDTAB
  0
TABLE
  2
DIMSTYLE
  5
A
330
0
100
AcDbSymbolTable
 70
     1
  0
DIMSTYLE
105
175
330
A
100
AcDbSymbolTableRecord
100
AcDbDimStyleTableRecord
  2
STANDARD
 70
     0
  3

  4

  5

  6

  7

 40
1.0
 41
0.18
 42
0.0625
 43
0.38
 44
0.18
 45
0.0
 46
0.0
 47
0.0
 48
0.0
140
0.18
141
0.09
142
0.0
143
25.4
144
1.0
145
0.0
146
1.0
147
0.09
 71
     0
 72
     0
 73
     1
 74
     1
 75
     0
 76
     0
 77
     0
 78
     0
170
     0
171
     2
172
     0
173
     0
174
     0
175
     0
176
     0
177
     0
178
     0
270
     2
271
     4
272
     4
273
     2
274
     2
340
10
275
     0
280
     0
281
     0
282
     0
283
     1
284
     0
285
     0
286
     0
287
     3
288
     0
  0
ENDTAB
  0
TABLE
  2
BLOCK_RECORD
  5
1
330
0
100
AcDbSymbolTable
 70
     5
  0
BLOCK_RECORD
  5
18
102
{ACAD_XDICTIONARY
360
1D6
102
}
330
1
100
AcDbSymbolTableRecord
100
AcDbBlockTableRecord
  2
*MODEL_SPACE
  0
BLOCK_RECORD
  5
15
102
{ACAD_XDICTIONARY
360
1D4
102
}
330
1
100
AcDbSymbolTableRecord
100
AcDbBlockTableRecord
  2
*PAPER_SPACE
  0
BLOCK_RECORD
  5
DD
330
1
100
AcDbSymbolTableRecord
100
AcDbBlockTableRecord
  2
*D0
  0
BLOCK_RECORD
  5
DE
330
1
100
AcDbSymbolTableRecord
100
AcDbBlockTableRecord
  2
*D1
  0
BLOCK_RECORD
  5
DF
330
1
100
AcDbSymbolTableRecord
100
AcDbBlockTableRecord
  2
*D2
  0
BLOCK_RECORD
  5
E0
330
1
100
AcDbSymbolTableRecord
100
AcDbBlockTableRecord
  2
*D3
  0
BLOCK_RECORD
  5
E1
330
1
100
AcDbSymbolTableRecord
100
AcDbBlockTableRecord
  2
*D4
  0
ENDTAB
  0
ENDSEC
  0
SECTION
  2
BLOCKS
  0
BLOCK
  5
EF
330
18
100
AcDbEntity
  8
0
100
AcDbBlockBegin
  2
*MODEL_SPACE
 70
     0
 10
0.0
 20
0.0
 30
0.0
  3
*MODEL_SPACE
  1

  0
ENDBLK
  5
F0
330
18
100
AcDbEntity
  8
0
100
AcDbBlockEnd
  0
BLOCK
  5
ED
330
15
100
AcDbEntity
 67
     1
  8
0
100
AcDbBlockBegin
  2
*PAPER_SPACE
 70
     0
 10
0.0
 20
0.0
 30
0.0
  3
*PAPER_SPACE
  1

  0
ENDBLK
  5
EE
330
15
100
AcDbEntity
 67
     1
  8
0
100
AcDbBlockEnd
  0
BLOCK
  5
F2
330
DD
100
AcDbEntity
  8
0
100
AcDbBlockBegin
  2
*D0
 70
     1
 10
0.0
 20
0.0
 30
0.0
  3
*D0
  1

  0
LINE
  5
F3
330
DD
100
AcDbEntity
  8
0
  6
BYBLOCK
 62
     0
100
AcDbLine
 10
23.95908071413905
 20
-3.913964890399074
 30
0.0
 11
23.79261394313409
 21
-4.100482487829407
 31
0.0
  0
LINE
  5
F4
330
DD
100
AcDbEntity
  8
0
  6
BYBLOCK
 62
     0
100
AcDbLine
 10
23.96910612735174
 20
-4.090457074616718
 30
0.0
 11
23.94905530092636
 21
-3.73747270618143
 31
0.0
  0
LINE
  5
F5
330
DD
100
AcDbEntity
  8
0
  6
BYBLOCK
 62
     0
100
AcDbLine
 10
24.77038134016879
 20
-2.79485930581708
 30
0.0
 11
25.14538134016879
 21
-2.79485930581708
 31
0.0
  0
LINE
  5
F6
330
DD
100
AcDbEntity
  8
0
  6
BYBLOCK
 62
     0
100
AcDbLine
 10
24.95788134016879
 20
-2.98235930581708
 30
0.0
 11
24.95788134016879
 21
-2.60735930581708
 31
0.0
  0
TEXT
  5
F7
330
DD
100
AcDbEntity
  8
0
  6
BYBLOCK
 62
     0
100
AcDbText
 10
23.61728764781841
 20
-4.390789310487755
 30
0.0
 40
0.125
  1
%%c3
 50
48.25111985848473
 72
     1
 11
23.64001940304622
 21
-4.271456952140544
 31
0.0
100
AcDbText
 73
     2
  0
POINT
  5
F8
330
DD
100
AcDbEntity
  8
DEFPOINTS
  6
BYBLOCK
 62
     0
100
AcDbPoint
 10
23.95908071413905
 20
-3.913964890399074
 30
0.0
  0
POINT
  5
F9
330
DD
100
AcDbEntity
  8
DEFPOINTS
  6
BYBLOCK
 62
     0
100
AcDbPoint
 10
25.95668196619852
 20
-1.675753721235086
 30
0.0
  0
ENDBLK
  5
FA
330
DD
100
AcDbEntity
  8
0
100
AcDbBlockEnd
  0
BLOCK
  5
FB
330
DE
100
AcDbEntity
  8
0
100
AcDbBlockBegin
  2
*D1
 70
     1
 10
0.0
 20
0.0
 30
0.0
  3
*D1
  1

  0
LINE
  5
FC
330
DE
100
AcDbEntity
  8
0
  6
BYBLOCK
 62
     0
100
AcDbLine
 10
22.59501658591736
 20
-2.79485930581708
 30
0.0
 11
23.05948177481636
 21
-2.79485930581708
 31
0.0
  0
LINE
  5
FD
330
DE
100
AcDbEntity
  8
0
  6
BYBLOCK
 62
     0
100
AcDbLine
 10
22.40801658591736
 20
-1.552760062450854
 30
0.0
 11
23.05948177481636
 21
-1.552760062450854
 31
0.0
  0
LINE
  5
FE
330
DE
100
AcDbEntity
  8
0
  6
BYBLOCK
 62
     0
100
AcDbLine
 10
22.87948177481636
 20
-2.79485930581708
 30
0.0
 11
22.87948177481636
 21
-3.04485930581708
 31
0.0
  0
LINE
  5
FF
330
DE
100
AcDbEntity
  8
0
  6
BYBLOCK
 62
     0
100
AcDbLine
 10
22.87948177481636
 20
-1.552760062450854
 30
0.0
 11
22.87948177481636
 21
-1.302760062450854
 31
0.0
  0
LINE
  5
100
330
DE
100
AcDbEntity
  8
0
  6
BYBLOCK
 62
     0
100
AcDbLine
 10
23.00448177481636
 20
-2.91985930581708
 30
0.0
 11
22.75448177481636
 21
-2.66985930581708
 31
0.0
  0
LINE
  5
101
330
DE
100
AcDbEntity
  8
0
  6
BYBLOCK
 62
     0
100
AcDbLine
 10
23.00448177481636
 20
-1.677760062450854
 30
0.0
 11
22.75448177481636
 21
-1.427760062450854
 31
0.0
  0
TEXT
  5
102
330
DE
100
AcDbEntity
  8
0
  6
BYBLOCK
 62
     0
100
AcDbText
 10
22.94198177481636
 20
-1.177760062450854
 30
0.0
 40
0.125
  1
1 1/4
 50
90.0
 72
     1
 11
22.87948177481636
 21
-0.9277600624508545
 31
0.0
100
AcDbText
 73
     2
  0
POINT
  5
103
330
DE
100
AcDbEntity
  8
DEFPOINTS
  6
BYBLOCK
 62
     0
100
AcDbPoint
 10
22.53251658591736
 20
-2.79485930581708
 30
0.0
  0
POINT
  5
104
330
DE
100
AcDbEntity
  8
DEFPOINTS
  6
BYBLOCK
 62
     0
100
AcDbPoint
 10
22.34551658591736
 20
-1.552760062450854
 30
0.0
  0
POINT
  5
105
330
DE
100
AcDbEntity
  8
DEFPOINTS
  6
BYBLOCK
 62
     0
100
AcDbPoint
 10
22.87948177481636
 20
-1.552760062450854
 30
0.0
  0
ENDBLK
  5
106
330
DE
100
AcDbEntity
  8
0
100
AcDbBlockEnd
  0
BLOCK
  5
107
330
DF
100
AcDbEntity
  8
0
100
AcDbBlockBegin
  2
*D2
 70
     1
 10
0.0
 20
0.0
 30
0.0
  3
*D2
  1

  0
LINE
  5
108
330
DF
100
AcDbEntity
  8
0
  6
BYBLOCK
 62
     0
100
AcDbLine
 10
23.45788134016878
 20
-1.485877133472033
 30
0.0
 11
23.45788134016878
 21
-0.5874833125623871
 31
0.0
  0
LINE
  5
109
330
DF
100
AcDbEntity
  8
0
  6
BYBLOCK
 62
     0
100
AcDbLine
 10
26.45788134016878
 20
-1.485877133472033
 30
0.0
 11
26.45788134016878
 21
-0.5874833125623871
 31
0.0
  0
LINE
  5
10A
330
DF
100
AcDbEntity
  8
0
  6
BYBLOCK
 62
     0
100
AcDbLine
 10
23.45788134016878
 20
-0.767483312562387
 30
0.0
 11
24.79121467350212
 21
-0.767483312562387
 31
0.0
  0
LINE
  5
10B
330
DF
100
AcDbEntity
  8
0
  6
BYBLOCK
 62
     0
100
AcDbLine
 10
26.45788134016878
 20
-0.767483312562387
 30
0.0
 11
25.12454800683546
 21
-0.767483312562387
 31
0.0
  0
LINE
  5
10C
330
DF
100
AcDbEntity
  8
0
  6
BYBLOCK
 62
     0
100
AcDbLine
 10
23.33288134016878
 20
-0.8924833125623869
 30
0.0
 11
23.58288134016878
 21
-0.642483312562387
 31
0.0
  0
LINE
  5
10D
330
DF
100
AcDbEntity
  8
0
  6
BYBLOCK
 62
     0
100
AcDbLine
 10
26.33288134016879
 20
-0.8924833125623869
 30
0.0
 11
26.58288134016879
 21
-0.642483312562387
 31
0.0
  0
TEXT
  5
10E
330
DF
100
AcDbEntity
  8
0
  6
BYBLOCK
 62
     0
100
AcDbText
 10
24.91621467350212
 20
-0.8299833125623869
 30
0.0
 40
0.125
  1
3
 72
     1
 11
24.95788134016879
 21
-0.767483312562387
 31
0.0
100
AcDbText
 73
     2
  0
POINT
  5
10F
330
DF
100
AcDbEntity
  8
DEFPOINTS
  6
BYBLOCK
 62
     0
100
AcDbPoint
 10
23.45788134016878
 20
-1.548377133472033
 30
0.0
  0
POINT
  5
110
330
DF
100
AcDbEntity
  8
DEFPOINTS
  6
BYBLOCK
 62
     0
100
AcDbPoint
 10
26.45788134016878
 20
-1.548377133472033
 30
0.0
  0
POINT
  5
111
330
DF
100
AcDbEntity
  8
DEFPOINTS
  6
BYBLOCK
 62
     0
100
AcDbPoint
 10
26.45788134016878
 20
-0.767483312562387
 30
0.0
  0
ENDBLK
  5
112
330
DF
100
AcDbEntity
  8
0
100
AcDbBlockEnd
  0
BLOCK
  5
113
330
E0
100
AcDbEntity
  8
0
100
AcDbBlockBegin
  2
*D3
 70
     1
 10
0.0
 20
0.0
 30
0.0
  3
*D3
  1

  0
LINE
  5
114
330
E0
100
AcDbEntity
  8
0
  6
BYBLOCK
 62
     0
100
AcDbLine
 10
18.7213199542155
 20
-1.23235930581708
 30
0.0
 11
18.7213199542155
 21
-0.7398593058170809
 31
0.0
  0
LINE
  5
115
330
E0
100
AcDbEntity
  8
0
  6
BYBLOCK
 62
     0
100
AcDbLine
 10
21.8463199542155
 20
-1.35735930581708
 30
0.0
 11
21.8463199542155
 21
-0.7398593058170809
 31
0.0
  0
LINE
  5
116
330
E0
100
AcDbEntity
  8
0
  6
BYBLOCK
 62
     0
100
AcDbLine
 10
18.7213199542155
 20
-0.9198593058170807
 30
0.0
 11
19.88798662088217
 21
-0.9198593058170807
 31
0.0
  0
LINE
  5
117
330
E0
100
AcDbEntity
  8
0
  6
BYBLOCK
 62
     0
100
AcDbLine
 10
21.8463199542155
 20
-0.9198593058170807
 30
0.0
 11
20.67965328754884
 21
-0.9198593058170807
 31
0.0
  0
LINE
  5
118
330
E0
100
AcDbEntity
  8
0
  6
BYBLOCK
 62
     0
100
AcDbLine
 10
18.5963199542155
 20
-1.04485930581708
 30
0.0
 11
18.84631995421551
 21
-0.7948593058170808
 31
0.0
  0
LINE
  5
119
330
E0
100
AcDbEntity
  8
0
  6
BYBLOCK
 62
     0
100
AcDbLine
 10
21.72131995421551
 20
-1.04485930581708
 30
0.0
 11
21.97131995421551
 21
-0.7948593058170808
 31
0.0
  0
TEXT
  5
11A
330
E0
100
AcDbEntity
  8
0
  6
BYBLOCK
 62
     0
100
AcDbText
 10
20.01298662088217
 20
-0.9823593058170807
 30
0.0
 40
0.125
  1
3 1/8
 72
     1
 11
20.2838199542155
 21
-0.9198593058170807
 31
0.0
100
AcDbText
 73
     2
  0
POINT
  5
11B
330
E0
100
AcDbEntity
  8
DEFPOINTS
  6
BYBLOCK
 62
     0
100
AcDbPoint
 10
18.7213199542155
 20
-1.29485930581708
 30
0.0
  0
POINT
  5
11C
330
E0
100
AcDbEntity
  8
DEFPOINTS
  6
BYBLOCK
 62
     0
100
AcDbPoint
 10
21.8463199542155
 20
-1.41985930581708
 30
0.0
  0
POINT
  5
11D
330
E0
100
AcDbEntity
  8
DEFPOINTS
  6
BYBLOCK
 62
     0
100
AcDbPoint
 10
21.8463199542155
 20
-0.9198593058170807
 30
0.0
  0
ENDBLK
  5
11E
330
E0
100
AcDbEntity
  8
0
100
AcDbBlockEnd
  0
BLOCK
  5
11F
330
E1
100
AcDbEntity
  8
0
100
AcDbBlockBegin
  2
*D4
 70
     1
 10
0.0
 20
0.0
 30
0.0
  3
*D4
  1

  0
LINE
  5
120
330
E1
100
AcDbEntity
  8
0
  6
BYBLOCK
 62
     0
100
AcDbLine
 10
23.86438134016878
 20
-1.429263463514029
 30
0.0
 11
23.86438134016878
 21
-0.8684750148846907
 31
0.0
  0
LINE
  5
121
330
E1
100
AcDbEntity
  8
0
  6
BYBLOCK
 62
     0
100
AcDbLine
 10
26.05138134016878
 20
-1.429263463514029
 30
0.0
 11
26.05138134016878
 21
-0.8684750148846907
 31
0.0
  0
LINE
  5
122
330
E1
100
AcDbEntity
  8
0
  6
BYBLOCK
 62
     0
100
AcDbLine
 10
23.86438134016878
 20
-1.04847501488469
 30
0.0
 11
24.49954800683545
 21
-1.04847501488469
 31
0.0
  0
LINE
  5
123
330
E1
100
AcDbEntity
  8
0
  6
BYBLOCK
 62
     0
100
AcDbLine
 10
26.05138134016878
 20
-1.04847501488469
 30
0.0
 11
25.41621467350211
 21
-1.04847501488469
 31
0.0
  0
LINE
  5
124
330
E1
100
AcDbEntity
  8
0
  6
BYBLOCK
 62
     0
100
AcDbLine
 10
23.73938134016878
 20
-1.17347501488469
 30
0.0
 11
23.98938134016878
 21
-0.9234750148846906
 31
0.0
  0
LINE
  5
125
330
E1
100
AcDbEntity
  8
0
  6
BYBLOCK
 62
     0
100
AcDbLine
 10
25.92638134016878
 20
-1.17347501488469
 30
0.0
 11
26.17638134016878
 21
-0.9234750148846906
 31
0.0
  0
TEXT
  5
126
330
E1
100
AcDbEntity
  8
0
  6
BYBLOCK
 62
     0
100
AcDbText
 10
24.62454800683545
 20
-1.11097501488469
 30
0.0
 40
0.125
  1
2 3/16
 72
     1
 11
24.95788134016878
 21
-1.04847501488469
 31
0.0
100
AcDbText
 73
     2
  0
POINT
  5
127
330
E1
100
AcDbEntity
  8
DEFPOINTS
  6
BYBLOCK
 62
     0
100
AcDbPoint
 10
23.86438134016878
 20
-1.491763463514029
 30
0.0
  0
POINT
  5
128
330
E1
100
AcDbEntity
  8
DEFPOINTS
  6
BYBLOCK
 62
     0
100
AcDbPoint
 10
26.05138134016878
 20
-1.491763463514029
 30
0.0
  0
POINT
  5
129
330
E1
100
AcDbEntity
  8
DEFPOINTS
  6
BYBLOCK
 62
     0
100
AcDbPoint
 10
26.05138134016878
 20
-1.04847501488469
 30
0.0
  0
ENDBLK
  5
12A
330
E1
100
AcDbEntity
  8
0
100
AcDbBlockEnd
  0
ENDSEC
  0
SECTION
  2
ENTITIES
  0
LINE
  5
12B
330
18
100
AcDbEntity
  8
ADP1DETAIL
100
AcDbLine
 10
21.1593199542155
 20
-3.29485930581708
 30
0.0
 11
21.1593199542155
 21
-2.29485930581708
 31
0.0
  0
LINE
  5
12C
330
18
100
AcDbEntity
  8
ADP1DETAIL
100
AcDbLine
 10
22.40751658591736
 20
-3.29485930581708
 30
0.0
 11
22.40751658591736
 21
-2.29485930581708
 31
0.0
  0
LINE
  5
12D
330
18
100
AcDbEntity
  8
ADP1DETAIL
100
AcDbLine
 10
21.34731995421551
 20
-3.29485930581708
 30
0.0
 11
21.34731995421551
 21
-1.552760062450854
 31
0.0
  0
LINE
  5
12E
330
18
100
AcDbEntity
  8
ADP1DETAIL
100
AcDbLine
 10
22.34551658591736
 20
-1.552760062450854
 30
0.0
 11
22.34551658591736
 21
-3.29485930581708
 31
0.0
  0
LINE
  5
12F
330
18
100
AcDbEntity
  8
ADP1DETAIL
100
AcDbLine
 10
18.97131995421551
 20
-1.97306034018036
 30
0.0
 11
18.97131995421551
 21
-4.232859305817081
 31
0.0
  0
LINE
  5
130
330
18
100
AcDbEntity
  8
ADP1DETAIL
100
AcDbLine
 10
19.47131995421551
 20
-2.23235930581708
 30
0.0
 11
19.47131995421551
 21
-3.35735930581708
 31
0.0
  0
LINE
  5
131
330
18
100
AcDbEntity
  8
ADP1DETAIL
100
AcDbLine
 10
19.65931995421551
 20
-2.29485930581708
 30
0.0
 11
19.65931995421551
 21
-3.29485930581708
 31
0.0
  0
LINE
  5
132
330
18
100
AcDbEntity
  8
ADP1DETAIL
100
AcDbLine
 10
19.47131995421551
 20
-3.29485930581708
 30
0.0
 11
19.47131995421551
 21
-2.29485930581708
 31
0.0
  0
LINE
  5
133
330
18
100
AcDbEntity
  8
ADP1DETAIL
100
AcDbLine
 10
18.7213199542155
 20
-4.29485930581708
 30
0.0
 11
18.7213199542155
 21
-1.29485930581708
 31
0.0
  0
LINE
  5
134
330
18
100
AcDbEntity
  8
ADP1DETAIL
100
AcDbLine
 10
22.53251658591736
 20
-2.41985930581708
 30
0.0
 11
22.53251658591736
 21
-3.16985930581708
 31
0.0
  0
DIMENSION
  5
135
330
18
100
AcDbEntity
  8
ADPDIM
100
AcDbDimension
  2
*D1
 10
22.87948177481636
 20
-1.552760062450854
 30
0.0
 11
22.87948177481636
 21
-0.9277600624508545
 31
0.0
100
AcDbAlignedDimension
 13
22.53251658591736
 23
-2.79485930581708
 33
0.0
 14
22.34551658591736
 24
-1.552760062450854
 34
0.0
 50
90.0
100
AcDbRotatedDimension
  0
ARC
  5
136
330
18
100
AcDbEntity
  8
ADP1DETAIL
100
AcDbCircle
 10
20.41099175168507
 20
-4.677907764733719
 30
0.0
 40
1.568487103921047
100
AcDbArc
 50
61.85689779872536
 51
118.1431022012746
  0
LINE
  5
137
330
18
100
AcDbEntity
  8
ADP1DETAIL
100
AcDbLine
 10
19.47131995421551
 20
-3.35735930581708
 30
0.0
 11
19.00846918650628
 21
-3.559856516689865
 31
0.0
  0
LINE
  5
138
330
18
100
AcDbEntity
  8
ADP1DETAIL
100
AcDbLine
 10
18.9093199542155
 20
-4.29485930581708
 30
0.0
 11
18.7213199542155
 21
-4.29485930581708
 31
0.0
  0
ARC
  5
139
330
18
100
AcDbEntity
  8
ADP1DETAIL
100
AcDbCircle
 10
18.9093199542155
 20
-4.232859305817081
 30
0.0
 40
0.062
100
AcDbArc
 50
270.0
 51
0.0
  0
ARC
  5
13A
330
18
100
AcDbEntity
  8
ADP1DETAIL
100
AcDbCircle
 10
19.03331995421551
 20
-3.6166582714538
 30
0.0
 40
0.062
100
AcDbArc
 50
113.6293777306568
 51
180.0
  0
LINE
  5
13B
330
18
100
AcDbEntity
  8
ADP1DETAIL
100
AcDbLine
 10
19.65931995421551
 20
-3.29485930581708
 30
0.0
 11
19.47131995421551
 21
-3.29485930581708
 31
0.0
  0
LINE
  5
13C
330
18
100
AcDbEntity
  8
ADP1DETAIL
100
AcDbLine
 10
22.34551658591736
 20
-3.29485930581708
 30
0.0
 11
21.34731995421551
 21
-3.29485930581708
 31
0.0
  0
LINE
  5
13D
330
18
100
AcDbEntity
  8
ADP1DETAIL
100
AcDbLine
 10
21.34731995421551
 20
-3.29485930581708
 30
0.0
 11
21.1593199542155
 21
-3.29485930581708
 31
0.0
  0
LINE
  5
13E
330
18
100
AcDbEntity
  8
ADP1DETAIL
100
AcDbLine
 10
22.40751658591736
 20
-3.29485930581708
 30
0.0
 11
22.34551658591736
 21
-3.29485930581708
 31
0.0
  0
LINE
  5
13F
330
18
100
AcDbEntity
  8
ADP1DETAIL
100
AcDbLine
 10
22.53251658591736
 20
-3.16985930581708
 30
0.0
 11
22.40751658591736
 21
-3.29485930581708
 31
0.0
  0
ARC
  5
140
330
18
100
AcDbEntity
  8
ADP1DETAIL
100
AcDbCircle
 10
20.41099175168507
 20
-0.9355551172698817
 30
0.0
 40
1.550880667470914
100
AcDbArc
 50
241.2197222637633
 51
298.7802777362367
  0
DIMENSION
  5
141
330
18
100
AcDbEntity
  8
ADPDIM
100
AcDbDimension
  2
*D3
 10
21.8463199542155
 20
-0.9198593058170807
 30
0.0
 11
20.2838199542155
 21
-0.9198593058170807
 31
0.0
100
AcDbAlignedDimension
 13
18.7213199542155
 23
-1.29485930581708
 33
0.0
 14
21.8463199542155
 24
-1.41985930581708
 34
0.0
100
AcDbRotatedDimension
  0
LINE
  5
142
330
18
100
AcDbEntity
  8
ADP1DETAIL
100
AcDbLine
 10
19.00846918650628
 20
-2.029862094944295
 30
0.0
 11
19.47131995421551
 21
-2.23235930581708
 31
0.0
  0
LINE
  5
143
330
18
100
AcDbEntity
  8
ADP1DETAIL
100
AcDbLine
 10
18.97131995421551
 20
-1.356859305817078
 30
0.0
 11
18.97131995421551
 21
-1.97306034018036
 31
0.0
  0
ARC
  5
144
330
18
100
AcDbEntity
  8
ADP1DETAIL
100
AcDbCircle
 10
19.03331995421551
 20
-1.97306034018036
 30
0.0
 40
0.062
100
AcDbArc
 50
180.0
 51
246.3706222693431
  0
LINE
  5
145
330
18
100
AcDbEntity
  8
ADP1DETAIL
100
AcDbLine
 10
18.7213199542155
 20
-1.29485930581708
 30
0.0
 11
18.9093199542155
 21
-1.29485930581708
 31
0.0
  0
ARC
  5
146
330
18
100
AcDbEntity
  8
ADP1DETAIL
100
AcDbCircle
 10
18.9093199542155
 20
-1.356859305817078
 30
0.0
 40
0.062
100
AcDbArc
 50
0.0
 51
90.0
  0
LINE
  5
147
330
18
100
AcDbEntity
  8
ADP1DETAIL
100
AcDbLine
 10
19.47131995421551
 20
-2.29485930581708
 30
0.0
 11
19.65931995421551
 21
-2.29485930581708
 31
0.0
  0
LINE
  5
148
330
18
100
AcDbEntity
  8
ADP1DETAIL
100
AcDbLine
 10
21.34731995421551
 20
-1.552760062450854
 30
0.0
 11
22.34551658591736
 21
-1.552760062450854
 31
0.0
  0
LINE
  5
149
330
18
100
AcDbEntity
  8
ADP1DETAIL
100
AcDbLine
 10
21.34731995421551
 20
-1.802760062450856
 30
0.0
 11
22.34551658591736
 21
-1.802760062450856
 31
0.0
  0
LINE
  5
14A
330
18
100
AcDbEntity
  8
ADP1DETAIL
100
AcDbLine
 10
21.1593199542155
 20
-2.29485930581708
 30
0.0
 11
21.34731995421551
 21
-2.29485930581708
 31
0.0
  0
LINE
  5
14B
330
18
100
AcDbEntity
  8
ADP2DETAIL
  6
HIDDEN2
100
AcDbLine
 10
21.75331995421551
 20
-1.552760062450854
 30
0.0
 11
21.75331995421551
 21
-1.736735220682516
 31
0.0
  0
LINE
  5
14C
330
18
100
AcDbEntity
  8
ADP2DETAIL
  6
HIDDEN2
100
AcDbLine
 10
21.75331995421551
 20
-1.736735220682516
 30
0.0
 11
21.69131995421551
 21
-1.798735220682515
 31
0.0
  0
LINE
  5
14D
330
18
100
AcDbEntity
  8
ADP2DETAIL
  6
HIDDEN2
100
AcDbLine
 10
21.94131995421551
 20
-1.552760062450854
 30
0.0
 11
21.94131995421551
 21
-1.736735220682516
 31
0.0
  0
LINE
  5
14E
330
18
100
AcDbEntity
  8
ADP2DETAIL
  6
HIDDEN2
100
AcDbLine
 10
21.94131995421551
 20
-1.736735220682516
 30
0.0
 11
22.00331995421551
 21
-1.798735220682515
 31
0.0
  0
LINE
  5
14F
330
18
100
AcDbEntity
  8
ADP1DETAIL
100
AcDbLine
 10
22.34551658591736
 20
-2.29485930581708
 30
0.0
 11
22.40751658591736
 21
-2.29485930581708
 31
0.0
  0
LINE
  5
150
330
18
100
AcDbEntity
  8
ADP1DETAIL
100
AcDbLine
 10
22.40751658591736
 20
-2.29485930581708
 30
0.0
 11
22.53251658591736
 21
-2.41985930581708
 31
0.0
  0
ARC
  5
151
330
18
100
AcDbEntity
  8
ADP1DETAIL
100
AcDbCircle
 10
24.95788134016879
 20
-2.794859305817082
 30
0.0
 40
1.5
100
AcDbArc
 50
138.3697102098087
 51
41.6302897901913
  0
ARC
  5
152
330
18
100
AcDbEntity
  8
ADP1DETAIL
100
AcDbCircle
 10
24.95788134016879
 20
-2.794859305817082
 30
0.0
 40
0.5625
100
AcDbArc
 50
152.7339555492668
 51
27.26604445073279
  0
CIRCLE
  5
153
330
18
100
AcDbEntity
  8
ADP1DETAIL
100
AcDbCircle
 10
24.95788134016879
 20
-2.794859305817082
 30
0.0
 40
0.5
  0
LINE
  5
154
330
18
100
AcDbEntity
  8
ADP1DETAIL
100
AcDbLine
 10
25.45788134016879
 20
-1.923377133472031
 30
0.0
 11
25.45788134016879
 21
-2.862730773482782
 31
0.0
  0
LINE
  5
155
330
18
100
AcDbEntity
  8
ADP1DETAIL
100
AcDbLine
 10
24.45788134016879
 20
-2.862730773482782
 30
0.0
 11
24.45788134016879
 21
-1.923377133472033
 31
0.0
  0
CIRCLE
  5
156
330
18
100
AcDbEntity
  8
ADP1DETAIL
100
AcDbCircle
 10
24.95788134016879
 20
-2.794859305817082
 30
0.0
 40
0.375
  0
DIMENSION
  5
157
330
18
100
AcDbEntity
  8
ADPDIM
100
AcDbDimension
  2
*D0
 10
25.95668196619852
 20
-1.675753721235086
 30
0.0
 11
23.64001940304622
 21
-4.271456952140544
 31
0.0
 70
     3
100
AcDbDiametricDimension
 15
23.95908071413905
 25
-3.913964890399074
 35
0.0
 40
0.0
  0
LWPOLYLINE
  5
158
330
18
100
AcDbEntity
  8
ADP1DETAIL
100
AcDbPolyline
 90
        2
 70
     0
 43
0.0
 10
24.4616898885042
 20
-2.856455111640174
 10
24.45788134016879
 20
-2.862730773482782
  0
LINE
  5
15C
330
18
100
AcDbEntity
  8
ADP1DETAIL
100
AcDbLine
 10
25.45788134016879
 20
-2.862730773482782
 30
0.0
 11
25.45407279183336
 21
-2.856455111640174
 31
0.0
  0
LINE
  5
15D
330
18
100
AcDbEntity
  8
ADP1DETAIL
100
AcDbLine
 10
25.27038134016879
 20
-1.548377133472033
 30
0.0
 11
26.45788134016878
 21
-1.548377133472033
 31
0.0
  0
LINE
  5
15E
330
18
100
AcDbEntity
  8
ADP1DETAIL
100
AcDbLine
 10
26.45788134016878
 20
-1.798377133472033
 30
0.0
 11
25.58288134016879
 21
-1.798377133472031
 31
0.0
  0
DIMENSION
  5
15F
330
18
100
AcDbEntity
  8
ADPDIM
100
AcDbDimension
  2
*D4
 10
26.05138134016878
 20
-1.04847501488469
 30
0.0
 11
24.95788134016878
 21
-1.04847501488469
 31
0.0
100
AcDbAlignedDimension
 13
23.86438134016878
 23
-1.491763463514029
 33
0.0
 14
26.05138134016878
 24
-1.491763463514029
 34
0.0
100
AcDbRotatedDimension
  0
DIMENSION
  5
160
330
18
100
AcDbEntity
  8
ADPDIM
100
AcDbDimension
  2
*D2
 10
26.45788134016878
 20
-0.767483312562387
 30
0.0
 11
24.95788134016879
 21
-0.767483312562387
 31
0.0
100
AcDbAlignedDimension
 13
23.45788134016878
 23
-1.548377133472033
 33
0.0
 14
26.45788134016878
 24
-1.548377133472033
 34
0.0
100
AcDbRotatedDimension
  0
LINE
  5
161
330
18
100
AcDbEntity
  8
ADP1DETAIL
100
AcDbLine
 10
23.45788134016878
 20
-1.548377133472033
 30
0.0
 11
24.64538134016879
 21
-1.548377133472033
 31
0.0
  0
ARC
  5
162
330
18
100
AcDbEntity
  8
ADP1DETAIL
100
AcDbCircle
 10
24.95788134016879
 20
-2.794859305817082
 30
0.0
 40
1.5
100
AcDbArc
 50
56.20037548345182
 51
123.7996245165481
  0
LINE
  5
163
330
18
100
AcDbEntity
  8
ADP1DETAIL
100
AcDbLine
 10
24.33288134016879
 20
-1.798377133472033
 30
0.0
 11
23.45788134016878
 21
-1.798377133472033
 31
0.0
  0
LINE
  5
164
330
18
100
AcDbEntity
  8
ADP2DETAIL
  6
HIDDEN2
100
AcDbLine
 10
23.74201999379403
 20
-1.548377133472033
 30
0.0
 11
23.74201999379403
 21
-1.734079772751489
 31
0.0
  0
LINE
  5
165
330
18
100
AcDbEntity
  8
ADP2DETAIL
  6
HIDDEN2
100
AcDbLine
 10
23.74201999379403
 20
-1.734079772751489
 30
0.0
 11
23.68001999379403
 21
-1.796079772751489
 31
0.0
  0
LINE
  5
166
330
18
100
AcDbEntity
  8
ADP1DETAIL
100
AcDbLine
 10
23.45788134016878
 20
-1.798377133472033
 30
0.0
 11
23.45788134016878
 21
-1.548377133472033
 31
0.0
  0
LINE
  5
167
330
18
100
AcDbEntity
  8
ADP2DETAIL
  6
HIDDEN2
100
AcDbLine
 10
23.93001999379403
 20
-1.548377133472033
 30
0.0
 11
23.93001999379403
 21
-1.734079772751489
 31
0.0
  0
LINE
  5
168
330
18
100
AcDbEntity
  8
ADP2DETAIL
  6
HIDDEN2
100
AcDbLine
 10
23.93001999379403
 20
-1.734079772751489
 30
0.0
 11
23.99201999379403
 21
-1.796079772751489
 31
0.0
  0
ARC
  5
169
330
18
100
AcDbEntity
  8
ADP1DETAIL
100
AcDbCircle
 10
24.33288134016879
 20
-1.923377133472033
 30
0.0
 40
0.125
100
AcDbArc
 50
0.0
 51
90.0
  0
LINE
  5
16A
330
18
100
AcDbEntity
  8
ADP1DETAIL
100
AcDbLine
 10
24.64538134016879
 20
-1.499393017871536
 30
0.0
 11
25.27038134016879
 21
-1.499393017871536
 31
0.0
  0
LINE
  5
16B
330
18
100
AcDbEntity
  8
ADP1DETAIL
100
AcDbLine
 10
24.64538134016879
 20
-2.404546930917181
 30
0.0
 11
24.64538134016879
 21
-1.499393017871536
 31
0.0
  0
LINE
  5
16C
330
18
100
AcDbEntity
  8
ADP1DETAIL
100
AcDbLine
 10
24.64538134016879
 20
-1.553771429433975
 30
0.0
 11
24.64538134016879
 21
-2.404546930917181
 31
0.0
  0
LINE
  5
16D
330
18
100
AcDbEntity
  8
ADP1DETAIL
100
AcDbLine
 10
25.27038134016879
 20
-1.499393017871536
 30
0.0
 11
25.27038134016879
 21
-2.404546930917183
 31
0.0
  0
LINE
  5
16E
330
18
100
AcDbEntity
  8
ADP1DETAIL
100
AcDbLine
 10
25.27038134016879
 20
-2.404546930917183
 30
0.0
 11
25.27038134016879
 21
-1.553771429433975
 31
0.0
  0
ARC
  5
16F
330
18
100
AcDbEntity
  8
ADP1DETAIL
100
AcDbCircle
 10
25.58288134016879
 20
-1.923377133472031
 30
0.0
 40
0.125
100
AcDbArc
 50
89.99999999999991
 51
180.0
  0
LINE
  5
170
330
18
100
AcDbEntity
  8
ADP2DETAIL
  6
HIDDEN2
100
AcDbLine
 10
26.14450319015669
 20
-1.548377133472033
 30
0.0
 11
26.14450319015669
 21
-1.734079772751489
 31
0.0
  0
LINE
  5
171
330
18
100
AcDbEntity
  8
ADP2DETAIL
  6
HIDDEN2
100
AcDbLine
 10
25.95650319015669
 20
-1.548377133472033
 30
0.0
 11
25.95650319015669
 21
-1.734079772751489
 31
0.0
  0
LINE
  5
172
330
18
100
AcDbEntity
  8
ADP2DETAIL
  6
HIDDEN2
100
AcDbLine
 10
26.14450319015669
 20
-1.734079772751489
 30
0.0
 11
26.20650319015668
 21
-1.796079772751489
 31
0.0
  0
LINE
  5
173
330
18
100
AcDbEntity
  8
ADP2DETAIL
  6
HIDDEN2
100
AcDbLine
 10
25.95650319015669
 20
-1.734079772751489
 30
0.0
 11
25.89450319015669
 21
-1.796079772751489
 31
0.0
  0
LINE
  5
174
330
18
100
AcDbEntity
  8
ADP1DETAIL
100
AcDbLine
 10
26.45788134016878
 20
-1.548377133472033
 30
0.0
 11
26.45788134016878
 21
-1.798377133472033
 31
0.0
  0
TEXT
  5
182
330
18
100
AcDbEntity
  8
ADPDIM
100
AcDbText
 10
16.560897894609
 20
-5.625734158940098
 30
0.0
 40
0.125
  1
J U L I U S  B L U M  &  C O . ,  I N C .      ( 8 0 0 )  5 2 6 - 6 2 9 3        W W W . J U L I U S B L U M . C O M        P A R T  N o .  3 1 4
 41
1.25
  7
ARIAL_WIDE
 72
     1
 11
22.99560543212605
 21
-5.500734158940098
 31
0.0
100
AcDbText
 73
     3
  0
ENDSEC
  0
SECTION
  2
OBJECTS
  0
DICTIONARY
  5
C
330
0
100
AcDbDictionary
  3
ACAD_GROUP
350
D
  3
ACAD_LAYOUT
350
17B
  3
ACAD_MLINESTYLE
350
E
  3
ACAD_PLOTSETTINGS
350
17C
  3
ACAD_PLOTSTYLENAME
350
179
  3
ACDBHEADERROUNDTRIPXREC
350
357
  3
ACDBVARIABLEDICTIONARY
350
1DC
  0
DICTIONARY
  5
1D6
330
18
100
AcDbDictionary
280
     1
  3
ACAD_LAYOUTSELFREF
360
378
  0
DICTIONARY
  5
1D4
330
15
100
AcDbDictionary
280
     1
  3
ACAD_LAYOUTSELFREF
360
377
  0
DICTIONARY
  5
D
102
{ACAD_REACTORS
330
C
102
}
330
C
100
AcDbDictionary
  0
DICTIONARY
  5
17B
102
{ACAD_REACTORS
330
C
102
}
330
C
100
AcDbDictionary
  0
DICTIONARY
  5
E
102
{ACAD_REACTORS
330
C
102
}
330
C
100
AcDbDictionary
  3
STANDARD
350
1B
  0
DICTIONARY
  5
17C
102
{ACAD_REACTORS
330
C
102
}
330
C
100
AcDbDictionary
  0
ACDBDICTIONARYWDFLT
  5
179
102
{ACAD_REACTORS
330
C
102
}
330
C
100
AcDbDictionary
281
     1
  3
Normal
350
17A
100
AcDbDictionaryWithDefault
340
17A
  0
DICTIONARY
  5
357
102
{ACAD_REACTORS
330
C
102
}
330
C
100
AcDbDictionary
  3
CEPSNTYPE
350
361
  3
FINGERPRINTGUID
350
362
  3
HYPERLINKBASE
350
35A
  3
INSUNITS
350
360
  3
LAYOUTDICT
350
35C
  3
LWETCUNION
350
35F
  3
PLOTSETDICT
350
35D
  3
PLOTSTYLNAMDICT
350
35E
  3
PSVPSCALE
350
364
  3
PUCSBASE
350
367
  3
PUCSORGBACK
350
36D
  3
PUCSORGBOTTOM
350
369
  3
PUCSORGFRONT
350
36C
  3
PUCSORGLEFT
350
36A
  3
PUCSORGRIGHT
350
36B
  3
PUCSORGTOP
350
368
  3
PUCSORTHOREF
350
365
  3
PUCSORTHOVIEW
350
366
  3
STYLESHEET
350
35B
  3
TSTACKALIGN
350
358
  3
TSTACKSIZE
350
359
  3
UCSBASE
350
370
  3
UCSORGBACK
350
376
  3
UCSORGBOTTOM
350
372
  3
UCSORGFRONT
350
375
  3
UCSORGLEFT
350
373
  3
UCSORGRIGHT
350
374
  3
UCSORGTOP
350
371
  3
UCSORTHOREF
350
36E
  3
UCSORTHOVIEW
350
36F
  3
VERSIONGUID
350
363
  0
DICTIONARY
  5
1DC
102
{ACAD_REACTORS
330
C
102
}
330
C
100
AcDbDictionary
  3
DIMASSOC
350
1DD
  0
XRECORD
  5
378
102
{ACAD_REACTORS
330
1D6
102
}
330
1D6
100
AcDbXrecord
340
18
  0
XRECORD
  5
377
102
{ACAD_REACTORS
330
1D4
102
}
330
1D4
100
AcDbXrecord
340
15
  0
MLINESTYLE
  5
1B
102
{ACAD_REACTORS
330
E
102
}
330
E
100
AcDbMlineStyle
  2
STANDARD
 70
     0
  3

 62
     0
 51
90.0
 52
90.0
 71
     2
 49
0.5
 62
   256
  6
BYLAYER
 49
-0.5
 62
   256
  6
BYLAYER
  0
ACDBPLACEHOLDER
  5
17A
102
{ACAD_REACTORS
330
179
102
}
330
179
100
AcDbPlaceHolder
280
     0
  0
XRECORD
  5
361
102
{ACAD_REACTORS
330
357
102
}
330
357
100
AcDbXrecord
 90
        0
  0
XRECORD
  5
362
102
{ACAD_REACTORS
330
357
102
}
330
357
100
AcDbXrecord
  1
{E21A8167-AE24-4F15-98C9-12A069A794ED}
  0
XRECORD
  5
35A
102
{ACAD_REACTORS
330
357
102
}
330
357
100
AcDbXrecord
  1

  0
XRECORD
  5
360
102
{ACAD_REACTORS
330
357
102
}
330
357
100
AcDbXrecord
 90
        0
  0
XRECORD
  5
35C
102
{ACAD_REACTORS
330
357
102
}
330
357
100
AcDbXrecord
340
17B
  0
XRECORD
  5
35F
102
{ACAD_REACTORS
330
357
102
}
330
357
100
AcDbXrecord
 90
    14877
  0
XRECORD
  5
35D
102
{ACAD_REACTORS
330
357
102
}
330
357
100
AcDbXrecord
340
17C
  0
XRECORD
  5
35E
102
{ACAD_REACTORS
330
357
102
}
330
357
100
AcDbXrecord
340
179
  0
XRECORD
  5
364
102
{ACAD_REACTORS
330
357
102
}
330
357
100
AcDbXrecord
 40
0.0
  0
XRECORD
  5
367
102
{ACAD_REACTORS
330
357
102
}
330
357
100
AcDbXrecord
340
0
  0
XRECORD
  5
36D
102
{ACAD_REACTORS
330
357
102
}
330
357
100
AcDbXrecord
 10
0.0
 20
0.0
 30
0.0
  0
XRECORD
  5
369
102
{ACAD_REACTORS
330
357
102
}
330
357
100
AcDbXrecord
 10
0.0
 20
0.0
 30
0.0
  0
XRECORD
  5
36C
102
{ACAD_REACTORS
330
357
102
}
330
357
100
AcDbXrecord
 10
0.0
 20
0.0
 30
0.0
  0
XRECORD
  5
36A
102
{ACAD_REACTORS
330
357
102
}
330
357
100
AcDbXrecord
 10
0.0
 20
0.0
 30
0.0
  0
XRECORD
  5
36B
102
{ACAD_REACTORS
330
357
102
}
330
357
100
AcDbXrecord
 10
0.0
 20
0.0
 30
0.0
  0
XRECORD
  5
368
102
{ACAD_REACTORS
330
357
102
}
330
357
100
AcDbXrecord
 10
0.0
 20
0.0
 30
0.0
  0
XRECORD
  5
365
102
{ACAD_REACTORS
330
357
102
}
330
357
100
AcDbXrecord
340
0
  0
XRECORD
  5
366
102
{ACAD_REACTORS
330
357
102
}
330
357
100
AcDbXrecord
 70
     0
  0
XRECORD
  5
35B
102
{ACAD_REACTORS
330
357
102
}
330
357
100
AcDbXrecord
  1

  0
XRECORD
  5
358
102
{ACAD_REACTORS
330
357
102
}
330
357
100
AcDbXrecord
 90
        1
  0
XRECORD
  5
359
102
{ACAD_REACTORS
330
357
102
}
330
357
100
AcDbXrecord
 90
       70
  0
XRECORD
  5
370
102
{ACAD_REACTORS
330
357
102
}
330
357
100
AcDbXrecord
340
0
  0
XRECORD
  5
376
102
{ACAD_REACTORS
330
357
102
}
330
357
100
AcDbXrecord
 10
0.0
 20
0.0
 30
0.0
  0
XRECORD
  5
372
102
{ACAD_REACTORS
330
357
102
}
330
357
100
AcDbXrecord
 10
0.0
 20
0.0
 30
0.0
  0
XRECORD
  5
375
102
{ACAD_REACTORS
330
357
102
}
330
357
100
AcDbXrecord
 10
0.0
 20
0.0
 30
0.0
  0
XRECORD
  5
373
102
{ACAD_REACTORS
330
357
102
}
330
357
100
AcDbXrecord
 10
0.0
 20
0.0
 30
0.0
  0
XRECORD
  5
374
102
{ACAD_REACTORS
330
357
102
}
330
357
100
AcDbXrecord
 10
0.0
 20
0.0
 30
0.0
  0
XRECORD
  5
371
102
{ACAD_REACTORS
330
357
102
}
330
357
100
AcDbXrecord
 10
0.0
 20
0.0
 30
0.0
  0
XRECORD
  5
36E
102
{ACAD_REACTORS
330
357
102
}
330
357
100
AcDbXrecord
340
0
  0
XRECORD
  5
36F
102
{ACAD_REACTORS
330
357
102
}
330
357
100
AcDbXrecord
 70
     0
  0
XRECORD
  5
363
102
{ACAD_REACTORS
330
357
102
}
330
357
100
AcDbXrecord
  1
{C76D45C6-5D5D-4B33-B6CD-F5EF37FF74C5}
  0
DICTIONARYVAR
  5
1DD
102
{ACAD_REACTORS
330
1DC
102
}
330
1DC
100
DictionaryVariables
280
     0
  1
1
  0
ENDSEC
  0
EOF
