  0
SECTION
  2
HEADER
  9
$ACADVER
  1
AC1014
  9
$ACADMAINTVER
 70
     9
  9
$DWGCODEPAGE
  3
ANSI_1252
  9
$INSBASE
 10
30.21122925875298
 20
-4.597157611051143
 30
0.0
  9
$EXTMIN
 10
27.75399377196494
 20
-5.676473878867192
 30
0.0
  9
$EXTMAX
 10
40.62340884699906
 20
-0.8518207156583679
 30
0.0
  9
$LIMMIN
 10
0.0
 20
0.0
  9
$LIMMAX
 10
36.0
 20
36.0
  9
$ORTHOMODE
 70
     1
  9
$REGENMODE
 70
     1
  9
$FILLMODE
 70
     1
  9
$QTEXTMODE
 70
     0
  9
$MIRRTEXT
 70
     1
  9
$DRAGMODE
 70
     0
  9
$LTSCALE
 40
1.0
  9
$OSMODE
 70
    37
  9
$ATTMODE
 70
     1
  9
$TEXTSIZE
 40
0.2
  9
$TRACEWID
 40
0.05
  9
$TEXTSTYLE
  7
STANDARD
  9
$CLAYER
  8
ADP1DETAIL
  9
$CELTYPE
  6
BYLAYER
  9
$CECOLOR
 62
   256
  9
$CELTSCALE
 40
1.0
  9
$DELOBJ
 70
     1
  9
$DISPSILH
 70
     0
  9
$DIMSCALE
 40
1.0
  9
$DIMASZ
 40
0.125
  9
$DIMEXO
 40
0.0625
  9
$DIMDLI
 40
0.38
  9
$DIMRND
 40
0.0
  9
$DIMDLE
 40
0.0
  9
$DIMEXE
 40
0.18
  9
$DIMTP
 40
0.0
  9
$DIMTM
 40
0.0
  9
$DIMTXT
 40
0.125
  9
$DIMCEN
 40
0.1875
  9
$DIMTSZ
 40
0.125
  9
$DIMTOL
 70
     0
  9
$DIMLIM
 70
     0
  9
$DIMTIH
 70
     0
  9
$DIMTOH
 70
     0
  9
$DIMSE1
 70
     0
  9
$DIMSE2
 70
     0
  9
$DIMTAD
 70
     0
  9
$DIMZIN
 70
     3
  9
$DIMBLK
  1

  9
$DIMASO
 70
     1
  9
$DIMSHO
 70
     1
  9
$DIMPOST
  1

  9
$DIMAPOST
  1

  9
$DIMALT
 70
     0
  9
$DIMALTD
 70
     1
  9
$DIMALTF
 40
25.4
  9
$DIMLFAC
 40
1.0
  9
$DIMTOFL
 70
     0
  9
$DIMTVP
 40
0.0
  9
$DIMTIX
 70
     0
  9
$DIMSOXD
 70
     0
  9
$DIMSAH
 70
     0
  9
$DIMBLK1
  1

  9
$DIMBLK2
  1

  9
$DIMSTYLE
  2
STANDARD
  9
$DIMCLRD
 70
     0
  9
$DIMCLRE
 70
     0
  9
$DIMCLRT
 70
     0
  9
$DIMTFAC
 40
1.0
  9
$DIMGAP
 40
0.125
  9
$DIMJUST
 70
     0
  9
$DIMSD1
 70
     0
  9
$DIMSD2
 70
     0
  9
$DIMTOLJ
 70
     1
  9
$DIMTZIN
 70
     0
  9
$DIMALTZ
 70
     0
  9
$DIMALTTZ
 70
     0
  9
$DIMFIT
 70
     3
  9
$DIMUPT
 70
     0
  9
$DIMUNIT
 70
     2
  9
$DIMDEC
 70
     4
  9
$DIMTDEC
 70
     4
  9
$DIMALTU
 70
     2
  9
$DIMALTTD
 70
     2
  9
$DIMTXSTY
  7
STANDARD
  9
$DIMAUNIT
 70
     0
  9
$LUNITS
 70
     5
  9
$LUPREC
 70
     4
  9
$SKETCHINC
 40
0.1
  9
$FILLETRAD
 40
0.062
  9
$AUNITS
 70
     0
  9
$AUPREC
 70
     0
  9
$MENU
  1
acad
  9
$ELEVATION
 40
0.0
  9
$PELEVATION
 40
0.0
  9
$THICKNESS
 40
0.0
  9
$LIMCHECK
 70
     0
  9
$BLIPMODE
 70
     0
  9
$CHAMFERA
 40
0.0
  9
$CHAMFERB
 40
0.0
  9
$CHAMFERC
 40
0.0
  9
$CHAMFERD
 40
0.0
  9
$SKPOLY
 70
     0
  9
$TDCREATE
 40
2450382.697599537
  9
$TDUPDATE
 40
2452297.067535440
  9
$TDINDWG
 40
0.0126180671
  9
$TDUSRTIMER
 40
0.0126180671
  9
$USRTIMER
 70
     1
  9
$ANGBASE
 50
0.0
  9
$ANGDIR
 70
     0
  9
$PDMODE
 70
     0
  9
$PDSIZE
 40
0.0
  9
$PLINEWID
 40
0.0
  9
$COORDS
 70
     2
  9
$SPLFRAME
 70
     0
  9
$SPLINETYPE
 70
     6
  9
$SPLINESEGS
 70
     8
  9
$ATTDIA
 70
     0
  9
$ATTREQ
 70
     1
  9
$HANDLING
 70
 22529
  9
$HANDSEED
  5
382
  9
$SURFTAB1
 70
     6
  9
$SURFTAB2
 70
     6
  9
$SURFTYPE
 70
     6
  9
$SURFU
 70
     6
  9
$SURFV
 70
     6
  9
$UCSNAME
  2

  9
$UCSORG
 10
0.0
 20
0.0
 30
0.0
  9
$UCSXDIR
 10
1.0
 20
0.0
 30
0.0
  9
$UCSYDIR
 10
0.0
 20
1.0
 30
0.0
  9
$PUCSNAME
  2

  9
$PUCSORG
 10
0.0
 20
0.0
 30
0.0
  9
$PUCSXDIR
 10
1.0
 20
0.0
 30
0.0
  9
$PUCSYDIR
 10
0.0
 20
1.0
 30
0.0
  9
$USERI1
 70
     0
  9
$USERI2
 70
     0
  9
$USERI3
 70
     0
  9
$USERI4
 70
     0
  9
$USERI5
 70
     0
  9
$USERR1
 40
0.0
  9
$USERR2
 40
0.0
  9
$USERR3
 40
0.0
  9
$USERR4
 40
0.0
  9
$USERR5
 40
0.0
  9
$WORLDVIEW
 70
     1
  9
$SHADEDGE
 70
     3
  9
$SHADEDIF
 70
    70
  9
$TILEMODE
 70
     1
  9
$MAXACTVP
 70
    15
  9
$PINSBASE
 10
0.0
 20
0.0
 30
0.0
  9
$PLIMCHECK
 70
     0
  9
$PEXTMIN
 10
1.000000000000000E+20
 20
1.000000000000000E+20
 30
1.000000000000000E+20
  9
$PEXTMAX
 10
-1.000000000000000E+20
 20
-1.000000000000000E+20
 30
-1.000000000000000E+20
  9
$PLIMMIN
 10
0.0
 20
0.0
  9
$PLIMMAX
 10
12.0
 20
9.0
  9
$UNITMODE
 70
     0
  9
$VISRETAIN
 70
     0
  9
$PLINEGEN
 70
     0
  9
$PSLTSCALE
 70
     1
  9
$TREEDEPTH
 70
  3020
  9
$PICKSTYLE
 70
     1
  9
$CMLSTYLE
  2
STANDARD
  9
$CMLJUST
 70
     0
  9
$CMLSCALE
 40
1.0
  9
$PROXYGRAPHICS
 70
     1
  9
$MEASUREMENT
 70
     0
  0
ENDSEC
  0
SECTION
  2
CLASSES
  0
CLASS
  1
ACDBDICTIONARYWDFLT
  2
AcDbDictionaryWithDefault
  3
AutoCAD 2000
 90
        0
280
     0
281
     0
  0
CLASS
  1
ACDBPLACEHOLDER
  2
AcDbPlaceHolder
  3
AutoCAD 2000
 90
        0
280
     0
281
     0
  0
CLASS
  1
LAYOUT
  2
AcDbLayout
  3
AutoCAD 2000
 90
        0
280
     0
281
     0
  0
CLASS
  1
DICTIONARYVAR
  2
AcDbDictionaryVar
  3
AutoCAD 2000
 90
        0
280
     0
281
     0
  0
CLASS
  1
LONG_TRANSACTION
  2
AcDbLongTransaction
  3
AutoCAD 2000
 90
        0
280
     0
281
     0
  0
CLASS
  1
LWPOLYLINE
  2
AcDbPolyline
  3
AutoCAD 2000
 90
        0
280
     0
281
     1
  0
CLASS
  1
HATCH
  2
AcDbHatch
  3
AutoCAD 2000
 90
        0
280
     0
281
     1
  0
CLASS
  1
XRECORD
  2
AcDbXrecord
  3
AutoCAD 2000
 90
        0
280
     0
281
     0
  0
CLASS
  1
LONG_TRANSACTION
  2
AcDbLongTransaction
  3
AutoCAD 2000
 90
        0
280
     0
281
     0
  0
CLASS
  1
LWPOLYLINE
  2
AcDbPolyline
  3
AutoCAD 2000
 90
        0
280
     0
281
     1
  0
CLASS
  1
HATCH
  2
AcDbHatch
  3
AutoCAD 2000
 90
        0
280
     0
281
     1
  0
CLASS
  1
XRECORD
  2
AcDbXrecord
  3
AutoCAD 2000
 90
        0
280
     0
281
     0
  0
CLASS
  1
LONG_TRANSACTION
  2
AcDbLongTransaction
  3
AutoCAD 2000
 90
        0
280
     0
281
     0
  0
CLASS
  1
LWPOLYLINE
  2
AcDbPolyline
  3
AutoCAD 2000
 90
        0
280
     0
281
     1
  0
CLASS
  1
HATCH
  2
AcDbHatch
  3
AutoCAD 2000
 90
        0
280
     0
281
     1
  0
CLASS
  1
XRECORD
  2
AcDbXrecord
  3
AutoCAD 2000
 90
        0
280
     0
281
     0
  0
CLASS
  1
LONG_TRANSACTION
  2
AcDbLongTransaction
  3
AutoCAD 2000
 90
        0
280
     0
281
     0
  0
CLASS
  1
LWPOLYLINE
  2
AcDbPolyline
  3
AutoCAD 2000
 90
        0
280
     0
281
     1
  0
CLASS
  1
HATCH
  2
AcDbHatch
  3
AutoCAD 2000
 90
        0
280
     0
281
     1
  0
CLASS
  1
XRECORD
  2
AcDbXrecord
  3
AutoCAD 2000
 90
        0
280
     0
281
     0
  0
CLASS
  1
LONG_TRANSACTION
  2
AcDbLongTransaction
  3
AutoCAD 2000
 90
        0
280
     0
281
     0
  0
CLASS
  1
LWPOLYLINE
  2
AcDbPolyline
  3
AutoCAD 2000
 90
        0
280
     0
281
     1
  0
CLASS
  1
HATCH
  2
AcDbHatch
  3
AutoCAD 2000
 90
        0
280
     0
281
     1
  0
CLASS
  1
XRECORD
  2
AcDbXrecord
  3
AutoCAD 2000
 90
        0
280
     0
281
     0
  0
CLASS
  1
LONG_TRANSACTION
  2
AcDbLongTransaction
  3
AutoCAD 2000
 90
        0
280
     0
281
     0
  0
CLASS
  1
LWPOLYLINE
  2
AcDbPolyline
  3
AutoCAD 2000
 90
        0
280
     0
281
     1
  0
CLASS
  1
HATCH
  2
AcDbHatch
  3
AutoCAD 2000
 90
        0
280
     0
281
     1
  0
CLASS
  1
XRECORD
  2
AcDbXrecord
  3
AutoCAD 2000
 90
        0
280
     0
281
     0
  0
CLASS
  1
LONG_TRANSACTION
  2
AcDbLongTransaction
  3
AutoCAD 2000
 90
        0
280
     0
281
     0
  0
CLASS
  1
LWPOLYLINE
  2
AcDbPolyline
  3
AutoCAD 2000
 90
        0
280
     0
281
     1
  0
CLASS
  1
HATCH
  2
AcDbHatch
  3
AutoCAD 2000
 90
        0
280
     0
281
     1
  0
CLASS
  1
XRECORD
  2
AcDbXrecord
  3
AutoCAD 2000
 90
        0
280
     0
281
     0
  0
CLASS
  1
LONG_TRANSACTION
  2
AcDbLongTransaction
  3
AutoCAD 2000
 90
        0
280
     0
281
     0
  0
CLASS
  1
LWPOLYLINE
  2
AcDbPolyline
  3
AutoCAD 2000
 90
        0
280
     0
281
     1
  0
CLASS
  1
HATCH
  2
AcDbHatch
  3
AutoCAD 2000
 90
        0
280
     0
281
     1
  0
CLASS
  1
XRECORD
  2
AcDbXrecord
  3
AutoCAD 2000
 90
        0
280
     0
281
     0
  0
CLASS
  1
LONG_TRANSACTION
  2
AcDbLongTransaction
  3
AutoCAD 2000
 90
        0
280
     0
281
     0
  0
CLASS
  1
LWPOLYLINE
  2
AcDbPolyline
  3
AutoCAD 2000
 90
        0
280
     0
281
     1
  0
CLASS
  1
HATCH
  2
AcDbHatch
  3
AutoCAD 2000
 90
        0
280
     0
281
     1
  0
CLASS
  1
XRECORD
  2
AcDbXrecord
  3
AutoCAD 2000
 90
        0
280
     0
281
     0
  0
ENDSEC
  0
SECTION
  2
TABLES
  0
TABLE
  2
VPORT
  5
8
330
0
100
AcDbSymbolTable
 70
     2
  0
VPORT
  5
35F
330
8
100
AcDbSymbolTableRecord
100
AcDbViewportTableRecord
  2
*ACTIVE
 70
     0
 10
0.0
 20
0.0
 11
1.0
 21
1.0
 12
34.19008146253935
 22
-3.263156221063646
 13
0.0
 23
0.0
 14
0.5740882589684922
 24
0.5740882589684922
 15
0.5
 25
0.5
 16
0.0
 26
0.0
 36
1.0
 17
0.0
 27
0.0
 37
0.0
 40
8.235549081645393
 41
1.570528967254408
 42
50.0
 43
0.0
 44
0.0
 50
0.0
 51
0.0
 71
     0
 72
   100
 73
     1
 74
     0
 75
     0
 76
     0
 77
     0
 78
     0
  0
ENDTAB
  0
TABLE
  2
LTYPE
  5
5
330
0
100
AcDbSymbolTable
 70
     2
  0
LTYPE
  5
12
330
5
100
AcDbSymbolTableRecord
100
AcDbLinetypeTableRecord
  2
BYBLOCK
 70
     0
  3

 72
    65
 73
     0
 40
0.0
  0
LTYPE
  5
13
330
5
100
AcDbSymbolTableRecord
100
AcDbLinetypeTableRecord
  2
BYLAYER
 70
     0
  3

 72
    65
 73
     0
 40
0.0
  0
LTYPE
  5
14
330
5
100
AcDbSymbolTableRecord
100
AcDbLinetypeTableRecord
  2
CONTINUOUS
 70
     0
  3
Solid line
 72
    65
 73
     0
 40
0.0
  0
LTYPE
  5
DE
330
5
100
AcDbSymbolTableRecord
100
AcDbLinetypeTableRecord
  2
HIDDEN2
 70
     0
  3
_ _ _ _ _ _ _ _ _ _ _ _ _ _ _ _ _ _ _ _ _ _ _ _
 72
    65
 73
     2
 40
0.1875
 49
0.125
 74
     0
 49
-0.0625
 74
     0
  0
ENDTAB
  0
TABLE
  2
LAYER
  5
2
330
0
100
AcDbSymbolTable
 70
     5
  0
LAYER
  5
F
330
2
100
AcDbSymbolTableRecord
100
AcDbLayerTableRecord
  2
0
 70
     0
 62
     7
  6
CONTINUOUS
  0
LAYER
  5
E2
330
2
100
AcDbSymbolTableRecord
100
AcDbLayerTableRecord
  2
ADP1DETAIL
 70
     0
 62
     7
  6
CONTINUOUS
  0
LAYER
  5
E4
330
2
100
AcDbSymbolTableRecord
100
AcDbLayerTableRecord
  2
DEFPOINTS
 70
     0
 62
     7
  6
CONTINUOUS
  0
LAYER
  5
E5
330
2
100
AcDbSymbolTableRecord
100
AcDbLayerTableRecord
  2
ADPDIM
 70
     0
 62
     3
  6
CONTINUOUS
  0
LAYER
  5
E7
330
2
100
AcDbSymbolTableRecord
100
AcDbLayerTableRecord
  2
ADP2DETAIL
 70
     0
 62
     5
  6
CONTINUOUS
  0
ENDTAB
  0
TABLE
  2
STYLE
  5
3
330
0
100
AcDbSymbolTable
 70
     2
  0
STYLE
  5
10
330
3
100
AcDbSymbolTableRecord
100
AcDbTextStyleTableRecord
  2
STANDARD
 70
     0
 40
0.0
 41
1.0
 50
0.0
 71
     0
 42
0.2
  3
txt
  4

  0
STYLE
  5
18A
330
3
100
AcDbSymbolTableRecord
100
AcDbTextStyleTableRecord
  2
ARIAL_WIDE
 70
     0
 40
0.0
 41
1.25
 50
0.0
 71
     0
 42
0.2
  3
ARIAL.TTF
  4

1001
ACAD
1000
Arial
1071
       34
  0
ENDTAB
  0
TABLE
  2
VIEW
  5
6
330
0
100
AcDbSymbolTable
 70
     0
  0
ENDTAB
  0
TABLE
  2
UCS
  5
7
330
0
100
AcDbSymbolTable
 70
     0
  0
ENDTAB
  0
TABLE
  2
APPID
  5
9
330
0
100
AcDbSymbolTable
 70
     1
  0
APPID
  5
11
330
9
100
AcDbSymbolTableRecord
100
AcDbRegAppTableRecord
  2
ACAD
 70
     0
  0
ENDTAB
  0
TABLE
  2
DIMSTYLE
  5
A
330
0
100
AcDbSymbolTable
 70
     1
  0
DIMSTYLE
105
17E
330
A
100
AcDbSymbolTableRecord
100
AcDbDimStyleTableRecord
  2
STANDARD
 70
     0
  3

  4

  5

  6

  7

 40
1.0
 41
0.18
 42
0.0625
 43
0.38
 44
0.18
 45
0.0
 46
0.0
 47
0.0
 48
0.0
140
0.18
141
0.09
142
0.0
143
25.4
144
1.0
145
0.0
146
1.0
147
0.09
 71
     0
 72
     0
 73
     1
 74
     1
 75
     0
 76
     0
 77
     0
 78
     0
170
     0
171
     2
172
     0
173
     0
174
     0
175
     0
176
     0
177
     0
178
     0
270
     2
271
     4
272
     4
273
     2
274
     2
340
10
275
     0
280
     0
281
     0
282
     0
283
     1
284
     0
285
     0
286
     0
287
     3
288
     0
  0
ENDTAB
  0
TABLE
  2
BLOCK_RECORD
  5
1
330
0
100
AcDbSymbolTable
 70
     6
  0
BLOCK_RECORD
  5
18
102
{ACAD_XDICTIONARY
360
1DF
102
}
330
1
100
AcDbSymbolTableRecord
100
AcDbBlockTableRecord
  2
*MODEL_SPACE
  0
BLOCK_RECORD
  5
15
102
{ACAD_XDICTIONARY
360
1DD
102
}
330
1
100
AcDbSymbolTableRecord
100
AcDbBlockTableRecord
  2
*PAPER_SPACE
  0
BLOCK_RECORD
  5
D7
330
1
100
AcDbSymbolTableRecord
100
AcDbBlockTableRecord
  2
*D0
  0
BLOCK_RECORD
  5
D8
330
1
100
AcDbSymbolTableRecord
100
AcDbBlockTableRecord
  2
*D1
  0
BLOCK_RECORD
  5
D9
330
1
100
AcDbSymbolTableRecord
100
AcDbBlockTableRecord
  2
*D2
  0
BLOCK_RECORD
  5
DA
330
1
100
AcDbSymbolTableRecord
100
AcDbBlockTableRecord
  2
*D3
  0
BLOCK_RECORD
  5
DB
330
1
100
AcDbSymbolTableRecord
100
AcDbBlockTableRecord
  2
*D4
  0
BLOCK_RECORD
  5
DC
330
1
100
AcDbSymbolTableRecord
100
AcDbBlockTableRecord
  2
*D5
  0
ENDTAB
  0
ENDSEC
  0
SECTION
  2
BLOCKS
  0
BLOCK
  5
EA
330
18
100
AcDbEntity
  8
0
100
AcDbBlockBegin
  2
*MODEL_SPACE
 70
     0
 10
0.0
 20
0.0
 30
0.0
  3
*MODEL_SPACE
  1

  0
ENDBLK
  5
EB
330
18
100
AcDbEntity
  8
0
100
AcDbBlockEnd
  0
BLOCK
  5
E8
330
15
100
AcDbEntity
 67
     1
  8
0
100
AcDbBlockBegin
  2
*PAPER_SPACE
 70
     0
 10
0.0
 20
0.0
 30
0.0
  3
*PAPER_SPACE
  1

  0
ENDBLK
  5
E9
330
15
100
AcDbEntity
 67
     1
  8
0
100
AcDbBlockEnd
  0
BLOCK
  5
ED
330
D7
100
AcDbEntity
  8
0
100
AcDbBlockBegin
  2
*D0
 70
     1
 10
0.0
 20
0.0
 30
0.0
  3
*D0
  1

  0
LINE
  5
EE
330
D7
100
AcDbEntity
  8
0
  6
BYBLOCK
 62
     0
100
AcDbLine
 10
35.44973695594086
 20
-4.215437476436943
 30
0.0
 11
35.28311611701867
 21
-4.401817454001244
 31
0.0
  0
LINE
  5
EF
330
D7
100
AcDbEntity
  8
0
  6
BYBLOCK
 62
     0
100
AcDbLine
 10
35.45961652526191
 20
-4.391937884680183
 30
0.0
 11
35.43985738661979
 21
-4.038937068193703
 31
0.0
  0
LINE
  5
F0
330
D7
100
AcDbEntity
  8
0
  6
BYBLOCK
 62
     0
100
AcDbLine
 10
36.26196198947393
 20
-3.097157611051145
 30
0.0
 11
36.63696198947393
 21
-3.097157611051145
 31
0.0
  0
LINE
  5
F1
330
D7
100
AcDbEntity
  8
0
  6
BYBLOCK
 62
     0
100
AcDbLine
 10
36.44946198947394
 20
-3.284657611051145
 30
0.0
 11
36.44946198947394
 21
-2.909657611051145
 31
0.0
  0
TEXT
  5
F2
330
D7
100
AcDbEntity
  8
0
  6
BYBLOCK
 62
     0
100
AcDbText
 10
35.10754999284683
 20
-4.691979300484189
 30
0.0
 40
0.125
  1
%%c3
 50
48.2037747347565
 72
     1
 11
35.13038034800667
 21
-4.572665766768519
 31
0.0
100
AcDbText
 73
     2
  0
POINT
  5
F3
330
D7
100
AcDbEntity
  8
DEFPOINTS
  6
BYBLOCK
 62
     0
100
AcDbPoint
 10
35.44973695594086
 20
-4.215437476436943
 30
0.0
  0
POINT
  5
F4
330
D7
100
AcDbEntity
  8
DEFPOINTS
  6
BYBLOCK
 62
     0
100
AcDbPoint
 10
37.44918702300702
 20
-1.978877745665347
 30
0.0
  0
ENDBLK
  5
F5
330
D7
100
AcDbEntity
  8
0
100
AcDbBlockEnd
  0
BLOCK
  5
F6
330
D8
100
AcDbEntity
  8
0
100
AcDbBlockBegin
  2
*D1
 70
     1
 10
0.0
 20
0.0
 30
0.0
  3
*D1
  1

  0
LINE
  5
F7
330
D8
100
AcDbEntity
  8
0
  6
BYBLOCK
 62
     0
100
AcDbLine
 10
34.94142589045484
 20
-1.750214536568018
 30
0.0
 11
34.94142589045484
 21
-0.8518207156583679
 31
0.0
  0
LINE
  5
F8
330
D8
100
AcDbEntity
  8
0
  6
BYBLOCK
 62
     0
100
AcDbLine
 10
37.94142589045484
 20
-1.750214536568018
 30
0.0
 11
37.94142589045484
 21
-0.8518207156583679
 31
0.0
  0
LINE
  5
F9
330
D8
100
AcDbEntity
  8
0
  6
BYBLOCK
 62
     0
100
AcDbLine
 10
34.94142589045484
 20
-1.031820715658367
 30
0.0
 11
36.27475922378817
 21
-1.031820715658367
 31
0.0
  0
LINE
  5
FA
330
D8
100
AcDbEntity
  8
0
  6
BYBLOCK
 62
     0
100
AcDbLine
 10
37.94142589045484
 20
-1.031820715658367
 30
0.0
 11
36.6080925571215
 21
-1.031820715658367
 31
0.0
  0
LINE
  5
FB
330
D8
100
AcDbEntity
  8
0
  6
BYBLOCK
 62
     0
100
AcDbLine
 10
34.81642589045483
 20
-1.156820715658367
 30
0.0
 11
35.06642589045483
 21
-0.9068207156583678
 31
0.0
  0
LINE
  5
FC
330
D8
100
AcDbEntity
  8
0
  6
BYBLOCK
 62
     0
100
AcDbLine
 10
37.81642589045484
 20
-1.156820715658367
 30
0.0
 11
38.06642589045484
 21
-0.9068207156583678
 31
0.0
  0
TEXT
  5
FD
330
D8
100
AcDbEntity
  8
0
  6
BYBLOCK
 62
     0
100
AcDbText
 10
36.39975922378817
 20
-1.094320715658367
 30
0.0
 40
0.125
  1
3
 72
     1
 11
36.44142589045483
 21
-1.031820715658367
 31
0.0
100
AcDbText
 73
     2
  0
POINT
  5
FE
330
D8
100
AcDbEntity
  8
DEFPOINTS
  6
BYBLOCK
 62
     0
100
AcDbPoint
 10
34.94142589045484
 20
-1.812714536568018
 30
0.0
  0
POINT
  5
FF
330
D8
100
AcDbEntity
  8
DEFPOINTS
  6
BYBLOCK
 62
     0
100
AcDbPoint
 10
37.94142589045484
 20
-1.812714536568018
 30
0.0
  0
POINT
  5
100
330
D8
100
AcDbEntity
  8
DEFPOINTS
  6
BYBLOCK
 62
     0
100
AcDbPoint
 10
37.94142589045484
 20
-1.031820715658367
 30
0.0
  0
ENDBLK
  5
101
330
D8
100
AcDbEntity
  8
0
100
AcDbBlockEnd
  0
BLOCK
  5
102
330
D9
100
AcDbEntity
  8
0
100
AcDbBlockBegin
  2
*D2
 70
     1
 10
0.0
 20
0.0
 30
0.0
  3
*D2
  1

  0
LINE
  5
103
330
D9
100
AcDbEntity
  8
0
  6
BYBLOCK
 62
     0
100
AcDbLine
 10
35.34792589045483
 20
-1.693600866610015
 30
0.0
 11
35.34792589045483
 21
-1.132812417980676
 31
0.0
  0
LINE
  5
104
330
D9
100
AcDbEntity
  8
0
  6
BYBLOCK
 62
     0
100
AcDbLine
 10
37.53492589045483
 20
-1.693600866610015
 30
0.0
 11
37.53492589045483
 21
-1.132812417980676
 31
0.0
  0
LINE
  5
105
330
D9
100
AcDbEntity
  8
0
  6
BYBLOCK
 62
     0
100
AcDbLine
 10
35.34792589045483
 20
-1.312812417980676
 30
0.0
 11
35.9830925571215
 21
-1.312812417980676
 31
0.0
  0
LINE
  5
106
330
D9
100
AcDbEntity
  8
0
  6
BYBLOCK
 62
     0
100
AcDbLine
 10
37.53492589045483
 20
-1.312812417980676
 30
0.0
 11
36.89975922378817
 21
-1.312812417980676
 31
0.0
  0
LINE
  5
107
330
D9
100
AcDbEntity
  8
0
  6
BYBLOCK
 62
     0
100
AcDbLine
 10
35.22292589045484
 20
-1.437812417980676
 30
0.0
 11
35.47292589045484
 21
-1.187812417980676
 31
0.0
  0
LINE
  5
108
330
D9
100
AcDbEntity
  8
0
  6
BYBLOCK
 62
     0
100
AcDbLine
 10
37.40992589045483
 20
-1.437812417980676
 30
0.0
 11
37.65992589045483
 21
-1.187812417980676
 31
0.0
  0
TEXT
  5
109
330
D9
100
AcDbEntity
  8
0
  6
BYBLOCK
 62
     0
100
AcDbText
 10
36.1080925571215
 20
-1.375312417980676
 30
0.0
 40
0.125
  1
2 3/16
 72
     1
 11
36.44142589045483
 21
-1.312812417980676
 31
0.0
100
AcDbText
 73
     2
  0
POINT
  5
10A
330
D9
100
AcDbEntity
  8
DEFPOINTS
  6
BYBLOCK
 62
     0
100
AcDbPoint
 10
35.34792589045483
 20
-1.756100866610015
 30
0.0
  0
POINT
  5
10B
330
D9
100
AcDbEntity
  8
DEFPOINTS
  6
BYBLOCK
 62
     0
100
AcDbPoint
 10
37.53492589045483
 20
-1.756100866610015
 30
0.0
  0
POINT
  5
10C
330
D9
100
AcDbEntity
  8
DEFPOINTS
  6
BYBLOCK
 62
     0
100
AcDbPoint
 10
37.53492589045483
 20
-1.312812417980676
 30
0.0
  0
ENDBLK
  5
10D
330
D9
100
AcDbEntity
  8
0
100
AcDbBlockEnd
  0
BLOCK
  5
10E
330
DA
100
AcDbEntity
  8
0
100
AcDbBlockBegin
  2
*D3
 70
     1
 10
0.0
 20
0.0
 30
0.0
  3
*D3
  1

  0
LINE
  5
10F
330
DA
100
AcDbEntity
  8
0
  6
BYBLOCK
 62
     0
100
AcDbLine
 10
30.21122925875298
 20
-1.534657611051143
 30
0.0
 11
30.21122925875298
 21
-1.104657611051143
 31
0.0
  0
LINE
  5
110
330
DA
100
AcDbEntity
  8
0
  6
BYBLOCK
 62
     0
100
AcDbLine
 10
32.83622925875298
 20
-1.659657611051143
 30
0.0
 11
32.83622925875298
 21
-1.104657611051143
 31
0.0
  0
LINE
  5
111
330
DA
100
AcDbEntity
  8
0
  6
BYBLOCK
 62
     0
100
AcDbLine
 10
30.21122925875298
 20
-1.284657611051143
 30
0.0
 11
31.10706259208631
 21
-1.284657611051143
 31
0.0
  0
LINE
  5
112
330
DA
100
AcDbEntity
  8
0
  6
BYBLOCK
 62
     0
100
AcDbLine
 10
32.83622925875298
 20
-1.284657611051143
 30
0.0
 11
31.94039592541965
 21
-1.284657611051143
 31
0.0
  0
LINE
  5
113
330
DA
100
AcDbEntity
  8
0
  6
BYBLOCK
 62
     0
100
AcDbLine
 10
30.08622925875299
 20
-1.409657611051143
 30
0.0
 11
30.33622925875298
 21
-1.159657611051143
 31
0.0
  0
LINE
  5
114
330
DA
100
AcDbEntity
  8
0
  6
BYBLOCK
 62
     0
100
AcDbLine
 10
32.71122925875298
 20
-1.409657611051143
 30
0.0
 11
32.96122925875298
 21
-1.159657611051143
 31
0.0
  0
TEXT
  5
115
330
DA
100
AcDbEntity
  8
0
  6
BYBLOCK
 62
     0
100
AcDbText
 10
31.23206259208632
 20
-1.347157611051143
 30
0.0
 40
0.125
  1
2 5/8
 72
     1
 11
31.52372925875298
 21
-1.284657611051143
 31
0.0
100
AcDbText
 73
     2
  0
POINT
  5
116
330
DA
100
AcDbEntity
  8
DEFPOINTS
  6
BYBLOCK
 62
     0
100
AcDbPoint
 10
30.21122925875298
 20
-1.597157611051143
 30
0.0
  0
POINT
  5
117
330
DA
100
AcDbEntity
  8
DEFPOINTS
  6
BYBLOCK
 62
     0
100
AcDbPoint
 10
32.83622925875298
 20
-1.722157611051143
 30
0.0
  0
POINT
  5
118
330
DA
100
AcDbEntity
  8
DEFPOINTS
  6
BYBLOCK
 62
     0
100
AcDbPoint
 10
32.83622925875298
 20
-1.284657611051143
 30
0.0
  0
ENDBLK
  5
119
330
DA
100
AcDbEntity
  8
0
100
AcDbBlockEnd
  0
BLOCK
  5
11A
330
DB
100
AcDbEntity
  8
0
100
AcDbBlockBegin
  2
*D4
 70
     1
 10
0.0
 20
0.0
 30
0.0
  3
*D4
  1

  0
LINE
  5
11B
330
DB
100
AcDbEntity
  8
0
  6
BYBLOCK
 62
     0
100
AcDbLine
 10
33.58492589045484
 20
-3.097157611051143
 30
0.0
 11
34.15632898518937
 21
-3.097157611051143
 31
0.0
  0
LINE
  5
11C
330
DB
100
AcDbEntity
  8
0
  6
BYBLOCK
 62
     0
100
AcDbLine
 10
33.39792589045484
 20
-1.855058367684918
 30
0.0
 11
34.15632898518937
 21
-1.855058367684918
 31
0.0
  0
LINE
  5
11D
330
DB
100
AcDbEntity
  8
0
  6
BYBLOCK
 62
     0
100
AcDbLine
 10
33.97632898518937
 20
-3.097157611051143
 30
0.0
 11
33.97632898518937
 21
-3.347157611051143
 31
0.0
  0
LINE
  5
11E
330
DB
100
AcDbEntity
  8
0
  6
BYBLOCK
 62
     0
100
AcDbLine
 10
33.97632898518937
 20
-1.855058367684918
 30
0.0
 11
33.97632898518937
 21
-1.605058367684918
 31
0.0
  0
LINE
  5
11F
330
DB
100
AcDbEntity
  8
0
  6
BYBLOCK
 62
     0
100
AcDbLine
 10
34.10132898518937
 20
-3.222157611051143
 30
0.0
 11
33.85132898518937
 21
-2.972157611051143
 31
0.0
  0
LINE
  5
120
330
DB
100
AcDbEntity
  8
0
  6
BYBLOCK
 62
     0
100
AcDbLine
 10
34.10132898518937
 20
-1.980058367684918
 30
0.0
 11
33.85132898518937
 21
-1.730058367684918
 31
0.0
  0
TEXT
  5
121
330
DB
100
AcDbEntity
  8
0
  6
BYBLOCK
 62
     0
100
AcDbText
 10
34.03882898518937
 20
-1.480058367684918
 30
0.0
 40
0.125
  1
1 1/4
 50
90.0
 72
     1
 11
33.97632898518937
 21
-1.230058367684918
 31
0.0
100
AcDbText
 73
     2
  0
POINT
  5
122
330
DB
100
AcDbEntity
  8
DEFPOINTS
  6
BYBLOCK
 62
     0
100
AcDbPoint
 10
33.52242589045484
 20
-3.097157611051143
 30
0.0
  0
POINT
  5
123
330
DB
100
AcDbEntity
  8
DEFPOINTS
  6
BYBLOCK
 62
     0
100
AcDbPoint
 10
33.33542589045484
 20
-1.855058367684918
 30
0.0
  0
POINT
  5
124
330
DB
100
AcDbEntity
  8
DEFPOINTS
  6
BYBLOCK
 62
     0
100
AcDbPoint
 10
33.97632898518937
 20
-1.855058367684918
 30
0.0
  0
ENDBLK
  5
125
330
DB
100
AcDbEntity
  8
0
100
AcDbBlockEnd
  0
BLOCK
  5
126
330
DC
100
AcDbEntity
  8
0
100
AcDbBlockBegin
  2
*D5
 70
     1
 10
0.0
 20
0.0
 30
0.0
  3
*D5
  1

  0
LINE
  5
127
330
DC
100
AcDbEntity
  8
0
  6
BYBLOCK
 62
     0
100
AcDbLine
 10
33.33542589045484
 20
-3.659657611051143
 30
0.0
 11
33.33542589045484
 21
-4.088014691681541
 31
0.0
  0
LINE
  5
128
330
DC
100
AcDbEntity
  8
0
  6
BYBLOCK
 62
     0
100
AcDbLine
 10
32.33722925875298
 20
-3.659657611051143
 30
0.0
 11
32.33722925875298
 21
-4.088014691681541
 31
0.0
  0
LINE
  5
129
330
DC
100
AcDbEntity
  8
0
  6
BYBLOCK
 62
     0
100
AcDbLine
 10
33.33542589045484
 20
-3.908014691681541
 30
0.0
 11
32.98216090793725
 21
-3.908014691681541
 31
0.0
  0
LINE
  5
12A
330
DC
100
AcDbEntity
  8
0
  6
BYBLOCK
 62
     0
100
AcDbLine
 10
32.33722925875298
 20
-3.908014691681541
 30
0.0
 11
32.69049424127057
 21
-3.908014691681541
 31
0.0
  0
LINE
  5
12B
330
DC
100
AcDbEntity
  8
0
  6
BYBLOCK
 62
     0
100
AcDbLine
 10
33.21042589045484
 20
-4.033014691681541
 30
0.0
 11
33.46042589045484
 21
-3.783014691681541
 31
0.0
  0
LINE
  5
12C
330
DC
100
AcDbEntity
  8
0
  6
BYBLOCK
 62
     0
100
AcDbLine
 10
32.21222925875298
 20
-4.033014691681541
 30
0.0
 11
32.46222925875298
 21
-3.783014691681541
 31
0.0
  0
TEXT
  5
12D
330
DC
100
AcDbEntity
  8
0
  6
BYBLOCK
 62
     0
100
AcDbText
 10
32.81549424127057
 20
-3.970514691681541
 30
0.0
 40
0.125
  1
1
 72
     1
 11
32.83632757460391
 21
-3.908014691681541
 31
0.0
100
AcDbText
 73
     2
  0
POINT
  5
12E
330
DC
100
AcDbEntity
  8
DEFPOINTS
  6
BYBLOCK
 62
     0
100
AcDbPoint
 10
33.33542589045484
 20
-3.597157611051143
 30
0.0
  0
POINT
  5
12F
330
DC
100
AcDbEntity
  8
DEFPOINTS
  6
BYBLOCK
 62
     0
100
AcDbPoint
 10
32.33722925875298
 20
-3.597157611051143
 30
0.0
  0
POINT
  5
130
330
DC
100
AcDbEntity
  8
DEFPOINTS
  6
BYBLOCK
 62
     0
100
AcDbPoint
 10
32.33722925875298
 20
-3.908014691681541
 30
0.0
  0
ENDBLK
  5
131
330
DC
100
AcDbEntity
  8
0
100
AcDbBlockEnd
  0
ENDSEC
  0
SECTION
  2
ENTITIES
  0
DIMENSION
  5
132
330
18
100
AcDbEntity
  8
ADPDIM
100
AcDbDimension
  2
*D4
 10
33.97632898518937
 20
-1.855058367684918
 30
0.0
 11
33.97632898518937
 21
-1.230058367684918
 31
0.0
100
AcDbAlignedDimension
 13
33.52242589045484
 23
-3.097157611051143
 33
0.0
 14
33.33542589045484
 24
-1.855058367684918
 34
0.0
 50
90.0
100
AcDbRotatedDimension
  0
LINE
  5
133
330
18
100
AcDbEntity
  8
ADP1DETAIL
100
AcDbLine
 10
30.46122925875298
 20
-2.275358645414423
 30
0.0
 11
30.46122925875298
 21
-4.535157611051143
 31
0.0
  0
LINE
  5
134
330
18
100
AcDbEntity
  8
ADP1DETAIL
100
AcDbLine
 10
30.21122925875298
 20
-4.597157611051143
 30
0.0
 11
30.21122925875298
 21
-1.597157611051143
 31
0.0
  0
LINE
  5
135
330
18
100
AcDbEntity
  8
ADP1DETAIL
100
AcDbLine
 10
32.14922925875299
 20
-3.597157611051143
 30
0.0
 11
32.14922925875299
 21
-2.597157611051143
 31
0.0
  0
LINE
  5
136
330
18
100
AcDbEntity
  8
ADP1DETAIL
100
AcDbLine
 10
31.14922925875299
 20
-2.597157611051143
 30
0.0
 11
31.14922925875299
 21
-3.597157611051143
 31
0.0
  0
LINE
  5
137
330
18
100
AcDbEntity
  8
ADP1DETAIL
100
AcDbLine
 10
30.96122925875298
 20
-2.534657611051143
 30
0.0
 11
30.96122925875298
 21
-3.659657611051143
 31
0.0
  0
ARC
  5
138
330
18
100
AcDbEntity
  8
ADP1DETAIL
100
AcDbCircle
 10
31.65090105622255
 20
-2.049115078709411
 30
0.0
 40
0.7396190112654466
100
AcDbArc
 50
227.814921740964
 51
312.1850782590358
  0
LINE
  5
139
330
18
100
AcDbEntity
  8
ADP1DETAIL
100
AcDbLine
 10
33.39742589045485
 20
-3.597157611051143
 30
0.0
 11
33.39742589045485
 21
-2.597157611051143
 31
0.0
  0
LINE
  5
13A
330
18
100
AcDbEntity
  8
ADP1DETAIL
100
AcDbLine
 10
33.33542589045484
 20
-1.855058367684918
 30
0.0
 11
33.33542589045484
 21
-3.597157611051143
 31
0.0
  0
LINE
  5
13B
330
18
100
AcDbEntity
  8
ADP1DETAIL
100
AcDbLine
 10
32.33722925875298
 20
-3.597157611051143
 30
0.0
 11
32.33722925875298
 21
-1.855058367684918
 31
0.0
  0
LINE
  5
13C
330
18
100
AcDbEntity
  8
ADP1DETAIL
100
AcDbLine
 10
33.39742589045485
 20
-2.597157611051143
 30
0.0
 11
33.52242589045484
 21
-2.722157611051143
 31
0.0
  0
LINE
  5
13D
330
18
100
AcDbEntity
  8
ADP1DETAIL
100
AcDbLine
 10
31.14922925875299
 20
-3.597157611051143
 30
0.0
 11
30.96122925875298
 21
-3.597157611051143
 31
0.0
  0
LINE
  5
13E
330
18
100
AcDbEntity
  8
ADP1DETAIL
100
AcDbLine
 10
30.96122925875298
 20
-3.659657611051143
 30
0.0
 11
30.49837849104376
 21
-3.862154821923928
 31
0.0
  0
ARC
  5
13F
330
18
100
AcDbEntity
  8
ADP1DETAIL
100
AcDbCircle
 10
30.52322925875298
 20
-3.918956576687863
 30
0.0
 40
0.062
100
AcDbArc
 50
113.6293777306568
 51
180.0
  0
ARC
  5
140
330
18
100
AcDbEntity
  8
ADP1DETAIL
100
AcDbCircle
 10
30.39922925875298
 20
-4.535157611051143
 30
0.0
 40
0.062
100
AcDbArc
 50
270.0
 51
0.0
  0
LINE
  5
141
330
18
100
AcDbEntity
  8
ADP1DETAIL
100
AcDbLine
 10
33.33542589045484
 20
-3.597157611051143
 30
0.0
 11
32.33722925875298
 21
-3.597157611051143
 31
0.0
  0
DIMENSION
  5
142
330
18
100
AcDbEntity
  8
ADPDIM
100
AcDbDimension
  2
*D5
 10
32.33722925875298
 20
-3.908014691681541
 30
0.0
 11
32.83632757460391
 21
-3.908014691681541
 31
0.0
100
AcDbAlignedDimension
 13
33.33542589045484
 23
-3.597157611051143
 33
0.0
 14
32.33722925875298
 24
-3.597157611051143
 34
0.0
100
AcDbRotatedDimension
  0
ARC
  5
143
330
18
100
AcDbEntity
  8
ADP1DETAIL
100
AcDbCircle
 10
31.65090105622255
 20
-4.151337977312179
 30
0.0
 40
0.7396190112654466
100
AcDbArc
 50
48.52788786121649
 51
131.4721121387835
  0
LINE
  5
144
330
18
100
AcDbEntity
  8
ADP1DETAIL
100
AcDbLine
 10
32.33722925875298
 20
-3.597157611051143
 30
0.0
 11
32.14922925875299
 21
-3.597157611051143
 31
0.0
  0
LINE
  5
145
330
18
100
AcDbEntity
  8
ADP1DETAIL
100
AcDbLine
 10
33.52242589045484
 20
-2.722157611051143
 30
0.0
 11
33.52242589045484
 21
-3.472157611051143
 31
0.0
  0
LINE
  5
146
330
18
100
AcDbEntity
  8
ADP1DETAIL
100
AcDbLine
 10
33.52242589045484
 20
-3.472157611051143
 30
0.0
 11
33.39742589045485
 21
-3.597157611051143
 31
0.0
  0
LINE
  5
147
330
18
100
AcDbEntity
  8
ADP1DETAIL
100
AcDbLine
 10
33.39742589045485
 20
-3.597157611051143
 30
0.0
 11
33.33542589045484
 21
-3.597157611051143
 31
0.0
  0
LINE
  5
148
330
18
100
AcDbEntity
  8
ADP1DETAIL
100
AcDbLine
 10
30.96122925875298
 20
-2.597157611051143
 30
0.0
 11
31.14922925875299
 21
-2.597157611051143
 31
0.0
  0
DIMENSION
  5
149
330
18
100
AcDbEntity
  8
ADPDIM
100
AcDbDimension
  2
*D3
 10
32.83622925875298
 20
-1.284657611051143
 30
0.0
 11
31.52372925875298
 21
-1.284657611051143
 31
0.0
100
AcDbAlignedDimension
 13
30.21122925875298
 23
-1.597157611051143
 33
0.0
 14
32.83622925875298
 24
-1.722157611051143
 34
0.0
100
AcDbRotatedDimension
  0
ARC
  5
14A
330
18
100
AcDbEntity
  8
ADP1DETAIL
100
AcDbCircle
 10
30.52322925875298
 20
-2.275358645414423
 30
0.0
 40
0.062
100
AcDbArc
 50
180.0
 51
246.3706222693431
  0
ARC
  5
14B
330
18
100
AcDbEntity
  8
ADP1DETAIL
100
AcDbCircle
 10
30.39922925875298
 20
-1.659157611051142
 30
0.0
 40
0.062
100
AcDbArc
 50
0.0
 51
90.0
  0
LINE
  5
14C
330
18
100
AcDbEntity
  8
ADP1DETAIL
100
AcDbLine
 10
30.21122925875298
 20
-1.597157611051143
 30
0.0
 11
30.39922925875298
 21
-1.597157611051143
 31
0.0
  0
LINE
  5
14D
330
18
100
AcDbEntity
  8
ADP1DETAIL
100
AcDbLine
 10
30.49837849104376
 20
-2.332160400178358
 30
0.0
 11
30.96122925875298
 21
-2.534657611051143
 31
0.0
  0
LINE
  5
14E
330
18
100
AcDbEntity
  8
ADP1DETAIL
100
AcDbLine
 10
30.46122925875298
 20
-1.659157611051142
 30
0.0
 11
30.46122925875298
 21
-2.275358645414423
 31
0.0
  0
LINE
  5
14F
330
18
100
AcDbEntity
  8
ADP1DETAIL
100
AcDbLine
 10
32.33722925875298
 20
-2.105058367684918
 30
0.0
 11
33.33542589045484
 21
-2.105058367684918
 31
0.0
  0
LINE
  5
150
330
18
100
AcDbEntity
  8
ADP1DETAIL
100
AcDbLine
 10
32.33722925875298
 20
-1.855058367684918
 30
0.0
 11
33.33542589045484
 21
-1.855058367684918
 31
0.0
  0
LINE
  5
151
330
18
100
AcDbEntity
  8
ADP1DETAIL
100
AcDbLine
 10
32.14922925875299
 20
-2.597157611051143
 30
0.0
 11
32.33722925875298
 21
-2.597157611051143
 31
0.0
  0
LINE
  5
152
330
18
100
AcDbEntity
  8
ADP2DETAIL
  6
HIDDEN2
100
AcDbLine
 10
32.93122925875299
 20
-1.855058367684918
 30
0.0
 11
32.93122925875299
 21
-2.044061768748091
 31
0.0
  0
LINE
  5
153
330
18
100
AcDbEntity
  8
ADP2DETAIL
  6
HIDDEN2
100
AcDbLine
 10
32.74322925875299
 20
-1.855058367684918
 30
0.0
 11
32.74322925875299
 21
-2.044061768748091
 31
0.0
  0
LINE
  5
154
330
18
100
AcDbEntity
  8
ADP2DETAIL
  6
HIDDEN2
100
AcDbLine
 10
32.74322925875299
 20
-2.044061768748091
 30
0.0
 11
32.68122925875299
 21
-2.106061768748091
 31
0.0
  0
LINE
  5
155
330
18
100
AcDbEntity
  8
ADP2DETAIL
  6
HIDDEN2
100
AcDbLine
 10
32.93122925875299
 20
-2.044061768748091
 30
0.0
 11
32.99322925875299
 21
-2.106061768748091
 31
0.0
  0
LINE
  5
156
330
18
100
AcDbEntity
  8
ADP1DETAIL
100
AcDbLine
 10
33.33542589045484
 20
-2.597157611051143
 30
0.0
 11
33.39742589045485
 21
-2.597157611051143
 31
0.0
  0
ARC
  5
157
330
18
100
AcDbEntity
  8
ADP1DETAIL
100
AcDbCircle
 10
36.44946198947394
 20
-3.097157611051144
 30
0.0
 40
1.5
100
AcDbArc
 50
138.3697102098087
 51
41.6302897901913
  0
ARC
  5
158
330
18
100
AcDbEntity
  8
ADP1DETAIL
100
AcDbCircle
 10
36.44946198947394
 20
-3.097157611051144
 30
0.0
 40
0.5625
100
AcDbArc
 50
152.7339555492668
 51
27.26604445073279
  0
CIRCLE
  5
159
330
18
100
AcDbEntity
  8
ADP1DETAIL
100
AcDbCircle
 10
36.44946198947394
 20
-3.097157611051144
 30
0.0
 40
0.5
  0
LINE
  5
15A
330
18
100
AcDbEntity
  8
ADP1DETAIL
100
AcDbLine
 10
35.94946198947393
 20
-3.165029078716845
 30
0.0
 11
35.94946198947393
 21
-2.225675438706097
 31
0.0
  0
LINE
  5
15B
330
18
100
AcDbEntity
  8
ADP1DETAIL
100
AcDbLine
 10
36.76196198947394
 20
-1.8016913231056
 30
0.0
 11
36.76196198947394
 21
-2.706845236151245
 31
0.0
  0
LINE
  5
15C
330
18
100
AcDbEntity
  8
ADP1DETAIL
100
AcDbLine
 10
36.76196198947394
 20
-2.706845236151245
 30
0.0
 11
36.76196198947394
 21
-1.856069734668039
 31
0.0
  0
LINE
  5
15D
330
18
100
AcDbEntity
  8
ADP1DETAIL
100
AcDbLine
 10
36.13696198947394
 20
-2.706845236151245
 30
0.0
 11
36.13696198947394
 21
-1.8016913231056
 31
0.0
  0
LINE
  5
15E
330
18
100
AcDbEntity
  8
ADP1DETAIL
100
AcDbLine
 10
36.13696198947394
 20
-1.856069734668039
 30
0.0
 11
36.13696198947394
 21
-2.706845236151245
 31
0.0
  0
LINE
  5
15F
330
18
100
AcDbEntity
  8
ADP1DETAIL
100
AcDbLine
 10
36.94946198947393
 20
-2.225675438706094
 30
0.0
 11
36.94946198947393
 21
-3.165029078716845
 31
0.0
  0
DIMENSION
  5
160
330
18
100
AcDbEntity
  8
ADPDIM
100
AcDbDimension
  2
*D0
 10
37.44918702300702
 20
-1.978877745665347
 30
0.0
 11
35.13038034800667
 21
-4.572665766768519
 31
0.0
 70
     3
100
AcDbDiametricDimension
 15
35.44973695594086
 25
-4.215437476436943
 35
0.0
 40
0.0
  0
CIRCLE
  5
161
330
18
100
AcDbEntity
  8
ADP1DETAIL
100
AcDbCircle
 10
36.44946198947394
 20
-3.097157611051144
 30
0.0
 40
0.375
  0
LWPOLYLINE
  5
162
330
18
100
AcDbEntity
  8
ADP1DETAIL
100
AcDbPolyline
 90
        2
 70
     0
 43
0.0
 10
35.95327053780935
 20
-3.158753416874237
 10
35.94946198947393
 20
-3.165029078716845
  0
LINE
  5
166
330
18
100
AcDbEntity
  8
ADP1DETAIL
100
AcDbLine
 10
36.94946198947393
 20
-3.165029078716845
 30
0.0
 11
36.94565344113851
 21
-3.158753416874237
 31
0.0
  0
ARC
  5
167
330
18
100
AcDbEntity
  8
ADP1DETAIL
100
AcDbCircle
 10
36.44946198947394
 20
-3.097157611051144
 30
0.0
 40
1.5
100
AcDbArc
 50
56.20037548345182
 51
123.7996245165481
  0
LINE
  5
168
330
18
100
AcDbEntity
  8
ADP1DETAIL
100
AcDbLine
 10
36.13696198947394
 20
-1.8016913231056
 30
0.0
 11
36.76196198947394
 21
-1.8016913231056
 31
0.0
  0
DIMENSION
  5
169
330
18
100
AcDbEntity
  8
ADPDIM
100
AcDbDimension
  2
*D2
 10
37.53492589045483
 20
-1.312812417980676
 30
0.0
 11
36.44142589045483
 21
-1.312812417980676
 31
0.0
100
AcDbAlignedDimension
 13
35.34792589045483
 23
-1.756100866610015
 33
0.0
 14
37.53492589045483
 24
-1.756100866610015
 34
0.0
100
AcDbRotatedDimension
  0
DIMENSION
  5
16A
330
18
100
AcDbEntity
  8
ADPDIM
100
AcDbDimension
  2
*D1
 10
37.94142589045484
 20
-1.031820715658367
 30
0.0
 11
36.44142589045483
 21
-1.031820715658367
 31
0.0
100
AcDbAlignedDimension
 13
34.94142589045484
 23
-1.812714536568018
 33
0.0
 14
37.94142589045484
 24
-1.812714536568018
 34
0.0
100
AcDbRotatedDimension
  0
LINE
  5
16B
330
18
100
AcDbEntity
  8
ADP1DETAIL
100
AcDbLine
 10
34.94946198947393
 20
-1.850675438706097
 30
0.0
 11
36.13696198947394
 21
-1.850675438706097
 31
0.0
  0
LINE
  5
16C
330
18
100
AcDbEntity
  8
ADP1DETAIL
100
AcDbLine
 10
35.82446198947394
 20
-2.100675438706097
 30
0.0
 11
34.94946198947393
 21
-2.100675438706097
 31
0.0
  0
LINE
  5
16D
330
18
100
AcDbEntity
  8
ADP1DETAIL
100
AcDbLine
 10
34.94946198947393
 20
-2.100675438706097
 30
0.0
 11
34.94946198947393
 21
-1.850675438706097
 31
0.0
  0
LINE
  5
16E
330
18
100
AcDbEntity
  8
ADP2DETAIL
  6
HIDDEN2
100
AcDbLine
 10
35.43864646597383
 20
-1.850675438706098
 30
0.0
 11
35.43864646597383
 21
-2.031335145686565
 31
0.0
  0
LINE
  5
16F
330
18
100
AcDbEntity
  8
ADP2DETAIL
  6
HIDDEN2
100
AcDbLine
 10
35.25064646597383
 20
-1.850675438706098
 30
0.0
 11
35.25064646597383
 21
-2.031335145686565
 31
0.0
  0
LINE
  5
170
330
18
100
AcDbEntity
  8
ADP2DETAIL
  6
HIDDEN2
100
AcDbLine
 10
35.43864646597383
 20
-2.031335145686565
 30
0.0
 11
35.50064646597383
 21
-2.093335145686566
 31
0.0
  0
LINE
  5
171
330
18
100
AcDbEntity
  8
ADP2DETAIL
  6
HIDDEN2
100
AcDbLine
 10
35.25064646597383
 20
-2.031335145686565
 30
0.0
 11
35.18864646597383
 21
-2.093335145686566
 31
0.0
  0
LINE
  5
172
330
18
100
AcDbEntity
  8
ADP1DETAIL
100
AcDbLine
 10
35.94946198947393
 20
-1.856069734668039
 30
0.0
 11
36.13696198947394
 21
-1.856069734668039
 31
0.0
  0
ARC
  5
173
330
18
100
AcDbEntity
  8
ADP1DETAIL
100
AcDbCircle
 10
35.82446198947394
 20
-2.225675438706097
 30
0.0
 40
0.125
100
AcDbArc
 50
0.0
 51
90.0
  0
LINE
  5
174
330
18
100
AcDbEntity
  8
ADP1DETAIL
100
AcDbLine
 10
36.76196198947394
 20
-1.850675438706097
 30
0.0
 11
37.94946198947394
 21
-1.850675438706097
 31
0.0
  0
LINE
  5
175
330
18
100
AcDbEntity
  8
ADP1DETAIL
100
AcDbLine
 10
37.94946198947394
 20
-2.100675438706097
 30
0.0
 11
37.07446198947394
 21
-2.100675438706094
 31
0.0
  0
ARC
  5
176
330
18
100
AcDbEntity
  8
ADP1DETAIL
100
AcDbCircle
 10
37.07446198947394
 20
-2.225675438706094
 30
0.0
 40
0.125
100
AcDbArc
 50
89.99999999999991
 51
180.0
  0
LINE
  5
177
330
18
100
AcDbEntity
  8
ADP1DETAIL
100
AcDbLine
 10
36.76196198947394
 20
-1.856069734668039
 30
0.0
 11
36.94946198947393
 21
-1.856069734668039
 31
0.0
  0
LINE
  5
178
330
18
100
AcDbEntity
  8
ADP2DETAIL
  6
HIDDEN2
100
AcDbLine
 10
37.64084696111845
 20
-1.850675438706097
 30
0.0
 11
37.64084696111845
 21
-2.031335145686565
 31
0.0
  0
LINE
  5
179
330
18
100
AcDbEntity
  8
ADP2DETAIL
  6
HIDDEN2
100
AcDbLine
 10
37.45284696111844
 20
-1.850675438706097
 30
0.0
 11
37.45284696111844
 21
-2.031335145686565
 31
0.0
  0
LINE
  5
17A
330
18
100
AcDbEntity
  8
ADP2DETAIL
  6
HIDDEN2
100
AcDbLine
 10
37.45284696111844
 20
-2.031335145686565
 30
0.0
 11
37.39084696111845
 21
-2.093335145686566
 31
0.0
  0
LINE
  5
17B
330
18
100
AcDbEntity
  8
ADP2DETAIL
  6
HIDDEN2
100
AcDbLine
 10
37.64084696111845
 20
-2.031335145686565
 30
0.0
 11
37.70284696111844
 21
-2.093335145686566
 31
0.0
  0
LINE
  5
17C
330
18
100
AcDbEntity
  8
ADP1DETAIL
100
AcDbLine
 10
37.94946198947394
 20
-1.850675438706097
 30
0.0
 11
37.94946198947394
 21
-2.100675438706097
 31
0.0
  0
LINE
  5
17D
330
18
100
AcDbEntity
  8
ADP1DETAIL
100
AcDbLine
 10
30.39922925875298
 20
-4.597157611051143
 30
0.0
 11
30.21122925875298
 21
-4.597157611051143
 31
0.0
  0
TEXT
  5
18B
330
18
100
AcDbEntity
  8
ADPDIM
100
AcDbText
 10
27.75399377196494
 20
-5.639468421841271
 30
0.0
 40
0.125
  1
J U L I U S  B L U M  &  C O . ,  I N C .      ( 8 0 0 )  5 2 6 - 6 2 9 3        W W W . J U L I U S B L U M . C O M        P A R T  N o .  3 1 3
 41
1.25
  7
ARIAL_WIDE
 72
     1
 11
34.18870130948199
 21
-5.514468421841271
 31
0.0
100
AcDbText
 73
     3
  0
ENDSEC
  0
SECTION
  2
OBJECTS
  0
DICTIONARY
  5
C
330
0
100
AcDbDictionary
  3
ACAD_GROUP
350
D
  3
ACAD_LAYOUT
350
184
  3
ACAD_MLINESTYLE
350
E
  3
ACAD_PLOTSETTINGS
350
185
  3
ACAD_PLOTSTYLENAME
350
182
  3
ACDBHEADERROUNDTRIPXREC
350
360
  3
ACDBVARIABLEDICTIONARY
350
1E5
  0
DICTIONARY
  5
1DF
330
18
100
AcDbDictionary
280
     1
  3
ACAD_LAYOUTSELFREF
360
381
  0
DICTIONARY
  5
1DD
330
15
100
AcDbDictionary
280
     1
  3
ACAD_LAYOUTSELFREF
360
380
  0
DICTIONARY
  5
D
102
{ACAD_REACTORS
330
C
102
}
330
C
100
AcDbDictionary
  0
DICTIONARY
  5
184
102
{ACAD_REACTORS
330
C
102
}
330
C
100
AcDbDictionary
  0
DICTIONARY
  5
E
102
{ACAD_REACTORS
330
C
102
}
330
C
100
AcDbDictionary
  3
STANDARD
350
1B
  0
DICTIONARY
  5
185
102
{ACAD_REACTORS
330
C
102
}
330
C
100
AcDbDictionary
  0
ACDBDICTIONARYWDFLT
  5
182
102
{ACAD_REACTORS
330
C
102
}
330
C
100
AcDbDictionary
281
     1
  3
Normal
350
183
100
AcDbDictionaryWithDefault
340
183
  0
DICTIONARY
  5
360
102
{ACAD_REACTORS
330
C
102
}
330
C
100
AcDbDictionary
  3
CEPSNTYPE
350
36A
  3
FINGERPRINTGUID
350
36B
  3
HYPERLINKBASE
350
363
  3
INSUNITS
350
369
  3
LAYOUTDICT
350
365
  3
LWETCUNION
350
368
  3
PLOTSETDICT
350
366
  3
PLOTSTYLNAMDICT
350
367
  3
PSVPSCALE
350
36D
  3
PUCSBASE
350
370
  3
PUCSORGBACK
350
376
  3
PUCSORGBOTTOM
350
372
  3
PUCSORGFRONT
350
375
  3
PUCSORGLEFT
350
373
  3
PUCSORGRIGHT
350
374
  3
PUCSORGTOP
350
371
  3
PUCSORTHOREF
350
36E
  3
PUCSORTHOVIEW
350
36F
  3
STYLESHEET
350
364
  3
TSTACKALIGN
350
361
  3
TSTACKSIZE
350
362
  3
UCSBASE
350
379
  3
UCSORGBACK
350
37F
  3
UCSORGBOTTOM
350
37B
  3
UCSORGFRONT
350
37E
  3
UCSORGLEFT
350
37C
  3
UCSORGRIGHT
350
37D
  3
UCSORGTOP
350
37A
  3
UCSORTHOREF
350
377
  3
UCSORTHOVIEW
350
378
  3
VERSIONGUID
350
36C
  0
DICTIONARY
  5
1E5
102
{ACAD_REACTORS
330
C
102
}
330
C
100
AcDbDictionary
  3
DIMASSOC
350
1E6
  0
XRECORD
  5
381
102
{ACAD_REACTORS
330
1DF
102
}
330
1DF
100
AcDbXrecord
340
18
  0
XRECORD
  5
380
102
{ACAD_REACTORS
330
1DD
102
}
330
1DD
100
AcDbXrecord
340
15
  0
MLINESTYLE
  5
1B
102
{ACAD_REACTORS
330
E
102
}
330
E
100
AcDbMlineStyle
  2
STANDARD
 70
     0
  3

 62
     0
 51
90.0
 52
90.0
 71
     2
 49
0.5
 62
   256
  6
BYLAYER
 49
-0.5
 62
   256
  6
BYLAYER
  0
ACDBPLACEHOLDER
  5
183
102
{ACAD_REACTORS
330
182
102
}
330
182
100
AcDbPlaceHolder
280
     0
  0
XRECORD
  5
36A
102
{ACAD_REACTORS
330
360
102
}
330
360
100
AcDbXrecord
 90
        0
  0
XRECORD
  5
36B
102
{ACAD_REACTORS
330
360
102
}
330
360
100
AcDbXrecord
  1
{05B810B2-C931-47EC-BD71-0D3381F904F6}
  0
XRECORD
  5
363
102
{ACAD_REACTORS
330
360
102
}
330
360
100
AcDbXrecord
  1

  0
XRECORD
  5
369
102
{ACAD_REACTORS
330
360
102
}
330
360
100
AcDbXrecord
 90
        0
  0
XRECORD
  5
365
102
{ACAD_REACTORS
330
360
102
}
330
360
100
AcDbXrecord
340
184
  0
XRECORD
  5
368
102
{ACAD_REACTORS
330
360
102
}
330
360
100
AcDbXrecord
 90
    14877
  0
XRECORD
  5
366
102
{ACAD_REACTORS
330
360
102
}
330
360
100
AcDbXrecord
340
185
  0
XRECORD
  5
367
102
{ACAD_REACTORS
330
360
102
}
330
360
100
AcDbXrecord
340
182
  0
XRECORD
  5
36D
102
{ACAD_REACTORS
330
360
102
}
330
360
100
AcDbXrecord
 40
0.0
  0
XRECORD
  5
370
102
{ACAD_REACTORS
330
360
102
}
330
360
100
AcDbXrecord
340
0
  0
XRECORD
  5
376
102
{ACAD_REACTORS
330
360
102
}
330
360
100
AcDbXrecord
 10
0.0
 20
0.0
 30
0.0
  0
XRECORD
  5
372
102
{ACAD_REACTORS
330
360
102
}
330
360
100
AcDbXrecord
 10
0.0
 20
0.0
 30
0.0
  0
XRECORD
  5
375
102
{ACAD_REACTORS
330
360
102
}
330
360
100
AcDbXrecord
 10
0.0
 20
0.0
 30
0.0
  0
XRECORD
  5
373
102
{ACAD_REACTORS
330
360
102
}
330
360
100
AcDbXrecord
 10
0.0
 20
0.0
 30
0.0
  0
XRECORD
  5
374
102
{ACAD_REACTORS
330
360
102
}
330
360
100
AcDbXrecord
 10
0.0
 20
0.0
 30
0.0
  0
XRECORD
  5
371
102
{ACAD_REACTORS
330
360
102
}
330
360
100
AcDbXrecord
 10
0.0
 20
0.0
 30
0.0
  0
XRECORD
  5
36E
102
{ACAD_REACTORS
330
360
102
}
330
360
100
AcDbXrecord
340
0
  0
XRECORD
  5
36F
102
{ACAD_REACTORS
330
360
102
}
330
360
100
AcDbXrecord
 70
     0
  0
XRECORD
  5
364
102
{ACAD_REACTORS
330
360
102
}
330
360
100
AcDbXrecord
  1

  0
XRECORD
  5
361
102
{ACAD_REACTORS
330
360
102
}
330
360
100
AcDbXrecord
 90
        1
  0
XRECORD
  5
362
102
{ACAD_REACTORS
330
360
102
}
330
360
100
AcDbXrecord
 90
       70
  0
XRECORD
  5
379
102
{ACAD_REACTORS
330
360
102
}
330
360
100
AcDbXrecord
340
0
  0
XRECORD
  5
37F
102
{ACAD_REACTORS
330
360
102
}
330
360
100
AcDbXrecord
 10
0.0
 20
0.0
 30
0.0
  0
XRECORD
  5
37B
102
{ACAD_REACTORS
330
360
102
}
330
360
100
AcDbXrecord
 10
0.0
 20
0.0
 30
0.0
  0
XRECORD
  5
37E
102
{ACAD_REACTORS
330
360
102
}
330
360
100
AcDbXrecord
 10
0.0
 20
0.0
 30
0.0
  0
XRECORD
  5
37C
102
{ACAD_REACTORS
330
360
102
}
330
360
100
AcDbXrecord
 10
0.0
 20
0.0
 30
0.0
  0
XRECORD
  5
37D
102
{ACAD_REACTORS
330
360
102
}
330
360
100
AcDbXrecord
 10
0.0
 20
0.0
 30
0.0
  0
XRECORD
  5
37A
102
{ACAD_REACTORS
330
360
102
}
330
360
100
AcDbXrecord
 10
0.0
 20
0.0
 30
0.0
  0
XRECORD
  5
377
102
{ACAD_REACTORS
330
360
102
}
330
360
100
AcDbXrecord
340
0
  0
XRECORD
  5
378
102
{ACAD_REACTORS
330
360
102
}
330
360
100
AcDbXrecord
 70
     0
  0
XRECORD
  5
36C
102
{ACAD_REACTORS
330
360
102
}
330
360
100
AcDbXrecord
  1
{40A5FA1B-869B-45BE-AB09-70E2B71957C3}
  0
DICTIONARYVAR
  5
1E6
102
{ACAD_REACTORS
330
1E5
102
}
330
1E5
100
DictionaryVariables
280
     0
  1
1
  0
ENDSEC
  0
EOF
