  0
SECTION
  2
HEADER
  9
$ACADVER
  1
AC1015
  9
$ACADMAINTVER
 70
    20
  9
$DWGCODEPAGE
  3
ANSI_1252
  9
$INSBASE
 10
27.03309583912255
 20
17.47061354843973
 30
0.0
  9
$EXTMIN
 10
24.46208273469864
 20
15.97185558360545
 30
0.0
  9
$EXTMAX
 10
37.33149780973275
 20
20.56945110448292
 30
0.0
  9
$LIMMIN
 10
0.0
 20
0.0
  9
$LIMMAX
 10
36.0
 20
36.0
  9
$ORTHOMODE
 70
     0
  9
$REGENMODE
 70
     1
  9
$FILLMODE
 70
     1
  9
$QTEXTMODE
 70
     0
  9
$MIRRTEXT
 70
     1
  9
$LTSCALE
 40
1.0
  9
$ATTMODE
 70
     1
  9
$TEXTSIZE
 40
0.2
  9
$TRACEWID
 40
0.05
  9
$TEXTSTYLE
  7
STANDARD
  9
$CLAYER
  8
ADP2DETAIL
  9
$CELTYPE
  6
ByLayer
  9
$CECOLOR
 62
   256
  9
$CELTSCALE
 40
1.0
  9
$DISPSILH
 70
     0
  9
$DIMSCALE
 40
1.0
  9
$DIMASZ
 40
0.125
  9
$DIMEXO
 40
0.0625
  9
$DIMDLI
 40
0.38
  9
$DIMRND
 40
0.0
  9
$DIMDLE
 40
0.0
  9
$DIMEXE
 40
0.18
  9
$DIMTP
 40
0.0
  9
$DIMTM
 40
0.0
  9
$DIMTXT
 40
0.125
  9
$DIMCEN
 40
0.1875
  9
$DIMTSZ
 40
0.125
  9
$DIMTOL
 70
     0
  9
$DIMLIM
 70
     0
  9
$DIMTIH
 70
     0
  9
$DIMTOH
 70
     0
  9
$DIMSE1
 70
     0
  9
$DIMSE2
 70
     0
  9
$DIMTAD
 70
     0
  9
$DIMZIN
 70
     3
  9
$DIMBLK
  1

  9
$DIMASO
 70
     1
  9
$DIMSHO
 70
     1
  9
$DIMPOST
  1

  9
$DIMAPOST
  1

  9
$DIMALT
 70
     0
  9
$DIMALTD
 70
     1
  9
$DIMALTF
 40
25.4
  9
$DIMLFAC
 40
1.0
  9
$DIMTOFL
 70
     0
  9
$DIMTVP
 40
0.0
  9
$DIMTIX
 70
     0
  9
$DIMSOXD
 70
     0
  9
$DIMSAH
 70
     0
  9
$DIMBLK1
  1

  9
$DIMBLK2
  1

  9
$DIMSTYLE
  2
Standard
  9
$DIMCLRD
 70
     0
  9
$DIMCLRE
 70
     0
  9
$DIMCLRT
 70
     0
  9
$DIMTFAC
 40
1.0
  9
$DIMGAP
 40
0.125
  9
$DIMJUST
 70
     0
  9
$DIMSD1
 70
     0
  9
$DIMSD2
 70
     0
  9
$DIMTOLJ
 70
     1
  9
$DIMTZIN
 70
     3
  9
$DIMALTZ
 70
     3
  9
$DIMALTTZ
 70
     3
  9
$DIMUPT
 70
     0
  9
$DIMDEC
 70
     4
  9
$DIMTDEC
 70
     4
  9
$DIMALTU
 70
     5
  9
$DIMALTTD
 70
     1
  9
$DIMTXSTY
  7
STANDARD
  9
$DIMAUNIT
 70
     0
  9
$DIMADEC
 70
     0
  9
$DIMALTRND
 40
0.0
  9
$DIMAZIN
 70
     0
  9
$DIMDSEP
 70
    46
  9
$DIMATFIT
 70
     3
  9
$DIMFRAC
 70
     0
  9
$DIMLDRBLK
  1

  9
$DIMLUNIT
 70
     5
  9
$DIMLWD
 70
    -2
  9
$DIMLWE
 70
    -2
  9
$DIMTMOVE
 70
     2
  9
$LUNITS
 70
     5
  9
$LUPREC
 70
     4
  9
$SKETCHINC
 40
0.1
  9
$FILLETRAD
 40
0.062
  9
$AUNITS
 70
     0
  9
$AUPREC
 70
     0
  9
$MENU
  1
acad
  9
$ELEVATION
 40
0.0
  9
$PELEVATION
 40
0.0
  9
$THICKNESS
 40
0.0
  9
$LIMCHECK
 70
     0
  9
$CHAMFERA
 40
0.0
  9
$CHAMFERB
 40
0.0
  9
$CHAMFERC
 40
0.0
  9
$CHAMFERD
 40
0.0
  9
$SKPOLY
 70
     0
  9
$TDCREATE
 40
2450386.493168009
  9
$TDUCREATE
 40
2450386.659834676
  9
$TDUPDATE
 40
2453950.887971342
  9
$TDUUPDATE
 40
2453951.054638009
  9
$TDINDWG
 40
0.0143377083
  9
$TDUSRTIMER
 40
0.0143377083
  9
$USRTIMER
 70
     1
  9
$ANGBASE
 50
0.0
  9
$ANGDIR
 70
     0
  9
$PDMODE
 70
     0
  9
$PDSIZE
 40
0.0
  9
$PLINEWID
 40
0.0
  9
$SPLFRAME
 70
     0
  9
$SPLINETYPE
 70
     6
  9
$SPLINESEGS
 70
     8
  9
$HANDSEED
  5
3AD
  9
$SURFTAB1
 70
     6
  9
$SURFTAB2
 70
     6
  9
$SURFTYPE
 70
     6
  9
$SURFU
 70
     6
  9
$SURFV
 70
     6
  9
$UCSBASE
  2

  9
$UCSNAME
  2

  9
$UCSORG
 10
0.0
 20
0.0
 30
0.0
  9
$UCSXDIR
 10
1.0
 20
0.0
 30
0.0
  9
$UCSYDIR
 10
0.0
 20
1.0
 30
0.0
  9
$UCSORTHOREF
  2

  9
$UCSORTHOVIEW
 70
     0
  9
$UCSORGTOP
 10
0.0
 20
0.0
 30
0.0
  9
$UCSORGBOTTOM
 10
0.0
 20
0.0
 30
0.0
  9
$UCSORGLEFT
 10
0.0
 20
0.0
 30
0.0
  9
$UCSORGRIGHT
 10
0.0
 20
0.0
 30
0.0
  9
$UCSORGFRONT
 10
0.0
 20
0.0
 30
0.0
  9
$UCSORGBACK
 10
0.0
 20
0.0
 30
0.0
  9
$PUCSBASE
  2

  9
$PUCSNAME
  2

  9
$PUCSORG
 10
0.0
 20
0.0
 30
0.0
  9
$PUCSXDIR
 10
1.0
 20
0.0
 30
0.0
  9
$PUCSYDIR
 10
0.0
 20
1.0
 30
0.0
  9
$PUCSORTHOREF
  2

  9
$PUCSORTHOVIEW
 70
     0
  9
$PUCSORGTOP
 10
0.0
 20
0.0
 30
0.0
  9
$PUCSORGBOTTOM
 10
0.0
 20
0.0
 30
0.0
  9
$PUCSORGLEFT
 10
0.0
 20
0.0
 30
0.0
  9
$PUCSORGRIGHT
 10
0.0
 20
0.0
 30
0.0
  9
$PUCSORGFRONT
 10
0.0
 20
0.0
 30
0.0
  9
$PUCSORGBACK
 10
0.0
 20
0.0
 30
0.0
  9
$USERI1
 70
     0
  9
$USERI2
 70
     0
  9
$USERI3
 70
     0
  9
$USERI4
 70
     0
  9
$USERI5
 70
     0
  9
$USERR1
 40
0.0
  9
$USERR2
 40
0.0
  9
$USERR3
 40
0.0
  9
$USERR4
 40
0.0
  9
$USERR5
 40
0.0
  9
$WORLDVIEW
 70
     1
  9
$SHADEDGE
 70
     3
  9
$SHADEDIF
 70
    70
  9
$TILEMODE
 70
     1
  9
$MAXACTVP
 70
    15
  9
$PINSBASE
 10
4.403525741743744E+99
 20
7.061986388769092E+99
 30
0.0
  9
$PLIMCHECK
 70
     0
  9
$PEXTMIN
 10
1.000000000000000E+20
 20
1.000000000000000E+20
 30
1.000000000000000E+20
  9
$PEXTMAX
 10
-1.000000000000000E+20
 20
-1.000000000000000E+20
 30
-1.000000000000000E+20
  9
$PLIMMIN
 10
0.0
 20
0.0
  9
$PLIMMAX
 10
12.0
 20
9.0
  9
$UNITMODE
 70
     0
  9
$VISRETAIN
 70
     0
  9
$PLINEGEN
 70
     0
  9
$PSLTSCALE
 70
     1
  9
$TREEDEPTH
 70
  3020
  9
$CMLSTYLE
  2
Standard
  9
$CMLJUST
 70
     0
  9
$CMLSCALE
 40
1.0
  9
$PROXYGRAPHICS
 70
     1
  9
$MEASUREMENT
 70
     0
  9
$CELWEIGHT
370
    -1
  9
$ENDCAPS
280
     0
  9
$JOINSTYLE
280
     0
  9
$LWDISPLAY
290
     0
  9
$INSUNITS
 70
     0
  9
$HYPERLINKBASE
  1

  9
$STYLESHEET
  1

  9
$XEDIT
290
     1
  9
$CEPSNTYPE
380
     0
  9
$PSTYLEMODE
290
     1
  9
$FINGERPRINTGUID
  2
{5073A3DF-8CCB-4886-9747-7030D8B8AEE1}
  9
$VERSIONGUID
  2
{50B535C0-C4E6-4C0E-83E7-FE174F6EA54F}
  9
$EXTNAMES
290
     1
  9
$PSVPSCALE
 40
0.0
  9
$OLESTARTUP
290
     0
  0
ENDSEC
  0
SECTION
  2
CLASSES
  0
CLASS
  1
ACDBDICTIONARYWDFLT
  2
AcDbDictionaryWithDefault
  3
ObjectDBX Classes
 90
        0
280
     0
281
     0
  0
CLASS
  1
ACDBPLACEHOLDER
  2
AcDbPlaceHolder
  3
ObjectDBX Classes
 90
        0
280
     0
281
     0
  0
CLASS
  1
LAYOUT
  2
AcDbLayout
  3
ObjectDBX Classes
 90
        0
280
     0
281
     0
  0
CLASS
  1
DICTIONARYVAR
  2
AcDbDictionaryVar
  3
ObjectDBX Classes
 90
        0
280
     0
281
     0
  0
CLASS
  1
MATERIAL
  2
AcDbMaterial
  3
ObjectDBX Classes
 90
     1024
280
     0
281
     0
  0
CLASS
  1
VISUALSTYLE
  2
AcDbVisualStyle
  3
ObjectDBX Classes
 90
     4095
280
     0
281
     0
  0
CLASS
  1
TABLESTYLE
  2
AcDbTableStyle
  3
ObjectDBX Classes
 90
     4095
280
     0
281
     0
  0
ENDSEC
  0
SECTION
  2
TABLES
  0
TABLE
  2
VPORT
  5
8
330
0
100
AcDbSymbolTable
 70
     1
  0
VPORT
  5
2E9
330
8
100
AcDbSymbolTableRecord
100
AcDbViewportTableRecord
  2
*Active
 70
     0
 10
0.0
 20
0.0
 11
1.0
 21
1.0
 12
28.80631529100451
 22
19.25356296189762
 13
0.0
 23
0.0
 14
0.5740882589684922
 24
0.5740882589684922
 15
0.5
 25
0.5
 16
0.0
 26
0.0
 36
1.0
 17
0.0
 27
0.0
 37
0.0
 40
2.857174873334024
 41
1.774011299435028
 42
50.0
 43
0.0
 44
0.0
 50
0.0
 51
0.0
 71
     0
 72
   100
 73
     1
 74
     0
 75
     0
 76
     0
 77
     0
 78
     0
281
     0
 65
     1
110
0.0
120
0.0
130
0.0
111
1.0
121
0.0
131
0.0
112
0.0
122
1.0
132
0.0
 79
     0
146
0.0
  0
ENDTAB
  0
TABLE
  2
LTYPE
  5
5
330
0
100
AcDbSymbolTable
 70
     2
  0
LTYPE
  5
13
330
5
100
AcDbSymbolTableRecord
100
AcDbLinetypeTableRecord
  2
ByBlock
 70
     0
  3

 72
    65
 73
     0
 40
0.0
  0
LTYPE
  5
14
330
5
100
AcDbSymbolTableRecord
100
AcDbLinetypeTableRecord
  2
ByLayer
 70
     0
  3

 72
    65
 73
     0
 40
0.0
  0
LTYPE
  5
15
330
5
100
AcDbSymbolTableRecord
100
AcDbLinetypeTableRecord
  2
CONTINUOUS
 70
     0
  3
Solid line
 72
    65
 73
     0
 40
0.0
  0
LTYPE
  5
27
330
5
100
AcDbSymbolTableRecord
100
AcDbLinetypeTableRecord
  2
HIDDEN2
 70
     0
  3
_ _ _ _ _ _ _ _ _ _ _ _ _ _ _ _ _ _ _ _ _ _ _ _
 72
    65
 73
     2
 40
0.1875
 49
0.125
 74
     0
 49
-0.0625
 74
     0
  0
ENDTAB
  0
TABLE
  2
LAYER
  5
2
330
0
100
AcDbSymbolTable
 70
     5
  0
LAYER
  5
10
330
2
100
AcDbSymbolTableRecord
100
AcDbLayerTableRecord
  2
0
 70
     0
 62
     7
  6
CONTINUOUS
370
    -3
390
F
  0
LAYER
  5
29
330
2
100
AcDbSymbolTableRecord
100
AcDbLayerTableRecord
  2
ADP1DETAIL
 70
     0
 62
     7
  6
CONTINUOUS
370
    -3
390
F
  0
LAYER
  5
2A
330
2
100
AcDbSymbolTableRecord
100
AcDbLayerTableRecord
  2
DEFPOINTS
 70
     0
 62
     7
  6
CONTINUOUS
290
     0
370
    -3
390
F
  0
LAYER
  5
2B
330
2
100
AcDbSymbolTableRecord
100
AcDbLayerTableRecord
  2
ADP2DETAIL
 70
     0
 62
     5
  6
CONTINUOUS
370
    -3
390
F
  0
LAYER
  5
2C
330
2
100
AcDbSymbolTableRecord
100
AcDbLayerTableRecord
  2
ADPDIM
 70
     0
 62
     3
  6
CONTINUOUS
370
    -3
390
F
  0
ENDTAB
  0
TABLE
  2
STYLE
  5
3
330
0
100
AcDbSymbolTable
 70
     2
  0
STYLE
  5
11
330
3
100
AcDbSymbolTableRecord
100
AcDbTextStyleTableRecord
  2
STANDARD
 70
     0
 40
0.0
 41
1.0
 50
0.0
 71
     0
 42
0.2
  3
txt
  4

  0
STYLE
  5
DE
330
3
100
AcDbSymbolTableRecord
100
AcDbTextStyleTableRecord
  2
ARIAL_WIDE
 70
     0
 40
0.0
 41
1.25
 50
0.0
 71
     0
 42
0.2
  3
ARIAL.TTF
  4

1001
ACAD
1000
Arial
1071
       34
  0
ENDTAB
  0
TABLE
  2
VIEW
  5
6
330
0
100
AcDbSymbolTable
 70
     0
  0
ENDTAB
  0
TABLE
  2
UCS
  5
7
330
0
100
AcDbSymbolTable
 70
     0
  0
ENDTAB
  0
TABLE
  2
APPID
  5
9
330
0
100
AcDbSymbolTable
 70
     1
  0
APPID
  5
12
330
9
100
AcDbSymbolTableRecord
100
AcDbRegAppTableRecord
  2
ACAD
 70
     0
  0
ENDTAB
  0
TABLE
  2
DIMSTYLE
  5
A
330
0
100
AcDbSymbolTable
 70
     1
100
AcDbDimStyleTable
 71
     1
340
DC
  0
DIMSTYLE
105
DC
102
{ACAD_REACTORS
330
374
102
}
330
A
100
AcDbSymbolTableRecord
100
AcDbDimStyleTableRecord
  2
Standard
 70
     0
340
11
  0
ENDTAB
  0
TABLE
  2
BLOCK_RECORD
  5
1
330
0
100
AcDbSymbolTable
 70
     7
  0
BLOCK_RECORD
  5
1E
102
{ACAD_XDICTIONARY
360
11B
102
}
330
1
100
AcDbSymbolTableRecord
100
AcDbBlockTableRecord
  2
*Model_Space
340
21
  0
BLOCK_RECORD
  5
1A
102
{ACAD_XDICTIONARY
360
11D
102
}
330
1
100
AcDbSymbolTableRecord
100
AcDbBlockTableRecord
  2
*Paper_Space
340
1D
  0
BLOCK_RECORD
  5
22
330
1
100
AcDbSymbolTableRecord
100
AcDbBlockTableRecord
  2
*D0
340
0
  0
BLOCK_RECORD
  5
23
330
1
100
AcDbSymbolTableRecord
100
AcDbBlockTableRecord
  2
*D1
340
0
  0
BLOCK_RECORD
  5
24
330
1
100
AcDbSymbolTableRecord
100
AcDbBlockTableRecord
  2
*D2
340
0
  0
BLOCK_RECORD
  5
25
330
1
100
AcDbSymbolTableRecord
100
AcDbBlockTableRecord
  2
*D3
340
0
  0
BLOCK_RECORD
  5
26
330
1
100
AcDbSymbolTableRecord
100
AcDbBlockTableRecord
  2
*D4
340
0
  0
BLOCK_RECORD
  5
367
330
1
100
AcDbSymbolTableRecord
100
AcDbBlockTableRecord
  2
*D5
340
0
  0
BLOCK_RECORD
  5
375
330
1
100
AcDbSymbolTableRecord
100
AcDbBlockTableRecord
  2
*D6
340
0
  0
ENDTAB
  0
ENDSEC
  0
SECTION
  2
BLOCKS
  0
BLOCK
  5
2F
330
1E
100
AcDbEntity
  8
0
100
AcDbBlockBegin
  2
*Model_Space
 70
     0
 10
0.0
 20
0.0
 30
0.0
  3
*Model_Space
  1

  0
ENDBLK
  5
30
330
1E
100
AcDbEntity
  8
0
100
AcDbBlockEnd
  0
BLOCK
  5
2D
330
1A
100
AcDbEntity
 67
     1
  8
0
100
AcDbBlockBegin
  2
*Paper_Space
 70
     0
 10
0.0
 20
0.0
 30
0.0
  3
*Paper_Space
  1

  0
ENDBLK
  5
2E
330
1A
100
AcDbEntity
 67
     1
  8
0
100
AcDbBlockEnd
  0
BLOCK
  5
31
330
22
100
AcDbEntity
  8
0
100
AcDbBlockBegin
  2
*D0
 70
     1
 10
0.0
 20
0.0
 30
0.0
  3
*D0
  1

  0
LINE
  5
32
330
22
100
AcDbEntity
  8
0
  6
ByBlock
 62
     0
100
AcDbLine
 10
32.26863307380482
 20
19.13567571858757
 30
0.0
 11
32.26863307380482
 21
19.81567571858757
 31
0.0
  0
LINE
  5
33
330
22
100
AcDbEntity
  8
0
  6
ByBlock
 62
     0
100
AcDbLine
 10
35.26863307380482
 20
19.13567571858757
 30
0.0
 11
35.26863307380482
 21
19.81567571858757
 31
0.0
  0
LINE
  5
34
330
22
100
AcDbEntity
  8
0
  6
ByBlock
 62
     0
100
AcDbLine
 10
32.26863307380482
 20
19.63567571858757
 30
0.0
 11
33.60196640713816
 21
19.63567571858757
 31
0.0
  0
LINE
  5
35
330
22
100
AcDbEntity
  8
0
  6
ByBlock
 62
     0
100
AcDbLine
 10
35.26863307380482
 20
19.63567571858757
 30
0.0
 11
33.93529974047149
 21
19.63567571858757
 31
0.0
  0
LINE
  5
36
330
22
100
AcDbEntity
  8
0
  6
ByBlock
 62
     0
100
AcDbLine
 10
32.14363307380482
 20
19.51067571858757
 30
0.0
 11
32.39363307380482
 21
19.76067571858757
 31
0.0
  0
LINE
  5
37
330
22
100
AcDbEntity
  8
0
  6
ByBlock
 62
     0
100
AcDbLine
 10
35.14363307380482
 20
19.51067571858757
 30
0.0
 11
35.39363307380482
 21
19.76067571858757
 31
0.0
  0
TEXT
  5
38
330
22
100
AcDbEntity
  8
0
  6
ByBlock
 62
     0
100
AcDbText
 10
33.72696640713816
 20
19.57317571858757
 30
0.0
 40
0.125
  1
3
 72
     1
 11
33.76863307380482
 21
19.63567571858757
 31
0.0
100
AcDbText
 73
     2
  0
POINT
  5
3A
330
22
100
AcDbEntity
  8
DEFPOINTS
  6
ByBlock
 62
     0
100
AcDbPoint
 10
32.26863307380482
 20
19.07317571858757
 30
0.0
  0
POINT
  5
3B
330
22
100
AcDbEntity
  8
DEFPOINTS
  6
ByBlock
 62
     0
100
AcDbPoint
 10
35.26863307380482
 20
19.07317571858757
 30
0.0
  0
POINT
  5
3C
330
22
100
AcDbEntity
  8
DEFPOINTS
  6
ByBlock
 62
     0
100
AcDbPoint
 10
35.26863307380482
 20
19.63567571858757
 30
0.0
  0
ENDBLK
  5
3D
330
22
100
AcDbEntity
  8
0
100
AcDbBlockEnd
  0
BLOCK
  5
3E
330
23
100
AcDbEntity
  8
0
100
AcDbBlockBegin
  2
*D1
 70
     1
 10
0.0
 20
0.0
 30
0.0
  3
*D1
  1

  0
LINE
  5
3F
330
23
100
AcDbEntity
  8
0
  6
ByBlock
 62
     0
100
AcDbLine
 10
29.96979247082441
 20
19.22061354843973
 30
0.0
 11
30.82363307380482
 21
19.22061354843973
 31
0.0
  0
LINE
  5
40
330
23
100
AcDbEntity
  8
0
  6
ByBlock
 62
     0
100
AcDbLine
 10
30.15679247082442
 20
17.97061354843973
 30
0.0
 11
30.82363307380482
 21
17.97061354843973
 31
0.0
  0
LINE
  5
41
330
23
100
AcDbEntity
  8
0
  6
ByBlock
 62
     0
100
AcDbLine
 10
30.64363307380482
 20
19.22061354843973
 30
0.0
 11
30.64363307380482
 21
18.97061354843973
 31
0.0
  0
LINE
  5
42
330
23
100
AcDbEntity
  8
0
  6
ByBlock
 62
     0
100
AcDbLine
 10
30.64363307380482
 20
17.97061354843973
 30
0.0
 11
30.64363307380482
 21
18.22061354843973
 31
0.0
  0
LINE
  5
43
330
23
100
AcDbEntity
  8
0
  6
ByBlock
 62
     0
100
AcDbLine
 10
30.76863307380482
 20
19.09561354843973
 30
0.0
 11
30.51863307380482
 21
19.34561354843973
 31
0.0
  0
LINE
  5
44
330
23
100
AcDbEntity
  8
0
  6
ByBlock
 62
     0
100
AcDbLine
 10
30.76863307380482
 20
17.84561354843973
 30
0.0
 11
30.51863307380482
 21
18.09561354843973
 31
0.0
  0
TEXT
  5
45
330
23
100
AcDbEntity
  8
0
  6
ByBlock
 62
     0
100
AcDbText
 10
30.70613307380482
 20
18.34561354843973
 30
0.0
 40
0.125
  1
1 1/4
 50
90.0
 72
     1
 11
30.64363307380482
 21
18.59561354843973
 31
0.0
100
AcDbText
 73
     2
  0
POINT
  5
46
330
23
100
AcDbEntity
  8
DEFPOINTS
  6
ByBlock
 62
     0
100
AcDbPoint
 10
29.90729247082441
 20
19.22061354843973
 30
0.0
  0
POINT
  5
47
330
23
100
AcDbEntity
  8
DEFPOINTS
  6
ByBlock
 62
     0
100
AcDbPoint
 10
30.09429247082441
 20
17.97061354843973
 30
0.0
  0
POINT
  5
48
330
23
100
AcDbEntity
  8
DEFPOINTS
  6
ByBlock
 62
     0
100
AcDbPoint
 10
30.64363307380482
 20
17.97061354843973
 30
0.0
  0
ENDBLK
  5
49
330
23
100
AcDbEntity
  8
0
100
AcDbBlockEnd
  0
BLOCK
  5
4A
330
24
100
AcDbEntity
  8
0
100
AcDbBlockBegin
  2
*D2
 70
     1
 10
0.0
 20
0.0
 30
0.0
  3
*D2
  1

  0
LINE
  5
4B
330
24
100
AcDbEntity
  8
0
  6
ByBlock
 62
     0
100
AcDbLine
 10
28.90909583912256
 20
17.40811354843973
 30
0.0
 11
28.90909583912256
 21
16.97868494946822
 31
0.0
  0
LINE
  5
4C
330
24
100
AcDbEntity
  8
0
  6
ByBlock
 62
     0
100
AcDbLine
 10
29.90909583912255
 20
17.40811354843973
 30
0.0
 11
29.90909583912255
 21
16.97868494946822
 31
0.0
  0
LINE
  5
4D
330
24
100
AcDbEntity
  8
0
  6
ByBlock
 62
     0
100
AcDbLine
 10
28.90909583912256
 20
17.15868494946821
 30
0.0
 11
29.26326250578922
 21
17.15868494946821
 31
0.0
  0
LINE
  5
4E
330
24
100
AcDbEntity
  8
0
  6
ByBlock
 62
     0
100
AcDbLine
 10
29.90909583912255
 20
17.15868494946821
 30
0.0
 11
29.55492917245588
 21
17.15868494946821
 31
0.0
  0
LINE
  5
4F
330
24
100
AcDbEntity
  8
0
  6
ByBlock
 62
     0
100
AcDbLine
 10
28.78409583912255
 20
17.03368494946821
 30
0.0
 11
29.03409583912255
 21
17.28368494946822
 31
0.0
  0
LINE
  5
50
330
24
100
AcDbEntity
  8
0
  6
ByBlock
 62
     0
100
AcDbLine
 10
29.78409583912255
 20
17.03368494946821
 30
0.0
 11
30.03409583912255
 21
17.28368494946822
 31
0.0
  0
TEXT
  5
51
330
24
100
AcDbEntity
  8
0
  6
ByBlock
 62
     0
100
AcDbText
 10
29.38826250578922
 20
17.09618494946822
 30
0.0
 40
0.125
  1
1
 72
     1
 11
29.40909583912255
 21
17.15868494946821
 31
0.0
100
AcDbText
 73
     2
  0
POINT
  5
52
330
24
100
AcDbEntity
  8
DEFPOINTS
  6
ByBlock
 62
     0
100
AcDbPoint
 10
28.90909583912256
 20
17.47061354843973
 30
0.0
  0
POINT
  5
53
330
24
100
AcDbEntity
  8
DEFPOINTS
  6
ByBlock
 62
     0
100
AcDbPoint
 10
29.90909583912255
 20
17.47061354843973
 30
0.0
  0
POINT
  5
54
330
24
100
AcDbEntity
  8
DEFPOINTS
  6
ByBlock
 62
     0
100
AcDbPoint
 10
29.90909583912255
 20
17.15868494946821
 30
0.0
  0
ENDBLK
  5
55
330
24
100
AcDbEntity
  8
0
100
AcDbBlockEnd
  0
BLOCK
  5
56
330
25
100
AcDbEntity
  8
0
100
AcDbBlockBegin
  2
*D3
 70
     1
 10
0.0
 20
0.0
 30
0.0
  3
*D3
  1

  0
LINE
  5
57
330
25
100
AcDbEntity
  8
0
  6
ByBlock
 62
     0
100
AcDbLine
 10
27.03309583912255
 20
18.53311354843973
 30
0.0
 11
27.03309583912255
 21
19.69067571858757
 31
0.0
  0
LINE
  5
58
330
25
100
AcDbEntity
  8
0
  6
ByBlock
 62
     0
100
AcDbLine
 10
29.40729247082441
 20
19.28311354843973
 30
0.0
 11
29.40729247082441
 21
19.69067571858757
 31
0.0
  0
LINE
  5
59
330
25
100
AcDbEntity
  8
0
  6
ByBlock
 62
     0
100
AcDbLine
 10
27.03309583912255
 20
19.51067571858757
 30
0.0
 11
27.84519415497348
 21
19.51067571858757
 31
0.0
  0
LINE
  5
5A
330
25
100
AcDbEntity
  8
0
  6
ByBlock
 62
     0
100
AcDbLine
 10
29.40729247082441
 20
19.51067571858757
 30
0.0
 11
28.59519415497349
 21
19.51067571858757
 31
0.0
  0
LINE
  5
5B
330
25
100
AcDbEntity
  8
0
  6
ByBlock
 62
     0
100
AcDbLine
 10
26.90809583912255
 20
19.38567571858757
 30
0.0
 11
27.15809583912256
 21
19.63567571858757
 31
0.0
  0
LINE
  5
5C
330
25
100
AcDbEntity
  8
0
  6
ByBlock
 62
     0
100
AcDbLine
 10
29.28229247082441
 20
19.38567571858757
 30
0.0
 11
29.53229247082441
 21
19.63567571858757
 31
0.0
  0
TEXT
  5
5D
330
25
100
AcDbEntity
  8
0
  6
ByBlock
 62
     0
100
AcDbText
 10
27.97019415497349
 20
19.44817571858757
 30
0.0
 40
0.125
  1
2.375
 72
     1
 11
28.22019415497349
 21
19.51067571858757
 31
0.0
100
AcDbText
 73
     2
  0
POINT
  5
5E
330
25
100
AcDbEntity
  8
DEFPOINTS
  6
ByBlock
 62
     0
100
AcDbPoint
 10
27.03309583912255
 20
18.47061354843973
 30
0.0
  0
POINT
  5
5F
330
25
100
AcDbEntity
  8
DEFPOINTS
  6
ByBlock
 62
     0
100
AcDbPoint
 10
29.40729247082441
 20
19.22061354843973
 30
0.0
  0
POINT
  5
60
330
25
100
AcDbEntity
  8
DEFPOINTS
  6
ByBlock
 62
     0
100
AcDbPoint
 10
29.40729247082441
 20
19.51067571858757
 30
0.0
  0
ENDBLK
  5
61
330
25
100
AcDbEntity
  8
0
100
AcDbBlockEnd
  0
BLOCK
  5
62
330
26
100
AcDbEntity
  8
0
100
AcDbBlockBegin
  2
*D4
 70
     1
 10
0.0
 20
0.0
 30
0.0
  3
*D4
  1

  0
LINE
  5
63
330
26
100
AcDbEntity
  8
0
  6
ByBlock
 62
     0
100
AcDbLine
 10
32.67463307380481
 20
19.13567571858757
 30
0.0
 11
32.67463307380481
 21
19.50317571858757
 31
0.0
  0
LINE
  5
64
330
26
100
AcDbEntity
  8
0
  6
ByBlock
 62
     0
100
AcDbLine
 10
34.86213307380481
 20
19.13567571858757
 30
0.0
 11
34.86213307380481
 21
19.50317571858757
 31
0.0
  0
LINE
  5
65
330
26
100
AcDbEntity
  8
0
  6
ByBlock
 62
     0
100
AcDbLine
 10
32.67463307380481
 20
19.32317571858757
 30
0.0
 11
33.31004974047148
 21
19.32317571858757
 31
0.0
  0
LINE
  5
66
330
26
100
AcDbEntity
  8
0
  6
ByBlock
 62
     0
100
AcDbLine
 10
34.86213307380481
 20
19.32317571858757
 30
0.0
 11
34.22671640713815
 21
19.32317571858757
 31
0.0
  0
LINE
  5
67
330
26
100
AcDbEntity
  8
0
  6
ByBlock
 62
     0
100
AcDbLine
 10
32.54963307380482
 20
19.19817571858757
 30
0.0
 11
32.79963307380481
 21
19.44817571858757
 31
0.0
  0
LINE
  5
68
330
26
100
AcDbEntity
  8
0
  6
ByBlock
 62
     0
100
AcDbLine
 10
34.73713307380482
 20
19.19817571858757
 30
0.0
 11
34.98713307380481
 21
19.44817571858757
 31
0.0
  0
TEXT
  5
69
330
26
100
AcDbEntity
  8
0
  6
ByBlock
 62
     0
100
AcDbText
 10
33.43504974047148
 20
19.26067571858757
 30
0.0
 40
0.125
  1
2 3/16
 72
     1
 11
33.76838307380481
 21
19.32317571858757
 31
0.0
100
AcDbText
 73
     2
  0
POINT
  5
6A
330
26
100
AcDbEntity
  8
DEFPOINTS
  6
ByBlock
 62
     0
100
AcDbPoint
 10
32.67463307380481
 20
19.07317571858757
 30
0.0
  0
POINT
  5
6B
330
26
100
AcDbEntity
  8
DEFPOINTS
  6
ByBlock
 62
     0
100
AcDbPoint
 10
34.86213307380481
 20
19.07317571858757
 30
0.0
  0
POINT
  5
6C
330
26
100
AcDbEntity
  8
DEFPOINTS
  6
ByBlock
 62
     0
100
AcDbPoint
 10
34.86213307380481
 20
19.32317571858757
 30
0.0
  0
ENDBLK
  5
6D
330
26
100
AcDbEntity
  8
0
100
AcDbBlockEnd
  0
BLOCK
  5
372
330
367
100
AcDbEntity
  8
0
100
AcDbBlockBegin
  2
*D5
 70
     1
 10
0.0
 20
0.0
 30
0.0
  3
*D5
  1

  0
LINE
  5
368
330
367
100
AcDbEntity
  8
ADPDIM
 62
     0
370
    -2
100
AcDbLine
 10
27.03309583912255
 20
18.53311354843973
 30
0.0
 11
27.03309583912255
 21
19.69067571858757
 31
0.0
  0
LINE
  5
369
330
367
100
AcDbEntity
  8
ADPDIM
 62
     0
370
    -2
100
AcDbLine
 10
29.40729247082441
 20
19.28311354843973
 30
0.0
 11
29.40729247082441
 21
19.69067571858757
 31
0.0
  0
LINE
  5
36A
330
367
100
AcDbEntity
  8
ADPDIM
 62
     0
370
    -2
100
AcDbLine
 10
27.03309583912255
 20
19.51067571858757
 30
0.0
 11
27.84519415497348
 21
19.51067571858757
 31
0.0
  0
LINE
  5
36B
330
367
100
AcDbEntity
  8
ADPDIM
 62
     0
370
    -2
100
AcDbLine
 10
29.40729247082441
 20
19.51067571858757
 30
0.0
 11
28.59519415497349
 21
19.51067571858757
 31
0.0
  0
LINE
  5
36C
330
367
100
AcDbEntity
  8
ADPDIM
 62
     0
370
    -2
100
AcDbLine
 10
29.28229247082441
 20
19.38567571858757
 30
0.0
 11
29.53229247082441
 21
19.63567571858757
 31
0.0
  0
LINE
  5
36D
330
367
100
AcDbEntity
  8
ADPDIM
 62
     0
370
    -2
100
AcDbLine
 10
26.90809583912255
 20
19.38567571858757
 30
0.0
 11
27.15809583912256
 21
19.63567571858757
 31
0.0
  0
MTEXT
  5
36E
330
367
100
AcDbEntity
  8
ADPDIM
 62
     0
100
AcDbMText
 10
28.22019415497349
 20
19.51067571858757
 30
0.0
 40
0.125
 41
0.0
 71
     5
 72
     1
  1
\A1;2.375
 73
     1
 44
1.0
1001
ACAD
1000
MTEXTBEGIN
1070
    73
1070
     1
1070
    44
1040
1.0
1070
    74
1070
     0
1000
MTEXTEND
  0
POINT
  5
36F
330
367
100
AcDbEntity
  8
DEFPOINTS
 62
     0
100
AcDbPoint
 10
27.03309583912255
 20
18.47061354843973
 30
0.0
  0
POINT
  5
370
330
367
100
AcDbEntity
  8
DEFPOINTS
 62
     0
100
AcDbPoint
 10
29.40729247082441
 20
19.22061354843973
 30
0.0
  0
POINT
  5
371
330
367
100
AcDbEntity
  8
DEFPOINTS
 62
     0
100
AcDbPoint
 10
29.40729247082441
 20
19.51067571858757
 30
0.0
  0
ENDBLK
  5
373
330
367
100
AcDbEntity
  8
0
100
AcDbBlockEnd
  0
BLOCK
  5
380
330
375
100
AcDbEntity
  8
0
 62
     3
100
AcDbBlockBegin
  2
*D6
 70
     1
 10
0.0
 20
0.0
 30
0.0
  3
*D6
  1

  0
LINE
  5
396
330
375
100
AcDbEntity
  8
ADPDIM
 62
     0
370
    -2
100
AcDbLine
 10
29.41266751100552
 20
19.21611275690236
 30
0.0
 11
29.41266751100552
 21
20.03238814279772
 31
0.0
  0
LINE
  5
397
330
375
100
AcDbEntity
  8
ADPDIM
 62
     0
370
    -2
100
AcDbLine
 10
27.03309583912255
 20
18.53311354843973
 30
0.0
 11
27.03309583912255
 21
20.03238814279772
 31
0.0
  0
LINE
  5
398
330
375
100
AcDbEntity
  8
ADPDIM
 62
     0
370
    -2
100
AcDbLine
 10
29.41266751100552
 20
19.85238814279772
 30
0.0
 11
28.63954834173071
 21
19.85238814279772
 31
0.0
  0
LINE
  5
399
330
375
100
AcDbEntity
  8
ADPDIM
 62
     0
370
    -2
100
AcDbLine
 10
27.03309583912255
 20
19.85238814279772
 30
0.0
 11
27.80621500839737
 21
19.85238814279772
 31
0.0
  0
LINE
  5
39A
330
375
100
AcDbEntity
  8
ADPDIM
 62
     0
370
    -2
100
AcDbLine
 10
26.90809583912255
 20
19.72738814279772
 30
0.0
 11
27.15809583912256
 21
19.97738814279772
 31
0.0
  0
LINE
  5
39B
330
375
100
AcDbEntity
  8
ADPDIM
 62
     0
370
    -2
100
AcDbLine
 10
29.28766751100552
 20
19.72738814279772
 30
0.0
 11
29.53766751100552
 21
19.97738814279772
 31
0.0
  0
MTEXT
  5
39C
330
375
100
AcDbEntity
  8
ADPDIM
 62
     0
100
AcDbMText
 10
28.22288167506404
 20
19.85238814279772
 30
0.0
 40
0.125
 41
0.0
 71
     5
 72
     1
  1
\A1;2 3/8
 73
     1
 44
1.0
1001
ACAD
1000
MTEXTBEGIN
1070
    73
1070
     1
1070
    44
1040
1.0
1070
    74
1070
     0
1000
MTEXTEND
  0
POINT
  5
39D
330
375
100
AcDbEntity
  8
DEFPOINTS
 62
     0
100
AcDbPoint
 10
29.41266751100552
 20
19.15361275690236
 30
0.0
  0
POINT
  5
39E
330
375
100
AcDbEntity
  8
DEFPOINTS
 62
     0
100
AcDbPoint
 10
27.03309583912255
 20
18.47061354843973
 30
0.0
  0
POINT
  5
39F
330
375
100
AcDbEntity
  8
DEFPOINTS
 62
     0
100
AcDbPoint
 10
27.03309583912255
 20
19.85238814279772
 30
0.0
  0
ENDBLK
  5
381
330
375
100
AcDbEntity
  8
0
 62
     3
100
AcDbBlockEnd
  0
ENDSEC
  0
SECTION
  2
ENTITIES
  0
LINE
  5
6F
330
1E
100
AcDbEntity
  8
ADP1DETAIL
100
AcDbLine
 10
26.4229097667936
 20
18.16404715381404
 30
0.0
 11
26.45318487482633
 21
17.78804715381404
 31
0.0
  0
LINE
  5
70
330
1E
100
AcDbEntity
  8
ADP1DETAIL
100
AcDbLine
 10
26.45318487482633
 20
17.78804715381404
 30
0.0
 11
26.42218487482633
 21
17.72604715381404
 31
0.0
  0
LINE
  5
71
330
1E
100
AcDbEntity
  8
ADP1DETAIL
100
AcDbLine
 10
26.45390976679359
 20
18.22604715381404
 30
0.0
 11
26.4229097667936
 21
18.16404715381404
 31
0.0
  0
LINE
  5
72
330
1E
100
AcDbEntity
  8
ADP1DETAIL
100
AcDbLine
 10
26.38964426210685
 20
18.22604715381404
 30
0.0
 11
26.38964426210685
 21
17.78703723930174
 31
0.0
  0
LINE
  5
73
330
1E
100
AcDbEntity
  8
ADP1DETAIL
100
AcDbLine
 10
26.38964426210685
 20
17.78703723930174
 30
0.0
 11
26.42218487482633
 21
17.72604715381404
 31
0.0
  0
LINE
  5
74
330
1E
100
AcDbEntity
  8
ADP1DETAIL
100
AcDbLine
 10
26.4229097667936
 20
18.16404715381404
 30
0.0
 11
26.3919097667936
 21
18.22604715381404
 31
0.0
  0
LINE
  5
75
330
1E
100
AcDbEntity
  8
ADP1DETAIL
100
AcDbLine
 10
26.92164426210684
 20
18.16404715381404
 30
0.0
 11
26.95191937013959
 21
17.78804715381404
 31
0.0
  0
LINE
  5
76
330
1E
100
AcDbEntity
  8
ADP1DETAIL
100
AcDbLine
 10
26.98364426210684
 20
18.16404715381404
 30
0.0
 11
27.01391937013959
 21
17.78804715381404
 31
0.0
  0
LINE
  5
77
330
1E
100
AcDbEntity
  8
ADP1DETAIL
100
AcDbLine
 10
26.98291937013959
 20
17.72604715381404
 30
0.0
 11
26.95191937013959
 21
17.78804715381404
 31
0.0
  0
LINE
  5
78
330
1E
100
AcDbEntity
  8
ADP1DETAIL
100
AcDbLine
 10
26.92091937013959
 20
17.72604715381404
 30
0.0
 11
26.88991937013959
 21
17.78804715381404
 31
0.0
  0
LINE
  5
79
330
1E
100
AcDbEntity
  8
ADP1DETAIL
100
AcDbLine
 10
26.95191937013959
 20
17.78804715381404
 30
0.0
 11
26.92091937013959
 21
17.72604715381404
 31
0.0
  0
LINE
  5
7A
330
1E
100
AcDbEntity
  8
ADP1DETAIL
100
AcDbLine
 10
27.01391937013959
 20
17.78804715381404
 30
0.0
 11
26.98291937013959
 21
17.72604715381404
 31
0.0
  0
LINE
  5
7B
330
1E
100
AcDbEntity
  8
ADP1DETAIL
100
AcDbLine
 10
26.98364426210684
 20
18.16404715381404
 30
0.0
 11
26.95264426210684
 21
18.22604715381404
 31
0.0
  0
LINE
  5
7C
330
1E
100
AcDbEntity
  8
ADP1DETAIL
100
AcDbLine
 10
26.92164426210684
 20
18.16404715381404
 30
0.0
 11
26.89064426210685
 21
18.22604715381404
 31
0.0
  0
LINE
  5
7D
330
1E
100
AcDbEntity
  8
ADP1DETAIL
100
AcDbLine
 10
26.95264426210684
 20
18.22604715381404
 30
0.0
 11
26.92164426210684
 21
18.16404715381404
 31
0.0
  0
LINE
  5
7E
330
1E
100
AcDbEntity
  8
ADP1DETAIL
100
AcDbLine
 10
27.01464426210685
 20
18.22604715381404
 30
0.0
 11
26.98364426210684
 21
18.16404715381404
 31
0.0
  0
LINE
  5
7F
330
1E
100
AcDbEntity
  8
ADP1DETAIL
100
AcDbLine
 10
26.73466771202421
 20
18.16404715381404
 30
0.0
 11
26.76494282005695
 21
17.78804715381404
 31
0.0
  0
LINE
  5
80
330
1E
100
AcDbEntity
  8
ADP1DETAIL
100
AcDbLine
 10
26.76494282005695
 20
17.78804715381404
 30
0.0
 11
26.73394282005695
 21
17.72604715381404
 31
0.0
  0
LINE
  5
81
330
1E
100
AcDbEntity
  8
ADP1DETAIL
100
AcDbLine
 10
26.76566771202421
 20
18.22604715381404
 30
0.0
 11
26.73466771202421
 21
18.16404715381404
 31
0.0
  0
LINE
  5
82
330
1E
100
AcDbEntity
  8
ADP1DETAIL
100
AcDbLine
 10
26.48641600709359
 20
18.16404715381404
 30
0.0
 11
26.51669111512633
 21
17.78804715381404
 31
0.0
  0
LINE
  5
83
330
1E
100
AcDbEntity
  8
ADP1DETAIL
100
AcDbLine
 10
26.54414894430899
 20
18.16404715381404
 30
0.0
 11
26.57442405234173
 21
17.78804715381404
 31
0.0
  0
LINE
  5
84
330
1E
100
AcDbEntity
  8
ADP1DETAIL
100
AcDbLine
 10
26.67116147172422
 20
18.16404715381404
 30
0.0
 11
26.70143657975696
 21
17.78804715381404
 31
0.0
  0
LINE
  5
85
330
1E
100
AcDbEntity
  8
ADP1DETAIL
100
AcDbLine
 10
26.60765523142423
 20
18.16404715381404
 30
0.0
 11
26.63793033945697
 21
17.78804715381404
 31
0.0
  0
LINE
  5
86
330
1E
100
AcDbEntity
  8
ADP1DETAIL
100
AcDbLine
 10
26.54342405234173
 20
17.72604715381404
 30
0.0
 11
26.51669111512633
 21
17.78804715381404
 31
0.0
  0
LINE
  5
87
330
1E
100
AcDbEntity
  8
ADP1DETAIL
100
AcDbLine
 10
26.48418487482634
 20
17.72604715381404
 30
0.0
 11
26.45318487482633
 21
17.78804715381404
 31
0.0
  0
LINE
  5
88
330
1E
100
AcDbEntity
  8
ADP1DETAIL
100
AcDbLine
 10
26.51669111512633
 20
17.78804715381404
 30
0.0
 11
26.48569111512633
 21
17.72604715381404
 31
0.0
  0
LINE
  5
89
330
1E
100
AcDbEntity
  8
ADP1DETAIL
100
AcDbLine
 10
26.60542405234173
 20
17.72604715381404
 30
0.0
 11
26.57442405234173
 21
17.78804715381404
 31
0.0
  0
LINE
  5
8A
330
1E
100
AcDbEntity
  8
ADP1DETAIL
100
AcDbLine
 10
26.57442405234173
 20
17.78804715381404
 30
0.0
 11
26.54342405234173
 21
17.72604715381404
 31
0.0
  0
LINE
  5
8B
330
1E
100
AcDbEntity
  8
ADP1DETAIL
100
AcDbLine
 10
26.73243657975696
 20
17.72604715381404
 30
0.0
 11
26.70143657975696
 21
17.78804715381404
 31
0.0
  0
LINE
  5
8C
330
1E
100
AcDbEntity
  8
ADP1DETAIL
100
AcDbLine
 10
26.66893033945697
 20
17.72604715381404
 30
0.0
 11
26.63793033945697
 21
17.78804715381404
 31
0.0
  0
LINE
  5
8D
330
1E
100
AcDbEntity
  8
ADP1DETAIL
100
AcDbLine
 10
26.63793033945697
 20
17.78804715381404
 30
0.0
 11
26.60693033945697
 21
17.72604715381404
 31
0.0
  0
LINE
  5
8E
330
1E
100
AcDbEntity
  8
ADP1DETAIL
100
AcDbLine
 10
26.70143657975696
 20
17.78804715381404
 30
0.0
 11
26.67043657975696
 21
17.72604715381404
 31
0.0
  0
LINE
  5
8F
330
1E
100
AcDbEntity
  8
ADP1DETAIL
100
AcDbLine
 10
26.54414894430899
 20
18.16404715381404
 30
0.0
 11
26.51314894430899
 21
18.22604715381404
 31
0.0
  0
LINE
  5
90
330
1E
100
AcDbEntity
  8
ADP1DETAIL
100
AcDbLine
 10
26.48641600709359
 20
18.16404715381404
 30
0.0
 11
26.45541600709359
 21
18.22604715381404
 31
0.0
  0
LINE
  5
91
330
1E
100
AcDbEntity
  8
ADP1DETAIL
100
AcDbLine
 10
26.51314894430899
 20
18.22604715381404
 30
0.0
 11
26.48641600709359
 21
18.16404715381404
 31
0.0
  0
LINE
  5
92
330
1E
100
AcDbEntity
  8
ADP1DETAIL
100
AcDbLine
 10
26.60765523142423
 20
18.16404715381404
 30
0.0
 11
26.57665523142423
 21
18.22604715381404
 31
0.0
  0
LINE
  5
93
330
1E
100
AcDbEntity
  8
ADP1DETAIL
100
AcDbLine
 10
26.57514894430899
 20
18.22604715381404
 30
0.0
 11
26.54414894430899
 21
18.16404715381404
 31
0.0
  0
LINE
  5
94
330
1E
100
AcDbEntity
  8
ADP1DETAIL
100
AcDbLine
 10
26.73466771202421
 20
18.16404715381404
 30
0.0
 11
26.70366771202421
 21
18.22604715381404
 31
0.0
  0
LINE
  5
95
330
1E
100
AcDbEntity
  8
ADP1DETAIL
100
AcDbLine
 10
26.67116147172422
 20
18.16404715381404
 30
0.0
 11
26.64016147172422
 21
18.22604715381404
 31
0.0
  0
LINE
  5
96
330
1E
100
AcDbEntity
  8
ADP1DETAIL
100
AcDbLine
 10
26.63865523142423
 20
18.22604715381404
 30
0.0
 11
26.60765523142423
 21
18.16404715381404
 31
0.0
  0
LINE
  5
97
330
1E
100
AcDbEntity
  8
ADP1DETAIL
100
AcDbLine
 10
26.70216147172422
 20
18.22604715381404
 30
0.0
 11
26.67116147172422
 21
18.16404715381404
 31
0.0
  0
LINE
  5
98
330
1E
100
AcDbEntity
  8
ADP1DETAIL
100
AcDbLine
 10
26.7981739523242
 20
18.16404715381404
 30
0.0
 11
26.82844906035694
 21
17.78804715381404
 31
0.0
  0
LINE
  5
99
330
1E
100
AcDbEntity
  8
ADP1DETAIL
100
AcDbLine
 10
26.85944906035695
 20
17.72604715381404
 30
0.0
 11
26.82844906035694
 21
17.78804715381404
 31
0.0
  0
LINE
  5
9A
330
1E
100
AcDbEntity
  8
ADP1DETAIL
100
AcDbLine
 10
26.82844906035694
 20
17.78804715381404
 30
0.0
 11
26.79744906035694
 21
17.72604715381404
 31
0.0
  0
LINE
  5
9B
330
1E
100
AcDbEntity
  8
ADP1DETAIL
100
AcDbLine
 10
26.79594282005695
 20
17.72604715381404
 30
0.0
 11
26.76494282005695
 21
17.78804715381404
 31
0.0
  0
LINE
  5
9C
330
1E
100
AcDbEntity
  8
ADP1DETAIL
100
AcDbLine
 10
26.85964426210685
 20
18.16404715381404
 30
0.0
 11
26.82864426210685
 21
18.22604715381404
 31
0.0
  0
LINE
  5
9D
330
1E
100
AcDbEntity
  8
ADP1DETAIL
100
AcDbLine
 10
26.8291739523242
 20
18.22604715381404
 30
0.0
 11
26.7981739523242
 21
18.16404715381404
 31
0.0
  0
LINE
  5
9E
330
1E
100
AcDbEntity
  8
ADP1DETAIL
100
AcDbLine
 10
26.7981739523242
 20
18.16404715381404
 30
0.0
 11
26.7671739523242
 21
18.22604715381404
 31
0.0
  0
LINE
  5
9F
330
1E
100
AcDbEntity
  8
ADP1DETAIL
100
AcDbLine
 10
26.85964426210685
 20
18.16404715381404
 30
0.0
 11
26.88991937013959
 21
17.78804715381404
 31
0.0
  0
LINE
  5
A0
330
1E
100
AcDbEntity
  8
ADP1DETAIL
100
AcDbLine
 10
26.88991937013959
 20
17.78804715381404
 30
0.0
 11
26.85891937013959
 21
17.72604715381404
 31
0.0
  0
LINE
  5
A1
330
1E
100
AcDbEntity
  8
ADP1DETAIL
100
AcDbLine
 10
26.89064426210685
 20
18.22604715381404
 30
0.0
 11
26.85964426210685
 21
18.16404715381404
 31
0.0
  0
DIMENSION
  5
A2
330
1E
100
AcDbEntity
  8
ADPDIM
100
AcDbDimension
  2
*D2
 10
29.90909583912255
 20
17.15868494946821
 30
0.0
 11
29.40909583912255
 21
17.15868494946821
 31
0.0
 71
     5
 42
-1.0
100
AcDbAlignedDimension
 13
28.90909583912256
 23
17.47061354843973
 33
0.0
 14
29.90909583912255
 24
17.47061354843973
 34
0.0
100
AcDbRotatedDimension
  0
LINE
  5
A3
330
1E
100
AcDbEntity
  8
ADP1DETAIL
100
AcDbLine
 10
28.90729247082441
 20
17.47061354843973
 30
0.0
 11
29.90729247082441
 21
17.47061354843973
 31
0.0
  0
LINE
  5
A4
330
1E
100
AcDbEntity
  8
ADP1DETAIL
100
AcDbLine
 10
29.90729247082441
 20
18.97061354843973
 30
0.0
 11
28.90729247082441
 21
18.97061354843973
 31
0.0
  0
LINE
  5
A5
330
1E
100
AcDbEntity
  8
ADP1DETAIL
100
AcDbLine
 10
29.90729247082441
 20
19.22061354843973
 30
0.0
 11
28.90729247082441
 21
19.22061354843973
 31
0.0
  0
ARC
  5
A6
330
1E
100
AcDbEntity
  8
ADP1DETAIL
100
AcDbCircle
 10
27.97276763659212
 20
16.08756508952309
 30
0.0
 40
1.568487103921047
100
AcDbArc
 50
61.85689779872536
 51
118.1431022012746
  0
ARC
  5
A7
330
1E
100
AcDbEntity
  8
ADP1DETAIL
100
AcDbCircle
 10
27.97276763659212
 20
19.82991773698693
 30
0.0
 40
1.550880667470914
100
AcDbArc
 50
241.2197222637633
 51
298.7802777362367
  0
LINE
  5
A8
330
1E
100
AcDbEntity
  8
ADP1DETAIL
100
AcDbLine
 10
27.03309583912255
 20
17.47061354843973
 30
0.0
 11
27.03309583912255
 21
18.47061354843973
 31
0.0
  0
LINE
  5
A9
330
1E
100
AcDbEntity
  8
ADP1DETAIL
100
AcDbLine
 10
27.22109583912255
 20
18.47061354843973
 30
0.0
 11
27.22109583912255
 21
17.47061354843973
 31
0.0
  0
LINE
  5
AA
330
1E
100
AcDbEntity
  8
ADP1DETAIL
100
AcDbLine
 10
27.22109583912255
 20
17.47061354843973
 30
0.0
 11
27.03309583912255
 21
17.47061354843973
 31
0.0
  0
LINE
  5
AB
330
1E
100
AcDbEntity
  8
ADP1DETAIL
100
AcDbLine
 10
27.03309583912255
 20
18.47061354843973
 30
0.0
 11
27.22109583912255
 21
18.47061354843973
 31
0.0
  0
LINE
  5
AC
330
1E
100
AcDbEntity
  8
ADP1DETAIL
100
AcDbLine
 10
28.90729247082441
 20
19.22061354843973
 30
0.0
 11
28.90729247082441
 21
17.47061354843973
 31
0.0
  0
LINE
  5
AD
330
1E
100
AcDbEntity
  8
ADP1DETAIL
100
AcDbLine
 10
28.90909583912256
 20
17.47061354843973
 30
0.0
 11
28.72109583912255
 21
17.47061354843973
 31
0.0
  0
LINE
  5
AE
330
1E
100
AcDbEntity
  8
ADP1DETAIL
100
AcDbLine
 10
28.72109583912255
 20
18.47061354843973
 30
0.0
 11
28.90909583912256
 21
18.47061354843973
 31
0.0
  0
LINE
  5
AF
330
1E
100
AcDbEntity
  8
ADP1DETAIL
100
AcDbLine
 10
28.72109583912255
 20
17.47061354843973
 30
0.0
 11
28.72109583912255
 21
18.47061354843973
 31
0.0
  0
LINE
  5
B0
330
1E
100
AcDbEntity
  8
ADP2DETAIL
  6
HIDDEN2
100
AcDbLine
 10
29.31870245568306
 20
19.04000585029745
 30
0.0
 11
29.25670245568306
 21
18.97800585029745
 31
0.0
  0
LINE
  5
B1
330
1E
100
AcDbEntity
  8
ADP2DETAIL
  6
HIDDEN2
100
AcDbLine
 10
29.31870245568306
 20
19.21508470597148
 30
0.0
 11
29.31870245568306
 21
19.04000585029745
 31
0.0
  0
DIMENSION
  5
B2
330
1E
100
AcDbEntity
  8
ADPDIM
100
AcDbDimension
  2
*D1
 10
30.64363307380482
 20
17.97061354843973
 30
0.0
 11
30.64363307380482
 21
18.59561354843973
 31
0.0
 71
     5
 42
-1.0
100
AcDbAlignedDimension
 13
29.90729247082441
 23
19.22061354843973
 33
0.0
 14
30.09429247082441
 24
17.97061354843973
 34
0.0
 50
90.0
100
AcDbRotatedDimension
  0
LINE
  5
B3
330
1E
100
AcDbEntity
  8
ADP1DETAIL
100
AcDbLine
 10
29.90729247082441
 20
17.47061354843973
 30
0.0
 11
29.90729247082441
 21
19.22061354843973
 31
0.0
  0
LINE
  5
B4
330
1E
100
AcDbEntity
  8
ADP1DETAIL
100
AcDbLine
 10
29.96929247082441
 20
17.47061354843973
 30
0.0
 11
29.90729247082441
 21
17.47061354843973
 31
0.0
  0
LINE
  5
B5
330
1E
100
AcDbEntity
  8
ADP1DETAIL
100
AcDbLine
 10
29.90729247082441
 20
18.47061354843973
 30
0.0
 11
29.96929247082441
 21
18.47061354843973
 31
0.0
  0
LINE
  5
B6
330
1E
100
AcDbEntity
  8
ADP1DETAIL
100
AcDbLine
 10
29.96929247082441
 20
17.47061354843973
 30
0.0
 11
29.96929247082441
 21
18.47061354843973
 31
0.0
  0
LINE
  5
B7
330
1E
100
AcDbEntity
  8
ADP1DETAIL
100
AcDbLine
 10
30.09429247082441
 20
18.34561354843973
 30
0.0
 11
30.09429247082441
 21
17.59561354843973
 31
0.0
  0
LINE
  5
B8
330
1E
100
AcDbEntity
  8
ADP1DETAIL
100
AcDbLine
 10
30.09429247082441
 20
17.59561354843973
 30
0.0
 11
29.96929247082441
 21
17.47061354843973
 31
0.0
  0
LINE
  5
B9
330
1E
100
AcDbEntity
  8
ADP1DETAIL
100
AcDbLine
 10
29.96929247082441
 20
18.47061354843973
 30
0.0
 11
30.09429247082441
 21
18.34561354843973
 31
0.0
  0
LINE
  5
BA
330
1E
100
AcDbEntity
  8
ADP2DETAIL
  6
HIDDEN2
100
AcDbLine
 10
29.50670245568306
 20
19.21508470597148
 30
0.0
 11
29.50670245568306
 21
19.04000585029745
 31
0.0
  0
LINE
  5
BB
330
1E
100
AcDbEntity
  8
ADP2DETAIL
  6
HIDDEN2
100
AcDbLine
 10
29.50670245568306
 20
19.04000585029745
 30
0.0
 11
29.56870245568305
 21
18.97800585029745
 31
0.0
  0
DIMENSION
  5
BC
330
1E
100
AcDbEntity
  8
ADPDIM
100
AcDbDimension
  2
*D0
 10
35.26863307380482
 20
19.63567571858757
 30
0.0
 11
33.76863307380482
 21
19.63567571858757
 31
0.0
 71
     5
 42
-1.0
100
AcDbAlignedDimension
 13
32.26863307380482
 23
19.07317571858757
 33
0.0
 14
35.26863307380482
 24
19.07317571858757
 34
0.0
100
AcDbRotatedDimension
  0
DIMENSION
  5
BD
330
1E
100
AcDbEntity
  8
ADPDIM
100
AcDbDimension
  2
*D4
 10
34.86213307380481
 20
19.32317571858757
 30
0.0
 11
33.76838307380481
 21
19.32317571858757
 31
0.0
 71
     5
 42
-1.0
100
AcDbAlignedDimension
 13
32.67463307380481
 23
19.07317571858757
 33
0.0
 14
34.86213307380481
 24
19.07317571858757
 34
0.0
100
AcDbRotatedDimension
  0
CIRCLE
  5
BE
330
1E
100
AcDbEntity
  8
ADP1DETAIL
100
AcDbCircle
 10
33.76002455658901
 20
17.84165545886482
 30
0.0
 40
0.375
  0
CIRCLE
  5
BF
330
1E
100
AcDbEntity
  8
ADP1DETAIL
100
AcDbCircle
 10
33.76002455658901
 20
17.84165545886482
 30
0.0
 40
0.5
  0
LINE
  5
C0
330
1E
100
AcDbEntity
  8
ADP1DETAIL
100
AcDbLine
 10
33.44752455658901
 20
19.13712174681037
 30
0.0
 11
34.07252455658901
 21
19.13712174681037
 31
0.0
  0
LINE
  5
C1
330
1E
100
AcDbEntity
  8
ADP1DETAIL
100
AcDbLine
 10
33.13502455658901
 20
18.83813763120987
 30
0.0
 11
32.260024556589
 21
18.83813763120987
 31
0.0
  0
LINE
  5
C2
330
1E
100
AcDbEntity
  8
ADP1DETAIL
100
AcDbLine
 10
32.260024556589
 20
19.08813763120987
 30
0.0
 11
33.44752455658901
 21
19.08813763120987
 31
0.0
  0
LINE
  5
C3
330
1E
100
AcDbEntity
  8
ADP1DETAIL
100
AcDbLine
 10
32.260024556589
 20
18.83813763120987
 30
0.0
 11
32.260024556589
 21
19.08813763120987
 31
0.0
  0
LINE
  5
C4
330
1E
100
AcDbEntity
  8
ADP2DETAIL
  6
HIDDEN2
100
AcDbLine
 10
32.76863307380482
 20
18.91617571858757
 30
0.0
 11
32.83063307380482
 21
18.85417571858757
 31
0.0
  0
LINE
  5
C5
330
1E
100
AcDbEntity
  8
ADP2DETAIL
  6
HIDDEN2
100
AcDbLine
 10
32.76863307380482
 20
19.07317571858757
 30
0.0
 11
32.76863307380482
 21
18.91617571858757
 31
0.0
  0
LINE
  5
C6
330
1E
100
AcDbEntity
  8
ADP2DETAIL
  6
HIDDEN2
100
AcDbLine
 10
32.58063307380482
 20
18.91617571858757
 30
0.0
 11
32.51863307380482
 21
18.85417571858757
 31
0.0
  0
LINE
  5
C7
330
1E
100
AcDbEntity
  8
ADP2DETAIL
  6
HIDDEN2
100
AcDbLine
 10
32.58063307380482
 20
19.07317571858757
 30
0.0
 11
32.58063307380482
 21
18.91617571858757
 31
0.0
  0
LINE
  5
C8
330
1E
100
AcDbEntity
  8
ADP1DETAIL
100
AcDbLine
 10
33.260024556589
 20
17.77378399119912
 30
0.0
 11
33.260024556589
 21
18.71313763120987
 31
0.0
  0
LINE
  5
C9
330
1E
100
AcDbEntity
  8
ADP1DETAIL
100
AcDbLine
 10
33.44752455658901
 20
18.23196783376472
 30
0.0
 11
33.44752455658901
 21
19.13712174681037
 31
0.0
  0
LINE
  5
CA
330
1E
100
AcDbEntity
  8
ADP1DETAIL
100
AcDbLine
 10
33.44752455658901
 20
19.08274333524792
 30
0.0
 11
33.44752455658901
 21
18.23196783376472
 31
0.0
  0
LWPOLYLINE
  5
CB
330
1E
100
AcDbEntity
  8
ADP1DETAIL
100
AcDbPolyline
 90
        2
 70
     0
 43
0.0
 10
33.26383310492442
 20
17.78005965304173
 10
33.260024556589
 20
17.77378399119912
  0
ARC
  5
CF
330
1E
100
AcDbEntity
  8
ADP1DETAIL
100
AcDbCircle
 10
33.13502455658901
 20
18.71313763120987
 30
0.0
 40
0.125
100
AcDbArc
 50
0.0
 51
90.0
  0
LINE
  5
D0
330
1E
100
AcDbEntity
  8
ADP1DETAIL
100
AcDbLine
 10
35.260024556589
 20
18.83813763120987
 30
0.0
 11
34.38502455658901
 21
18.83813763120987
 31
0.0
  0
LINE
  5
D1
330
1E
100
AcDbEntity
  8
ADP1DETAIL
100
AcDbLine
 10
34.07252455658901
 20
19.08813763120987
 30
0.0
 11
35.260024556589
 21
19.08813763120987
 31
0.0
  0
LINE
  5
D2
330
1E
100
AcDbEntity
  8
ADP1DETAIL
100
AcDbLine
 10
34.260024556589
 20
18.71313763120987
 30
0.0
 11
34.260024556589
 21
17.77378399119912
 31
0.0
  0
LINE
  5
D3
330
1E
100
AcDbEntity
  8
ADP1DETAIL
100
AcDbLine
 10
34.07252455658901
 20
19.13712174681037
 30
0.0
 11
34.07252455658901
 21
18.23196783376472
 31
0.0
  0
LINE
  5
D4
330
1E
100
AcDbEntity
  8
ADP1DETAIL
100
AcDbLine
 10
34.07252455658901
 20
18.23196783376472
 30
0.0
 11
34.07252455658901
 21
19.08274333524792
 31
0.0
  0
LINE
  5
D5
330
1E
100
AcDbEntity
  8
ADP1DETAIL
100
AcDbLine
 10
34.260024556589
 20
17.77378399119912
 30
0.0
 11
34.25621600825357
 21
17.78005965304173
 31
0.0
  0
ARC
  5
D6
330
1E
100
AcDbEntity
  8
ADP1DETAIL
100
AcDbCircle
 10
34.38502455658901
 20
18.71313763120987
 30
0.0
 40
0.125
100
AcDbArc
 50
89.99999999999991
 51
180.0
  0
LINE
  5
D7
330
1E
100
AcDbEntity
  8
ADP2DETAIL
  6
HIDDEN2
100
AcDbLine
 10
34.76863307380482
 20
18.91617571858757
 30
0.0
 11
34.70663307380482
 21
18.85417571858757
 31
0.0
  0
LINE
  5
D8
330
1E
100
AcDbEntity
  8
ADP2DETAIL
  6
HIDDEN2
100
AcDbLine
 10
34.76863307380482
 20
19.07317571858757
 30
0.0
 11
34.76863307380482
 21
18.91617571858757
 31
0.0
  0
LINE
  5
D9
330
1E
100
AcDbEntity
  8
ADP2DETAIL
  6
HIDDEN2
100
AcDbLine
 10
34.95663307380482
 20
18.91617571858757
 30
0.0
 11
35.01863307380482
 21
18.85417571858757
 31
0.0
  0
LINE
  5
DA
330
1E
100
AcDbEntity
  8
ADP2DETAIL
  6
HIDDEN2
100
AcDbLine
 10
34.95663307380482
 20
19.07317571858757
 30
0.0
 11
34.95663307380482
 21
18.91617571858757
 31
0.0
  0
LINE
  5
DB
330
1E
100
AcDbEntity
  8
ADP1DETAIL
100
AcDbLine
 10
35.260024556589
 20
19.08813763120987
 30
0.0
 11
35.260024556589
 21
18.83813763120987
 31
0.0
  0
TEXT
  5
DF
330
1E
100
AcDbEntity
  8
ADPDIM
100
AcDbText
 10
24.46208273469864
 20
16.00886104063137
 30
0.0
 40
0.125
  1
J U L I U S  B L U M  &  C O . ,  I N C .      ( 8 0 0 )  5 2 6 - 6 2 9 3        W W W . J U L I U S B L U M . C O M        P A R T  N o .  3 1 2
 41
1.25
  7
ARIAL_WIDE
 72
     1
 11
30.8967902722157
 21
16.13386104063137
 31
0.0
100
AcDbText
 73
     3
  0
DIMENSION
  5
374
330
1E
100
AcDbEntity
  8
ADPDIM
 62
     3
100
AcDbDimension
  2
*D6
 10
27.03309583912255
 20
19.85238814279772
 30
0.0
 11
28.22288167506404
 21
19.85238814279772
 31
0.0
 70
    32
 71
     5
 42
2.379571671882967
  3
Standard
100
AcDbAlignedDimension
 13
29.41266751100552
 23
19.15361275690236
 33
0.0
 14
27.03309583912255
 24
18.47061354843973
 34
0.0
100
AcDbRotatedDimension
1001
ACAD
1000
DSTYLE
1002
{
1070
   276
1070
     2
1070
    41
1040
0.125
1070
    73
1070
     0
1070
    74
1070
     0
1070
    78
1070
     3
1070
   140
1040
0.125
1070
   141
1040
0.1875
1070
   142
1040
0.125
1070
   147
1040
0.125
1070
   171
1070
     1
1070
   273
1070
     5
1070
   274
1070
     1
1070
   277
1070
     5
1070
   279
1070
     2
1070
   284
1070
     3
1070
   285
1070
     3
1070
   286
1070
     3
1002
}
  0
ENDSEC
  0
SECTION
  2
OBJECTS
  0
DICTIONARY
  5
C
330
0
100
AcDbDictionary
281
     1
  3
ACAD_COLOR
350
335
  3
ACAD_GROUP
350
D
  3
ACAD_LAYOUT
350
19
  3
ACAD_MATERIAL
350
320
  3
ACAD_MLINESTYLE
350
16
  3
ACAD_PLOTSETTINGS
350
18
  3
ACAD_PLOTSTYLENAME
350
E
  3
ACAD_TABLESTYLE
350
336
  3
ACAD_VISUALSTYLE
350
324
  3
AcDbVariableDictionary
350
150
  3
DWGPROPS
350
3A0
  0
DICTIONARY
  5
11B
330
1E
100
AcDbDictionary
280
     1
281
     1
  3
ACAD_LAYOUTSELFREF
360
31C
  0
DICTIONARY
  5
11D
330
1A
100
AcDbDictionary
280
     1
281
     1
  3
ACAD_LAYOUTSELFREF
360
31B
  0
DICTIONARY
  5
335
102
{ACAD_REACTORS
330
C
102
}
330
C
100
AcDbDictionary
281
     1
  0
DICTIONARY
  5
D
102
{ACAD_REACTORS
330
C
102
}
330
C
100
AcDbDictionary
281
     1
  0
DICTIONARY
  5
19
102
{ACAD_REACTORS
330
C
102
}
330
C
100
AcDbDictionary
281
     1
  3
Layout1
350
1D
  3
Model
350
21
  0
DICTIONARY
  5
320
102
{ACAD_REACTORS
330
C
102
}
330
C
100
AcDbDictionary
281
     1
  3
ByBlock
350
322
  3
ByLayer
350
321
  3
Global
350
323
  0
DICTIONARY
  5
16
102
{ACAD_REACTORS
330
C
102
}
330
C
100
AcDbDictionary
281
     1
  3
Standard
350
17
  0
DICTIONARY
  5
18
102
{ACAD_REACTORS
330
C
102
}
330
C
100
AcDbDictionary
281
     1
  0
ACDBDICTIONARYWDFLT
  5
E
102
{ACAD_REACTORS
330
C
102
}
330
C
100
AcDbDictionary
281
     1
  3
Normal
350
F
100
AcDbDictionaryWithDefault
340
F
  0
DICTIONARY
  5
336
102
{ACAD_REACTORS
330
C
102
}
330
C
100
AcDbDictionary
281
     1
  3
Standard
350
337
  0
DICTIONARY
  5
324
102
{ACAD_REACTORS
330
C
102
}
330
C
100
AcDbDictionary
281
     1
  3
2dWireframe
350
32A
  3
3D Hidden
350
32C
  3
3dWireframe
350
32B
  3
Basic
350
329
  3
Brighten
350
330
  3
ColorChange
350
334
  3
Conceptual
350
32D
  3
Dim
350
32F
  3
Facepattern
350
333
  3
Flat
350
325
  3
FlatWithEdges
350
326
  3
Gouraud
350
327
  3
GouraudWithEdges
350
328
  3
Linepattern
350
332
  3
Realistic
350
32E
  3
Thicken
350
331
  0
DICTIONARY
  5
150
102
{ACAD_REACTORS
330
C
102
}
330
C
100
AcDbDictionary
281
     1
  3
CTABLESTYLE
350
357
  3
DIMASSOC
350
152
  3
HIDETEXT
350
151
  3
INDEXCTL
350
359
  3
SORTENTS
350
358
  0
XRECORD
  5
3A0
102
{ACAD_REACTORS
330
C
102
}
330
C
100
AcDbXrecord
280
     1
  1
DWGPROPS COOKIE
  2

  3

  4

  6

  7

  8
Yu Hu
  9

300
=
301
=
302
=
303
=
304
=
305
=
306
=
307
=
308
=
309
=
 40
0.0143375925925926
 41
2450386.493168009
 42
2453950.887971342
  1

 90
        0
  0
XRECORD
  5
31C
102
{ACAD_REACTORS
330
11B
102
}
330
11B
100
AcDbXrecord
280
     1
340
1E
  0
XRECORD
  5
31B
102
{ACAD_REACTORS
330
11D
102
}
330
11D
100
AcDbXrecord
280
     1
340
1A
  0
LAYOUT
  5
1D
102
{ACAD_XDICTIONARY
360
3A1
102
}
102
{ACAD_REACTORS
330
19
102
}
330
19
100
AcDbPlotSettings
  1

  2
Fax
  4

  6

 40
0.0
 41
0.0
 42
0.0
 43
0.0
 44
0.0
 45
0.0
 46
0.0
 47
0.0
 48
0.0
 49
0.0
140
0.0
141
0.0
142
1.0
143
1.0
 70
   688
 72
     0
 73
     0
 74
     5
  7
Default R14 pen assignments.ctb
 75
    16
147
1.0
148
0.0
149
0.0
100
AcDbLayout
  1
Layout1
 70
     1
 71
     1
 10
0.0
 20
0.0
 11
12.0
 21
9.0
 12
4.403525741743744E+99
 22
7.061986388769092E+99
 32
0.0
 14
1.000000000000000E+20
 24
1.000000000000000E+20
 34
1.000000000000000E+20
 15
-1.000000000000000E+20
 25
-1.000000000000000E+20
 35
-1.000000000000000E+20
146
0.0
 13
0.0
 23
0.0
 33
0.0
 16
1.0
 26
0.0
 36
0.0
 17
0.0
 27
1.0
 37
0.0
 76
     0
330
1A
  0
LAYOUT
  5
21
102
{ACAD_XDICTIONARY
360
3A3
102
}
102
{ACAD_REACTORS
330
19
102
}
330
19
100
AcDbPlotSettings
  1

  2
Fax
  4

  6

 40
0.0
 41
0.0
 42
0.0
 43
0.0
 44
0.0
 45
0.0
 46
0.0
 47
0.0
 48
0.0
 49
0.0
140
0.0
141
0.0
142
1.0
143
1.0
 70
  1712
 72
     0
 73
     0
 74
     0
  7
Default R14 pen assignments.ctb
 75
     0
147
1.0
148
0.0
149
0.0
100
AcDbLayout
  1
Model
 70
     1
 71
     0
 10
0.0
 20
0.0
 11
12.0
 21
9.0
 12
0.0
 22
0.0
 32
0.0
 14
0.0
 24
0.0
 34
0.0
 15
0.0
 25
0.0
 35
0.0
146
0.0
 13
0.0
 23
0.0
 33
0.0
 16
1.0
 26
0.0
 36
0.0
 17
0.0
 27
1.0
 37
0.0
 76
     0
330
1E
331
2E9
  0
MATERIAL
  5
322
102
{ACAD_XDICTIONARY
360
3A7
102
}
102
{ACAD_REACTORS
330
320
102
}
330
320
100
AcDbMaterial
  1
ByBlock
  0
MATERIAL
  5
321
102
{ACAD_XDICTIONARY
360
3A5
102
}
102
{ACAD_REACTORS
330
320
102
}
330
320
100
AcDbMaterial
  1
ByLayer
  0
MATERIAL
  5
323
102
{ACAD_XDICTIONARY
360
3A9
102
}
102
{ACAD_REACTORS
330
320
102
}
330
320
100
AcDbMaterial
  1
Global
  0
MLINESTYLE
  5
17
102
{ACAD_REACTORS
330
16
102
}
330
16
100
AcDbMlineStyle
  2
STANDARD
 70
     0
  3

 62
   256
 51
90.0
 52
90.0
 71
     2
 49
0.5
 62
   256
  6
BYLAYER
 49
-0.5
 62
   256
  6
BYLAYER
  0
ACDBPLACEHOLDER
  5
F
102
{ACAD_REACTORS
330
E
102
}
330
E
  0
TABLESTYLE
  5
337
102
{ACAD_XDICTIONARY
360
3AB
102
}
102
{ACAD_REACTORS
330
336
102
}
330
336
100
AcDbTableStyle
  3
Standard
 70
     0
 71
     0
 40
0.06
 41
0.06
280
     0
281
     0
  7
STANDARD
140
0.18
170
     2
 62
     0
 63
     7
283
     0
274
    -2
284
     1
 64
     0
275
    -2
285
     1
 65
     0
276
    -2
286
     1
 66
     0
277
    -2
287
     1
 67
     0
278
    -2
288
     1
 68
     0
279
    -2
289
     1
 69
     0
  7
STANDARD
140
0.25
170
     5
 62
     0
 63
     7
283
     0
274
    -2
284
     1
 64
     0
275
    -2
285
     1
 65
     0
276
    -2
286
     1
 66
     0
277
    -2
287
     1
 67
     0
278
    -2
288
     1
 68
     0
279
    -2
289
     1
 69
     0
  7
STANDARD
140
0.18
170
     5
 62
     0
 63
     7
283
     0
274
    -2
284
     1
 64
     0
275
    -2
285
     1
 65
     0
276
    -2
286
     1
 66
     0
277
    -2
287
     1
 67
     0
278
    -2
288
     1
 68
     0
279
    -2
289
     1
 69
     0
  0
VISUALSTYLE
  5
32A
102
{ACAD_REACTORS
330
324
102
}
330
324
100
AcDbVisualStyle
  2
2dWireframe
 70
     4
 71
     0
 72
     2
 73
     0
 90
        0
 40
-0.6
 41
-30.0
 62
     5
 63
     7
 74
     1
 91
        4
 64
     7
 65
   257
 75
     1
175
     1
 42
1.0
 92
        0
 66
   257
 43
1.0
 76
     1
 77
     6
 78
     2
 67
     7
 79
     5
170
     0
171
     0
290
     0
174
     0
 93
        1
 44
0.0
173
     0
291
     0
 45
0.0
1001
ACAD
1000
AcDbSavedByObjectVersion
1070
     0
  0
VISUALSTYLE
  5
32C
102
{ACAD_REACTORS
330
324
102
}
330
324
100
AcDbVisualStyle
  2
3D Hidden
 70
     6
 71
     1
 72
     2
 73
     2
 90
        0
 40
-0.6
 41
-30.0
 62
     5
 63
     7
 74
     2
 91
        2
 64
     7
 65
   257
 75
     2
175
     1
 42
40.0
 92
        0
 66
   257
 43
1.0
 76
     1
 77
     6
 78
     2
 67
     7
 79
     3
170
     0
171
     0
290
     0
174
     0
 93
        1
 44
0.0
173
     0
291
     0
 45
0.0
1001
ACAD
1000
AcDbSavedByObjectVersion
1070
     0
  0
VISUALSTYLE
  5
32B
102
{ACAD_REACTORS
330
324
102
}
330
324
100
AcDbVisualStyle
  2
3dWireframe
 70
     5
 71
     0
 72
     2
 73
     0
 90
        0
 40
-0.6
 41
-30.0
 62
     5
 63
     7
 74
     1
 91
        4
 64
     7
 65
   257
 75
     1
175
     1
 42
1.0
 92
        0
 66
   257
 43
1.0
 76
     1
 77
     6
 78
     2
 67
     7
 79
     5
170
     0
171
     0
290
     0
174
     0
 93
        1
 44
0.0
173
     0
291
     0
 45
0.0
1001
ACAD
1000
AcDbSavedByObjectVersion
1070
     0
  0
VISUALSTYLE
  5
329
102
{ACAD_REACTORS
330
324
102
}
330
324
100
AcDbVisualStyle
  2
Basic
 70
     7
 71
     1
 72
     0
 73
     1
 90
        0
 40
-0.6
 41
-30.0
 62
     5
 63
     7
 74
     0
 91
        4
 64
     7
 65
   257
 75
     1
175
     1
 42
1.0
 92
        8
 66
     7
 43
1.0
 76
     1
 77
     6
 78
     2
 67
     7
 79
     5
170
     0
171
     0
290
     0
174
     0
 93
        1
 44
0.0
173
     0
291
     1
 45
0.0
1001
ACAD
1000
AcDbSavedByObjectVersion
1070
     0
  0
VISUALSTYLE
  5
330
102
{ACAD_REACTORS
330
324
102
}
330
324
100
AcDbVisualStyle
  2
Brighten
 70
    12
 71
     2
 72
     2
 73
     0
 90
        0
 40
-0.6
 41
-30.0
 62
     5
 63
     7
 74
     1
 91
        4
 64
     7
 65
   257
 75
     1
175
     1
 42
1.0
 92
        8
 66
     7
 43
1.0
 76
     1
 77
     6
 78
     2
 67
     7
 79
     5
170
     0
171
     0
290
     0
174
     0
 93
        1
 44
50.0
173
     0
291
     1
 45
0.0
1001
ACAD
1000
AcDbSavedByObjectVersion
1070
     0
  0
VISUALSTYLE
  5
334
102
{ACAD_REACTORS
330
324
102
}
330
324
100
AcDbVisualStyle
  2
ColorChange
 70
    16
 71
     2
 72
     2
 73
     3
 90
        0
 40
-0.6
 41
-30.0
 62
     5
 63
     8
 74
     1
 91
        4
 64
     7
 65
   257
 75
     1
175
     1
 42
1.0
 92
        8
 66
     8
 43
1.0
 76
     1
 77
     6
 78
     2
 67
     7
 79
     5
170
     0
171
     0
290
     0
174
     0
 93
        1
 44
0.0
173
     0
291
     1
 45
0.0
1001
ACAD
1000
AcDbSavedByObjectVersion
1070
     0
  0
VISUALSTYLE
  5
32D
102
{ACAD_REACTORS
330
324
102
}
330
324
100
AcDbVisualStyle
  2
Conceptual
 70
     9
 71
     3
 72
     2
 73
     0
 90
        0
 40
-0.6
 41
-30.0
 62
     5
 63
     7
 74
     2
 91
        2
 64
     7
 65
   257
 75
     1
175
     1
 42
40.0
 92
        8
 66
     7
 43
1.0
 76
     1
 77
     6
 78
     2
 67
     7
 79
     3
170
     0
171
     0
290
     0
174
     0
 93
        1
 44
0.0
173
     0
291
     0
 45
0.0
1001
ACAD
1000
AcDbSavedByObjectVersion
1070
     0
  0
VISUALSTYLE
  5
32F
102
{ACAD_REACTORS
330
324
102
}
330
324
100
AcDbVisualStyle
  2
Dim
 70
    11
 71
     2
 72
     2
 73
     0
 90
        0
 40
-0.6
 41
-30.0
 62
     5
 63
     7
 74
     1
 91
        4
 64
     7
 65
   257
 75
     1
175
     1
 42
1.0
 92
        8
 66
     7
 43
1.0
 76
     1
 77
     6
 78
     2
 67
     7
 79
     5
170
     0
171
     0
290
     0
174
     0
 93
        1
 44
-50.0
173
     0
291
     1
 45
0.0
1001
ACAD
1000
AcDbSavedByObjectVersion
1070
     0
  0
VISUALSTYLE
  5
333
102
{ACAD_REACTORS
330
324
102
}
330
324
100
AcDbVisualStyle
  2
Facepattern
 70
    15
 71
     2
 72
     2
 73
     0
 90
        0
 40
-0.6
 41
-30.0
 62
     5
 63
     7
 74
     1
 91
        4
 64
     7
 65
   257
 75
     1
175
     1
 42
1.0
 92
        8
 66
     7
 43
1.0
 76
     1
 77
     6
 78
     2
 67
     7
 79
     5
170
     0
171
     0
290
     0
174
     0
 93
        1
 44
0.0
173
     0
291
     1
 45
0.0
1001
ACAD
1000
AcDbSavedByObjectVersion
1070
     0
  0
VISUALSTYLE
  5
325
102
{ACAD_REACTORS
330
324
102
}
330
324
100
AcDbVisualStyle
  2
Flat
 70
     0
 71
     2
 72
     1
 73
     1
 90
        2
 40
-0.6
 41
30.0
 62
     5
 63
     7
 74
     0
 91
        4
 64
     7
 65
   257
 75
     1
175
     1
 42
1.0
 92
        8
 66
     7
 43
1.0
 76
     1
 77
     6
 78
     2
 67
     7
 79
     5
170
     0
171
     0
290
     0
174
     0
 93
       13
 44
0.0
173
     0
291
     1
 45
0.0
1001
ACAD
1000
AcDbSavedByObjectVersion
1070
     0
  0
VISUALSTYLE
  5
326
102
{ACAD_REACTORS
330
324
102
}
330
324
100
AcDbVisualStyle
  2
FlatWithEdges
 70
     1
 71
     2
 72
     1
 73
     1
 90
        2
 40
-0.6
 41
30.0
 62
     5
 63
     7
 74
     1
 91
        4
 64
     7
 65
   257
 75
     1
175
     1
 42
1.0
 92
        0
 66
   257
 43
1.0
 76
     1
 77
     6
 78
     2
 67
     7
 79
     5
170
     0
171
     0
290
     0
174
     0
 93
       13
 44
0.0
173
     0
291
     1
 45
0.0
1001
ACAD
1000
AcDbSavedByObjectVersion
1070
     0
  0
VISUALSTYLE
  5
327
102
{ACAD_REACTORS
330
324
102
}
330
324
100
AcDbVisualStyle
  2
Gouraud
 70
     2
 71
     2
 72
     2
 73
     1
 90
        2
 40
-0.6
 41
30.0
 62
     5
 63
     7
 74
     0
 91
        4
 64
     7
 65
   257
 75
     1
175
     1
 42
1.0
 92
        0
 66
     7
 43
1.0
 76
     1
 77
     6
 78
     2
 67
     7
 79
     5
170
     0
171
     0
290
     0
174
     0
 93
       13
 44
0.0
173
     0
291
     1
 45
0.0
1001
ACAD
1000
AcDbSavedByObjectVersion
1070
     0
  0
VISUALSTYLE
  5
328
102
{ACAD_REACTORS
330
324
102
}
330
324
100
AcDbVisualStyle
  2
GouraudWithEdges
 70
     3
 71
     2
 72
     2
 73
     1
 90
        2
 40
-0.6
 41
30.0
 62
     5
 63
     7
 74
     1
 91
        4
 64
     7
 65
   257
 75
     1
175
     1
 42
1.0
 92
        0
 66
   257
 43
1.0
 76
     1
 77
     6
 78
     2
 67
     7
 79
     5
170
     0
171
     0
290
     0
174
     0
 93
       13
 44
0.0
173
     0
291
     1
 45
0.0
1001
ACAD
1000
AcDbSavedByObjectVersion
1070
     0
  0
VISUALSTYLE
  5
332
102
{ACAD_REACTORS
330
324
102
}
330
324
100
AcDbVisualStyle
  2
Linepattern
 70
    14
 71
     2
 72
     2
 73
     0
 90
        0
 40
-0.6
 41
-30.0
 62
     5
 63
     7
 74
     1
 91
        4
 64
     7
 65
   257
 75
     7
175
     7
 42
1.0
 92
        8
 66
     7
 43
1.0
 76
     1
 77
     6
 78
     2
 67
     7
 79
     5
170
     0
171
     0
290
     0
174
     0
 93
        1
 44
0.0
173
     0
291
     1
 45
0.0
1001
ACAD
1000
AcDbSavedByObjectVersion
1070
     0
  0
VISUALSTYLE
  5
32E
102
{ACAD_REACTORS
330
324
102
}
330
324
100
AcDbVisualStyle
  2
Realistic
 70
     8
 71
     2
 72
     2
 73
     0
 90
        0
 40
-0.6
 41
-30.0
 62
     5
 63
     7
 74
     1
 91
        0
 64
     7
 65
   257
 75
     1
175
     1
 42
1.0
 92
        8
 66
     8
 43
1.0
 76
     1
 77
     6
 78
     2
 67
     7
 79
     5
170
     0
171
     0
290
     0
174
     0
 93
       13
 44
0.0
173
     0
291
     0
 45
0.0
1001
ACAD
1000
AcDbSavedByObjectVersion
1070
     0
  0
VISUALSTYLE
  5
331
102
{ACAD_REACTORS
330
324
102
}
330
324
100
AcDbVisualStyle
  2
Thicken
 70
    13
 71
     2
 72
     2
 73
     0
 90
        0
 40
-0.6
 41
-30.0
 62
     5
 63
     7
 74
     1
 91
        4
 64
     7
 65
   257
 75
     1
175
     1
 42
1.0
 92
       12
 66
     7
 43
1.0
 76
     1
 77
     6
 78
     2
 67
     7
 79
     5
170
     0
171
     0
290
     0
174
     0
 93
        1
 44
0.0
173
     0
291
     1
 45
0.0
1001
ACAD
1000
AcDbSavedByObjectVersion
1070
     0
  0
DICTIONARYVAR
  5
357
102
{ACAD_REACTORS
330
150
102
}
330
150
100
DictionaryVariables
280
     0
  1
STANDARD
  0
DICTIONARYVAR
  5
152
102
{ACAD_REACTORS
330
150
102
}
330
150
100
DictionaryVariables
280
     0
  1
2
  0
DICTIONARYVAR
  5
151
102
{ACAD_REACTORS
330
150
102
}
330
150
100
DictionaryVariables
280
     0
  1
1
  0
DICTIONARYVAR
  5
359
102
{ACAD_REACTORS
330
150
102
}
330
150
100
DictionaryVariables
280
     0
  1
0
  0
DICTIONARYVAR
  5
358
102
{ACAD_REACTORS
330
150
102
}
330
150
100
DictionaryVariables
280
     0
  1
127
  0
DICTIONARY
  5
3A1
330
1D
100
AcDbDictionary
280
     1
281
     1
  3
ACAD_XREC_ROUNDTRIP
360
3A2
  0
DICTIONARY
  5
3A3
330
21
100
AcDbDictionary
280
     1
281
     1
  3
ACAD_XREC_ROUNDTRIP
360
3A4
  0
DICTIONARY
  5
3A7
330
322
100
AcDbDictionary
280
     1
281
     1
  3
ACAD_XREC_ROUNDTRIP
360
3A8
  0
DICTIONARY
  5
3A5
330
321
100
AcDbDictionary
280
     1
281
     1
  3
ACAD_XREC_ROUNDTRIP
360
3A6
  0
DICTIONARY
  5
3A9
330
323
100
AcDbDictionary
280
     1
281
     1
  3
ACAD_XREC_ROUNDTRIP
360
3AA
  0
DICTIONARY
  5
3AB
330
337
100
AcDbDictionary
280
     1
281
     1
  3
ACAD_XREC_ROUNDTRIP
360
3AC
  0
XRECORD
  5
3A2
102
{ACAD_REACTORS
330
3A1
102
}
330
3A1
100
AcDbXrecord
280
     1
102
SHADEPLOT
 70
     0
102
SHADEPLOTRESLEVEL
 70
     2
102
SHADEPLOTCUSTOMDPI
 70
   300
  0
XRECORD
  5
3A4
102
{ACAD_REACTORS
330
3A3
102
}
330
3A3
100
AcDbXrecord
280
     1
102
SHADEPLOT
 70
     0
102
SHADEPLOTRESLEVEL
 70
     2
102
SHADEPLOTCUSTOMDPI
 70
   300
  0
XRECORD
  5
3A8
102
{ACAD_REACTORS
330
3A7
102
}
330
3A7
100
AcDbXrecord
280
     1
102
MATERIAL
148
0.0
149
0.0
149
0.0
 93
        0
 94
       63
282
     0
 72
     1
 77
     1
171
     1
175
     1
179
     1
273
     0
  0
XRECORD
  5
3A6
102
{ACAD_REACTORS
330
3A5
102
}
330
3A5
100
AcDbXrecord
280
     1
102
MATERIAL
148
0.0
149
0.0
149
0.0
 93
        0
 94
       63
282
     0
 72
     1
 77
     1
171
     1
175
     1
179
     1
273
     0
  0
XRECORD
  5
3AA
102
{ACAD_REACTORS
330
3A9
102
}
330
3A9
100
AcDbXrecord
280
     1
102
MATERIAL
148
0.0
149
0.0
149
0.0
 93
        0
 94
       63
282
     0
 72
     1
 77
     1
171
     1
175
     1
179
     1
273
     0
  0
XRECORD
  5
3AC
102
{ACAD_REACTORS
330
3AB
102
}
330
3AB
100
AcDbXrecord
280
     1
102
ACAD_ROUNDTRIP_PRE2007_TABLESTYLE
 90
      512
 91
        0
  1

 92
      512
 93
        0
  2

 94
      512
 95
        0
  3

  0
ENDSEC
  0
EOF
