  0
SECTION
  2
HEADER
  9
$ACADVER
  1
AC1014
  9
$ACADMAINTVER
 70
     9
  9
$DWGCODEPAGE
  3
ANSI_1252
  9
$INSBASE
 10
13.31904698356215
 20
17.57137960589587
 30
0.0
  9
$EXTMIN
 10
10.68107437367413
 20
15.91599618483691
 30
0.0
  9
$EXTMAX
 10
23.55048944870824
 20
19.93945100692436
 30
0.0
  9
$LIMMIN
 10
0.0
 20
0.0
  9
$LIMMAX
 10
36.0
 20
36.0
  9
$ORTHOMODE
 70
     1
  9
$REGENMODE
 70
     1
  9
$FILLMODE
 70
     1
  9
$QTEXTMODE
 70
     0
  9
$MIRRTEXT
 70
     1
  9
$DRAGMODE
 70
     0
  9
$LTSCALE
 40
1.0
  9
$OSMODE
 70
    37
  9
$ATTMODE
 70
     1
  9
$TEXTSIZE
 40
0.2
  9
$TRACEWID
 40
0.05
  9
$TEXTSTYLE
  7
STANDARD
  9
$CLAYER
  8
ADP2DETAIL
  9
$CELTYPE
  6
BYLAYER
  9
$CECOLOR
 62
   256
  9
$CELTSCALE
 40
1.0
  9
$DELOBJ
 70
     1
  9
$DISPSILH
 70
     0
  9
$DIMSCALE
 40
1.0
  9
$DIMASZ
 40
0.125
  9
$DIMEXO
 40
0.0625
  9
$DIMDLI
 40
0.38
  9
$DIMRND
 40
0.0
  9
$DIMDLE
 40
0.0
  9
$DIMEXE
 40
0.18
  9
$DIMTP
 40
0.0
  9
$DIMTM
 40
0.0
  9
$DIMTXT
 40
0.125
  9
$DIMCEN
 40
0.1875
  9
$DIMTSZ
 40
0.125
  9
$DIMTOL
 70
     0
  9
$DIMLIM
 70
     0
  9
$DIMTIH
 70
     0
  9
$DIMTOH
 70
     0
  9
$DIMSE1
 70
     0
  9
$DIMSE2
 70
     0
  9
$DIMTAD
 70
     0
  9
$DIMZIN
 70
     3
  9
$DIMBLK
  1

  9
$DIMASO
 70
     1
  9
$DIMSHO
 70
     1
  9
$DIMPOST
  1

  9
$DIMAPOST
  1

  9
$DIMALT
 70
     0
  9
$DIMALTD
 70
     1
  9
$DIMALTF
 40
25.4
  9
$DIMLFAC
 40
1.0
  9
$DIMTOFL
 70
     0
  9
$DIMTVP
 40
0.0
  9
$DIMTIX
 70
     0
  9
$DIMSOXD
 70
     0
  9
$DIMSAH
 70
     0
  9
$DIMBLK1
  1

  9
$DIMBLK2
  1

  9
$DIMSTYLE
  2
STANDARD
  9
$DIMCLRD
 70
     0
  9
$DIMCLRE
 70
     0
  9
$DIMCLRT
 70
     0
  9
$DIMTFAC
 40
1.0
  9
$DIMGAP
 40
0.125
  9
$DIMJUST
 70
     0
  9
$DIMSD1
 70
     0
  9
$DIMSD2
 70
     0
  9
$DIMTOLJ
 70
     1
  9
$DIMTZIN
 70
     0
  9
$DIMALTZ
 70
     0
  9
$DIMALTTZ
 70
     0
  9
$DIMFIT
 70
     3
  9
$DIMUPT
 70
     0
  9
$DIMUNIT
 70
     2
  9
$DIMDEC
 70
     4
  9
$DIMTDEC
 70
     4
  9
$DIMALTU
 70
     2
  9
$DIMALTTD
 70
     2
  9
$DIMTXSTY
  7
STANDARD
  9
$DIMAUNIT
 70
     0
  9
$LUNITS
 70
     5
  9
$LUPREC
 70
     4
  9
$SKETCHINC
 40
0.1
  9
$FILLETRAD
 40
0.062
  9
$AUNITS
 70
     0
  9
$AUPREC
 70
     0
  9
$MENU
  1
acad
  9
$ELEVATION
 40
0.0
  9
$PELEVATION
 40
0.0
  9
$THICKNESS
 40
0.0
  9
$LIMCHECK
 70
     0
  9
$BLIPMODE
 70
     0
  9
$CHAMFERA
 40
0.0
  9
$CHAMFERB
 40
0.0
  9
$CHAMFERC
 40
0.0
  9
$CHAMFERD
 40
0.0
  9
$SKPOLY
 70
     0
  9
$TDCREATE
 40
2450386.492666088
  9
$TDUPDATE
 40
2452297.067476308
  9
$TDINDWG
 40
0.0147106481
  9
$TDUSRTIMER
 40
0.0147106481
  9
$USRTIMER
 70
     1
  9
$ANGBASE
 50
0.0
  9
$ANGDIR
 70
     0
  9
$PDMODE
 70
     0
  9
$PDSIZE
 40
0.0
  9
$PLINEWID
 40
0.0
  9
$COORDS
 70
     2
  9
$SPLFRAME
 70
     0
  9
$SPLINETYPE
 70
     6
  9
$SPLINESEGS
 70
     8
  9
$ATTDIA
 70
     0
  9
$ATTREQ
 70
     1
  9
$HANDLING
 70
 22529
  9
$HANDSEED
  5
42F
  9
$SURFTAB1
 70
     6
  9
$SURFTAB2
 70
     6
  9
$SURFTYPE
 70
     6
  9
$SURFU
 70
     6
  9
$SURFV
 70
     6
  9
$UCSNAME
  2

  9
$UCSORG
 10
0.0
 20
0.0
 30
0.0
  9
$UCSXDIR
 10
1.0
 20
0.0
 30
0.0
  9
$UCSYDIR
 10
0.0
 20
1.0
 30
0.0
  9
$PUCSNAME
  2

  9
$PUCSORG
 10
0.0
 20
0.0
 30
0.0
  9
$PUCSXDIR
 10
1.0
 20
0.0
 30
0.0
  9
$PUCSYDIR
 10
0.0
 20
1.0
 30
0.0
  9
$USERI1
 70
     0
  9
$USERI2
 70
     0
  9
$USERI3
 70
     0
  9
$USERI4
 70
     0
  9
$USERI5
 70
     0
  9
$USERR1
 40
0.0
  9
$USERR2
 40
0.0
  9
$USERR3
 40
0.0
  9
$USERR4
 40
0.0
  9
$USERR5
 40
0.0
  9
$WORLDVIEW
 70
     1
  9
$SHADEDGE
 70
     3
  9
$SHADEDIF
 70
    70
  9
$TILEMODE
 70
     1
  9
$MAXACTVP
 70
    15
  9
$PINSBASE
 10
4.403525741743744E+99
 20
7.061986388769092E+99
 30
0.0
  9
$PLIMCHECK
 70
     0
  9
$PEXTMIN
 10
1.000000000000000E+20
 20
1.000000000000000E+20
 30
1.000000000000000E+20
  9
$PEXTMAX
 10
-1.000000000000000E+20
 20
-1.000000000000000E+20
 30
-1.000000000000000E+20
  9
$PLIMMIN
 10
0.0
 20
0.0
  9
$PLIMMAX
 10
12.0
 20
9.0
  9
$UNITMODE
 70
     0
  9
$VISRETAIN
 70
     0
  9
$PLINEGEN
 70
     0
  9
$PSLTSCALE
 70
     1
  9
$TREEDEPTH
 70
  3020
  9
$PICKSTYLE
 70
     1
  9
$CMLSTYLE
  2
STANDARD
  9
$CMLJUST
 70
     0
  9
$CMLSCALE
 40
1.0
  9
$PROXYGRAPHICS
 70
     1
  9
$MEASUREMENT
 70
     0
  0
ENDSEC
  0
SECTION
  2
CLASSES
  0
CLASS
  1
ACDBDICTIONARYWDFLT
  2
AcDbDictionaryWithDefault
  3
AutoCAD 2000
 90
        0
280
     0
281
     0
  0
CLASS
  1
ACDBPLACEHOLDER
  2
AcDbPlaceHolder
  3
AutoCAD 2000
 90
        0
280
     0
281
     0
  0
CLASS
  1
LAYOUT
  2
AcDbLayout
  3
AutoCAD 2000
 90
        0
280
     0
281
     0
  0
CLASS
  1
DICTIONARYVAR
  2
AcDbDictionaryVar
  3
AutoCAD 2000
 90
        0
280
     0
281
     0
  0
CLASS
  1
LONG_TRANSACTION
  2
AcDbLongTransaction
  3
AutoCAD 2000
 90
        0
280
     0
281
     0
  0
CLASS
  1
LWPOLYLINE
  2
AcDbPolyline
  3
AutoCAD 2000
 90
        0
280
     0
281
     1
  0
CLASS
  1
HATCH
  2
AcDbHatch
  3
AutoCAD 2000
 90
        0
280
     0
281
     1
  0
CLASS
  1
XRECORD
  2
AcDbXrecord
  3
AutoCAD 2000
 90
        0
280
     0
281
     0
  0
CLASS
  1
LONG_TRANSACTION
  2
AcDbLongTransaction
  3
AutoCAD 2000
 90
        0
280
     0
281
     0
  0
CLASS
  1
LWPOLYLINE
  2
AcDbPolyline
  3
AutoCAD 2000
 90
        0
280
     0
281
     1
  0
CLASS
  1
HATCH
  2
AcDbHatch
  3
AutoCAD 2000
 90
        0
280
     0
281
     1
  0
CLASS
  1
XRECORD
  2
AcDbXrecord
  3
AutoCAD 2000
 90
        0
280
     0
281
     0
  0
CLASS
  1
LONG_TRANSACTION
  2
AcDbLongTransaction
  3
AutoCAD 2000
 90
        0
280
     0
281
     0
  0
CLASS
  1
LWPOLYLINE
  2
AcDbPolyline
  3
AutoCAD 2000
 90
        0
280
     0
281
     1
  0
CLASS
  1
HATCH
  2
AcDbHatch
  3
AutoCAD 2000
 90
        0
280
     0
281
     1
  0
CLASS
  1
XRECORD
  2
AcDbXrecord
  3
AutoCAD 2000
 90
        0
280
     0
281
     0
  0
CLASS
  1
LONG_TRANSACTION
  2
AcDbLongTransaction
  3
AutoCAD 2000
 90
        0
280
     0
281
     0
  0
CLASS
  1
LWPOLYLINE
  2
AcDbPolyline
  3
AutoCAD 2000
 90
        0
280
     0
281
     1
  0
CLASS
  1
HATCH
  2
AcDbHatch
  3
AutoCAD 2000
 90
        0
280
     0
281
     1
  0
CLASS
  1
XRECORD
  2
AcDbXrecord
  3
AutoCAD 2000
 90
        0
280
     0
281
     0
  0
CLASS
  1
LONG_TRANSACTION
  2
AcDbLongTransaction
  3
AutoCAD 2000
 90
        0
280
     0
281
     0
  0
CLASS
  1
LWPOLYLINE
  2
AcDbPolyline
  3
AutoCAD 2000
 90
        0
280
     0
281
     1
  0
CLASS
  1
HATCH
  2
AcDbHatch
  3
AutoCAD 2000
 90
        0
280
     0
281
     1
  0
CLASS
  1
XRECORD
  2
AcDbXrecord
  3
AutoCAD 2000
 90
        0
280
     0
281
     0
  0
CLASS
  1
LONG_TRANSACTION
  2
AcDbLongTransaction
  3
AutoCAD 2000
 90
        0
280
     0
281
     0
  0
CLASS
  1
LWPOLYLINE
  2
AcDbPolyline
  3
AutoCAD 2000
 90
        0
280
     0
281
     1
  0
CLASS
  1
HATCH
  2
AcDbHatch
  3
AutoCAD 2000
 90
        0
280
     0
281
     1
  0
CLASS
  1
XRECORD
  2
AcDbXrecord
  3
AutoCAD 2000
 90
        0
280
     0
281
     0
  0
CLASS
  1
LONG_TRANSACTION
  2
AcDbLongTransaction
  3
AutoCAD 2000
 90
        0
280
     0
281
     0
  0
CLASS
  1
LWPOLYLINE
  2
AcDbPolyline
  3
AutoCAD 2000
 90
        0
280
     0
281
     1
  0
CLASS
  1
HATCH
  2
AcDbHatch
  3
AutoCAD 2000
 90
        0
280
     0
281
     1
  0
CLASS
  1
XRECORD
  2
AcDbXrecord
  3
AutoCAD 2000
 90
        0
280
     0
281
     0
  0
CLASS
  1
LONG_TRANSACTION
  2
AcDbLongTransaction
  3
AutoCAD 2000
 90
        0
280
     0
281
     0
  0
CLASS
  1
LWPOLYLINE
  2
AcDbPolyline
  3
AutoCAD 2000
 90
        0
280
     0
281
     1
  0
CLASS
  1
HATCH
  2
AcDbHatch
  3
AutoCAD 2000
 90
        0
280
     0
281
     1
  0
CLASS
  1
XRECORD
  2
AcDbXrecord
  3
AutoCAD 2000
 90
        0
280
     0
281
     0
  0
CLASS
  1
LONG_TRANSACTION
  2
AcDbLongTransaction
  3
AutoCAD 2000
 90
        0
280
     0
281
     0
  0
CLASS
  1
LWPOLYLINE
  2
AcDbPolyline
  3
AutoCAD 2000
 90
        0
280
     0
281
     1
  0
CLASS
  1
HATCH
  2
AcDbHatch
  3
AutoCAD 2000
 90
        0
280
     0
281
     1
  0
CLASS
  1
XRECORD
  2
AcDbXrecord
  3
AutoCAD 2000
 90
        0
280
     0
281
     0
  0
CLASS
  1
LONG_TRANSACTION
  2
AcDbLongTransaction
  3
AutoCAD 2000
 90
        0
280
     0
281
     0
  0
CLASS
  1
LWPOLYLINE
  2
AcDbPolyline
  3
AutoCAD 2000
 90
        0
280
     0
281
     1
  0
CLASS
  1
HATCH
  2
AcDbHatch
  3
AutoCAD 2000
 90
        0
280
     0
281
     1
  0
CLASS
  1
XRECORD
  2
AcDbXrecord
  3
AutoCAD 2000
 90
        0
280
     0
281
     0
  0
ENDSEC
  0
SECTION
  2
TABLES
  0
TABLE
  2
VPORT
  5
8
330
0
100
AcDbSymbolTable
 70
     2
  0
VPORT
  5
40C
330
8
100
AcDbSymbolTableRecord
100
AcDbViewportTableRecord
  2
*ACTIVE
 70
     0
 10
0.0
 20
0.0
 11
1.0
 21
1.0
 12
17.11560066872696
 22
17.92858895092339
 13
0.0
 23
0.0
 14
0.5740882589684922
 24
0.5740882589684922
 15
0.5
 25
0.5
 16
0.0
 26
0.0
 36
1.0
 17
0.0
 27
0.0
 37
0.0
 40
8.234380065871835
 41
1.570528967254408
 42
50.0
 43
0.0
 44
0.0
 50
0.0
 51
0.0
 71
     0
 72
   100
 73
     1
 74
     0
 75
     0
 76
     0
 77
     0
 78
     0
  0
ENDTAB
  0
TABLE
  2
LTYPE
  5
5
330
0
100
AcDbSymbolTable
 70
     2
  0
LTYPE
  5
12
330
5
100
AcDbSymbolTableRecord
100
AcDbLinetypeTableRecord
  2
BYBLOCK
 70
     0
  3

 72
    65
 73
     0
 40
0.0
  0
LTYPE
  5
13
330
5
100
AcDbSymbolTableRecord
100
AcDbLinetypeTableRecord
  2
BYLAYER
 70
     0
  3

 72
    65
 73
     0
 40
0.0
  0
LTYPE
  5
14
330
5
100
AcDbSymbolTableRecord
100
AcDbLinetypeTableRecord
  2
CONTINUOUS
 70
     0
  3
Solid line
 72
    65
 73
     0
 40
0.0
  0
LTYPE
  5
144
330
5
100
AcDbSymbolTableRecord
100
AcDbLinetypeTableRecord
  2
HIDDEN2
 70
     0
  3
_ _ _ _ _ _ _ _ _ _ _ _ _ _ _ _ _ _ _ _ _ _ _ _
 72
    65
 73
     2
 40
0.1875
 49
0.125
 74
     0
 49
-0.0625
 74
     0
  0
ENDTAB
  0
TABLE
  2
LAYER
  5
2
330
0
100
AcDbSymbolTable
 70
     5
  0
LAYER
  5
F
330
2
100
AcDbSymbolTableRecord
100
AcDbLayerTableRecord
  2
0
 70
     0
 62
     7
  6
CONTINUOUS
  0
LAYER
  5
148
330
2
100
AcDbSymbolTableRecord
100
AcDbLayerTableRecord
  2
ADP1DETAIL
 70
     0
 62
     7
  6
CONTINUOUS
  0
LAYER
  5
14A
330
2
100
AcDbSymbolTableRecord
100
AcDbLayerTableRecord
  2
DEFPOINTS
 70
     0
 62
     7
  6
CONTINUOUS
  0
LAYER
  5
14B
330
2
100
AcDbSymbolTableRecord
100
AcDbLayerTableRecord
  2
ADP2DETAIL
 70
     0
 62
     5
  6
CONTINUOUS
  0
LAYER
  5
14C
330
2
100
AcDbSymbolTableRecord
100
AcDbLayerTableRecord
  2
ADPDIM
 70
     0
 62
     3
  6
CONTINUOUS
  0
ENDTAB
  0
TABLE
  2
STYLE
  5
3
330
0
100
AcDbSymbolTable
 70
     2
  0
STYLE
  5
10
330
3
100
AcDbSymbolTableRecord
100
AcDbTextStyleTableRecord
  2
STANDARD
 70
     0
 40
0.0
 41
1.0
 50
0.0
 71
     0
 42
0.2
  3
txt
  4

  0
STYLE
  5
208
330
3
100
AcDbSymbolTableRecord
100
AcDbTextStyleTableRecord
  2
ARIAL_WIDE
 70
     0
 40
0.0
 41
1.25
 50
0.0
 71
     0
 42
0.2
  3
ARIAL.TTF
  4

1001
ACAD
1000
Arial
1071
       34
  0
ENDTAB
  0
TABLE
  2
VIEW
  5
6
330
0
100
AcDbSymbolTable
 70
     0
  0
ENDTAB
  0
TABLE
  2
UCS
  5
7
330
0
100
AcDbSymbolTable
 70
     0
  0
ENDTAB
  0
TABLE
  2
APPID
  5
9
330
0
100
AcDbSymbolTable
 70
     1
  0
APPID
  5
11
330
9
100
AcDbSymbolTableRecord
100
AcDbRegAppTableRecord
  2
ACAD
 70
     0
  0
ENDTAB
  0
TABLE
  2
DIMSTYLE
  5
A
330
0
100
AcDbSymbolTable
 70
     1
  0
DIMSTYLE
105
1FC
330
A
100
AcDbSymbolTableRecord
100
AcDbDimStyleTableRecord
  2
STANDARD
 70
     0
  3

  4

  5

  6

  7

 40
1.0
 41
0.18
 42
0.0625
 43
0.38
 44
0.18
 45
0.0
 46
0.0
 47
0.0
 48
0.0
140
0.18
141
0.09
142
0.0
143
25.4
144
1.0
145
0.0
146
1.0
147
0.09
 71
     0
 72
     0
 73
     1
 74
     1
 75
     0
 76
     0
 77
     0
 78
     0
170
     0
171
     2
172
     0
173
     0
174
     0
175
     0
176
     0
177
     0
178
     0
270
     2
271
     4
272
     4
273
     2
274
     2
340
10
275
     0
280
     0
281
     0
282
     0
283
     1
284
     0
285
     0
286
     0
287
     3
288
     0
  0
ENDTAB
  0
TABLE
  2
BLOCK_RECORD
  5
1
330
0
100
AcDbSymbolTable
 70
     5
  0
BLOCK_RECORD
  5
18
102
{ACAD_XDICTIONARY
360
25D
102
}
330
1
100
AcDbSymbolTableRecord
100
AcDbBlockTableRecord
  2
*MODEL_SPACE
  0
BLOCK_RECORD
  5
15
102
{ACAD_XDICTIONARY
360
25B
102
}
330
1
100
AcDbSymbolTableRecord
100
AcDbBlockTableRecord
  2
*PAPER_SPACE
  0
BLOCK_RECORD
  5
13E
330
1
100
AcDbSymbolTableRecord
100
AcDbBlockTableRecord
  2
*D0
  0
BLOCK_RECORD
  5
13F
330
1
100
AcDbSymbolTableRecord
100
AcDbBlockTableRecord
  2
*D1
  0
BLOCK_RECORD
  5
140
330
1
100
AcDbSymbolTableRecord
100
AcDbBlockTableRecord
  2
*D2
  0
BLOCK_RECORD
  5
141
330
1
100
AcDbSymbolTableRecord
100
AcDbBlockTableRecord
  2
*D3
  0
BLOCK_RECORD
  5
142
330
1
100
AcDbSymbolTableRecord
100
AcDbBlockTableRecord
  2
*D4
  0
ENDTAB
  0
ENDSEC
  0
SECTION
  2
BLOCKS
  0
BLOCK
  5
14F
330
18
100
AcDbEntity
  8
0
100
AcDbBlockBegin
  2
*MODEL_SPACE
 70
     0
 10
0.0
 20
0.0
 30
0.0
  3
*MODEL_SPACE
  1

  0
ENDBLK
  5
150
330
18
100
AcDbEntity
  8
0
100
AcDbBlockEnd
  0
BLOCK
  5
14D
330
15
100
AcDbEntity
 67
     1
  8
0
100
AcDbBlockBegin
  2
*PAPER_SPACE
 70
     0
 10
0.0
 20
0.0
 30
0.0
  3
*PAPER_SPACE
  1

  0
ENDBLK
  5
14E
330
15
100
AcDbEntity
 67
     1
  8
0
100
AcDbBlockEnd
  0
BLOCK
  5
152
330
13E
100
AcDbEntity
  8
0
100
AcDbBlockBegin
  2
*D0
 70
     1
 10
0.0
 20
0.0
 30
0.0
  3
*D0
  1

  0
LINE
  5
153
330
13E
100
AcDbEntity
  8
0
  6
BYBLOCK
 62
     0
100
AcDbLine
 10
18.5771447955778
 20
19.25945100692436
 30
0.0
 11
18.5771447955778
 21
19.93945100692436
 31
0.0
  0
LINE
  5
154
330
13E
100
AcDbEntity
  8
0
  6
BYBLOCK
 62
     0
100
AcDbLine
 10
21.5771447955778
 20
19.25945100692436
 30
0.0
 11
21.5771447955778
 21
19.93945100692436
 31
0.0
  0
LINE
  5
155
330
13E
100
AcDbEntity
  8
0
  6
BYBLOCK
 62
     0
100
AcDbLine
 10
18.5771447955778
 20
19.75945100692436
 30
0.0
 11
19.91047812891114
 21
19.75945100692436
 31
0.0
  0
LINE
  5
156
330
13E
100
AcDbEntity
  8
0
  6
BYBLOCK
 62
     0
100
AcDbLine
 10
21.5771447955778
 20
19.75945100692436
 30
0.0
 11
20.24381146224447
 21
19.75945100692436
 31
0.0
  0
LINE
  5
157
330
13E
100
AcDbEntity
  8
0
  6
BYBLOCK
 62
     0
100
AcDbLine
 10
18.4521447955778
 20
19.63445100692436
 30
0.0
 11
18.7021447955778
 21
19.88445100692436
 31
0.0
  0
LINE
  5
158
330
13E
100
AcDbEntity
  8
0
  6
BYBLOCK
 62
     0
100
AcDbLine
 10
21.4521447955778
 20
19.63445100692436
 30
0.0
 11
21.70214479557781
 21
19.88445100692436
 31
0.0
  0
TEXT
  5
159
330
13E
100
AcDbEntity
  8
0
  6
BYBLOCK
 62
     0
100
AcDbText
 10
20.03547812891114
 20
19.69695100692436
 30
0.0
 40
0.125
  1
3
 72
     1
 11
20.07714479557781
 21
19.75945100692436
 31
0.0
100
AcDbText
 73
     2
  0
POINT
  5
15A
330
13E
100
AcDbEntity
  8
DEFPOINTS
  6
BYBLOCK
 62
     0
100
AcDbPoint
 10
18.5771447955778
 20
19.19695100692436
 30
0.0
  0
POINT
  5
15B
330
13E
100
AcDbEntity
  8
DEFPOINTS
  6
BYBLOCK
 62
     0
100
AcDbPoint
 10
21.5771447955778
 20
19.19695100692436
 30
0.0
  0
POINT
  5
15C
330
13E
100
AcDbEntity
  8
DEFPOINTS
  6
BYBLOCK
 62
     0
100
AcDbPoint
 10
21.5771447955778
 20
19.75945100692436
 30
0.0
  0
ENDBLK
  5
15D
330
13E
100
AcDbEntity
  8
0
100
AcDbBlockEnd
  0
BLOCK
  5
15E
330
13F
100
AcDbEntity
  8
0
100
AcDbBlockBegin
  2
*D1
 70
     1
 10
0.0
 20
0.0
 30
0.0
  3
*D1
  1

  0
LINE
  5
15F
330
13F
100
AcDbEntity
  8
0
  6
BYBLOCK
 62
     0
100
AcDbLine
 10
13.31904698356215
 20
18.63387960589587
 30
0.0
 11
13.31904698356215
 21
19.75195100692436
 31
0.0
  0
LINE
  5
160
330
13F
100
AcDbEntity
  8
0
  6
BYBLOCK
 62
     0
100
AcDbLine
 10
16.56904698356215
 20
19.38387960589587
 30
0.0
 11
16.56904698356215
 21
19.75195100692436
 31
0.0
  0
LINE
  5
161
330
13F
100
AcDbEntity
  8
0
  6
BYBLOCK
 62
     0
100
AcDbLine
 10
13.31904698356215
 20
19.57195100692436
 30
0.0
 11
14.54821365022881
 21
19.57195100692436
 31
0.0
  0
LINE
  5
162
330
13F
100
AcDbEntity
  8
0
  6
BYBLOCK
 62
     0
100
AcDbLine
 10
16.56904698356215
 20
19.57195100692436
 30
0.0
 11
15.33988031689548
 21
19.57195100692436
 31
0.0
  0
LINE
  5
163
330
13F
100
AcDbEntity
  8
0
  6
BYBLOCK
 62
     0
100
AcDbLine
 10
13.19404698356215
 20
19.44695100692436
 30
0.0
 11
13.44404698356215
 21
19.69695100692436
 31
0.0
  0
LINE
  5
164
330
13F
100
AcDbEntity
  8
0
  6
BYBLOCK
 62
     0
100
AcDbLine
 10
16.44404698356215
 20
19.44695100692436
 30
0.0
 11
16.69404698356215
 21
19.69695100692436
 31
0.0
  0
TEXT
  5
165
330
13F
100
AcDbEntity
  8
0
  6
BYBLOCK
 62
     0
100
AcDbText
 10
14.67321365022881
 20
19.50945100692436
 30
0.0
 40
0.125
  1
3 1/4
 72
     1
 11
14.94404698356215
 21
19.57195100692436
 31
0.0
100
AcDbText
 73
     2
  0
POINT
  5
166
330
13F
100
AcDbEntity
  8
DEFPOINTS
  6
BYBLOCK
 62
     0
100
AcDbPoint
 10
13.31904698356215
 20
18.57137960589587
 30
0.0
  0
POINT
  5
167
330
13F
100
AcDbEntity
  8
DEFPOINTS
  6
BYBLOCK
 62
     0
100
AcDbPoint
 10
16.56904698356215
 20
19.32137960589587
 30
0.0
  0
POINT
  5
168
330
13F
100
AcDbEntity
  8
DEFPOINTS
  6
BYBLOCK
 62
     0
100
AcDbPoint
 10
16.56904698356215
 20
19.57195100692436
 30
0.0
  0
ENDBLK
  5
169
330
13F
100
AcDbEntity
  8
0
100
AcDbBlockEnd
  0
BLOCK
  5
16A
330
140
100
AcDbEntity
  8
0
100
AcDbBlockBegin
  2
*D2
 70
     1
 10
0.0
 20
0.0
 30
0.0
  3
*D2
  1

  0
LINE
  5
16B
330
140
100
AcDbEntity
  8
0
  6
BYBLOCK
 62
     0
100
AcDbLine
 10
16.06904698356215
 20
17.50887960589587
 30
0.0
 11
16.06904698356215
 21
17.07945100692436
 31
0.0
  0
LINE
  5
16C
330
140
100
AcDbEntity
  8
0
  6
BYBLOCK
 62
     0
100
AcDbLine
 10
17.06904698356215
 20
17.50887960589587
 30
0.0
 11
17.06904698356215
 21
17.07945100692436
 31
0.0
  0
LINE
  5
16D
330
140
100
AcDbEntity
  8
0
  6
BYBLOCK
 62
     0
100
AcDbLine
 10
16.06904698356215
 20
17.25945100692436
 30
0.0
 11
16.42321365022882
 21
17.25945100692436
 31
0.0
  0
LINE
  5
16E
330
140
100
AcDbEntity
  8
0
  6
BYBLOCK
 62
     0
100
AcDbLine
 10
17.06904698356215
 20
17.25945100692436
 30
0.0
 11
16.71488031689548
 21
17.25945100692436
 31
0.0
  0
LINE
  5
16F
330
140
100
AcDbEntity
  8
0
  6
BYBLOCK
 62
     0
100
AcDbLine
 10
15.94404698356215
 20
17.13445100692436
 30
0.0
 11
16.19404698356215
 21
17.38445100692436
 31
0.0
  0
LINE
  5
170
330
140
100
AcDbEntity
  8
0
  6
BYBLOCK
 62
     0
100
AcDbLine
 10
16.94404698356215
 20
17.13445100692436
 30
0.0
 11
17.19404698356215
 21
17.38445100692436
 31
0.0
  0
TEXT
  5
171
330
140
100
AcDbEntity
  8
0
  6
BYBLOCK
 62
     0
100
AcDbText
 10
16.54821365022882
 20
17.19695100692436
 30
0.0
 40
0.125
  1
1
 72
     1
 11
16.56904698356215
 21
17.25945100692436
 31
0.0
100
AcDbText
 73
     2
  0
POINT
  5
172
330
140
100
AcDbEntity
  8
DEFPOINTS
  6
BYBLOCK
 62
     0
100
AcDbPoint
 10
16.06904698356215
 20
17.57137960589587
 30
0.0
  0
POINT
  5
173
330
140
100
AcDbEntity
  8
DEFPOINTS
  6
BYBLOCK
 62
     0
100
AcDbPoint
 10
17.06904698356215
 20
17.57137960589587
 30
0.0
  0
POINT
  5
174
330
140
100
AcDbEntity
  8
DEFPOINTS
  6
BYBLOCK
 62
     0
100
AcDbPoint
 10
17.06904698356215
 20
17.25945100692436
 30
0.0
  0
ENDBLK
  5
175
330
140
100
AcDbEntity
  8
0
100
AcDbBlockEnd
  0
BLOCK
  5
176
330
141
100
AcDbEntity
  8
0
100
AcDbBlockBegin
  2
*D3
 70
     1
 10
0.0
 20
0.0
 30
0.0
  3
*D3
  1

  0
LINE
  5
177
330
141
100
AcDbEntity
  8
0
  6
BYBLOCK
 62
     0
100
AcDbLine
 10
17.13154698356214
 20
19.32137960589587
 30
0.0
 11
17.98538758654255
 21
19.32137960589587
 31
0.0
  0
LINE
  5
178
330
141
100
AcDbEntity
  8
0
  6
BYBLOCK
 62
     0
100
AcDbLine
 10
17.31854698356215
 20
18.07137960589587
 30
0.0
 11
17.98538758654255
 21
18.07137960589587
 31
0.0
  0
LINE
  5
179
330
141
100
AcDbEntity
  8
0
  6
BYBLOCK
 62
     0
100
AcDbLine
 10
17.80538758654255
 20
19.32137960589587
 30
0.0
 11
17.80538758654255
 21
19.07137960589587
 31
0.0
  0
LINE
  5
17A
330
141
100
AcDbEntity
  8
0
  6
BYBLOCK
 62
     0
100
AcDbLine
 10
17.80538758654255
 20
18.07137960589587
 30
0.0
 11
17.80538758654255
 21
18.32137960589587
 31
0.0
  0
LINE
  5
17B
330
141
100
AcDbEntity
  8
0
  6
BYBLOCK
 62
     0
100
AcDbLine
 10
17.93038758654255
 20
19.19637960589587
 30
0.0
 11
17.68038758654255
 21
19.44637960589587
 31
0.0
  0
LINE
  5
17C
330
141
100
AcDbEntity
  8
0
  6
BYBLOCK
 62
     0
100
AcDbLine
 10
17.93038758654255
 20
17.94637960589587
 30
0.0
 11
17.68038758654255
 21
18.19637960589587
 31
0.0
  0
TEXT
  5
17D
330
141
100
AcDbEntity
  8
0
  6
BYBLOCK
 62
     0
100
AcDbText
 10
17.86788758654255
 20
18.44637960589587
 30
0.0
 40
0.125
  1
1 1/4
 50
90.0
 72
     1
 11
17.80538758654255
 21
18.69637960589587
 31
0.0
100
AcDbText
 73
     2
  0
POINT
  5
17E
330
141
100
AcDbEntity
  8
DEFPOINTS
  6
BYBLOCK
 62
     0
100
AcDbPoint
 10
17.06904698356215
 20
19.32137960589587
 30
0.0
  0
POINT
  5
17F
330
141
100
AcDbEntity
  8
DEFPOINTS
  6
BYBLOCK
 62
     0
100
AcDbPoint
 10
17.25604698356215
 20
18.07137960589587
 30
0.0
  0
POINT
  5
180
330
141
100
AcDbEntity
  8
DEFPOINTS
  6
BYBLOCK
 62
     0
100
AcDbPoint
 10
17.80538758654255
 20
18.07137960589587
 30
0.0
  0
ENDBLK
  5
181
330
141
100
AcDbEntity
  8
0
100
AcDbBlockEnd
  0
BLOCK
  5
182
330
142
100
AcDbEntity
  8
0
100
AcDbBlockBegin
  2
*D4
 70
     1
 10
0.0
 20
0.0
 30
0.0
  3
*D4
  1

  0
LINE
  5
183
330
142
100
AcDbEntity
  8
0
  6
BYBLOCK
 62
     0
100
AcDbLine
 10
18.9831447955778
 20
19.25945100692436
 30
0.0
 11
18.9831447955778
 21
19.62695100692436
 31
0.0
  0
LINE
  5
184
330
142
100
AcDbEntity
  8
0
  6
BYBLOCK
 62
     0
100
AcDbLine
 10
21.1706447955778
 20
19.25945100692436
 30
0.0
 11
21.1706447955778
 21
19.62695100692436
 31
0.0
  0
LINE
  5
185
330
142
100
AcDbEntity
  8
0
  6
BYBLOCK
 62
     0
100
AcDbLine
 10
18.9831447955778
 20
19.44695100692436
 30
0.0
 11
19.61856146224447
 21
19.44695100692436
 31
0.0
  0
LINE
  5
186
330
142
100
AcDbEntity
  8
0
  6
BYBLOCK
 62
     0
100
AcDbLine
 10
21.1706447955778
 20
19.44695100692436
 30
0.0
 11
20.53522812891114
 21
19.44695100692436
 31
0.0
  0
LINE
  5
187
330
142
100
AcDbEntity
  8
0
  6
BYBLOCK
 62
     0
100
AcDbLine
 10
18.8581447955778
 20
19.32195100692436
 30
0.0
 11
19.1081447955778
 21
19.57195100692436
 31
0.0
  0
LINE
  5
188
330
142
100
AcDbEntity
  8
0
  6
BYBLOCK
 62
     0
100
AcDbLine
 10
21.0456447955778
 20
19.32195100692436
 30
0.0
 11
21.2956447955778
 21
19.57195100692436
 31
0.0
  0
TEXT
  5
189
330
142
100
AcDbEntity
  8
0
  6
BYBLOCK
 62
     0
100
AcDbText
 10
19.74356146224447
 20
19.38445100692436
 30
0.0
 40
0.125
  1
2 3/16
 72
     1
 11
20.0768947955778
 21
19.44695100692436
 31
0.0
100
AcDbText
 73
     2
  0
POINT
  5
18A
330
142
100
AcDbEntity
  8
DEFPOINTS
  6
BYBLOCK
 62
     0
100
AcDbPoint
 10
18.9831447955778
 20
19.19695100692436
 30
0.0
  0
POINT
  5
18B
330
142
100
AcDbEntity
  8
DEFPOINTS
  6
BYBLOCK
 62
     0
100
AcDbPoint
 10
21.1706447955778
 20
19.19695100692436
 30
0.0
  0
POINT
  5
18C
330
142
100
AcDbEntity
  8
DEFPOINTS
  6
BYBLOCK
 62
     0
100
AcDbPoint
 10
21.1706447955778
 20
19.44695100692436
 30
0.0
  0
ENDBLK
  5
18D
330
142
100
AcDbEntity
  8
0
100
AcDbBlockEnd
  0
ENDSEC
  0
SECTION
  2
ENTITIES
  0
DIMENSION
  5
18E
330
18
100
AcDbEntity
  8
ADPDIM
100
AcDbDimension
  2
*D3
 10
17.80538758654255
 20
18.07137960589587
 30
0.0
 11
17.80538758654255
 21
18.69637960589587
 31
0.0
100
AcDbAlignedDimension
 13
17.06904698356215
 23
19.32137960589587
 33
0.0
 14
17.25604698356215
 24
18.07137960589587
 34
0.0
 50
90.0
100
AcDbRotatedDimension
  0
LINE
  5
18F
330
18
100
AcDbEntity
  8
ADP1DETAIL
100
AcDbLine
 10
13.03477357992416
 20
18.22280342489905
 30
0.0
 11
13.00377357992416
 21
18.28480342489906
 31
0.0
  0
LINE
  5
190
330
18
100
AcDbEntity
  8
ADP1DETAIL
100
AcDbLine
 10
13.03254244765691
 20
17.78480342489906
 30
0.0
 11
13.00154244765691
 21
17.84680342489906
 31
0.0
  0
LINE
  5
191
330
18
100
AcDbEntity
  8
ADP1DETAIL
100
AcDbLine
 10
12.97126733962416
 20
18.22280342489905
 30
0.0
 11
13.00154244765691
 21
17.84680342489906
 31
0.0
  0
LINE
  5
192
330
18
100
AcDbEntity
  8
ADP1DETAIL
100
AcDbLine
 10
12.90776109932417
 20
18.22280342489905
 30
0.0
 11
12.93803620735691
 21
17.84680342489906
 31
0.0
  0
LINE
  5
193
330
18
100
AcDbEntity
  8
ADP1DETAIL
100
AcDbLine
 10
12.96903620735691
 20
17.78480342489906
 30
0.0
 11
12.93803620735691
 21
17.84680342489906
 31
0.0
  0
LINE
  5
194
330
18
100
AcDbEntity
  8
ADP1DETAIL
100
AcDbLine
 10
12.93803620735691
 20
17.84680342489906
 30
0.0
 11
12.90703620735692
 21
17.78480342489906
 31
0.0
  0
LINE
  5
195
330
18
100
AcDbEntity
  8
ADP1DETAIL
100
AcDbLine
 10
13.00154244765691
 20
17.84680342489906
 30
0.0
 11
12.97054244765691
 21
17.78480342489906
 31
0.0
  0
LINE
  5
196
330
18
100
AcDbEntity
  8
ADP1DETAIL
100
AcDbLine
 10
12.97126733962416
 20
18.22280342489905
 30
0.0
 11
12.94026733962416
 21
18.28480342489906
 31
0.0
  0
LINE
  5
197
330
18
100
AcDbEntity
  8
ADP1DETAIL
100
AcDbLine
 10
12.93876109932417
 20
18.28480342489906
 30
0.0
 11
12.90776109932417
 21
18.22280342489905
 31
0.0
  0
LINE
  5
198
330
18
100
AcDbEntity
  8
ADP1DETAIL
100
AcDbLine
 10
13.00226733962416
 20
18.28480342489906
 30
0.0
 11
12.97126733962416
 21
18.22280342489905
 31
0.0
  0
LINE
  5
199
330
18
100
AcDbEntity
  8
ADP1DETAIL
100
AcDbLine
 10
12.68975013000679
 20
18.28480342489906
 30
0.0
 11
12.68975013000679
 21
17.84579351038677
 31
0.0
  0
LINE
  5
19A
330
18
100
AcDbEntity
  8
ADP1DETAIL
100
AcDbLine
 10
12.84425481220894
 20
18.22280342489905
 30
0.0
 11
12.87452992024168
 21
17.84680342489906
 31
0.0
  0
LINE
  5
19B
330
18
100
AcDbEntity
  8
ADP1DETAIL
100
AcDbLine
 10
12.78652187499353
 20
18.22280342489905
 30
0.0
 11
12.81679698302627
 21
17.84680342489906
 31
0.0
  0
LINE
  5
19C
330
18
100
AcDbEntity
  8
ADP1DETAIL
100
AcDbLine
 10
12.72301563469354
 20
18.22280342489905
 30
0.0
 11
12.75329074272629
 21
17.84680342489906
 31
0.0
  0
LINE
  5
19D
330
18
100
AcDbEntity
  8
ADP1DETAIL
100
AcDbLine
 10
12.84352992024168
 20
17.78480342489906
 30
0.0
 11
12.81679698302627
 21
17.84680342489906
 31
0.0
  0
LINE
  5
19E
330
18
100
AcDbEntity
  8
ADP1DETAIL
100
AcDbLine
 10
12.87452992024168
 20
17.84680342489906
 30
0.0
 11
12.84352992024168
 21
17.78480342489906
 31
0.0
  0
LINE
  5
19F
330
18
100
AcDbEntity
  8
ADP1DETAIL
100
AcDbLine
 10
12.68975013000679
 20
17.84579351038677
 30
0.0
 11
12.72229074272628
 21
17.78480342489906
 31
0.0
  0
LINE
  5
1A0
330
18
100
AcDbEntity
  8
ADP1DETAIL
100
AcDbLine
 10
12.78429074272628
 20
17.78480342489906
 30
0.0
 11
12.75329074272629
 21
17.84680342489906
 31
0.0
  0
LINE
  5
1A1
330
18
100
AcDbEntity
  8
ADP1DETAIL
100
AcDbLine
 10
12.75329074272629
 20
17.84680342489906
 30
0.0
 11
12.72229074272628
 21
17.78480342489906
 31
0.0
  0
LINE
  5
1A2
330
18
100
AcDbEntity
  8
ADP1DETAIL
100
AcDbLine
 10
12.81679698302627
 20
17.84680342489906
 30
0.0
 11
12.78579698302627
 21
17.78480342489906
 31
0.0
  0
LINE
  5
1A3
330
18
100
AcDbEntity
  8
ADP1DETAIL
100
AcDbLine
 10
12.84425481220894
 20
18.22280342489905
 30
0.0
 11
12.81325481220894
 21
18.28480342489906
 31
0.0
  0
LINE
  5
1A4
330
18
100
AcDbEntity
  8
ADP1DETAIL
100
AcDbLine
 10
12.87525481220894
 20
18.28480342489906
 30
0.0
 11
12.84425481220894
 21
18.22280342489905
 31
0.0
  0
LINE
  5
1A5
330
18
100
AcDbEntity
  8
ADP1DETAIL
100
AcDbLine
 10
12.72301563469354
 20
18.22280342489905
 30
0.0
 11
12.69201563469354
 21
18.28480342489906
 31
0.0
  0
LINE
  5
1A6
330
18
100
AcDbEntity
  8
ADP1DETAIL
100
AcDbLine
 10
12.78652187499353
 20
18.22280342489905
 30
0.0
 11
12.75552187499353
 21
18.28480342489906
 31
0.0
  0
LINE
  5
1A7
330
18
100
AcDbEntity
  8
ADP1DETAIL
100
AcDbLine
 10
12.75401563469354
 20
18.28480342489906
 30
0.0
 11
12.72301563469354
 21
18.22280342489905
 31
0.0
  0
LINE
  5
1A8
330
18
100
AcDbEntity
  8
ADP1DETAIL
100
AcDbLine
 10
12.81325481220894
 20
18.28480342489906
 30
0.0
 11
12.78652187499353
 21
18.22280342489905
 31
0.0
  0
LINE
  5
1A9
330
18
100
AcDbEntity
  8
ADP1DETAIL
100
AcDbLine
 10
12.90552992024168
 20
17.78480342489906
 30
0.0
 11
12.87452992024168
 21
17.84680342489906
 31
0.0
  0
LINE
  5
1AA
330
18
100
AcDbEntity
  8
ADP1DETAIL
100
AcDbLine
 10
12.90776109932417
 20
18.22280342489905
 30
0.0
 11
12.87676109932417
 21
18.28480342489906
 31
0.0
  0
DIMENSION
  5
1AB
330
18
100
AcDbEntity
  8
ADPDIM
100
AcDbDimension
  2
*D1
 10
16.56904698356215
 20
19.57195100692436
 30
0.0
 11
14.94404698356215
 21
19.57195100692436
 31
0.0
100
AcDbAlignedDimension
 13
13.31904698356215
 23
18.57137960589587
 33
0.0
 14
16.56904698356215
 24
19.32137960589587
 34
0.0
100
AcDbRotatedDimension
  0
ARC
  5
1AC
330
18
100
AcDbEntity
  8
ADP1DETAIL
100
AcDbCircle
 10
14.69404698356215
 20
13.75381572832814
 30
0.0
 40
4.0
100
AcDbArc
 50
72.6288858082804
 51
107.3711141917196
  0
ARC
  5
1AD
330
18
100
AcDbEntity
  8
ADP1DETAIL
100
AcDbCircle
 10
14.69404698356215
 20
22.38937146027122
 30
0.0
 40
4.0
100
AcDbArc
 50
252.6494305513183
 51
287.3505694486816
  0
LINE
  5
1AE
330
18
100
AcDbEntity
  8
ADP1DETAIL
100
AcDbLine
 10
13.50604698356215
 20
17.57137960589587
 30
0.0
 11
13.50604698356215
 21
18.57137960589587
 31
0.0
  0
LINE
  5
1AF
330
18
100
AcDbEntity
  8
ADP1DETAIL
100
AcDbLine
 10
13.31904698356215
 20
17.57137960589587
 30
0.0
 11
13.31904698356215
 21
18.57137960589587
 31
0.0
  0
LINE
  5
1B0
330
18
100
AcDbEntity
  8
ADP1DETAIL
100
AcDbLine
 10
13.03477357992416
 20
18.22280342489905
 30
0.0
 11
13.06504868795689
 21
17.84680342489906
 31
0.0
  0
LINE
  5
1B1
330
18
100
AcDbEntity
  8
ADP1DETAIL
100
AcDbLine
 10
13.28375013000679
 20
18.22280342489905
 30
0.0
 11
13.31402523803953
 21
17.84680342489906
 31
0.0
  0
LINE
  5
1B2
330
18
100
AcDbEntity
  8
ADP1DETAIL
100
AcDbLine
 10
13.22175013000679
 20
18.22280342489905
 30
0.0
 11
13.25202523803953
 21
17.84680342489906
 31
0.0
  0
LINE
  5
1B3
330
18
100
AcDbEntity
  8
ADP1DETAIL
100
AcDbLine
 10
13.15975013000679
 20
18.22280342489905
 30
0.0
 11
13.19002523803953
 21
17.84680342489906
 31
0.0
  0
LINE
  5
1B4
330
18
100
AcDbEntity
  8
ADP1DETAIL
100
AcDbLine
 10
13.09827982022415
 20
18.22280342489905
 30
0.0
 11
13.12855492825689
 21
17.84680342489906
 31
0.0
  0
LINE
  5
1B5
330
18
100
AcDbEntity
  8
ADP1DETAIL
100
AcDbLine
 10
13.22102523803953
 20
17.78480342489906
 30
0.0
 11
13.19002523803953
 21
17.84680342489906
 31
0.0
  0
LINE
  5
1B6
330
18
100
AcDbEntity
  8
ADP1DETAIL
100
AcDbLine
 10
13.19002523803953
 20
17.84680342489906
 30
0.0
 11
13.15902523803953
 21
17.78480342489906
 31
0.0
  0
LINE
  5
1B7
330
18
100
AcDbEntity
  8
ADP1DETAIL
100
AcDbLine
 10
13.25202523803953
 20
17.84680342489906
 30
0.0
 11
13.22102523803953
 21
17.78480342489906
 31
0.0
  0
LINE
  5
1B8
330
18
100
AcDbEntity
  8
ADP1DETAIL
100
AcDbLine
 10
13.28302523803953
 20
17.78480342489906
 30
0.0
 11
13.25202523803953
 21
17.84680342489906
 31
0.0
  0
LINE
  5
1B9
330
18
100
AcDbEntity
  8
ADP1DETAIL
100
AcDbLine
 10
13.31402523803953
 20
17.84680342489906
 30
0.0
 11
13.28302523803953
 21
17.78480342489906
 31
0.0
  0
LINE
  5
1BA
330
18
100
AcDbEntity
  8
ADP1DETAIL
100
AcDbLine
 10
13.0960486879569
 20
17.78480342489906
 30
0.0
 11
13.06504868795689
 21
17.84680342489906
 31
0.0
  0
LINE
  5
1BB
330
18
100
AcDbEntity
  8
ADP1DETAIL
100
AcDbLine
 10
13.06504868795689
 20
17.84680342489906
 30
0.0
 11
13.0340486879569
 21
17.78480342489906
 31
0.0
  0
LINE
  5
1BC
330
18
100
AcDbEntity
  8
ADP1DETAIL
100
AcDbLine
 10
13.12855492825689
 20
17.84680342489906
 30
0.0
 11
13.09755492825689
 21
17.78480342489906
 31
0.0
  0
LINE
  5
1BD
330
18
100
AcDbEntity
  8
ADP1DETAIL
100
AcDbLine
 10
13.15955492825689
 20
17.78480342489906
 30
0.0
 11
13.12855492825689
 21
17.84680342489906
 31
0.0
  0
LINE
  5
1BE
330
18
100
AcDbEntity
  8
ADP1DETAIL
100
AcDbLine
 10
13.22175013000679
 20
18.22280342489905
 30
0.0
 11
13.19075013000679
 21
18.28480342489906
 31
0.0
  0
LINE
  5
1BF
330
18
100
AcDbEntity
  8
ADP1DETAIL
100
AcDbLine
 10
13.19075013000679
 20
18.28480342489906
 30
0.0
 11
13.15975013000679
 21
18.22280342489905
 31
0.0
  0
LINE
  5
1C0
330
18
100
AcDbEntity
  8
ADP1DETAIL
100
AcDbLine
 10
13.31475013000679
 20
18.28480342489906
 30
0.0
 11
13.28375013000679
 21
18.22280342489905
 31
0.0
  0
LINE
  5
1C1
330
18
100
AcDbEntity
  8
ADP1DETAIL
100
AcDbLine
 10
13.28375013000679
 20
18.22280342489905
 30
0.0
 11
13.25275013000679
 21
18.28480342489906
 31
0.0
  0
LINE
  5
1C2
330
18
100
AcDbEntity
  8
ADP1DETAIL
100
AcDbLine
 10
13.25275013000679
 20
18.28480342489906
 30
0.0
 11
13.22175013000679
 21
18.22280342489905
 31
0.0
  0
LINE
  5
1C3
330
18
100
AcDbEntity
  8
ADP1DETAIL
100
AcDbLine
 10
13.09827982022415
 20
18.22280342489905
 30
0.0
 11
13.06727982022415
 21
18.28480342489906
 31
0.0
  0
LINE
  5
1C4
330
18
100
AcDbEntity
  8
ADP1DETAIL
100
AcDbLine
 10
13.06577357992416
 20
18.28480342489906
 30
0.0
 11
13.03477357992416
 21
18.22280342489905
 31
0.0
  0
LINE
  5
1C5
330
18
100
AcDbEntity
  8
ADP1DETAIL
100
AcDbLine
 10
13.12927982022415
 20
18.28480342489906
 30
0.0
 11
13.09827982022415
 21
18.22280342489905
 31
0.0
  0
LINE
  5
1C6
330
18
100
AcDbEntity
  8
ADP1DETAIL
100
AcDbLine
 10
13.15975013000679
 20
18.22280342489905
 30
0.0
 11
13.12875013000679
 21
18.28480342489906
 31
0.0
  0
LINE
  5
1C7
330
18
100
AcDbEntity
  8
ADP1DETAIL
100
AcDbLine
 10
13.49980829691279
 20
17.57137960589587
 30
0.0
 11
13.31904698356215
 21
17.57137960589587
 31
0.0
  0
LINE
  5
1C8
330
18
100
AcDbEntity
  8
ADP1DETAIL
100
AcDbLine
 10
13.31904698356215
 20
18.57137960589587
 30
0.0
 11
13.50117725055544
 21
18.57137960589587
 31
0.0
  0
DIMENSION
  5
1C9
330
18
100
AcDbEntity
  8
ADPDIM
100
AcDbDimension
  2
*D2
 10
17.06904698356215
 20
17.25945100692436
 30
0.0
 11
16.56904698356215
 21
17.25945100692436
 31
0.0
100
AcDbAlignedDimension
 13
16.06904698356215
 23
17.57137960589587
 33
0.0
 14
17.06904698356215
 24
17.57137960589587
 34
0.0
100
AcDbRotatedDimension
  0
LINE
  5
1CA
330
18
100
AcDbEntity
  8
ADP1DETAIL
100
AcDbLine
 10
16.06904698356215
 20
17.57137960589587
 30
0.0
 11
17.06904698356215
 21
17.57137960589587
 31
0.0
  0
LINE
  5
1CB
330
18
100
AcDbEntity
  8
ADP1DETAIL
100
AcDbLine
 10
17.06904698356215
 20
19.32137960589587
 30
0.0
 11
16.06904698356215
 21
19.32137960589587
 31
0.0
  0
LINE
  5
1CC
330
18
100
AcDbEntity
  8
ADP1DETAIL
100
AcDbLine
 10
17.06904698356215
 20
19.07137960589587
 30
0.0
 11
16.06904698356215
 21
19.07137960589587
 31
0.0
  0
LINE
  5
1CD
330
18
100
AcDbEntity
  8
ADP1DETAIL
100
AcDbLine
 10
15.88204698356215
 20
18.57137960589587
 30
0.0
 11
15.88204698356215
 21
17.57137960589587
 31
0.0
  0
LINE
  5
1CE
330
18
100
AcDbEntity
  8
ADP1DETAIL
100
AcDbLine
 10
16.06904698356215
 20
19.32137960589587
 30
0.0
 11
16.06904698356215
 21
17.57137960589587
 31
0.0
  0
LINE
  5
1CF
330
18
100
AcDbEntity
  8
ADP1DETAIL
100
AcDbLine
 10
16.06904698356215
 20
17.57137960589587
 30
0.0
 11
15.88828567021151
 21
17.57137960589587
 31
0.0
  0
LINE
  5
1D0
330
18
100
AcDbEntity
  8
ADP1DETAIL
100
AcDbLine
 10
15.88691671656886
 20
18.57137960589587
 30
0.0
 11
16.06904698356215
 21
18.57137960589587
 31
0.0
  0
LINE
  5
1D1
330
18
100
AcDbEntity
  8
ADP2DETAIL
  6
HIDDEN2
100
AcDbLine
 10
16.48045696842079
 20
19.31585076342763
 30
0.0
 11
16.48045696842079
 21
19.1407719077536
 31
0.0
  0
LINE
  5
1D2
330
18
100
AcDbEntity
  8
ADP2DETAIL
  6
HIDDEN2
100
AcDbLine
 10
16.48045696842079
 20
19.1407719077536
 30
0.0
 11
16.41845696842079
 21
19.0787719077536
 31
0.0
  0
LINE
  5
1D3
330
18
100
AcDbEntity
  8
ADP1DETAIL
100
AcDbLine
 10
17.13104698356215
 20
18.57137960589587
 30
0.0
 11
17.13104698356215
 21
17.57137960589587
 31
0.0
  0
LINE
  5
1D4
330
18
100
AcDbEntity
  8
ADP1DETAIL
100
AcDbLine
 10
17.13104698356215
 20
18.57137960589587
 30
0.0
 11
17.25604698356215
 21
18.44637960589587
 31
0.0
  0
LINE
  5
1D5
330
18
100
AcDbEntity
  8
ADP1DETAIL
100
AcDbLine
 10
17.06904698356215
 20
17.57137960589587
 30
0.0
 11
17.06904698356215
 21
19.32137960589587
 31
0.0
  0
LINE
  5
1D6
330
18
100
AcDbEntity
  8
ADP1DETAIL
100
AcDbLine
 10
17.13104698356215
 20
17.57137960589587
 30
0.0
 11
17.06904698356215
 21
17.57137960589587
 31
0.0
  0
LINE
  5
1D7
330
18
100
AcDbEntity
  8
ADP1DETAIL
100
AcDbLine
 10
17.25604698356215
 20
18.44637960589587
 30
0.0
 11
17.25604698356215
 21
17.69637960589587
 31
0.0
  0
LINE
  5
1D8
330
18
100
AcDbEntity
  8
ADP1DETAIL
100
AcDbLine
 10
17.25604698356215
 20
17.69637960589587
 30
0.0
 11
17.13104698356215
 21
17.57137960589587
 31
0.0
  0
LINE
  5
1D9
330
18
100
AcDbEntity
  8
ADP1DETAIL
100
AcDbLine
 10
17.06904698356215
 20
18.57137960589587
 30
0.0
 11
17.13104698356215
 21
18.57137960589587
 31
0.0
  0
LINE
  5
1DA
330
18
100
AcDbEntity
  8
ADP2DETAIL
  6
HIDDEN2
100
AcDbLine
 10
16.66845696842079
 20
19.31585076342763
 30
0.0
 11
16.66845696842079
 21
19.1407719077536
 31
0.0
  0
LINE
  5
1DB
330
18
100
AcDbEntity
  8
ADP2DETAIL
  6
HIDDEN2
100
AcDbLine
 10
16.66845696842079
 20
19.1407719077536
 30
0.0
 11
16.73045696842079
 21
19.0787719077536
 31
0.0
  0
DIMENSION
  5
1DC
330
18
100
AcDbEntity
  8
ADPDIM
100
AcDbDimension
  2
*D0
 10
21.5771447955778
 20
19.75945100692436
 30
0.0
 11
20.07714479557781
 21
19.75945100692436
 31
0.0
100
AcDbAlignedDimension
 13
18.5771447955778
 23
19.19695100692436
 33
0.0
 14
21.5771447955778
 24
19.19695100692436
 34
0.0
100
AcDbRotatedDimension
  0
DIMENSION
  5
1DD
330
18
100
AcDbEntity
  8
ADPDIM
100
AcDbDimension
  2
*D4
 10
21.1706447955778
 20
19.44695100692436
 30
0.0
 11
20.0768947955778
 21
19.44695100692436
 31
0.0
100
AcDbAlignedDimension
 13
18.9831447955778
 23
19.19695100692436
 33
0.0
 14
21.1706447955778
 24
19.19695100692436
 34
0.0
100
AcDbRotatedDimension
  0
CIRCLE
  5
1DE
330
18
100
AcDbEntity
  8
ADP1DETAIL
100
AcDbCircle
 10
20.06853627836199
 20
17.93395059486825
 30
0.0
 40
0.375
  0
CIRCLE
  5
1DF
330
18
100
AcDbEntity
  8
ADP1DETAIL
100
AcDbCircle
 10
20.06853627836199
 20
17.93395059486825
 30
0.0
 40
0.5
  0
LINE
  5
1E0
330
18
100
AcDbEntity
  8
ADP1DETAIL
100
AcDbLine
 10
19.75603627836199
 20
19.2294168828138
 30
0.0
 11
20.38103627836199
 21
19.2294168828138
 31
0.0
  0
LINE
  5
1E1
330
18
100
AcDbEntity
  8
ADP2DETAIL
  6
HIDDEN2
100
AcDbLine
 10
18.8891447955778
 20
19.00895100692437
 30
0.0
 11
18.82714479557781
 21
18.94695100692436
 31
0.0
  0
LINE
  5
1E2
330
18
100
AcDbEntity
  8
ADP1DETAIL
100
AcDbLine
 10
19.44353627836199
 20
18.9304327672133
 30
0.0
 11
18.56853627836199
 21
18.9304327672133
 31
0.0
  0
LINE
  5
1E3
330
18
100
AcDbEntity
  8
ADP1DETAIL
100
AcDbLine
 10
18.56853627836199
 20
19.1804327672133
 30
0.0
 11
19.75603627836199
 21
19.1804327672133
 31
0.0
  0
LINE
  5
1E4
330
18
100
AcDbEntity
  8
ADP1DETAIL
100
AcDbLine
 10
18.56853627836199
 20
18.9304327672133
 30
0.0
 11
18.56853627836199
 21
19.1804327672133
 31
0.0
  0
LINE
  5
1E5
330
18
100
AcDbEntity
  8
ADP1DETAIL
100
AcDbLine
 10
19.56853627836199
 20
17.86607912720255
 30
0.0
 11
19.56853627836199
 21
18.8054327672133
 31
0.0
  0
LINE
  5
1E6
330
18
100
AcDbEntity
  8
ADP1DETAIL
100
AcDbLine
 10
19.75603627836199
 20
18.32426296976815
 30
0.0
 11
19.75603627836199
 21
19.2294168828138
 31
0.0
  0
LINE
  5
1E7
330
18
100
AcDbEntity
  8
ADP1DETAIL
100
AcDbLine
 10
19.75603627836199
 20
19.17503847125136
 30
0.0
 11
19.75603627836199
 21
18.32426296976815
 31
0.0
  0
LWPOLYLINE
  5
1E8
330
18
100
AcDbEntity
  8
ADP1DETAIL
100
AcDbPolyline
 90
        2
 70
     0
 43
0.0
 10
19.5723448266974
 20
17.87235478904516
 10
19.56853627836199
 20
17.86607912720255
  0
LINE
  5
1EC
330
18
100
AcDbEntity
  8
ADP2DETAIL
  6
HIDDEN2
100
AcDbLine
 10
18.8891447955778
 20
19.16595100692436
 30
0.0
 11
18.8891447955778
 21
19.00895100692437
 31
0.0
  0
LINE
  5
1ED
330
18
100
AcDbEntity
  8
ADP2DETAIL
  6
HIDDEN2
100
AcDbLine
 10
19.0771447955778
 20
19.00895100692437
 30
0.0
 11
19.13914479557781
 21
18.94695100692436
 31
0.0
  0
LINE
  5
1EE
330
18
100
AcDbEntity
  8
ADP2DETAIL
  6
HIDDEN2
100
AcDbLine
 10
19.0771447955778
 20
19.16595100692436
 30
0.0
 11
19.0771447955778
 21
19.00895100692437
 31
0.0
  0
ARC
  5
1EF
330
18
100
AcDbEntity
  8
ADP1DETAIL
100
AcDbCircle
 10
19.44353627836199
 20
18.8054327672133
 30
0.0
 40
0.125
100
AcDbArc
 50
0.0
 51
90.0
  0
LINE
  5
1F0
330
18
100
AcDbEntity
  8
ADP1DETAIL
100
AcDbLine
 10
21.56853627836199
 20
18.9304327672133
 30
0.0
 11
20.69353627836199
 21
18.9304327672133
 31
0.0
  0
LINE
  5
1F1
330
18
100
AcDbEntity
  8
ADP1DETAIL
100
AcDbLine
 10
20.38103627836199
 20
19.1804327672133
 30
0.0
 11
21.56853627836199
 21
19.1804327672133
 31
0.0
  0
LINE
  5
1F2
330
18
100
AcDbEntity
  8
ADP1DETAIL
100
AcDbLine
 10
20.38103627836199
 20
19.2294168828138
 30
0.0
 11
20.38103627836199
 21
18.32426296976815
 31
0.0
  0
LINE
  5
1F3
330
18
100
AcDbEntity
  8
ADP1DETAIL
100
AcDbLine
 10
20.56853627836199
 20
18.8054327672133
 30
0.0
 11
20.56853627836199
 21
17.86607912720255
 31
0.0
  0
LINE
  5
1F4
330
18
100
AcDbEntity
  8
ADP1DETAIL
100
AcDbLine
 10
20.38103627836199
 20
18.32426296976815
 30
0.0
 11
20.38103627836199
 21
19.17503847125136
 31
0.0
  0
LINE
  5
1F5
330
18
100
AcDbEntity
  8
ADP1DETAIL
100
AcDbLine
 10
20.56853627836199
 20
17.86607912720255
 30
0.0
 11
20.56472773002656
 21
17.87235478904516
 31
0.0
  0
ARC
  5
1F6
330
18
100
AcDbEntity
  8
ADP1DETAIL
100
AcDbCircle
 10
20.69353627836199
 20
18.8054327672133
 30
0.0
 40
0.125
100
AcDbArc
 50
89.99999999999991
 51
180.0
  0
LINE
  5
1F7
330
18
100
AcDbEntity
  8
ADP2DETAIL
  6
HIDDEN2
100
AcDbLine
 10
21.07714479557781
 20
19.16595100692436
 30
0.0
 11
21.07714479557781
 21
19.00895100692437
 31
0.0
  0
LINE
  5
1F8
330
18
100
AcDbEntity
  8
ADP2DETAIL
  6
HIDDEN2
100
AcDbLine
 10
21.07714479557781
 20
19.00895100692437
 30
0.0
 11
21.0151447955778
 21
18.94695100692436
 31
0.0
  0
LINE
  5
1F9
330
18
100
AcDbEntity
  8
ADP2DETAIL
  6
HIDDEN2
100
AcDbLine
 10
21.2651447955778
 20
19.00895100692437
 30
0.0
 11
21.32714479557781
 21
18.94695100692436
 31
0.0
  0
LINE
  5
1FA
330
18
100
AcDbEntity
  8
ADP2DETAIL
  6
HIDDEN2
100
AcDbLine
 10
21.2651447955778
 20
19.16595100692436
 30
0.0
 11
21.2651447955778
 21
19.00895100692437
 31
0.0
  0
LINE
  5
1FB
330
18
100
AcDbEntity
  8
ADP1DETAIL
100
AcDbLine
 10
21.56853627836199
 20
19.1804327672133
 30
0.0
 11
21.56853627836199
 21
18.9304327672133
 31
0.0
  0
TEXT
  5
209
330
18
100
AcDbEntity
  8
ADPDIM
100
AcDbText
 10
10.68107437367413
 20
15.95300164186283
 30
0.0
 40
0.125
  1
J U L I U S  B L U M  &  C O . ,  I N C .      ( 8 0 0 )  5 2 6 - 6 2 9 3        W W W . J U L I U S B L U M . C O M        P A R T  N o .  3 0 9
 41
1.25
  7
ARIAL_WIDE
 72
     1
 11
17.11578191119119
 21
16.07800164186283
 31
0.0
100
AcDbText
 73
     3
  0
ENDSEC
  0
SECTION
  2
OBJECTS
  0
DICTIONARY
  5
C
330
0
100
AcDbDictionary
  3
ACAD_GROUP
350
D
  3
ACAD_LAYOUT
350
202
  3
ACAD_MLINESTYLE
350
E
  3
ACAD_PLOTSETTINGS
350
203
  3
ACAD_PLOTSTYLENAME
350
200
  3
ACDBHEADERROUNDTRIPXREC
350
40D
  3
ACDBVARIABLEDICTIONARY
350
263
  0
DICTIONARY
  5
25D
330
18
100
AcDbDictionary
280
     1
  3
ACAD_LAYOUTSELFREF
360
42E
  0
DICTIONARY
  5
25B
330
15
100
AcDbDictionary
280
     1
  3
ACAD_LAYOUTSELFREF
360
42D
  0
DICTIONARY
  5
D
102
{ACAD_REACTORS
330
C
102
}
330
C
100
AcDbDictionary
  0
DICTIONARY
  5
202
102
{ACAD_REACTORS
330
C
102
}
330
C
100
AcDbDictionary
  0
DICTIONARY
  5
E
102
{ACAD_REACTORS
330
C
102
}
330
C
100
AcDbDictionary
  3
STANDARD
350
1B
  0
DICTIONARY
  5
203
102
{ACAD_REACTORS
330
C
102
}
330
C
100
AcDbDictionary
  0
ACDBDICTIONARYWDFLT
  5
200
102
{ACAD_REACTORS
330
C
102
}
330
C
100
AcDbDictionary
281
     1
  3
Normal
350
201
100
AcDbDictionaryWithDefault
340
201
  0
DICTIONARY
  5
40D
102
{ACAD_REACTORS
330
C
102
}
330
C
100
AcDbDictionary
  3
CEPSNTYPE
350
417
  3
FINGERPRINTGUID
350
418
  3
HYPERLINKBASE
350
410
  3
INSUNITS
350
416
  3
LAYOUTDICT
350
412
  3
LWETCUNION
350
415
  3
PLOTSETDICT
350
413
  3
PLOTSTYLNAMDICT
350
414
  3
PSVPSCALE
350
41A
  3
PUCSBASE
350
41D
  3
PUCSORGBACK
350
423
  3
PUCSORGBOTTOM
350
41F
  3
PUCSORGFRONT
350
422
  3
PUCSORGLEFT
350
420
  3
PUCSORGRIGHT
350
421
  3
PUCSORGTOP
350
41E
  3
PUCSORTHOREF
350
41B
  3
PUCSORTHOVIEW
350
41C
  3
STYLESHEET
350
411
  3
TSTACKALIGN
350
40E
  3
TSTACKSIZE
350
40F
  3
UCSBASE
350
426
  3
UCSORGBACK
350
42C
  3
UCSORGBOTTOM
350
428
  3
UCSORGFRONT
350
42B
  3
UCSORGLEFT
350
429
  3
UCSORGRIGHT
350
42A
  3
UCSORGTOP
350
427
  3
UCSORTHOREF
350
424
  3
UCSORTHOVIEW
350
425
  3
VERSIONGUID
350
419
  0
DICTIONARY
  5
263
102
{ACAD_REACTORS
330
C
102
}
330
C
100
AcDbDictionary
  3
DIMASSOC
350
264
  0
XRECORD
  5
42E
102
{ACAD_REACTORS
330
25D
102
}
330
25D
100
AcDbXrecord
340
18
  0
XRECORD
  5
42D
102
{ACAD_REACTORS
330
25B
102
}
330
25B
100
AcDbXrecord
340
15
  0
MLINESTYLE
  5
1B
102
{ACAD_REACTORS
330
E
102
}
330
E
100
AcDbMlineStyle
  2
STANDARD
 70
     0
  3

 62
     0
 51
90.0
 52
90.0
 71
     2
 49
0.5
 62
   256
  6
BYLAYER
 49
-0.5
 62
   256
  6
BYLAYER
  0
ACDBPLACEHOLDER
  5
201
102
{ACAD_REACTORS
330
200
102
}
330
200
100
AcDbPlaceHolder
280
     0
  0
XRECORD
  5
417
102
{ACAD_REACTORS
330
40D
102
}
330
40D
100
AcDbXrecord
 90
        0
  0
XRECORD
  5
418
102
{ACAD_REACTORS
330
40D
102
}
330
40D
100
AcDbXrecord
  1
{DF4A7953-59BC-43E9-8F09-8C740EC8095A}
  0
XRECORD
  5
410
102
{ACAD_REACTORS
330
40D
102
}
330
40D
100
AcDbXrecord
  1

  0
XRECORD
  5
416
102
{ACAD_REACTORS
330
40D
102
}
330
40D
100
AcDbXrecord
 90
        0
  0
XRECORD
  5
412
102
{ACAD_REACTORS
330
40D
102
}
330
40D
100
AcDbXrecord
340
202
  0
XRECORD
  5
415
102
{ACAD_REACTORS
330
40D
102
}
330
40D
100
AcDbXrecord
 90
    14877
  0
XRECORD
  5
413
102
{ACAD_REACTORS
330
40D
102
}
330
40D
100
AcDbXrecord
340
203
  0
XRECORD
  5
414
102
{ACAD_REACTORS
330
40D
102
}
330
40D
100
AcDbXrecord
340
200
  0
XRECORD
  5
41A
102
{ACAD_REACTORS
330
40D
102
}
330
40D
100
AcDbXrecord
 40
0.0
  0
XRECORD
  5
41D
102
{ACAD_REACTORS
330
40D
102
}
330
40D
100
AcDbXrecord
340
0
  0
XRECORD
  5
423
102
{ACAD_REACTORS
330
40D
102
}
330
40D
100
AcDbXrecord
 10
0.0
 20
0.0
 30
0.0
  0
XRECORD
  5
41F
102
{ACAD_REACTORS
330
40D
102
}
330
40D
100
AcDbXrecord
 10
0.0
 20
0.0
 30
0.0
  0
XRECORD
  5
422
102
{ACAD_REACTORS
330
40D
102
}
330
40D
100
AcDbXrecord
 10
0.0
 20
0.0
 30
0.0
  0
XRECORD
  5
420
102
{ACAD_REACTORS
330
40D
102
}
330
40D
100
AcDbXrecord
 10
0.0
 20
0.0
 30
0.0
  0
XRECORD
  5
421
102
{ACAD_REACTORS
330
40D
102
}
330
40D
100
AcDbXrecord
 10
0.0
 20
0.0
 30
0.0
  0
XRECORD
  5
41E
102
{ACAD_REACTORS
330
40D
102
}
330
40D
100
AcDbXrecord
 10
0.0
 20
0.0
 30
0.0
  0
XRECORD
  5
41B
102
{ACAD_REACTORS
330
40D
102
}
330
40D
100
AcDbXrecord
340
0
  0
XRECORD
  5
41C
102
{ACAD_REACTORS
330
40D
102
}
330
40D
100
AcDbXrecord
 70
     0
  0
XRECORD
  5
411
102
{ACAD_REACTORS
330
40D
102
}
330
40D
100
AcDbXrecord
  1

  0
XRECORD
  5
40E
102
{ACAD_REACTORS
330
40D
102
}
330
40D
100
AcDbXrecord
 90
        1
  0
XRECORD
  5
40F
102
{ACAD_REACTORS
330
40D
102
}
330
40D
100
AcDbXrecord
 90
       70
  0
XRECORD
  5
426
102
{ACAD_REACTORS
330
40D
102
}
330
40D
100
AcDbXrecord
340
0
  0
XRECORD
  5
42C
102
{ACAD_REACTORS
330
40D
102
}
330
40D
100
AcDbXrecord
 10
0.0
 20
0.0
 30
0.0
  0
XRECORD
  5
428
102
{ACAD_REACTORS
330
40D
102
}
330
40D
100
AcDbXrecord
 10
0.0
 20
0.0
 30
0.0
  0
XRECORD
  5
42B
102
{ACAD_REACTORS
330
40D
102
}
330
40D
100
AcDbXrecord
 10
0.0
 20
0.0
 30
0.0
  0
XRECORD
  5
429
102
{ACAD_REACTORS
330
40D
102
}
330
40D
100
AcDbXrecord
 10
0.0
 20
0.0
 30
0.0
  0
XRECORD
  5
42A
102
{ACAD_REACTORS
330
40D
102
}
330
40D
100
AcDbXrecord
 10
0.0
 20
0.0
 30
0.0
  0
XRECORD
  5
427
102
{ACAD_REACTORS
330
40D
102
}
330
40D
100
AcDbXrecord
 10
0.0
 20
0.0
 30
0.0
  0
XRECORD
  5
424
102
{ACAD_REACTORS
330
40D
102
}
330
40D
100
AcDbXrecord
340
0
  0
XRECORD
  5
425
102
{ACAD_REACTORS
330
40D
102
}
330
40D
100
AcDbXrecord
 70
     0
  0
XRECORD
  5
419
102
{ACAD_REACTORS
330
40D
102
}
330
40D
100
AcDbXrecord
  1
{F4AA978F-EEFA-4528-90ED-FDB462A08527}
  0
DICTIONARYVAR
  5
264
102
{ACAD_REACTORS
330
263
102
}
330
263
100
DictionaryVariables
280
     0
  1
1
  0
ENDSEC
  0
EOF
