  0
SECTION
  2
HEADER
  9
$ACADVER
  1
AC1014
  9
$ACADMAINTVER
 70
     9
  9
$DWGCODEPAGE
  3
ANSI_1252
  9
$INSBASE
 10
-21.31396950979258
 20
18.27674217794965
 30
0.0
  9
$EXTMIN
 10
-25.21340978714996
 20
16.85027375160041
 30
0.0
  9
$EXTMAX
 10
-9.126640943357333
 20
22.8219423887551
 30
0.0
  9
$LIMMIN
 10
0.0
 20
0.0
  9
$LIMMAX
 10
36.0
 20
36.0
  9
$ORTHOMODE
 70
     1
  9
$REGENMODE
 70
     1
  9
$FILLMODE
 70
     1
  9
$QTEXTMODE
 70
     0
  9
$MIRRTEXT
 70
     1
  9
$DRAGMODE
 70
     0
  9
$LTSCALE
 40
1.0
  9
$OSMODE
 70
    37
  9
$ATTMODE
 70
     1
  9
$TEXTSIZE
 40
0.2
  9
$TRACEWID
 40
0.05
  9
$TEXTSTYLE
  7
STANDARD
  9
$CLAYER
  8
ADP2DETAIL
  9
$CELTYPE
  6
BYLAYER
  9
$CECOLOR
 62
   256
  9
$CELTSCALE
 40
1.0
  9
$DELOBJ
 70
     1
  9
$DISPSILH
 70
     0
  9
$DIMSCALE
 40
1.0
  9
$DIMASZ
 40
0.125
  9
$DIMEXO
 40
0.0625
  9
$DIMDLI
 40
0.38
  9
$DIMRND
 40
0.0
  9
$DIMDLE
 40
0.0
  9
$DIMEXE
 40
0.18
  9
$DIMTP
 40
0.0
  9
$DIMTM
 40
0.0
  9
$DIMTXT
 40
0.125
  9
$DIMCEN
 40
0.1875
  9
$DIMTSZ
 40
0.125
  9
$DIMTOL
 70
     0
  9
$DIMLIM
 70
     0
  9
$DIMTIH
 70
     0
  9
$DIMTOH
 70
     0
  9
$DIMSE1
 70
     0
  9
$DIMSE2
 70
     0
  9
$DIMTAD
 70
     0
  9
$DIMZIN
 70
     3
  9
$DIMBLK
  1

  9
$DIMASO
 70
     1
  9
$DIMSHO
 70
     1
  9
$DIMPOST
  1

  9
$DIMAPOST
  1

  9
$DIMALT
 70
     0
  9
$DIMALTD
 70
     1
  9
$DIMALTF
 40
25.4
  9
$DIMLFAC
 40
1.0
  9
$DIMTOFL
 70
     0
  9
$DIMTVP
 40
0.0
  9
$DIMTIX
 70
     0
  9
$DIMSOXD
 70
     0
  9
$DIMSAH
 70
     0
  9
$DIMBLK1
  1

  9
$DIMBLK2
  1

  9
$DIMSTYLE
  2
STANDARD
  9
$DIMCLRD
 70
     0
  9
$DIMCLRE
 70
     0
  9
$DIMCLRT
 70
     0
  9
$DIMTFAC
 40
1.0
  9
$DIMGAP
 40
0.125
  9
$DIMJUST
 70
     0
  9
$DIMSD1
 70
     0
  9
$DIMSD2
 70
     0
  9
$DIMTOLJ
 70
     1
  9
$DIMTZIN
 70
     0
  9
$DIMALTZ
 70
     0
  9
$DIMALTTZ
 70
     0
  9
$DIMFIT
 70
     3
  9
$DIMUPT
 70
     0
  9
$DIMUNIT
 70
     2
  9
$DIMDEC
 70
     4
  9
$DIMTDEC
 70
     4
  9
$DIMALTU
 70
     2
  9
$DIMALTTD
 70
     2
  9
$DIMTXSTY
  7
STANDARD
  9
$DIMAUNIT
 70
     0
  9
$LUNITS
 70
     5
  9
$LUPREC
 70
     4
  9
$SKETCHINC
 40
0.1
  9
$FILLETRAD
 40
0.062
  9
$AUNITS
 70
     0
  9
$AUPREC
 70
     0
  9
$MENU
  1
acad
  9
$ELEVATION
 40
0.0
  9
$PELEVATION
 40
0.0
  9
$THICKNESS
 40
0.0
  9
$LIMCHECK
 70
     0
  9
$BLIPMODE
 70
     0
  9
$CHAMFERA
 40
0.0
  9
$CHAMFERB
 40
0.0
  9
$CHAMFERC
 40
0.0
  9
$CHAMFERD
 40
0.0
  9
$SKPOLY
 70
     0
  9
$TDCREATE
 40
2450386.491211030
  9
$TDUPDATE
 40
2452297.067333796
  9
$TDINDWG
 40
0.0209201968
  9
$TDUSRTIMER
 40
0.0209201968
  9
$USRTIMER
 70
     1
  9
$ANGBASE
 50
0.0
  9
$ANGDIR
 70
     0
  9
$PDMODE
 70
     0
  9
$PDSIZE
 40
0.0
  9
$PLINEWID
 40
0.0
  9
$COORDS
 70
     2
  9
$SPLFRAME
 70
     0
  9
$SPLINETYPE
 70
     6
  9
$SPLINESEGS
 70
     8
  9
$ATTDIA
 70
     0
  9
$ATTREQ
 70
     1
  9
$HANDLING
 70
 22529
  9
$HANDSEED
  5
3D8
  9
$SURFTAB1
 70
     6
  9
$SURFTAB2
 70
     6
  9
$SURFTYPE
 70
     6
  9
$SURFU
 70
     6
  9
$SURFV
 70
     6
  9
$UCSNAME
  2

  9
$UCSORG
 10
0.0
 20
0.0
 30
0.0
  9
$UCSXDIR
 10
1.0
 20
0.0
 30
0.0
  9
$UCSYDIR
 10
0.0
 20
1.0
 30
0.0
  9
$PUCSNAME
  2

  9
$PUCSORG
 10
0.0
 20
0.0
 30
0.0
  9
$PUCSXDIR
 10
1.0
 20
0.0
 30
0.0
  9
$PUCSYDIR
 10
0.0
 20
1.0
 30
0.0
  9
$USERI1
 70
     0
  9
$USERI2
 70
     0
  9
$USERI3
 70
     0
  9
$USERI4
 70
     0
  9
$USERI5
 70
     0
  9
$USERR1
 40
0.0
  9
$USERR2
 40
0.0
  9
$USERR3
 40
0.0
  9
$USERR4
 40
0.0
  9
$USERR5
 40
0.0
  9
$WORLDVIEW
 70
     1
  9
$SHADEDGE
 70
     3
  9
$SHADEDIF
 70
    70
  9
$TILEMODE
 70
     1
  9
$MAXACTVP
 70
    15
  9
$PINSBASE
 10
4.403525741743744E+99
 20
7.061986388769092E+99
 30
0.0
  9
$PLIMCHECK
 70
     0
  9
$PEXTMIN
 10
1.000000000000000E+20
 20
1.000000000000000E+20
 30
1.000000000000000E+20
  9
$PEXTMAX
 10
-1.000000000000000E+20
 20
-1.000000000000000E+20
 30
-1.000000000000000E+20
  9
$PLIMMIN
 10
0.0
 20
0.0
  9
$PLIMMAX
 10
12.0
 20
9.0
  9
$UNITMODE
 70
     0
  9
$VISRETAIN
 70
     0
  9
$PLINEGEN
 70
     0
  9
$PSLTSCALE
 70
     1
  9
$TREEDEPTH
 70
  3020
  9
$PICKSTYLE
 70
     1
  9
$CMLSTYLE
  2
STANDARD
  9
$CMLJUST
 70
     0
  9
$CMLSCALE
 40
1.0
  9
$PROXYGRAPHICS
 70
     1
  9
$MEASUREMENT
 70
     0
  0
ENDSEC
  0
SECTION
  2
CLASSES
  0
CLASS
  1
ACDBDICTIONARYWDFLT
  2
AcDbDictionaryWithDefault
  3
AutoCAD 2000
 90
        0
280
     0
281
     0
  0
CLASS
  1
ACDBPLACEHOLDER
  2
AcDbPlaceHolder
  3
AutoCAD 2000
 90
        0
280
     0
281
     0
  0
CLASS
  1
LAYOUT
  2
AcDbLayout
  3
AutoCAD 2000
 90
        0
280
     0
281
     0
  0
CLASS
  1
DICTIONARYVAR
  2
AcDbDictionaryVar
  3
AutoCAD 2000
 90
        0
280
     0
281
     0
  0
CLASS
  1
LONG_TRANSACTION
  2
AcDbLongTransaction
  3
AutoCAD 2000
 90
        0
280
     0
281
     0
  0
CLASS
  1
LWPOLYLINE
  2
AcDbPolyline
  3
AutoCAD 2000
 90
        0
280
     0
281
     1
  0
CLASS
  1
HATCH
  2
AcDbHatch
  3
AutoCAD 2000
 90
        0
280
     0
281
     1
  0
CLASS
  1
XRECORD
  2
AcDbXrecord
  3
AutoCAD 2000
 90
        0
280
     0
281
     0
  0
CLASS
  1
LONG_TRANSACTION
  2
AcDbLongTransaction
  3
AutoCAD 2000
 90
        0
280
     0
281
     0
  0
CLASS
  1
LWPOLYLINE
  2
AcDbPolyline
  3
AutoCAD 2000
 90
        0
280
     0
281
     1
  0
CLASS
  1
HATCH
  2
AcDbHatch
  3
AutoCAD 2000
 90
        0
280
     0
281
     1
  0
CLASS
  1
XRECORD
  2
AcDbXrecord
  3
AutoCAD 2000
 90
        0
280
     0
281
     0
  0
CLASS
  1
LONG_TRANSACTION
  2
AcDbLongTransaction
  3
AutoCAD 2000
 90
        0
280
     0
281
     0
  0
CLASS
  1
LWPOLYLINE
  2
AcDbPolyline
  3
AutoCAD 2000
 90
        0
280
     0
281
     1
  0
CLASS
  1
HATCH
  2
AcDbHatch
  3
AutoCAD 2000
 90
        0
280
     0
281
     1
  0
CLASS
  1
XRECORD
  2
AcDbXrecord
  3
AutoCAD 2000
 90
        0
280
     0
281
     0
  0
CLASS
  1
LONG_TRANSACTION
  2
AcDbLongTransaction
  3
AutoCAD 2000
 90
        0
280
     0
281
     0
  0
CLASS
  1
LWPOLYLINE
  2
AcDbPolyline
  3
AutoCAD 2000
 90
        0
280
     0
281
     1
  0
CLASS
  1
HATCH
  2
AcDbHatch
  3
AutoCAD 2000
 90
        0
280
     0
281
     1
  0
CLASS
  1
XRECORD
  2
AcDbXrecord
  3
AutoCAD 2000
 90
        0
280
     0
281
     0
  0
CLASS
  1
LONG_TRANSACTION
  2
AcDbLongTransaction
  3
AutoCAD 2000
 90
        0
280
     0
281
     0
  0
CLASS
  1
LWPOLYLINE
  2
AcDbPolyline
  3
AutoCAD 2000
 90
        0
280
     0
281
     1
  0
CLASS
  1
HATCH
  2
AcDbHatch
  3
AutoCAD 2000
 90
        0
280
     0
281
     1
  0
CLASS
  1
XRECORD
  2
AcDbXrecord
  3
AutoCAD 2000
 90
        0
280
     0
281
     0
  0
CLASS
  1
LONG_TRANSACTION
  2
AcDbLongTransaction
  3
AutoCAD 2000
 90
        0
280
     0
281
     0
  0
CLASS
  1
LWPOLYLINE
  2
AcDbPolyline
  3
AutoCAD 2000
 90
        0
280
     0
281
     1
  0
CLASS
  1
HATCH
  2
AcDbHatch
  3
AutoCAD 2000
 90
        0
280
     0
281
     1
  0
CLASS
  1
XRECORD
  2
AcDbXrecord
  3
AutoCAD 2000
 90
        0
280
     0
281
     0
  0
CLASS
  1
LONG_TRANSACTION
  2
AcDbLongTransaction
  3
AutoCAD 2000
 90
        0
280
     0
281
     0
  0
CLASS
  1
LWPOLYLINE
  2
AcDbPolyline
  3
AutoCAD 2000
 90
        0
280
     0
281
     1
  0
CLASS
  1
HATCH
  2
AcDbHatch
  3
AutoCAD 2000
 90
        0
280
     0
281
     1
  0
CLASS
  1
XRECORD
  2
AcDbXrecord
  3
AutoCAD 2000
 90
        0
280
     0
281
     0
  0
CLASS
  1
LONG_TRANSACTION
  2
AcDbLongTransaction
  3
AutoCAD 2000
 90
        0
280
     0
281
     0
  0
CLASS
  1
LWPOLYLINE
  2
AcDbPolyline
  3
AutoCAD 2000
 90
        0
280
     0
281
     1
  0
CLASS
  1
HATCH
  2
AcDbHatch
  3
AutoCAD 2000
 90
        0
280
     0
281
     1
  0
CLASS
  1
XRECORD
  2
AcDbXrecord
  3
AutoCAD 2000
 90
        0
280
     0
281
     0
  0
CLASS
  1
LONG_TRANSACTION
  2
AcDbLongTransaction
  3
AutoCAD 2000
 90
        0
280
     0
281
     0
  0
CLASS
  1
LWPOLYLINE
  2
AcDbPolyline
  3
AutoCAD 2000
 90
        0
280
     0
281
     1
  0
CLASS
  1
HATCH
  2
AcDbHatch
  3
AutoCAD 2000
 90
        0
280
     0
281
     1
  0
CLASS
  1
XRECORD
  2
AcDbXrecord
  3
AutoCAD 2000
 90
        0
280
     0
281
     0
  0
ENDSEC
  0
SECTION
  2
TABLES
  0
TABLE
  2
VPORT
  5
8
330
0
100
AcDbSymbolTable
 70
     2
  0
VPORT
  5
3B5
330
8
100
AcDbSymbolTableRecord
100
AcDbViewportTableRecord
  2
*ACTIVE
 70
     0
 10
0.0
 20
0.0
 11
1.0
 21
1.0
 12
-17.16939492319382
 22
19.83609017384715
 13
0.0
 23
0.0
 14
0.5740882589684922
 24
0.5740882589684922
 15
0.5
 25
0.5
 16
0.0
 26
0.0
 36
1.0
 17
0.0
 27
0.0
 37
0.0
 40
10.29394036821273
 41
1.570528967254408
 42
50.0
 43
0.0
 44
0.0
 50
0.0
 51
0.0
 71
     0
 72
   100
 73
     1
 74
     0
 75
     0
 76
     0
 77
     0
 78
     0
  0
ENDTAB
  0
TABLE
  2
LTYPE
  5
5
330
0
100
AcDbSymbolTable
 70
     2
  0
LTYPE
  5
12
330
5
100
AcDbSymbolTableRecord
100
AcDbLinetypeTableRecord
  2
BYBLOCK
 70
     0
  3

 72
    65
 73
     0
 40
0.0
  0
LTYPE
  5
13
330
5
100
AcDbSymbolTableRecord
100
AcDbLinetypeTableRecord
  2
BYLAYER
 70
     0
  3

 72
    65
 73
     0
 40
0.0
  0
LTYPE
  5
14
330
5
100
AcDbSymbolTableRecord
100
AcDbLinetypeTableRecord
  2
CONTINUOUS
 70
     0
  3
Solid line
 72
    65
 73
     0
 40
0.0
  0
LTYPE
  5
15A
330
5
100
AcDbSymbolTableRecord
100
AcDbLinetypeTableRecord
  2
HIDDEN2
 70
     0
  3
_ _ _ _ _ _ _ _ _ _ _ _ _ _ _ _ _ _ _ _ _ _ _ _
 72
    65
 73
     2
 40
0.1875
 49
0.125
 74
     0
 49
-0.0625
 74
     0
  0
ENDTAB
  0
TABLE
  2
LAYER
  5
2
330
0
100
AcDbSymbolTable
 70
     5
  0
LAYER
  5
F
330
2
100
AcDbSymbolTableRecord
100
AcDbLayerTableRecord
  2
0
 70
     0
 62
     7
  6
CONTINUOUS
  0
LAYER
  5
15E
330
2
100
AcDbSymbolTableRecord
100
AcDbLayerTableRecord
  2
ADP1DETAIL
 70
     0
 62
     7
  6
CONTINUOUS
  0
LAYER
  5
160
330
2
100
AcDbSymbolTableRecord
100
AcDbLayerTableRecord
  2
DEFPOINTS
 70
     0
 62
     7
  6
CONTINUOUS
  0
LAYER
  5
161
330
2
100
AcDbSymbolTableRecord
100
AcDbLayerTableRecord
  2
ADP2DETAIL
 70
     0
 62
     5
  6
CONTINUOUS
  0
LAYER
  5
162
330
2
100
AcDbSymbolTableRecord
100
AcDbLayerTableRecord
  2
ADPDIM
 70
     0
 62
     3
  6
CONTINUOUS
  0
ENDTAB
  0
TABLE
  2
STYLE
  5
3
330
0
100
AcDbSymbolTable
 70
     2
  0
STYLE
  5
10
330
3
100
AcDbSymbolTableRecord
100
AcDbTextStyleTableRecord
  2
STANDARD
 70
     0
 40
0.0
 41
1.0
 50
0.0
 71
     0
 42
0.2
  3
txt
  4

  0
STYLE
  5
1E0
330
3
100
AcDbSymbolTableRecord
100
AcDbTextStyleTableRecord
  2
ARIAL_WIDE
 70
     0
 40
0.0
 41
1.25
 50
0.0
 71
     0
 42
0.2
  3
ARIAL.TTF
  4

1001
ACAD
1000
Arial
1071
       34
  0
ENDTAB
  0
TABLE
  2
VIEW
  5
6
330
0
100
AcDbSymbolTable
 70
     0
  0
ENDTAB
  0
TABLE
  2
UCS
  5
7
330
0
100
AcDbSymbolTable
 70
     0
  0
ENDTAB
  0
TABLE
  2
APPID
  5
9
330
0
100
AcDbSymbolTable
 70
     1
  0
APPID
  5
11
330
9
100
AcDbSymbolTableRecord
100
AcDbRegAppTableRecord
  2
ACAD
 70
     0
  0
ENDTAB
  0
TABLE
  2
DIMSTYLE
  5
A
330
0
100
AcDbSymbolTable
 70
     1
  0
DIMSTYLE
105
1D4
330
A
100
AcDbSymbolTableRecord
100
AcDbDimStyleTableRecord
  2
STANDARD
 70
     0
  3

  4

  5

  6

  7

 40
1.0
 41
0.18
 42
0.0625
 43
0.38
 44
0.18
 45
0.0
 46
0.0
 47
0.0
 48
0.0
140
0.18
141
0.09
142
0.0
143
25.4
144
1.0
145
0.0
146
1.0
147
0.09
 71
     0
 72
     0
 73
     1
 74
     1
 75
     0
 76
     0
 77
     0
 78
     0
170
     0
171
     2
172
     0
173
     0
174
     0
175
     0
176
     0
177
     0
178
     0
270
     2
271
     4
272
     4
273
     2
274
     2
340
10
275
     0
280
     0
281
     0
282
     0
283
     1
284
     0
285
     0
286
     0
287
     3
288
     0
  0
ENDTAB
  0
TABLE
  2
BLOCK_RECORD
  5
1
330
0
100
AcDbSymbolTable
 70
     5
  0
BLOCK_RECORD
  5
18
102
{ACAD_XDICTIONARY
360
235
102
}
330
1
100
AcDbSymbolTableRecord
100
AcDbBlockTableRecord
  2
*MODEL_SPACE
  0
BLOCK_RECORD
  5
15
102
{ACAD_XDICTIONARY
360
233
102
}
330
1
100
AcDbSymbolTableRecord
100
AcDbBlockTableRecord
  2
*PAPER_SPACE
  0
BLOCK_RECORD
  5
154
330
1
100
AcDbSymbolTableRecord
100
AcDbBlockTableRecord
  2
*D0
  0
BLOCK_RECORD
  5
155
330
1
100
AcDbSymbolTableRecord
100
AcDbBlockTableRecord
  2
*D1
  0
BLOCK_RECORD
  5
156
330
1
100
AcDbSymbolTableRecord
100
AcDbBlockTableRecord
  2
*D2
  0
BLOCK_RECORD
  5
157
330
1
100
AcDbSymbolTableRecord
100
AcDbBlockTableRecord
  2
*D3
  0
BLOCK_RECORD
  5
158
330
1
100
AcDbSymbolTableRecord
100
AcDbBlockTableRecord
  2
*D4
  0
ENDTAB
  0
ENDSEC
  0
SECTION
  2
BLOCKS
  0
BLOCK
  5
165
330
18
100
AcDbEntity
  8
0
100
AcDbBlockBegin
  2
*MODEL_SPACE
 70
     0
 10
0.0
 20
0.0
 30
0.0
  3
*MODEL_SPACE
  1

  0
ENDBLK
  5
166
330
18
100
AcDbEntity
  8
0
100
AcDbBlockEnd
  0
BLOCK
  5
163
330
15
100
AcDbEntity
 67
     1
  8
0
100
AcDbBlockBegin
  2
*PAPER_SPACE
 70
     0
 10
0.0
 20
0.0
 30
0.0
  3
*PAPER_SPACE
  1

  0
ENDBLK
  5
164
330
15
100
AcDbEntity
 67
     1
  8
0
100
AcDbBlockEnd
  0
BLOCK
  5
168
330
154
100
AcDbEntity
  8
0
100
AcDbBlockBegin
  2
*D0
 70
     1
 10
0.0
 20
0.0
 30
0.0
  3
*D0
  1

  0
LINE
  5
169
330
154
100
AcDbEntity
  8
0
  6
BYBLOCK
 62
     0
100
AcDbLine
 10
-21.31396950979258
 20
22.08924217794965
 30
0.0
 11
-21.31396950979258
 21
22.4809423887551
 31
0.0
  0
LINE
  5
16A
330
154
100
AcDbEntity
  8
0
  6
BYBLOCK
 62
     0
100
AcDbLine
 10
-18.18896950979258
 20
22.08924217794965
 30
0.0
 11
-18.18896950979258
 21
22.4809423887551
 31
0.0
  0
LINE
  5
16B
330
154
100
AcDbEntity
  8
0
  6
BYBLOCK
 62
     0
100
AcDbLine
 10
-21.31396950979258
 20
22.30094238875511
 30
0.0
 11
-20.14730284312592
 21
22.30094238875511
 31
0.0
  0
LINE
  5
16C
330
154
100
AcDbEntity
  8
0
  6
BYBLOCK
 62
     0
100
AcDbLine
 10
-18.18896950979258
 20
22.30094238875511
 30
0.0
 11
-19.35563617645925
 21
22.30094238875511
 31
0.0
  0
LINE
  5
16D
330
154
100
AcDbEntity
  8
0
  6
BYBLOCK
 62
     0
100
AcDbLine
 10
-21.43896950979259
 20
22.1759423887551
 30
0.0
 11
-21.18896950979258
 21
22.42594238875511
 31
0.0
  0
LINE
  5
16E
330
154
100
AcDbEntity
  8
0
  6
BYBLOCK
 62
     0
100
AcDbLine
 10
-18.31396950979258
 20
22.1759423887551
 30
0.0
 11
-18.06396950979259
 21
22.42594238875511
 31
0.0
  0
TEXT
  5
16F
330
154
100
AcDbEntity
  8
0
  6
BYBLOCK
 62
     0
100
AcDbText
 10
-20.02230284312592
 20
22.23844238875511
 30
0.0
 40
0.125
  1
3 1/8
 72
     1
 11
-19.75146950979258
 21
22.30094238875511
 31
0.0
100
AcDbText
 73
     2
  0
POINT
  5
170
330
154
100
AcDbEntity
  8
DEFPOINTS
  6
BYBLOCK
 62
     0
100
AcDbPoint
 10
-21.31396950979258
 20
22.02674217794965
 30
0.0
  0
POINT
  5
171
330
154
100
AcDbEntity
  8
DEFPOINTS
  6
BYBLOCK
 62
     0
100
AcDbPoint
 10
-18.18896950979258
 20
22.02674217794965
 30
0.0
  0
POINT
  5
172
330
154
100
AcDbEntity
  8
DEFPOINTS
  6
BYBLOCK
 62
     0
100
AcDbPoint
 10
-18.18896950979258
 20
22.30094238875511
 30
0.0
  0
ENDBLK
  5
173
330
154
100
AcDbEntity
  8
0
100
AcDbBlockEnd
  0
BLOCK
  5
174
330
155
100
AcDbEntity
  8
0
100
AcDbBlockBegin
  2
*D1
 70
     1
 10
0.0
 20
0.0
 30
0.0
  3
*D1
  1

  0
LINE
  5
175
330
155
100
AcDbEntity
  8
0
  6
BYBLOCK
 62
     0
100
AcDbLine
 10
-15.6059828617127
 20
22.224930604952
 30
0.0
 11
-15.6059828617127
 21
22.52843060495199
 31
0.0
  0
LINE
  5
176
330
155
100
AcDbEntity
  8
0
  6
BYBLOCK
 62
     0
100
AcDbLine
 10
-14.2309828617127
 20
22.224930604952
 30
0.0
 11
-14.2309828617127
 21
22.52843060495199
 31
0.0
  0
LINE
  5
177
330
155
100
AcDbEntity
  8
0
  6
BYBLOCK
 62
     0
100
AcDbLine
 10
-15.6059828617127
 20
22.348430604952
 30
0.0
 11
-15.31431619504604
 21
22.348430604952
 31
0.0
  0
LINE
  5
178
330
155
100
AcDbEntity
  8
0
  6
BYBLOCK
 62
     0
100
AcDbLine
 10
-14.2309828617127
 20
22.348430604952
 30
0.0
 11
-14.52264952837937
 21
22.348430604952
 31
0.0
  0
LINE
  5
179
330
155
100
AcDbEntity
  8
0
  6
BYBLOCK
 62
     0
100
AcDbLine
 10
-15.7309828617127
 20
22.22343060495199
 30
0.0
 11
-15.4809828617127
 21
22.473430604952
 31
0.0
  0
LINE
  5
17A
330
155
100
AcDbEntity
  8
0
  6
BYBLOCK
 62
     0
100
AcDbLine
 10
-14.3559828617127
 20
22.22343060495199
 30
0.0
 11
-14.1059828617127
 21
22.473430604952
 31
0.0
  0
TEXT
  5
17B
330
155
100
AcDbEntity
  8
0
  6
BYBLOCK
 62
     0
100
AcDbText
 10
-15.18931619504604
 20
22.285930604952
 30
0.0
 40
0.125
  1
1 3/8
 72
     1
 11
-14.9184828617127
 21
22.348430604952
 31
0.0
100
AcDbText
 73
     2
  0
POINT
  5
17C
330
155
100
AcDbEntity
  8
DEFPOINTS
  6
BYBLOCK
 62
     0
100
AcDbPoint
 10
-15.6059828617127
 20
22.16243060495199
 30
0.0
  0
POINT
  5
17D
330
155
100
AcDbEntity
  8
DEFPOINTS
  6
BYBLOCK
 62
     0
100
AcDbPoint
 10
-14.2309828617127
 20
22.16243060495199
 30
0.0
  0
POINT
  5
17E
330
155
100
AcDbEntity
  8
DEFPOINTS
  6
BYBLOCK
 62
     0
100
AcDbPoint
 10
-14.2309828617127
 20
22.348430604952
 30
0.0
  0
ENDBLK
  5
17F
330
155
100
AcDbEntity
  8
0
100
AcDbBlockEnd
  0
BLOCK
  5
180
330
156
100
AcDbEntity
  8
0
100
AcDbBlockBegin
  2
*D2
 70
     1
 10
0.0
 20
0.0
 30
0.0
  3
*D2
  1

  0
LINE
  5
181
330
156
100
AcDbEntity
  8
0
  6
BYBLOCK
 62
     0
100
AcDbLine
 10
-15.89341722482611
 20
22.10065408086518
 30
0.0
 11
-15.89341722482611
 21
22.8219423887551
 31
0.0
  0
LINE
  5
182
330
156
100
AcDbEntity
  8
0
  6
BYBLOCK
 62
     0
100
AcDbLine
 10
-13.89735364840937
 20
22.10065408086518
 30
0.0
 11
-13.89735364840937
 21
22.8219423887551
 31
0.0
  0
LINE
  5
183
330
156
100
AcDbEntity
  8
0
  6
BYBLOCK
 62
     0
100
AcDbLine
 10
-15.89341722482611
 20
22.6419423887551
 30
0.0
 11
-15.06205210328441
 21
22.6419423887551
 31
0.0
  0
LINE
  5
184
330
156
100
AcDbEntity
  8
0
  6
BYBLOCK
 62
     0
100
AcDbLine
 10
-13.89735364840937
 20
22.6419423887551
 30
0.0
 11
-14.72871876995107
 21
22.6419423887551
 31
0.0
  0
LINE
  5
185
330
156
100
AcDbEntity
  8
0
  6
BYBLOCK
 62
     0
100
AcDbLine
 10
-16.01841722482611
 20
22.51694238875511
 30
0.0
 11
-15.76841722482611
 21
22.7669423887551
 31
0.0
  0
LINE
  5
186
330
156
100
AcDbEntity
  8
0
  6
BYBLOCK
 62
     0
100
AcDbLine
 10
-14.02235364840937
 20
22.51694238875511
 30
0.0
 11
-13.77235364840937
 21
22.7669423887551
 31
0.0
  0
TEXT
  5
187
330
156
100
AcDbEntity
  8
0
  6
BYBLOCK
 62
     0
100
AcDbText
 10
-14.93705210328441
 20
22.57944238875511
 30
0.0
 40
0.125
  1
2
 72
     1
 11
-14.89538543661774
 21
22.6419423887551
 31
0.0
100
AcDbText
 73
     2
  0
POINT
  5
188
330
156
100
AcDbEntity
  8
DEFPOINTS
  6
BYBLOCK
 62
     0
100
AcDbPoint
 10
-15.89341722482611
 20
22.03815408086518
 30
0.0
  0
POINT
  5
189
330
156
100
AcDbEntity
  8
DEFPOINTS
  6
BYBLOCK
 62
     0
100
AcDbPoint
 10
-13.89735364840937
 20
22.03815408086518
 30
0.0
  0
POINT
  5
18A
330
156
100
AcDbEntity
  8
DEFPOINTS
  6
BYBLOCK
 62
     0
100
AcDbPoint
 10
-13.89735364840937
 20
22.6419423887551
 30
0.0
  0
ENDBLK
  5
18B
330
156
100
AcDbEntity
  8
0
100
AcDbBlockEnd
  0
BLOCK
  5
18C
330
157
100
AcDbEntity
  8
0
100
AcDbBlockBegin
  2
*D3
 70
     1
 10
0.0
 20
0.0
 30
0.0
  3
*D3
  1

  0
LINE
  5
18D
330
157
100
AcDbEntity
  8
0
  6
BYBLOCK
 62
     0
100
AcDbLine
 10
-16.40702853035066
 20
19.03577978856483
 30
0.0
 11
-16.60840103825002
 21
18.88762745796446
 31
0.0
  0
LINE
  5
18E
330
157
100
AcDbEntity
  8
0
  6
BYBLOCK
 62
     0
100
AcDbLine
 10
-16.43363861900015
 20
18.86101736931497
 30
0.0
 11
-16.38041844170117
 21
19.2105422078147
 31
0.0
  0
LINE
  5
18F
330
157
100
AcDbEntity
  8
0
  6
BYBLOCK
 62
     0
100
AcDbLine
 10
-15.07908252349003
 20
20.15071280577511
 30
0.0
 11
-14.70408252349003
 21
20.15071280577511
 31
0.0
  0
LINE
  5
190
330
157
100
AcDbEntity
  8
0
  6
BYBLOCK
 62
     0
100
AcDbLine
 10
-14.89158252349003
 20
19.96321280577511
 30
0.0
 11
-14.89158252349003
 21
20.33821280577511
 31
0.0
  0
TEXT
  5
191
330
157
100
AcDbEntity
  8
0
  6
BYBLOCK
 62
     0
100
AcDbText
 10
-17.24260464859779
 20
18.34344322898837
 30
0.0
 40
0.125
  1
%%c3 3/4
 50
36.34239310245206
 72
     1
 11
-16.99436501172379
 21
18.60366882431374
 31
0.0
100
AcDbText
 73
     2
  0
POINT
  5
192
330
157
100
AcDbEntity
  8
DEFPOINTS
  6
BYBLOCK
 62
     0
100
AcDbPoint
 10
-16.40702853035066
 20
19.03577978856483
 30
0.0
  0
POINT
  5
193
330
157
100
AcDbEntity
  8
DEFPOINTS
  6
BYBLOCK
 62
     0
100
AcDbPoint
 10
-13.3761365166294
 20
21.26564582298539
 30
0.0
  0
ENDBLK
  5
194
330
157
100
AcDbEntity
  8
0
100
AcDbBlockEnd
  0
BLOCK
  5
195
330
158
100
AcDbEntity
  8
0
100
AcDbBlockBegin
  2
*D4
 70
     1
 10
0.0
 20
0.0
 30
0.0
  3
*D4
  1

  0
LINE
  5
196
330
158
100
AcDbEntity
  8
0
  6
BYBLOCK
 62
     0
100
AcDbLine
 10
-14.73908252349003
 20
20.15071280577511
 30
0.0
 11
-12.38907925166983
 21
20.15071280577511
 31
0.0
  0
LINE
  5
197
330
158
100
AcDbEntity
  8
0
  6
BYBLOCK
 62
     0
100
AcDbLine
 10
-13.83485364840937
 20
22.03815408086518
 30
0.0
 11
-12.38907925166983
 21
22.03815408086518
 31
0.0
  0
LINE
  5
198
330
158
100
AcDbEntity
  8
0
  6
BYBLOCK
 62
     0
100
AcDbLine
 10
-12.56907925166983
 20
20.15071280577511
 30
0.0
 11
-12.56907925166983
 21
20.69860010998681
 31
0.0
  0
LINE
  5
199
330
158
100
AcDbEntity
  8
0
  6
BYBLOCK
 62
     0
100
AcDbLine
 10
-12.56907925166983
 20
22.03815408086518
 30
0.0
 11
-12.56907925166983
 21
21.49026677665348
 31
0.0
  0
LINE
  5
19A
330
158
100
AcDbEntity
  8
0
  6
BYBLOCK
 62
     0
100
AcDbLine
 10
-12.44407925166983
 20
20.02571280577511
 30
0.0
 11
-12.69407925166983
 21
20.27571280577511
 31
0.0
  0
LINE
  5
19B
330
158
100
AcDbEntity
  8
0
  6
BYBLOCK
 62
     0
100
AcDbLine
 10
-12.44407925166983
 20
21.91315408086518
 30
0.0
 11
-12.69407925166983
 21
22.16315408086518
 31
0.0
  0
TEXT
  5
19C
330
158
100
AcDbEntity
  8
0
  6
BYBLOCK
 62
     0
100
AcDbText
 10
-12.50657925166983
 20
20.82360010998681
 30
0.0
 40
0.125
  1
1 7/8
 50
90.0
 72
     1
 11
-12.56907925166983
 21
21.09443344332015
 31
0.0
100
AcDbText
 73
     2
  0
POINT
  5
19D
330
158
100
AcDbEntity
  8
DEFPOINTS
  6
BYBLOCK
 62
     0
100
AcDbPoint
 10
-14.80158252349003
 20
20.15071280577511
 30
0.0
  0
POINT
  5
19E
330
158
100
AcDbEntity
  8
DEFPOINTS
  6
BYBLOCK
 62
     0
100
AcDbPoint
 10
-13.89735364840937
 20
22.03815408086518
 30
0.0
  0
POINT
  5
19F
330
158
100
AcDbEntity
  8
DEFPOINTS
  6
BYBLOCK
 62
     0
100
AcDbPoint
 10
-12.56907925166983
 20
22.03815408086518
 30
0.0
  0
ENDBLK
  5
1A0
330
158
100
AcDbEntity
  8
0
100
AcDbBlockEnd
  0
ENDSEC
  0
SECTION
  2
ENTITIES
  0
LINE
  5
1A1
330
18
100
AcDbEntity
  8
ADP1DETAIL
100
AcDbLine
 10
-18.7932351838492
 20
19.71424217794965
 30
0.0
 11
-20.82084793876762
 21
19.65843388909149
 31
0.0
  0
LINE
  5
1A2
330
18
100
AcDbEntity
  8
ADP1DETAIL
100
AcDbLine
 10
-20.82313483695623
 20
20.6407083618457
 30
0.0
 11
-19.0122351838492
 21
20.55774217794965
 31
0.0
  0
DIMENSION
  5
1A3
330
18
100
AcDbEntity
  8
ADPDIM
100
AcDbDimension
  2
*D0
 10
-18.18896950979258
 20
22.30094238875511
 30
0.0
 11
-19.75146950979258
 21
22.30094238875511
 31
0.0
100
AcDbAlignedDimension
 13
-21.31396950979258
 23
22.02674217794965
 33
0.0
 14
-18.18896950979258
 24
22.02674217794965
 34
0.0
100
AcDbRotatedDimension
  0
LINE
  5
1A4
330
18
100
AcDbEntity
  8
ADP1DETAIL
100
AcDbLine
 10
-21.31396950979258
 20
18.27674217794965
 30
0.0
 11
-21.31396950979258
 21
22.02674217794965
 31
0.0
  0
LINE
  5
1A5
330
18
100
AcDbEntity
  8
ADP1DETAIL
100
AcDbLine
 10
-21.0728777833425
 20
21.90994101429077
 30
0.0
 11
-21.0728777833425
 21
18.39878759647015
 31
0.0
  0
ARC
  5
1A6
330
18
100
AcDbEntity
  8
ADP1DETAIL
100
AcDbCircle
 10
-20.81396950979259
 20
19.40852853257659
 30
0.0
 40
0.25
100
AcDbArc
 50
91.5766187604145
 51
180.0
  0
LINE
  5
1A7
330
18
100
AcDbEntity
  8
ADP1DETAIL
100
AcDbLine
 10
-21.18896950979258
 20
18.27674217794965
 30
0.0
 11
-21.31396950979258
 21
18.27674217794965
 31
0.0
  0
ARC
  5
1A8
330
18
100
AcDbEntity
  8
ADP1DETAIL
100
AcDbCircle
 10
-21.18298686901659
 20
18.38728833062904
 30
0.0
 40
0.1107079214097603
100
AcDbArc
 50
266.9022350052179
 51
5.962084054173027
  0
ARC
  5
1A9
330
18
100
AcDbEntity
  8
ADP1DETAIL
100
AcDbCircle
 10
-20.77753322314185
 20
20.93597050822082
 30
0.0
 40
0.29876285288589
100
AcDbArc
 50
188.6754878693441
 51
261.2203508494926
  0
LINE
  5
1AA
330
18
100
AcDbEntity
  8
ADP1DETAIL
100
AcDbLine
 10
-21.31396950979258
 20
22.02674217794965
 30
0.0
 11
-21.18896950979258
 21
22.02674217794965
 31
0.0
  0
ARC
  5
1AB
330
18
100
AcDbEntity
  8
ADP1DETAIL
100
AcDbCircle
 10
-21.18318629787408
 20
21.91570408659737
 30
0.0
 40
0.1111885932605136
100
AcDbArc
 50
352.7863485952821
 51
92.9814498955298
  0
ARC
  5
1AC
330
18
100
AcDbEntity
  8
ADP1DETAIL
100
AcDbCircle
 10
-14.89158252349002
 20
20.15071280577511
 30
0.0
 40
1.881396351802415
100
AcDbArc
 50
116.0605307308419
 51
64.45075843408318
  0
LINE
  5
1AD
330
18
100
AcDbEntity
  8
ADP1DETAIL
100
AcDbLine
 10
-15.89341722482611
 20
22.03815408086518
 30
0.0
 11
-13.89341722482611
 21
22.03815408086518
 31
0.0
  0
LINE
  5
1AE
330
18
100
AcDbEntity
  8
ADP1DETAIL
100
AcDbLine
 10
-13.89735364840937
 20
22.03815408086518
 30
0.0
 11
-15.89341722482611
 21
22.03815408086518
 31
0.0
  0
LINE
  5
1AF
330
18
100
AcDbEntity
  8
ADP1DETAIL
100
AcDbLine
 10
-13.95541722482611
 20
21.85015408086519
 30
0.0
 11
-15.83141722482611
 21
21.85015408086518
 31
0.0
  0
ARC
  5
1B0
330
18
100
AcDbEntity
  8
ADP1DETAIL
100
AcDbCircle
 10
-14.8911090903927
 20
20.14694753480618
 30
0.0
 40
0.375
100
AcDbArc
 50
171.2355192817106
 51
8.764480718289892
  0
DIMENSION
  5
1B1
330
18
100
AcDbEntity
  8
ADPDIM
100
AcDbDimension
  2
*D3
 10
-13.3761365166294
 20
21.26564582298539
 30
0.0
 11
-16.99436501172379
 21
18.60366882431374
 31
0.0
 70
     3
100
AcDbDiametricDimension
 15
-16.40702853035066
 25
19.03577978856483
 35
0.0
 40
0.0
  0
DIMENSION
  5
1B2
330
18
100
AcDbEntity
  8
ADPDIM
100
AcDbDimension
  2
*D2
 10
-13.89735364840937
 20
22.6419423887551
 30
0.0
 11
-14.89538543661774
 21
22.6419423887551
 31
0.0
100
AcDbAlignedDimension
 13
-15.89341722482611
 23
22.03815408086518
 33
0.0
 14
-13.89735364840937
 24
22.03815408086518
 34
0.0
100
AcDbRotatedDimension
  0
DIMENSION
  5
1B3
330
18
100
AcDbEntity
  8
ADPDIM
100
AcDbDimension
  2
*D1
 10
-14.2309828617127
 20
22.348430604952
 30
0.0
 11
-14.9184828617127
 21
22.348430604952
 31
0.0
100
AcDbAlignedDimension
 13
-15.6059828617127
 23
22.16243060495199
 33
0.0
 14
-14.2309828617127
 24
22.16243060495199
 34
0.0
100
AcDbRotatedDimension
  0
ARC
  5
1B4
330
18
100
AcDbEntity
  8
ADP1DETAIL
100
AcDbCircle
 10
-18.7932351838492
 20
20.71424217794965
 30
0.0
 40
1.0
100
AcDbArc
 50
270.0
 51
0.0
  0
LINE
  5
1B5
330
18
100
AcDbEntity
  8
ADP1DETAIL
100
AcDbLine
 10
-17.72021950979258
 20
21.83874217794965
 30
0.0
 11
-18.65771950979258
 21
21.83874217794965
 31
0.0
  0
LINE
  5
1B6
330
18
100
AcDbEntity
  8
ADP1DETAIL
100
AcDbLine
 10
-18.65771950979258
 20
22.02674217794965
 30
0.0
 11
-17.72021950979258
 21
22.02674217794965
 31
0.0
  0
ARC
  5
1B7
330
18
100
AcDbEntity
  8
ADP1DETAIL
100
AcDbCircle
 10
-19.0122351838492
 20
21.05774217794965
 30
0.0
 40
0.5
100
AcDbArc
 50
270.0
 51
0.0
  0
LINE
  5
1B8
330
18
100
AcDbEntity
  8
ADP1DETAIL
100
AcDbLine
 10
-18.65771950979258
 20
21.83874217794965
 30
0.0
 11
-18.65771950979258
 21
22.02674217794965
 31
0.0
  0
LINE
  5
1B9
330
18
100
AcDbEntity
  8
ADP1DETAIL
100
AcDbLine
 10
-17.88035816647309
 20
21.83849492796559
 30
0.0
 11
-17.7932351838492
 21
20.71424217794965
 31
0.0
  0
LINE
  5
1BA
330
18
100
AcDbEntity
  8
ADP1DETAIL
100
AcDbLine
 10
-18.5122351838492
 20
21.05774217794965
 30
0.0
 11
-18.50599624392505
 21
21.84468599246301
 31
0.0
  0
LINE
  5
1BB
330
18
100
AcDbEntity
  8
ADP2DETAIL
  6
HIDDEN2
100
AcDbLine
 10
-18.09174975706876
 20
21.97051944981978
 30
0.0
 11
-17.9660716741014
 21
21.83752043233925
 31
0.0
  0
LINE
  5
1BC
330
18
100
AcDbEntity
  8
ADP2DETAIL
  6
HIDDEN2
100
AcDbLine
 10
-18.09174975706876
 20
22.03332454053234
 30
0.0
 11
-18.09174975706876
 21
21.97051944981978
 31
0.0
  0
LINE
  5
1BD
330
18
100
AcDbEntity
  8
ADP2DETAIL
  6
HIDDEN2
100
AcDbLine
 10
-18.30614175739393
 20
22.03701895856004
 30
0.0
 11
-18.30614175739393
 21
21.97051944981978
 31
0.0
  0
LINE
  5
1BE
330
18
100
AcDbEntity
  8
ADP2DETAIL
  6
HIDDEN2
100
AcDbLine
 10
-18.30614175739393
 20
21.97051944981978
 30
0.0
 11
-18.40224852672191
 21
21.84490926839465
 31
0.0
  0
LINE
  5
1BF
330
18
100
AcDbEntity
  8
ADP2DETAIL
  6
HIDDEN2
100
AcDbLine
 10
-18.31353458580378
 20
21.97051944981978
 30
0.0
 11
-18.09174975706876
 21
21.97051944981978
 31
0.0
  0
LINE
  5
1C0
330
18
100
AcDbEntity
  8
ADP1DETAIL
100
AcDbLine
 10
-17.72021950979258
 20
22.02674217794965
 30
0.0
 11
-17.72021950979258
 21
21.83874217794965
 31
0.0
  0
LINE
  5
1C1
330
18
100
AcDbEntity
  8
ADP1DETAIL
100
AcDbLine
 10
-15.26173022732282
 20
20.20408747583363
 30
0.0
 11
-15.15142029258656
 21
21.71660932615419
 31
0.0
  0
LINE
  5
1C2
330
18
100
AcDbEntity
  8
ADP2DETAIL
  6
HIDDEN2
100
AcDbLine
 10
-15.71687527608021
 20
21.982430604952
 30
0.0
 11
-15.49509044734519
 21
21.982430604952
 31
0.0
  0
ARC
  5
1C3
330
18
100
AcDbEntity
  8
ADP1DETAIL
100
AcDbCircle
 10
-15.83141722482611
 20
21.91215408086518
 30
0.0
 40
0.062
100
AcDbArc
 50
180.0
 51
270.0
  0
LINE
  5
1C4
330
18
100
AcDbEntity
  8
ADP1DETAIL
100
AcDbLine
 10
-15.89341722482611
 20
21.91215408086518
 30
0.0
 11
-15.89341722482611
 21
22.03815408086518
 31
0.0
  0
LINE
  5
1C5
330
18
100
AcDbEntity
  8
ADP2DETAIL
  6
HIDDEN2
100
AcDbLine
 10
-15.70948244767037
 20
22.04893011369226
 30
0.0
 11
-15.70948244767037
 21
21.982430604952
 31
0.0
  0
LINE
  5
1C6
330
18
100
AcDbEntity
  8
ADP2DETAIL
  6
HIDDEN2
100
AcDbLine
 10
-15.70948244767037
 20
21.982430604952
 30
0.0
 11
-15.80558921699834
 21
21.85682042352687
 31
0.0
  0
ARC
  5
1C7
330
18
100
AcDbEntity
  8
ADP1DETAIL
100
AcDbCircle
 10
-15.2760548531468
 20
21.72616057287677
 30
0.0
 40
0.125
100
AcDbArc
 50
355.6177596408554
 51
90.0
  0
LINE
  5
1C8
330
18
100
AcDbEntity
  8
ADP2DETAIL
  6
HIDDEN2
100
AcDbLine
 10
-15.49509044734519
 20
22.04523569566456
 30
0.0
 11
-15.49509044734519
 21
21.982430604952
 31
0.0
  0
LINE
  5
1C9
330
18
100
AcDbEntity
  8
ADP2DETAIL
  6
HIDDEN2
100
AcDbLine
 10
-15.49509044734519
 20
21.982430604952
 30
0.0
 11
-15.36941236437784
 21
21.84943158747147
 31
0.0
  0
DIMENSION
  5
1CA
330
18
100
AcDbEntity
  8
ADPDIM
100
AcDbDimension
  2
*D4
 10
-12.56907925166983
 20
22.03815408086518
 30
0.0
 11
-12.56907925166983
 21
21.09443344332015
 31
0.0
100
AcDbAlignedDimension
 13
-14.80158252349003
 23
20.15071280577511
 33
0.0
 14
-13.89735364840937
 24
22.03815408086518
 34
0.0
 50
90.0
100
AcDbRotatedDimension
  0
LINE
  5
1CB
330
18
100
AcDbEntity
  8
ADP1DETAIL
100
AcDbLine
 10
-14.63079788819884
 20
21.71660932615419
 30
0.0
 11
-14.52048795346257
 21
20.20408747583363
 31
0.0
  0
ARC
  5
1CC
330
18
100
AcDbEntity
  8
ADP1DETAIL
100
AcDbCircle
 10
-14.5061633276386
 20
21.72616057287677
 30
0.0
 40
0.125
100
AcDbArc
 50
90.0
 51
184.3822403591446
  0
ARC
  5
1CD
330
18
100
AcDbEntity
  8
ADP1DETAIL
100
AcDbCircle
 10
-13.95541722482611
 20
21.91215408086519
 30
0.0
 40
0.062
100
AcDbArc
 50
270.0
 51
0.0
  0
LINE
  5
1CE
330
18
100
AcDbEntity
  8
ADP1DETAIL
100
AcDbLine
 10
-13.89341722482611
 20
22.03815408086518
 30
0.0
 11
-13.89341722482611
 21
21.91215408086519
 31
0.0
  0
LINE
  5
1CF
330
18
100
AcDbEntity
  8
ADP2DETAIL
  6
HIDDEN2
100
AcDbLine
 10
-14.11263160538523
 20
22.04523569566456
 30
0.0
 11
-14.11263160538523
 21
21.982430604952
 31
0.0
  0
LINE
  5
1D0
330
18
100
AcDbEntity
  8
ADP2DETAIL
  6
HIDDEN2
100
AcDbLine
 10
-14.3270236057104
 20
22.04893011369226
 30
0.0
 11
-14.3270236057104
 21
21.982430604952
 31
0.0
  0
LINE
  5
1D1
330
18
100
AcDbEntity
  8
ADP2DETAIL
  6
HIDDEN2
100
AcDbLine
 10
-14.33441643412025
 20
21.982430604952
 30
0.0
 11
-14.11263160538523
 21
21.982430604952
 31
0.0
  0
LINE
  5
1D2
330
18
100
AcDbEntity
  8
ADP2DETAIL
  6
HIDDEN2
100
AcDbLine
 10
-14.11263160538523
 20
21.982430604952
 30
0.0
 11
-13.98695352241788
 21
21.84943158747147
 31
0.0
  0
LINE
  5
1D3
330
18
100
AcDbEntity
  8
ADP2DETAIL
  6
HIDDEN2
100
AcDbLine
 10
-14.3270236057104
 20
21.982430604952
 30
0.0
 11
-14.42313037503838
 21
21.85682042352687
 31
0.0
  0
TEXT
  5
1E1
330
18
100
AcDbEntity
  8
ADPDIM
100
AcDbText
 10
-25.21340978714996
 20
16.89653057288282
 30
0.0
 40
0.15625
  1
J U L I U S  B L U M  &  C O . ,  I N C .      ( 8 0 0 )  5 2 6 - 6 2 9 3        W W W . J U L I U S B L U M . C O M        P A R T  N o .  3 0 4
 41
1.25
  7
ARIAL_WIDE
 72
     1
 11
-17.17002536525365
 21
17.05278057288282
 31
0.0
100
AcDbText
 73
     3
  0
ENDSEC
  0
SECTION
  2
OBJECTS
  0
DICTIONARY
  5
C
330
0
100
AcDbDictionary
  3
ACAD_GROUP
350
D
  3
ACAD_LAYOUT
350
1DA
  3
ACAD_MLINESTYLE
350
E
  3
ACAD_PLOTSETTINGS
350
1DB
  3
ACAD_PLOTSTYLENAME
350
1D8
  3
ACDBHEADERROUNDTRIPXREC
350
3B6
  3
ACDBVARIABLEDICTIONARY
350
23B
  0
DICTIONARY
  5
235
330
18
100
AcDbDictionary
280
     1
  3
ACAD_LAYOUTSELFREF
360
3D7
  0
DICTIONARY
  5
233
330
15
100
AcDbDictionary
280
     1
  3
ACAD_LAYOUTSELFREF
360
3D6
  0
DICTIONARY
  5
D
102
{ACAD_REACTORS
330
C
102
}
330
C
100
AcDbDictionary
  0
DICTIONARY
  5
1DA
102
{ACAD_REACTORS
330
C
102
}
330
C
100
AcDbDictionary
  0
DICTIONARY
  5
E
102
{ACAD_REACTORS
330
C
102
}
330
C
100
AcDbDictionary
  3
STANDARD
350
1B
  0
DICTIONARY
  5
1DB
102
{ACAD_REACTORS
330
C
102
}
330
C
100
AcDbDictionary
  0
ACDBDICTIONARYWDFLT
  5
1D8
102
{ACAD_REACTORS
330
C
102
}
330
C
100
AcDbDictionary
281
     1
  3
Normal
350
1D9
100
AcDbDictionaryWithDefault
340
1D9
  0
DICTIONARY
  5
3B6
102
{ACAD_REACTORS
330
C
102
}
330
C
100
AcDbDictionary
  3
CEPSNTYPE
350
3C0
  3
FINGERPRINTGUID
350
3C1
  3
HYPERLINKBASE
350
3B9
  3
INSUNITS
350
3BF
  3
LAYOUTDICT
350
3BB
  3
LWETCUNION
350
3BE
  3
PLOTSETDICT
350
3BC
  3
PLOTSTYLNAMDICT
350
3BD
  3
PSVPSCALE
350
3C3
  3
PUCSBASE
350
3C6
  3
PUCSORGBACK
350
3CC
  3
PUCSORGBOTTOM
350
3C8
  3
PUCSORGFRONT
350
3CB
  3
PUCSORGLEFT
350
3C9
  3
PUCSORGRIGHT
350
3CA
  3
PUCSORGTOP
350
3C7
  3
PUCSORTHOREF
350
3C4
  3
PUCSORTHOVIEW
350
3C5
  3
STYLESHEET
350
3BA
  3
TSTACKALIGN
350
3B7
  3
TSTACKSIZE
350
3B8
  3
UCSBASE
350
3CF
  3
UCSORGBACK
350
3D5
  3
UCSORGBOTTOM
350
3D1
  3
UCSORGFRONT
350
3D4
  3
UCSORGLEFT
350
3D2
  3
UCSORGRIGHT
350
3D3
  3
UCSORGTOP
350
3D0
  3
UCSORTHOREF
350
3CD
  3
UCSORTHOVIEW
350
3CE
  3
VERSIONGUID
350
3C2
  0
DICTIONARY
  5
23B
102
{ACAD_REACTORS
330
C
102
}
330
C
100
AcDbDictionary
  3
DIMASSOC
350
23C
  0
XRECORD
  5
3D7
102
{ACAD_REACTORS
330
235
102
}
330
235
100
AcDbXrecord
340
18
  0
XRECORD
  5
3D6
102
{ACAD_REACTORS
330
233
102
}
330
233
100
AcDbXrecord
340
15
  0
MLINESTYLE
  5
1B
102
{ACAD_REACTORS
330
E
102
}
330
E
100
AcDbMlineStyle
  2
STANDARD
 70
     0
  3

 62
     0
 51
90.0
 52
90.0
 71
     2
 49
0.5
 62
   256
  6
BYLAYER
 49
-0.5
 62
   256
  6
BYLAYER
  0
ACDBPLACEHOLDER
  5
1D9
102
{ACAD_REACTORS
330
1D8
102
}
330
1D8
100
AcDbPlaceHolder
280
     0
  0
XRECORD
  5
3C0
102
{ACAD_REACTORS
330
3B6
102
}
330
3B6
100
AcDbXrecord
 90
        0
  0
XRECORD
  5
3C1
102
{ACAD_REACTORS
330
3B6
102
}
330
3B6
100
AcDbXrecord
  1
{90C98D12-619A-4FD6-89EA-C98A73E0370A}
  0
XRECORD
  5
3B9
102
{ACAD_REACTORS
330
3B6
102
}
330
3B6
100
AcDbXrecord
  1

  0
XRECORD
  5
3BF
102
{ACAD_REACTORS
330
3B6
102
}
330
3B6
100
AcDbXrecord
 90
        0
  0
XRECORD
  5
3BB
102
{ACAD_REACTORS
330
3B6
102
}
330
3B6
100
AcDbXrecord
340
1DA
  0
XRECORD
  5
3BE
102
{ACAD_REACTORS
330
3B6
102
}
330
3B6
100
AcDbXrecord
 90
    14877
  0
XRECORD
  5
3BC
102
{ACAD_REACTORS
330
3B6
102
}
330
3B6
100
AcDbXrecord
340
1DB
  0
XRECORD
  5
3BD
102
{ACAD_REACTORS
330
3B6
102
}
330
3B6
100
AcDbXrecord
340
1D8
  0
XRECORD
  5
3C3
102
{ACAD_REACTORS
330
3B6
102
}
330
3B6
100
AcDbXrecord
 40
0.0
  0
XRECORD
  5
3C6
102
{ACAD_REACTORS
330
3B6
102
}
330
3B6
100
AcDbXrecord
340
0
  0
XRECORD
  5
3CC
102
{ACAD_REACTORS
330
3B6
102
}
330
3B6
100
AcDbXrecord
 10
0.0
 20
0.0
 30
0.0
  0
XRECORD
  5
3C8
102
{ACAD_REACTORS
330
3B6
102
}
330
3B6
100
AcDbXrecord
 10
0.0
 20
0.0
 30
0.0
  0
XRECORD
  5
3CB
102
{ACAD_REACTORS
330
3B6
102
}
330
3B6
100
AcDbXrecord
 10
0.0
 20
0.0
 30
0.0
  0
XRECORD
  5
3C9
102
{ACAD_REACTORS
330
3B6
102
}
330
3B6
100
AcDbXrecord
 10
0.0
 20
0.0
 30
0.0
  0
XRECORD
  5
3CA
102
{ACAD_REACTORS
330
3B6
102
}
330
3B6
100
AcDbXrecord
 10
0.0
 20
0.0
 30
0.0
  0
XRECORD
  5
3C7
102
{ACAD_REACTORS
330
3B6
102
}
330
3B6
100
AcDbXrecord
 10
0.0
 20
0.0
 30
0.0
  0
XRECORD
  5
3C4
102
{ACAD_REACTORS
330
3B6
102
}
330
3B6
100
AcDbXrecord
340
0
  0
XRECORD
  5
3C5
102
{ACAD_REACTORS
330
3B6
102
}
330
3B6
100
AcDbXrecord
 70
     0
  0
XRECORD
  5
3BA
102
{ACAD_REACTORS
330
3B6
102
}
330
3B6
100
AcDbXrecord
  1

  0
XRECORD
  5
3B7
102
{ACAD_REACTORS
330
3B6
102
}
330
3B6
100
AcDbXrecord
 90
        1
  0
XRECORD
  5
3B8
102
{ACAD_REACTORS
330
3B6
102
}
330
3B6
100
AcDbXrecord
 90
       70
  0
XRECORD
  5
3CF
102
{ACAD_REACTORS
330
3B6
102
}
330
3B6
100
AcDbXrecord
340
0
  0
XRECORD
  5
3D5
102
{ACAD_REACTORS
330
3B6
102
}
330
3B6
100
AcDbXrecord
 10
0.0
 20
0.0
 30
0.0
  0
XRECORD
  5
3D1
102
{ACAD_REACTORS
330
3B6
102
}
330
3B6
100
AcDbXrecord
 10
0.0
 20
0.0
 30
0.0
  0
XRECORD
  5
3D4
102
{ACAD_REACTORS
330
3B6
102
}
330
3B6
100
AcDbXrecord
 10
0.0
 20
0.0
 30
0.0
  0
XRECORD
  5
3D2
102
{ACAD_REACTORS
330
3B6
102
}
330
3B6
100
AcDbXrecord
 10
0.0
 20
0.0
 30
0.0
  0
XRECORD
  5
3D3
102
{ACAD_REACTORS
330
3B6
102
}
330
3B6
100
AcDbXrecord
 10
0.0
 20
0.0
 30
0.0
  0
XRECORD
  5
3D0
102
{ACAD_REACTORS
330
3B6
102
}
330
3B6
100
AcDbXrecord
 10
0.0
 20
0.0
 30
0.0
  0
XRECORD
  5
3CD
102
{ACAD_REACTORS
330
3B6
102
}
330
3B6
100
AcDbXrecord
340
0
  0
XRECORD
  5
3CE
102
{ACAD_REACTORS
330
3B6
102
}
330
3B6
100
AcDbXrecord
 70
     0
  0
XRECORD
  5
3C2
102
{ACAD_REACTORS
330
3B6
102
}
330
3B6
100
AcDbXrecord
  1
{F143DA5E-90B5-46B8-8056-74AC02D72AC3}
  0
DICTIONARYVAR
  5
23C
102
{ACAD_REACTORS
330
23B
102
}
330
23B
100
DictionaryVariables
280
     0
  1
1
  0
ENDSEC
  0
EOF
