  0
SECTION
  2
HEADER
  9
$ACADVER
  1
AC1014
  9
$ACADMAINTVER
 70
     9
  9
$DWGCODEPAGE
  3
ANSI_1252
  9
$INSBASE
 10
0.0315763333243028
 20
0.5235084375292823
 30
0.0
  9
$EXTMIN
 10
-2.994005677667517
 20
-0.1883990957066089
 30
0.0
  9
$EXTMAX
 10
10.05745237144571
 20
4.402929436648532
 30
0.0
  9
$LIMMIN
 10
0.0
 20
0.0
  9
$LIMMAX
 10
36.0
 20
36.0
  9
$ORTHOMODE
 70
     1
  9
$REGENMODE
 70
     1
  9
$FILLMODE
 70
     1
  9
$QTEXTMODE
 70
     0
  9
$MIRRTEXT
 70
     1
  9
$DRAGMODE
 70
     0
  9
$LTSCALE
 40
1.0
  9
$OSMODE
 70
    37
  9
$ATTMODE
 70
     1
  9
$TEXTSIZE
 40
0.2
  9
$TRACEWID
 40
0.05
  9
$TEXTSTYLE
  7
STANDARD
  9
$CLAYER
  8
ADPDIM
  9
$CELTYPE
  6
BYLAYER
  9
$CECOLOR
 62
   256
  9
$CELTSCALE
 40
1.0
  9
$DELOBJ
 70
     1
  9
$DISPSILH
 70
     0
  9
$DIMSCALE
 40
1.0
  9
$DIMASZ
 40
0.125
  9
$DIMEXO
 40
0.0625
  9
$DIMDLI
 40
0.38
  9
$DIMRND
 40
0.0
  9
$DIMDLE
 40
0.0
  9
$DIMEXE
 40
0.18
  9
$DIMTP
 40
0.0
  9
$DIMTM
 40
0.0
  9
$DIMTXT
 40
0.125
  9
$DIMCEN
 40
0.1875
  9
$DIMTSZ
 40
0.125
  9
$DIMTOL
 70
     0
  9
$DIMLIM
 70
     0
  9
$DIMTIH
 70
     0
  9
$DIMTOH
 70
     0
  9
$DIMSE1
 70
     0
  9
$DIMSE2
 70
     0
  9
$DIMTAD
 70
     0
  9
$DIMZIN
 70
     3
  9
$DIMBLK
  1

  9
$DIMASO
 70
     1
  9
$DIMSHO
 70
     1
  9
$DIMPOST
  1

  9
$DIMAPOST
  1

  9
$DIMALT
 70
     0
  9
$DIMALTD
 70
     1
  9
$DIMALTF
 40
25.4
  9
$DIMLFAC
 40
1.0
  9
$DIMTOFL
 70
     0
  9
$DIMTVP
 40
0.0
  9
$DIMTIX
 70
     0
  9
$DIMSOXD
 70
     0
  9
$DIMSAH
 70
     0
  9
$DIMBLK1
  1

  9
$DIMBLK2
  1

  9
$DIMSTYLE
  2
STANDARD
  9
$DIMCLRD
 70
     0
  9
$DIMCLRE
 70
     0
  9
$DIMCLRT
 70
     0
  9
$DIMTFAC
 40
1.0
  9
$DIMGAP
 40
0.125
  9
$DIMJUST
 70
     0
  9
$DIMSD1
 70
     0
  9
$DIMSD2
 70
     0
  9
$DIMTOLJ
 70
     1
  9
$DIMTZIN
 70
     3
  9
$DIMALTZ
 70
     3
  9
$DIMALTTZ
 70
     3
  9
$DIMFIT
 70
     5
  9
$DIMUPT
 70
     0
  9
$DIMUNIT
 70
     5
  9
$DIMDEC
 70
     5
  9
$DIMTDEC
 70
     5
  9
$DIMALTU
 70
     5
  9
$DIMALTTD
 70
     1
  9
$DIMTXSTY
  7
STANDARD
  9
$DIMAUNIT
 70
     0
  9
$LUNITS
 70
     5
  9
$LUPREC
 70
     5
  9
$SKETCHINC
 40
0.1
  9
$FILLETRAD
 40
0.0
  9
$AUNITS
 70
     0
  9
$AUPREC
 70
     0
  9
$MENU
  1
acad
  9
$ELEVATION
 40
0.0
  9
$PELEVATION
 40
0.0
  9
$THICKNESS
 40
0.0
  9
$LIMCHECK
 70
     0
  9
$BLIPMODE
 70
     0
  9
$CHAMFERA
 40
0.0
  9
$CHAMFERB
 40
0.0
  9
$CHAMFERC
 40
0.0
  9
$CHAMFERD
 40
0.0
  9
$SKPOLY
 70
     0
  9
$TDCREATE
 40
2450415.523548993
  9
$TDUPDATE
 40
2452297.083772233
  9
$TDINDWG
 40
0.0112010069
  9
$TDUSRTIMER
 40
0.0112010069
  9
$USRTIMER
 70
     1
  9
$ANGBASE
 50
0.0
  9
$ANGDIR
 70
     0
  9
$PDMODE
 70
     0
  9
$PDSIZE
 40
0.0
  9
$PLINEWID
 40
0.0
  9
$COORDS
 70
     2
  9
$SPLFRAME
 70
     0
  9
$SPLINETYPE
 70
     6
  9
$SPLINESEGS
 70
     8
  9
$ATTDIA
 70
     0
  9
$ATTREQ
 70
     1
  9
$HANDLING
 70
 22529
  9
$HANDSEED
  5
4D7
  9
$SURFTAB1
 70
     6
  9
$SURFTAB2
 70
     6
  9
$SURFTYPE
 70
     6
  9
$SURFU
 70
     6
  9
$SURFV
 70
     6
  9
$UCSNAME
  2

  9
$UCSORG
 10
0.0
 20
0.0
 30
0.0
  9
$UCSXDIR
 10
1.0
 20
0.0
 30
0.0
  9
$UCSYDIR
 10
0.0
 20
1.0
 30
0.0
  9
$PUCSNAME
  2

  9
$PUCSORG
 10
0.0
 20
0.0
 30
0.0
  9
$PUCSXDIR
 10
1.0
 20
0.0
 30
0.0
  9
$PUCSYDIR
 10
0.0
 20
1.0
 30
0.0
  9
$USERI1
 70
     0
  9
$USERI2
 70
     0
  9
$USERI3
 70
     0
  9
$USERI4
 70
     0
  9
$USERI5
 70
     0
  9
$USERR1
 40
0.0
  9
$USERR2
 40
0.0
  9
$USERR3
 40
0.0
  9
$USERR4
 40
0.0
  9
$USERR5
 40
0.0
  9
$WORLDVIEW
 70
     1
  9
$SHADEDGE
 70
     3
  9
$SHADEDIF
 70
    70
  9
$TILEMODE
 70
     1
  9
$MAXACTVP
 70
    15
  9
$PINSBASE
 10
0.0546881854534149
 20
80.01812949427586
 30
0.0
  9
$PLIMCHECK
 70
     0
  9
$PEXTMIN
 10
1.000000000000000E+20
 20
1.000000000000000E+20
 30
1.000000000000000E+20
  9
$PEXTMAX
 10
-1.000000000000000E+20
 20
-1.000000000000000E+20
 30
-1.000000000000000E+20
  9
$PLIMMIN
 10
0.0
 20
0.0
  9
$PLIMMAX
 10
12.0
 20
9.0
  9
$UNITMODE
 70
     0
  9
$VISRETAIN
 70
     0
  9
$PLINEGEN
 70
     0
  9
$PSLTSCALE
 70
     1
  9
$TREEDEPTH
 70
  3020
  9
$PICKSTYLE
 70
     1
  9
$CMLSTYLE
  2
STANDARD
  9
$CMLJUST
 70
     0
  9
$CMLSCALE
 40
1.0
  9
$PROXYGRAPHICS
 70
     1
  9
$MEASUREMENT
 70
     0
  0
ENDSEC
  0
SECTION
  2
CLASSES
  0
CLASS
  1
ACDBDICTIONARYWDFLT
  2
AcDbDictionaryWithDefault
  3
AutoCAD 2000
 90
        0
280
     0
281
     0
  0
CLASS
  1
ACDBPLACEHOLDER
  2
AcDbPlaceHolder
  3
AutoCAD 2000
 90
        0
280
     0
281
     0
  0
CLASS
  1
LAYOUT
  2
AcDbLayout
  3
AutoCAD 2000
 90
        0
280
     0
281
     0
  0
CLASS
  1
DICTIONARYVAR
  2
AcDbDictionaryVar
  3
AutoCAD 2000
 90
        0
280
     0
281
     0
  0
CLASS
  1
LONG_TRANSACTION
  2
AcDbLongTransaction
  3
AutoCAD 2000
 90
        0
280
     0
281
     0
  0
CLASS
  1
LWPOLYLINE
  2
AcDbPolyline
  3
AutoCAD 2000
 90
        0
280
     0
281
     1
  0
CLASS
  1
HATCH
  2
AcDbHatch
  3
AutoCAD 2000
 90
        0
280
     0
281
     1
  0
CLASS
  1
XRECORD
  2
AcDbXrecord
  3
AutoCAD 2000
 90
        0
280
     0
281
     0
  0
CLASS
  1
LONG_TRANSACTION
  2
AcDbLongTransaction
  3
AutoCAD 2000
 90
        0
280
     0
281
     0
  0
CLASS
  1
LWPOLYLINE
  2
AcDbPolyline
  3
AutoCAD 2000
 90
        0
280
     0
281
     1
  0
CLASS
  1
HATCH
  2
AcDbHatch
  3
AutoCAD 2000
 90
        0
280
     0
281
     1
  0
CLASS
  1
XRECORD
  2
AcDbXrecord
  3
AutoCAD 2000
 90
        0
280
     0
281
     0
  0
CLASS
  1
LONG_TRANSACTION
  2
AcDbLongTransaction
  3
AutoCAD 2000
 90
        0
280
     0
281
     0
  0
CLASS
  1
LWPOLYLINE
  2
AcDbPolyline
  3
AutoCAD 2000
 90
        0
280
     0
281
     1
  0
CLASS
  1
HATCH
  2
AcDbHatch
  3
AutoCAD 2000
 90
        0
280
     0
281
     1
  0
CLASS
  1
XRECORD
  2
AcDbXrecord
  3
AutoCAD 2000
 90
        0
280
     0
281
     0
  0
CLASS
  1
LONG_TRANSACTION
  2
AcDbLongTransaction
  3
AutoCAD 2000
 90
        0
280
     0
281
     0
  0
CLASS
  1
LWPOLYLINE
  2
AcDbPolyline
  3
AutoCAD 2000
 90
        0
280
     0
281
     1
  0
CLASS
  1
HATCH
  2
AcDbHatch
  3
AutoCAD 2000
 90
        0
280
     0
281
     1
  0
CLASS
  1
XRECORD
  2
AcDbXrecord
  3
AutoCAD 2000
 90
        0
280
     0
281
     0
  0
CLASS
  1
LONG_TRANSACTION
  2
AcDbLongTransaction
  3
AutoCAD 2000
 90
        0
280
     0
281
     0
  0
CLASS
  1
LWPOLYLINE
  2
AcDbPolyline
  3
AutoCAD 2000
 90
        0
280
     0
281
     1
  0
CLASS
  1
HATCH
  2
AcDbHatch
  3
AutoCAD 2000
 90
        0
280
     0
281
     1
  0
CLASS
  1
XRECORD
  2
AcDbXrecord
  3
AutoCAD 2000
 90
        0
280
     0
281
     0
  0
CLASS
  1
LONG_TRANSACTION
  2
AcDbLongTransaction
  3
AutoCAD 2000
 90
        0
280
     0
281
     0
  0
CLASS
  1
LWPOLYLINE
  2
AcDbPolyline
  3
AutoCAD 2000
 90
        0
280
     0
281
     1
  0
CLASS
  1
HATCH
  2
AcDbHatch
  3
AutoCAD 2000
 90
        0
280
     0
281
     1
  0
CLASS
  1
XRECORD
  2
AcDbXrecord
  3
AutoCAD 2000
 90
        0
280
     0
281
     0
  0
ENDSEC
  0
SECTION
  2
TABLES
  0
TABLE
  2
VPORT
  5
8
330
0
100
AcDbSymbolTable
 70
     2
  0
VPORT
  5
4B3
330
8
100
AcDbSymbolTableRecord
100
AcDbViewportTableRecord
  2
*ACTIVE
 70
     0
 10
0.0
 20
0.0
 11
1.0
 21
1.0
 12
3.54144931777012
 22
2.107214787516403
 13
0.0
 23
0.0
 14
0.5740882589684922
 24
0.5740882589684922
 15
0.5
 25
0.5
 16
0.0
 26
0.0
 36
1.0
 17
0.0
 27
0.0
 37
0.0
 40
8.36575518757648
 41
1.570528967254408
 42
50.0
 43
0.0
 44
0.0
 50
0.0
 51
0.0
 71
     0
 72
   100
 73
     1
 74
     0
 75
     0
 76
     0
 77
     0
 78
     0
  0
ENDTAB
  0
TABLE
  2
LTYPE
  5
5
330
0
100
AcDbSymbolTable
 70
     1
  0
LTYPE
  5
13
330
5
100
AcDbSymbolTableRecord
100
AcDbLinetypeTableRecord
  2
BYBLOCK
 70
     0
  3

 72
    65
 73
     0
 40
0.0
  0
LTYPE
  5
14
330
5
100
AcDbSymbolTableRecord
100
AcDbLinetypeTableRecord
  2
BYLAYER
 70
     0
  3

 72
    65
 73
     0
 40
0.0
  0
LTYPE
  5
15
330
5
100
AcDbSymbolTableRecord
100
AcDbLinetypeTableRecord
  2
CONTINUOUS
 70
     0
  3
Solid line
 72
    65
 73
     0
 40
0.0
  0
ENDTAB
  0
TABLE
  2
LAYER
  5
2
330
0
100
AcDbSymbolTable
 70
     4
  0
LAYER
  5
10
330
2
100
AcDbSymbolTableRecord
100
AcDbLayerTableRecord
  2
0
 70
     0
 62
     7
  6
CONTINUOUS
  0
LAYER
  5
42
330
2
100
AcDbSymbolTableRecord
100
AcDbLayerTableRecord
  2
ADPDIM
 70
     0
 62
     3
  6
CONTINUOUS
  0
LAYER
  5
44
330
2
100
AcDbSymbolTableRecord
100
AcDbLayerTableRecord
  2
ADP1DETAIL
 70
     0
 62
     7
  6
CONTINUOUS
  0
LAYER
  5
46
330
2
100
AcDbSymbolTableRecord
100
AcDbLayerTableRecord
  2
DEFPOINTS
 70
     0
 62
     7
  6
CONTINUOUS
  0
ENDTAB
  0
TABLE
  2
STYLE
  5
3
330
0
100
AcDbSymbolTable
 70
     2
  0
STYLE
  5
11
330
3
100
AcDbSymbolTableRecord
100
AcDbTextStyleTableRecord
  2
STANDARD
 70
     0
 40
0.0
 41
1.0
 50
0.0
 71
     0
 42
0.2
  3
txt
  4

  0
STYLE
  5
2E6
330
3
100
AcDbSymbolTableRecord
100
AcDbTextStyleTableRecord
  2
ARIAL_WIDE
 70
     0
 40
0.0
 41
1.25
 50
0.0
 71
     0
 42
0.2
  3
ARIAL.TTF
  4

1001
ACAD
1000
Arial
1071
       34
  0
ENDTAB
  0
TABLE
  2
VIEW
  5
6
330
0
100
AcDbSymbolTable
 70
     0
  0
ENDTAB
  0
TABLE
  2
UCS
  5
7
330
0
100
AcDbSymbolTable
 70
     0
  0
ENDTAB
  0
TABLE
  2
APPID
  5
9
330
0
100
AcDbSymbolTable
 70
     1
  0
APPID
  5
12
330
9
100
AcDbSymbolTableRecord
100
AcDbRegAppTableRecord
  2
ACAD
 70
     0
  0
ENDTAB
  0
TABLE
  2
DIMSTYLE
  5
A
330
0
100
AcDbSymbolTable
 70
     1
  0
DIMSTYLE
105
2E4
330
A
100
AcDbSymbolTableRecord
100
AcDbDimStyleTableRecord
  2
STANDARD
 70
     0
  3

  4

  5

  6

  7

 40
1.0
 41
0.18
 42
0.0625
 43
0.38
 44
0.18
 45
0.0
 46
0.0
 47
0.0
 48
0.0
140
0.18
141
0.09
142
0.0
143
25.4
144
1.0
145
0.0
146
1.0
147
0.09
 71
     0
 72
     0
 73
     1
 74
     1
 75
     0
 76
     0
 77
     0
 78
     0
170
     0
171
     2
172
     0
173
     0
174
     0
175
     0
176
     0
177
     0
178
     0
270
     2
271
     4
272
     4
273
     2
274
     2
340
11
275
     0
280
     0
281
     0
282
     0
283
     1
284
     0
285
     0
286
     0
287
     3
288
     0
  0
ENDTAB
  0
TABLE
  2
BLOCK_RECORD
  5
1
330
0
100
AcDbSymbolTable
 70
     2
  0
BLOCK_RECORD
  5
1E
102
{ACAD_XDICTIONARY
360
323
102
}
330
1
100
AcDbSymbolTableRecord
100
AcDbBlockTableRecord
  2
*MODEL_SPACE
  0
BLOCK_RECORD
  5
1A
102
{ACAD_XDICTIONARY
360
325
102
}
330
1
100
AcDbSymbolTableRecord
100
AcDbBlockTableRecord
  2
*PAPER_SPACE
  0
BLOCK_RECORD
  5
3F
330
1
100
AcDbSymbolTableRecord
100
AcDbBlockTableRecord
  2
*D0
  0
BLOCK_RECORD
  5
40
330
1
100
AcDbSymbolTableRecord
100
AcDbBlockTableRecord
  2
*D1
  0
ENDTAB
  0
ENDSEC
  0
SECTION
  2
BLOCKS
  0
BLOCK
  5
49
330
1E
100
AcDbEntity
  8
0
100
AcDbBlockBegin
  2
*MODEL_SPACE
 70
     0
 10
0.0
 20
0.0
 30
0.0
  3
*MODEL_SPACE
  1

  0
ENDBLK
  5
4A
330
1E
100
AcDbEntity
  8
0
100
AcDbBlockEnd
  0
BLOCK
  5
47
330
1A
100
AcDbEntity
 67
     1
  8
0
100
AcDbBlockBegin
  2
*PAPER_SPACE
 70
     0
 10
0.0
 20
0.0
 30
0.0
  3
*PAPER_SPACE
  1

  0
ENDBLK
  5
48
330
1A
100
AcDbEntity
 67
     1
  8
0
100
AcDbBlockEnd
  0
BLOCK
  5
4C
330
3F
100
AcDbEntity
  8
0
100
AcDbBlockBegin
  2
*D0
 70
     1
 10
0.0
 20
0.0
 30
0.0
  3
*D0
  1
*U
  0
LINE
  5
4D
330
3F
100
AcDbEntity
  8
0
  6
BYBLOCK
 62
     0
100
AcDbLine
 10
0.0315763333243027
 20
-0.3821104774616063
 30
0.0
 11
0.0315763333243027
 21
0.3420378122460828
 31
0.0
  0
LINE
  5
4E
330
3F
100
AcDbEntity
  8
0
  6
BYBLOCK
 62
     0
100
AcDbLine
 10
7.788847736934129
 20
-0.3821104774616063
 30
0.0
 11
7.788847736934129
 21
0.3420378122460828
 31
0.0
  0
LINE
  5
4F
330
3F
100
AcDbEntity
  8
0
  6
BYBLOCK
 62
     0
100
AcDbLine
 10
0.0315763333243027
 20
0.1620378122460829
 30
0.0
 11
3.649795368462549
 21
0.1620378122460829
 31
0.0
  0
LINE
  5
50
330
3F
100
AcDbEntity
  8
0
  6
BYBLOCK
 62
     0
100
AcDbLine
 10
7.788847736934129
 20
0.1620378122460829
 30
0.0
 11
4.170628701795882
 21
0.1620378122460829
 31
0.0
  0
LINE
  5
51
330
3F
100
AcDbEntity
  8
0
  6
BYBLOCK
 62
     0
100
AcDbLine
 10
-0.0934236666756973
 20
0.0370378122460829
 30
0.0
 11
0.1565763333243027
 21
0.2870378122460829
 31
0.0
  0
LINE
  5
52
330
3F
100
AcDbEntity
  8
0
  6
BYBLOCK
 62
     0
100
AcDbLine
 10
7.663847736934129
 20
0.0370378122460829
 30
0.0
 11
7.913847736934129
 21
0.2870378122460829
 31
0.0
  0
TEXT
  5
53
330
3F
100
AcDbEntity
  8
0
  6
BYBLOCK
 62
     0
100
AcDbText
 10
3.774795368462549
 20
0.099537812246083
 30
0.0
 40
0.125
  1
120
 72
     1
 11
3.910212035129216
 21
0.1620378122460829
 31
0.0
100
AcDbText
 73
     2
  0
POINT
  5
55
330
3F
100
AcDbEntity
  8
DEFPOINTS
  6
BYBLOCK
 62
     0
100
AcDbPoint
 10
0.0315763333243027
 20
-0.4446104774616063
 30
0.0
  0
POINT
  5
56
330
3F
100
AcDbEntity
  8
DEFPOINTS
  6
BYBLOCK
 62
     0
100
AcDbPoint
 10
7.788847736934129
 20
-0.4446104774616063
 30
0.0
  0
POINT
  5
57
330
3F
100
AcDbEntity
  8
DEFPOINTS
  6
BYBLOCK
 62
     0
100
AcDbPoint
 10
7.788847736934129
 20
0.1620378122460829
 30
0.0
  0
ENDBLK
  5
58
330
3F
100
AcDbEntity
  8
0
100
AcDbBlockEnd
  0
BLOCK
  5
59
330
40
100
AcDbEntity
  8
0
100
AcDbBlockBegin
  2
*D1
 70
     1
 10
0.0
 20
0.0
 30
0.0
  3
*D1
  1
*U
  0
LINE
  5
5A
330
40
100
AcDbEntity
  8
0
  6
BYBLOCK
 62
     0
100
AcDbLine
 10
0.1867099890161422
 20
-3.608813232758484
 30
0.0
 11
-0.4266776541774883
 21
-3.608813232758484
 31
0.0
  0
LINE
  5
5B
330
40
100
AcDbEntity
  8
0
  6
BYBLOCK
 62
     0
100
AcDbLine
 10
0.1867099890161422
 20
-0.3731804315762885
 30
0.0
 11
-0.4266776541774881
 21
-0.3731804315762885
 31
0.0
  0
LINE
  5
5C
330
40
100
AcDbEntity
  8
0
  6
BYBLOCK
 62
     0
100
AcDbLine
 10
-0.2466776541774882
 20
-3.608813232758484
 30
0.0
 11
-0.2466776541774881
 21
-2.38683016550072
 31
0.0
  0
LINE
  5
5D
330
40
100
AcDbEntity
  8
0
  6
BYBLOCK
 62
     0
100
AcDbLine
 10
-0.246677654177488
 20
-0.3731804315762885
 30
0.0
 11
-0.2466776541774881
 21
-1.595163498834053
 31
0.0
  0
LINE
  5
5E
330
40
100
AcDbEntity
  8
0
  6
BYBLOCK
 62
     0
100
AcDbLine
 10
-0.1216776541774882
 20
-3.733813232758484
 30
0.0
 11
-0.3716776541774882
 21
-3.483813232758484
 31
0.0
  0
LINE
  5
5F
330
40
100
AcDbEntity
  8
0
  6
BYBLOCK
 62
     0
100
AcDbLine
 10
-0.121677654177488
 20
-0.4981804315762886
 30
0.0
 11
-0.371677654177488
 21
-0.2481804315762885
 31
0.0
  0
TEXT
  5
60
330
40
100
AcDbEntity
  8
0
  6
BYBLOCK
 62
     0
100
AcDbText
 10
-0.1841776541774881
 20
-2.26183016550072
 30
0.0
 40
0.125
  1
3 1/4
 50
90.0
 72
     1
 11
-0.2466776541774881
 21
-1.990996832167386
 31
0.0
100
AcDbText
 73
     2
  0
POINT
  5
61
330
40
100
AcDbEntity
  8
DEFPOINTS
  6
BYBLOCK
 62
     0
100
AcDbPoint
 10
0.2492099890161422
 20
-3.608813232758484
 30
0.0
  0
POINT
  5
62
330
40
100
AcDbEntity
  8
DEFPOINTS
  6
BYBLOCK
 62
     0
100
AcDbPoint
 10
0.2492099890161422
 20
-0.3731804315762885
 30
0.0
  0
POINT
  5
63
330
40
100
AcDbEntity
  8
DEFPOINTS
  6
BYBLOCK
 62
     0
100
AcDbPoint
 10
-0.246677654177488
 20
-0.3731804315762885
 30
0.0
  0
ENDBLK
  5
64
330
40
100
AcDbEntity
  8
0
100
AcDbBlockEnd
  0
ENDSEC
  0
SECTION
  2
ENTITIES
  0
DIMENSION
  5
65
330
1E
100
AcDbEntity
  8
ADPDIM
100
AcDbDimension
  2
*D0
 10
7.788847736934129
 20
4.222929436648532
 30
0.0
 11
3.910212035129216
 21
4.222929436648532
 31
0.0
 12
0.0
 22
4.060891624402449
 32
0.0
  1
120
100
AcDbAlignedDimension
 13
0.0315763333243027
 23
3.616281146940843
 33
0.0
 14
7.788847736934129
 24
3.616281146940843
 34
0.0
100
AcDbRotatedDimension
  0
ARC
  5
66
330
1E
100
AcDbEntity
  8
ADP1DETAIL
100
AcDbCircle
 10
6.384641757116908
 20
0.8191920541753706
 30
0.0
 40
0.3671136656320204
100
AcDbArc
 50
233.6516075405736
 51
306.3632857695612
  0
ARC
  5
67
330
1E
100
AcDbEntity
  8
ADP1DETAIL
100
AcDbCircle
 10
6.384641757116908
 20
3.320597530294755
 30
0.0
 40
0.3671136656320204
100
AcDbArc
 50
53.63671423043872
 51
126.3483924594263
  0
DIMENSION
  5
68
330
1E
100
AcDbEntity
  8
ADPDIM
100
AcDbDimension
  2
*D1
 10
-0.246677654177488
 20
3.68771119282616
 30
0.0
 11
-0.2466776541774881
 21
2.069894792235063
 31
0.0
 12
0.0
 22
4.060891624402449
 32
0.0
100
AcDbAlignedDimension
 13
0.2492099890161422
 23
0.4520783916439646
 33
0.0
 14
0.2492099890161422
 24
3.68771119282616
 34
0.0
 50
90.0
100
AcDbRotatedDimension
  0
LINE
  5
69
330
1E
100
AcDbEntity
  8
ADP1DETAIL
100
AcDbLine
 10
0.686025995781761
 20
1.51615981343898
 30
0.0
 11
1.018840799886856
 21
1.848974617544074
 31
0.0
  0
LINE
  5
6A
330
1E
100
AcDbEntity
  8
ADP1DETAIL
100
AcDbLine
 10
0.8817994099612285
 20
1.075669631535177
 30
0.0
 11
0.2455358138779582
 21
1.075669631535177
 31
0.0
  0
LINE
  5
6B
330
1E
100
AcDbEntity
  8
ADP1DETAIL
100
AcDbLine
 10
0.999263458468909
 20
2.26988745802993
 30
0.0
 11
0.6664486543638138
 21
2.602702262135027
 31
0.0
  0
LINE
  5
6C
330
1E
100
AcDbEntity
  8
ADP1DETAIL
100
AcDbLine
 10
0.2357471431689841
 20
3.033403773329856
 30
0.0
 11
0.8622220685432822
 21
3.033403773329856
 31
0.0
  0
LINE
  5
6D
330
1E
100
AcDbEntity
  8
ADP1DETAIL
100
AcDbLine
 10
0.8132787149984146
 20
2.034959361014569
 30
0.0
 11
0.5000412523112665
 21
1.72172189832742
 31
0.0
  0
LINE
  5
6E
330
1E
100
AcDbEntity
  8
ADP1DETAIL
100
AcDbLine
 10
0.4804639108933193
 20
2.367774165119665
 30
0.0
 11
0.8132787149984146
 21
2.034959361014569
 31
0.0
  0
LWPOLYLINE
  5
6F
330
1E
100
AcDbEntity
  8
ADP1DETAIL
100
AcDbPolyline
 90
        5
 70
     0
 43
0.0
 10
0.6194847677641562
 20
0.8742993903579364
 10
0.5480200835321112
 20
0.9409997623078441
 42
0.9284189221609072
 10
0.4432052133251139
 20
0.8409492043829827
 10
0.6051918309177485
 20
0.6551410253796659
 42
0.9058375253520349
 10
0.7290639502532912
 20
0.7408986464581214
 42
0.5885974569407209
  0
LWPOLYLINE
  5
76
330
1E
100
AcDbEntity
  8
ADP1DETAIL
100
AcDbPolyline
 90
        5
 70
     0
 43
0.0
 10
0.8101905652320944
 20
0.8742993903579364
 10
0.7387258810000495
 20
0.9409997623078441
 42
0.9284189221609072
 10
0.6339110107930522
 20
0.8409492043829827
 10
0.7958976283856867
 20
0.6551410253796659
 42
0.9058375253520349
 10
0.9197697477212294
 20
0.7408986464581214
 42
0.5885974569407209
  0
LWPOLYLINE
  5
7D
330
1E
100
AcDbEntity
  8
ADP1DETAIL
100
AcDbPolyline
 90
        5
 70
     0
 43
0.0
 10
0.8101905652320942
 20
3.464457735896955
 10
0.7387258810000491
 20
3.531158107846863
 42
0.9284189221609072
 10
0.6339110107930521
 20
3.431107549922002
 10
0.7958976283856864
 20
3.245299370918685
 42
0.9058375253520349
 10
0.9197697477212292
 20
3.33105699199714
 42
0.5885974569407209
  0
LWPOLYLINE
  5
84
330
1E
100
AcDbEntity
  8
ADP1DETAIL
100
AcDbPolyline
 90
        5
 70
     0
 43
0.0
 10
0.6194847677641564
 20
3.464457735896955
 10
0.5480200835321112
 20
3.531158107846863
 42
0.9284189221609072
 10
0.4432052133251141
 20
3.431107549922002
 10
0.6051918309177485
 20
3.245299370918685
 42
0.9058375253520349
 10
0.7290639502532913
 20
3.33105699199714
 42
0.5885974569407209
  0
ARC
  5
8B
330
1E
100
AcDbEntity
  8
ADP1DETAIL
100
AcDbCircle
 10
0.6873129289092363
 20
0.8277919391788145
 30
0.0
 40
0.375724530279794
100
AcDbArc
 50
234.0673535627094
 51
305.9326464372905
  0
ARC
  5
8C
330
1E
100
AcDbEntity
  8
ADP1DETAIL
100
AcDbCircle
 10
0.6873129289092362
 20
3.311997645291309
 30
0.0
 40
0.375724530279794
100
AcDbArc
 50
54.06735356270946
 51
125.9326464372905
  0
LINE
  5
8D
330
1E
100
AcDbEntity
  8
ADP1DETAIL
100
AcDbLine
 10
0.0315763333243028
 20
1.253256979340459
 30
0.0
 11
0.0315763333243028
 21
0.5235084375292823
 31
0.0
  0
LWPOLYLINE
  5
8E
330
1E
100
AcDbEntity
  8
ADP1DETAIL
100
AcDbPolyline
 90
        2
 70
     0
 43
0.0
 10
0.0339989661111684
 20
0.6431691040085461
 42
0.8052163537849938
 10
0.1450273878139807
 20
0.7408986464581214
 42
0.5885974569407209
  0
LWPOLYLINE
  5
92
330
1E
100
AcDbEntity
  8
ADP1DETAIL
100
AcDbPolyline
 90
        5
 70
     0
 43
0.0
 10
0.4259603552152758
 20
0.8742993903579364
 10
0.3544956709832308
 20
0.9409997623078441
 42
0.9284189221609072
 10
0.2496808007762334
 20
0.8409492043829827
 10
0.411667418368868
 20
0.6551410253796659
 42
0.9058375253520349
 10
0.5355395377044108
 20
0.7408986464581214
 42
0.5885974569407209
  0
LWPOLYLINE
  5
99
330
1E
100
AcDbEntity
  8
ADP1DETAIL
100
AcDbPolyline
 90
        5
 70
     0
 43
0.0
 10
0.2301270594712825
 20
0.8742993903579364
 10
0.1586623752392375
 20
0.9409997623078441
 42
0.9284189221609072
 10
0.0538475050322402
 20
0.8409492043829827
 10
0.2158341226248748
 20
0.6551410253796659
 42
0.9058375253520349
 10
0.3397062419604175
 20
0.7408986464581214
 42
0.5885974569407209
  0
ARC
  5
A0
330
1E
100
AcDbEntity
  8
ADP1DETAIL
100
AcDbCircle
 10
0.249162275749056
 20
0.8191920541753706
 30
0.0
 40
0.3671136656320204
100
AcDbArc
 50
233.6516075405736
 51
306.3632857695612
  0
LINE
  5
A1
330
1E
100
AcDbEntity
  8
ADP1DETAIL
100
AcDbLine
 10
0.304267838131798
 20
1.525948484147951
 30
0.0
 11
0.0315763333243028
 21
1.253256979340459
 31
0.0
  0
LINE
  5
A2
330
1E
100
AcDbEntity
  8
ADP1DETAIL
100
AcDbLine
 10
0.5000412523112665
 20
1.339963740677457
 30
0.0
 11
0.686025995781761
 21
1.51615981343898
 31
0.0
  0
LINE
  5
A3
330
1E
100
AcDbEntity
  8
ADP1DETAIL
100
AcDbLine
 10
0.2455358138779582
 20
1.075669631535177
 30
0.0
 11
0.5000412523112665
 21
1.339963740677457
 31
0.0
  0
LWPOLYLINE
  5
A4
330
1E
100
AcDbEntity
  8
ADP1DETAIL
100
AcDbPolyline
 90
        2
 70
     0
 43
0.0
 10
0.0354482053248457
 20
0.8742993903579364
 10
0.0339989661111684
 20
0.8756520136240354
 42
0.9284189221609054
  0
LINE
  5
A8
330
1E
100
AcDbEntity
  8
ADP1DETAIL
100
AcDbLine
 10
0.5000412523112665
 20
1.72172189832742
 30
0.0
 11
0.304267838131798
 21
1.72172189832742
 31
0.0
  0
LINE
  5
A9
330
1E
100
AcDbEntity
  8
ADP1DETAIL
100
AcDbLine
 10
0.304267838131798
 20
1.72172189832742
 30
0.0
 11
0.304267838131798
 21
1.525948484147951
 31
0.0
  0
LINE
  5
AA
330
1E
100
AcDbEntity
  8
ADP1DETAIL
100
AcDbLine
 10
0.0315763333243028
 20
3.616281146940842
 30
0.0
 11
0.0315763333243028
 21
2.816661742688681
 31
0.0
  0
LINE
  5
AB
330
1E
100
AcDbEntity
  8
ADP1DETAIL
100
AcDbLine
 10
0.4902525816022925
 20
2.778898334896547
 30
0.0
 11
0.2357471431689841
 21
3.033403773329856
 31
0.0
  0
LINE
  5
AC
330
1E
100
AcDbEntity
  8
ADP1DETAIL
100
AcDbLine
 10
0.304267838131798
 20
2.367774165119665
 30
0.0
 11
0.4804639108933193
 21
2.367774165119665
 31
0.0
  0
LINE
  5
AD
330
1E
100
AcDbEntity
  8
ADP1DETAIL
100
AcDbLine
 10
0.0315763333243028
 20
2.816661742688681
 30
0.0
 11
0.304267838131798
 21
2.543970237881186
 31
0.0
  0
LINE
  5
AE
330
1E
100
AcDbEntity
  8
ADP1DETAIL
100
AcDbLine
 10
0.304267838131798
 20
2.543970237881186
 30
0.0
 11
0.304267838131798
 21
2.367774165119665
 31
0.0
  0
LINE
  5
AF
330
1E
100
AcDbEntity
  8
ADP1DETAIL
100
AcDbLine
 10
0.6664486543638138
 20
2.602702262135027
 30
0.0
 11
0.4902525816022925
 21
2.778898334896547
 31
0.0
  0
LINE
  5
B0
330
1E
100
AcDbEntity
  8
ADP1DETAIL
100
AcDbLine
 10
0.6664486543638138
 20
2.602702262135027
 30
0.0
 11
0.6664486543638138
 21
2.602702262135027
 31
0.0
  0
ARC
  5
B1
330
1E
100
AcDbEntity
  8
ADP1DETAIL
100
AcDbCircle
 10
0.2491622757490559
 20
3.320597530294755
 30
0.0
 40
0.3671136656320204
100
AcDbArc
 50
53.63671423043872
 51
126.3483924594263
  0
LWPOLYLINE
  5
B2
330
1E
100
AcDbEntity
  8
ADP1DETAIL
100
AcDbPolyline
 90
        5
 70
     0
 43
0.0
 10
0.2301270594712825
 20
3.464457735896955
 10
0.1586623752392372
 20
3.531158107846863
 42
0.9284189221609072
 10
0.0538475050322401
 20
3.431107549922002
 10
0.2158341226248744
 20
3.245299370918685
 42
0.9058375253520349
 10
0.3397062419604173
 20
3.33105699199714
 42
0.5885974569407209
  0
LWPOLYLINE
  5
B9
330
1E
100
AcDbEntity
  8
ADP1DETAIL
100
AcDbPolyline
 90
        5
 70
     0
 43
0.0
 10
0.4259603552152761
 20
3.464457735896955
 10
0.3544956709832308
 20
3.531158107846863
 42
0.9284189221609072
 10
0.2496808007762337
 20
3.431107549922002
 10
0.4116674183688681
 20
3.245299370918685
 42
0.9058375253520349
 10
0.535539537704411
 20
3.33105699199714
 42
0.5885974569407209
  0
LWPOLYLINE
  5
C0
330
1E
100
AcDbEntity
  8
ADP1DETAIL
100
AcDbPolyline
 90
        2
 70
     0
 43
0.0
 10
0.0339989661111681
 20
3.233327449547565
 42
0.8052163537849938
 10
0.1450273878139803
 20
3.33105699199714
 42
0.5885974569407209
  0
LINE
  5
C4
330
1E
100
AcDbEntity
  8
ADP1DETAIL
100
AcDbLine
 10
3.544317842801991
 20
2.357985494410692
 30
0.0
 11
3.720513915563512
 21
2.357985494410692
 31
0.0
  0
LINE
  5
C5
330
1E
100
AcDbEntity
  8
ADP1DETAIL
100
AcDbLine
 10
3.720513915563512
 20
1.711933227618446
 30
0.0
 11
3.524740501384045
 21
1.711933227618446
 31
0.0
  0
LINE
  5
C6
330
1E
100
AcDbEntity
  8
ADP1DETAIL
100
AcDbLine
 10
3.749879927690432
 20
1.065880960826203
 30
0.0
 11
3.123405002316136
 21
1.065880960826203
 31
0.0
  0
LINE
  5
C7
330
1E
100
AcDbEntity
  8
ADP1DETAIL
100
AcDbLine
 10
3.495374489257125
 20
1.320386399259511
 30
0.0
 11
3.749879927690432
 21
1.065880960826203
 31
0.0
  0
LINE
  5
C8
330
1E
100
AcDbEntity
  8
ADP1DETAIL
100
AcDbLine
 10
3.74009125698146
 20
3.033403773329856
 30
0.0
 11
3.485585818548151
 21
2.778898334896547
 31
0.0
  0
LINE
  5
C9
330
1E
100
AcDbEntity
  8
ADP1DETAIL
100
AcDbLine
 10
3.103827660898189
 20
3.033403773329856
 30
0.0
 11
3.74009125698146
 21
3.033403773329856
 31
0.0
  0
LWPOLYLINE
  5
CA
330
1E
100
AcDbEntity
  8
ADP1DETAIL
100
AcDbPolyline
 90
        5
 70
     0
 43
0.0
 10
3.510347909084103
 20
0.8742993903579364
 10
3.438883224852058
 20
0.9409997623078441
 42
0.9284189221609072
 10
3.334068354645061
 20
0.8409492043829827
 10
3.496054972237696
 20
0.6551410253796659
 42
0.9058375253520349
 10
3.619927091573238
 20
0.7408986464581214
 42
0.5885974569407209
  0
LWPOLYLINE
  5
D1
330
1E
100
AcDbEntity
  8
ADP1DETAIL
100
AcDbPolyline
 90
        5
 70
     0
 43
0.0
 10
3.701053740740932
 20
0.8742993903579364
 10
3.629589056508886
 20
0.9409997623078441
 42
0.9284189221609072
 10
3.524774186301889
 20
0.8409492043829827
 10
3.686760803894523
 20
0.6551410253796659
 42
0.9058375253520349
 10
3.810632923230066
 20
0.7408986464581214
 42
0.5885974569407209
  0
LWPOLYLINE
  5
D8
330
1E
100
AcDbEntity
  8
ADP1DETAIL
100
AcDbPolyline
 90
        5
 70
     0
 43
0.0
 10
3.701053740740932
 20
3.464457735896955
 10
3.629589056508886
 20
3.531158107846863
 42
0.9284189221609072
 10
3.524774186301889
 20
3.431107549922002
 10
3.686760803894523
 20
3.245299370918685
 42
0.9058375253520349
 10
3.810632923230066
 20
3.33105699199714
 42
0.5885974569407209
  0
LWPOLYLINE
  5
DF
330
1E
100
AcDbEntity
  8
ADP1DETAIL
100
AcDbPolyline
 90
        5
 70
     0
 43
0.0
 10
3.510347909084103
 20
3.464457735896955
 10
3.438883224852058
 20
3.531158107846863
 42
0.9284189221609072
 10
3.334068354645061
 20
3.431107549922002
 10
3.496054972237696
 20
3.245299370918685
 42
0.9058375253520349
 10
3.619927091573238
 20
3.33105699199714
 42
0.5885974569407209
  0
ARC
  5
E6
330
1E
100
AcDbEntity
  8
ADP1DETAIL
100
AcDbCircle
 10
3.749309289313852
 20
0.8191920541753706
 30
0.0
 40
0.3671136656320204
100
AcDbArc
 50
233.6516075405736
 51
306.3632857695612
  0
ARC
  5
E7
330
1E
100
AcDbEntity
  8
ADP1DETAIL
100
AcDbCircle
 10
3.749309289313852
 20
3.320597530294755
 30
0.0
 40
0.3671136656320204
100
AcDbArc
 50
53.63671423043872
 51
126.3483924594263
  0
LWPOLYLINE
  5
E8
330
1E
100
AcDbEntity
  8
ADP1DETAIL
100
AcDbPolyline
 90
        5
 70
     0
 43
0.0
 10
2.354193920052089
 20
0.8742993903579364
 10
2.282729235820044
 20
0.9409997623078441
 42
0.9284189221609072
 10
2.177914365613047
 20
0.8409492043829827
 10
2.339900983205681
 20
0.6551410253796659
 42
0.9058375253520349
 10
2.463773102541224
 20
0.7408986464581214
 42
0.5885974569407209
  0
LWPOLYLINE
  5
EF
330
1E
100
AcDbEntity
  8
ADP1DETAIL
100
AcDbPolyline
 90
        5
 70
     0
 43
0.0
 10
1.962371565963389
 20
0.8742993903579364
 10
1.890906881731344
 20
0.9409997623078441
 42
0.9284189221609072
 10
1.786092011524346
 20
0.8409492043829827
 10
1.948078629116981
 20
0.6551410253796659
 42
0.9058375253520349
 10
2.071950748452524
 20
0.7408986464581214
 42
0.5885974569407209
  0
LWPOLYLINE
  5
F6
330
1E
100
AcDbEntity
  8
ADP1DETAIL
100
AcDbPolyline
 90
        5
 70
     0
 43
0.0
 10
1.767692711816952
 20
0.8742993903579364
 10
1.696228027584907
 20
0.9409997623078441
 42
0.9284189221609072
 10
1.59141315737791
 20
0.8409492043829827
 10
1.753399774970544
 20
0.6551410253796659
 42
0.9058375253520349
 10
1.877271894306087
 20
0.7408986464581214
 42
0.5885974569407209
  0
LWPOLYLINE
  5
FD
330
1E
100
AcDbEntity
  8
ADP1DETAIL
100
AcDbPolyline
 90
        5
 70
     0
 43
0.0
 10
1.000896396888922
 20
0.8742993903579364
 10
0.9294317126568776
 20
0.9409997623078441
 42
0.9284189221609072
 10
0.8246168424498803
 20
0.8409492043829827
 10
0.9866034600425139
 20
0.6551410253796659
 42
0.9058375253520349
 10
1.110475579378056
 20
0.7408986464581214
 42
0.5885974569407209
  0
LWPOLYLINE
  5
104
330
1E
100
AcDbEntity
  8
ADP1DETAIL
100
AcDbPolyline
 90
        5
 70
     0
 43
0.0
 10
1.195575251035359
 20
0.8742993903579364
 10
1.124110566803314
 20
0.9409997623078441
 42
0.9284189221609072
 10
1.019295696596316
 20
0.8409492043829827
 10
1.181282314188951
 20
0.6551410253796659
 42
0.9058375253520349
 10
1.305154433524493
 20
0.7408986464581214
 42
0.5885974569407209
  0
LWPOLYLINE
  5
10B
330
1E
100
AcDbEntity
  8
ADP1DETAIL
100
AcDbPolyline
 90
        5
 70
     0
 43
0.0
 10
1.386281048503296
 20
0.8742993903579364
 10
1.31481636427125
 20
0.9409997623078441
 42
0.9284189221609072
 10
1.210001494064254
 20
0.8409492043829827
 10
1.371988111656889
 20
0.6551410253796659
 42
0.9058375253520349
 10
1.495860230992431
 20
0.7408986464581214
 42
0.5885974569407209
  0
LWPOLYLINE
  5
112
330
1E
100
AcDbEntity
  8
ADP1DETAIL
100
AcDbPolyline
 90
        5
 70
     0
 43
0.0
 10
1.576986880160125
 20
0.8742993903579364
 10
1.50552219592808
 20
0.9409997623078441
 42
0.9284189221609072
 10
1.400707325721081
 20
0.8409492043829827
 10
1.562693943313717
 20
0.6551410253796659
 42
0.9058375253520349
 10
1.68656606264926
 20
0.7408986464581214
 42
0.5885974569407209
  0
LWPOLYLINE
  5
119
330
1E
100
AcDbEntity
  8
ADP1DETAIL
100
AcDbPolyline
 90
        5
 70
     0
 43
0.0
 10
2.157050420109825
 20
0.8742993903579364
 10
2.08558573587778
 20
0.9409997623078441
 42
0.9284189221609072
 10
1.980770865670783
 20
0.8409492043829827
 10
2.142757483263419
 20
0.6551410253796659
 42
0.9058375253520349
 10
2.26662960259896
 20
0.7408986464581214
 42
0.5885974569407209
  0
LWPOLYLINE
  5
120
330
1E
100
AcDbEntity
  8
ADP1DETAIL
100
AcDbPolyline
 90
        5
 70
     0
 43
0.0
 10
3.124963257469729
 20
0.8742993903579364
 10
3.053498573237684
 20
0.9409997623078441
 42
0.9284189221609072
 10
2.948683703030686
 20
0.8409492043829827
 10
3.110670320623321
 20
0.6551410253796659
 42
0.9058375253520349
 10
3.234542439958863
 20
0.7408986464581214
 42
0.5885974569407209
  0
LWPOLYLINE
  5
127
330
1E
100
AcDbEntity
  8
ADP1DETAIL
100
AcDbPolyline
 90
        5
 70
     0
 43
0.0
 10
3.319642111616166
 20
0.8742993903579364
 10
3.248177427384121
 20
0.9409997623078441
 42
0.9284189221609072
 10
3.143362557177124
 20
0.8409492043829827
 10
3.305349174769757
 20
0.6551410253796659
 42
0.9058375253520349
 10
3.429221294105301
 20
0.7408986464581214
 42
0.5885974569407209
  0
LWPOLYLINE
  5
12E
330
1E
100
AcDbEntity
  8
ADP1DETAIL
100
AcDbPolyline
 90
        5
 70
     0
 43
0.0
 10
2.550027215796083
 20
0.8742993903579364
 10
2.478562531564038
 20
0.9409997623078441
 42
0.9284189221609072
 10
2.37374766135704
 20
0.8409492043829827
 10
2.535734278949675
 20
0.6551410253796659
 42
0.9058375253520349
 10
2.659606398285218
 20
0.7408986464581214
 42
0.5885974569407209
  0
LWPOLYLINE
  5
135
330
1E
100
AcDbEntity
  8
ADP1DETAIL
100
AcDbPolyline
 90
        5
 70
     0
 43
0.0
 10
2.743551628344964
 20
0.8742993903579364
 10
2.672086944112918
 20
0.9409997623078441
 42
0.9284189221609072
 10
2.567272073905921
 20
0.8409492043829827
 10
2.729258691498555
 20
0.6551410253796659
 42
0.9058375253520349
 10
2.853130810834098
 20
0.7408986464581214
 42
0.5885974569407209
  0
LWPOLYLINE
  5
13C
330
1E
100
AcDbEntity
  8
ADP1DETAIL
100
AcDbPolyline
 90
        5
 70
     0
 43
0.0
 10
2.934257425812901
 20
0.8742993903579364
 10
2.862792741580856
 20
0.9409997623078441
 42
0.9284189221609072
 10
2.757977871373859
 20
0.8409492043829827
 10
2.919964488966493
 20
0.6551410253796659
 42
0.9058375253520349
 10
3.043836608302036
 20
0.7408986464581214
 42
0.5885974569407209
  0
ARC
  5
143
330
1E
100
AcDbEntity
  8
ADP1DETAIL
100
AcDbCircle
 10
2.002381746540872
 20
0.8191920541753706
 30
0.0
 40
0.3671136656320204
100
AcDbArc
 50
233.6516075405736
 51
306.3632857695612
  0
ARC
  5
144
330
1E
100
AcDbEntity
  8
ADP1DETAIL
100
AcDbCircle
 10
1.566828509650583
 20
0.8191920541753706
 30
0.0
 40
0.3671136656320204
100
AcDbArc
 50
233.6516075405736
 51
306.3632857695612
  0
ARC
  5
145
330
1E
100
AcDbEntity
  8
ADP1DETAIL
100
AcDbCircle
 10
1.131275272760294
 20
0.8191920541753706
 30
0.0
 40
0.3671136656320204
100
AcDbArc
 50
233.6516075405736
 51
306.3632857695612
  0
ARC
  5
146
330
1E
100
AcDbEntity
  8
ADP1DETAIL
100
AcDbCircle
 10
2.884494743552111
 20
0.8191920541753706
 30
0.0
 40
0.3671136656320204
100
AcDbArc
 50
233.6516075405736
 51
306.3632857695612
  0
ARC
  5
147
330
1E
100
AcDbEntity
  8
ADP1DETAIL
100
AcDbCircle
 10
2.440532399701053
 20
0.8277919391788145
 30
0.0
 40
0.375724530279794
100
AcDbArc
 50
234.0673535627094
 51
305.9326464372905
  0
ARC
  5
148
330
1E
100
AcDbEntity
  8
ADP1DETAIL
100
AcDbCircle
 10
3.3200479804424
 20
0.8191920541753706
 30
0.0
 40
0.3671136656320204
100
AcDbArc
 50
233.6516075405736
 51
306.3632857695612
  0
LINE
  5
149
330
1E
100
AcDbEntity
  8
ADP1DETAIL
100
AcDbLine
 10
2.007496541493168
 20
2.808264347023467
 30
0.0
 11
2.262001979926477
 21
2.553758908590159
 31
0.0
  0
LINE
  5
14A
330
1E
100
AcDbEntity
  8
ADP1DETAIL
100
AcDbLine
 10
2.262001979926477
 20
1.535737154856925
 30
0.0
 11
2.007496541493168
 21
1.281231716423617
 31
0.0
  0
LWPOLYLINE
  5
14B
330
1E
100
AcDbEntity
  8
ADP1DETAIL
100
AcDbPolyline
 90
        5
 70
     0
 43
0.0
 10
2.157050420109825
 20
3.464457735896955
 10
2.085585735877781
 20
3.531158107846863
 42
0.9284189221609072
 10
1.980770865670783
 20
3.431107549922002
 10
2.142757483263418
 20
3.245299370918685
 42
0.9058375253520349
 10
2.26662960259896
 20
3.33105699199714
 42
0.5885974569407209
  0
ARC
  5
152
330
1E
100
AcDbEntity
  8
ADP1DETAIL
100
AcDbCircle
 10
2.002381746540872
 20
3.320597530294755
 30
0.0
 40
0.3671136656320204
100
AcDbArc
 50
53.63671423043872
 51
126.3483924594263
  0
LINE
  5
153
330
1E
100
AcDbEntity
  8
ADP1DETAIL
100
AcDbLine
 10
1.243980226193243
 20
2.044748031723543
 30
0.0
 11
1.576795030298339
 21
2.377562835828637
 31
0.0
  0
LINE
  5
154
330
1E
100
AcDbEntity
  8
ADP1DETAIL
100
AcDbLine
 10
1.557217688880393
 20
1.731510569036394
 30
0.0
 11
1.243980226193243
 21
2.044748031723543
 31
0.0
  0
LINE
  5
155
330
1E
100
AcDbEntity
  8
ADP1DETAIL
100
AcDbLine
 10
1.782357115186781
 20
1.075669631535177
 30
0.0
 11
1.14609351910351
 21
1.075669631535177
 31
0.0
  0
LINE
  5
156
330
1E
100
AcDbEntity
  8
ADP1DETAIL
100
AcDbLine
 10
1.332078262574004
 20
1.535737154856925
 30
0.0
 11
1.527851676753472
 21
1.339963740677457
 31
0.0
  0
LINE
  5
157
330
1E
100
AcDbEntity
  8
ADP1DETAIL
100
AcDbLine
 10
1.14609351910351
 20
1.075669631535177
 30
0.0
 11
1.018840799886856
 21
1.212711021460805
 31
0.0
  0
LINE
  5
158
330
1E
100
AcDbEntity
  8
ADP1DETAIL
100
AcDbLine
 10
1.018840799886856
 20
1.212711021460805
 30
0.0
 11
0.8817994099612285
 21
1.075669631535177
 31
0.0
  0
LINE
  5
159
330
1E
100
AcDbEntity
  8
ADP1DETAIL
100
AcDbLine
 10
1.14609351910351
 20
1.075669631535177
 30
0.0
 11
1.14609351910351
 21
1.075669631535177
 31
0.0
  0
LINE
  5
15A
330
1E
100
AcDbEntity
  8
ADP1DETAIL
100
AcDbLine
 10
1.018840799886856
 20
1.848974617544074
 30
0.0
 11
1.332078262574004
 21
1.535737154856925
 31
0.0
  0
LINE
  5
15B
330
1E
100
AcDbEntity
  8
ADP1DETAIL
100
AcDbLine
 10
2.007496541493168
 20
1.281231716423617
 30
0.0
 11
1.75299110305986
 21
1.535737154856925
 31
0.0
  0
LINE
  5
15C
330
1E
100
AcDbEntity
  8
ADP1DETAIL
100
AcDbLine
 10
1.527851676753472
 20
1.339963740677457
 30
0.0
 11
1.782357115186781
 21
1.075669631535177
 31
0.0
  0
LINE
  5
15D
330
1E
100
AcDbEntity
  8
ADP1DETAIL
100
AcDbLine
 10
2.007496541493168
 20
1.281231716423617
 30
0.0
 11
2.007496541493168
 21
1.281231716423617
 31
0.0
  0
LINE
  5
15E
330
1E
100
AcDbEntity
  8
ADP1DETAIL
100
AcDbLine
 10
2.007496541493168
 20
1.271443045714645
 30
0.0
 11
2.007496541493168
 21
1.281231716423617
 31
0.0
  0
LINE
  5
15F
330
1E
100
AcDbEntity
  8
ADP1DETAIL
100
AcDbLine
 10
2.007496541493168
 20
1.281231716423617
 30
0.0
 11
2.007496541493168
 21
1.271443045714645
 31
0.0
  0
LINE
  5
160
330
1E
100
AcDbEntity
  8
ADP1DETAIL
100
AcDbLine
 10
2.007496541493168
 20
1.271443045714645
 30
0.0
 11
2.007496541493168
 21
1.281231716423617
 31
0.0
  0
LINE
  5
161
330
1E
100
AcDbEntity
  8
ADP1DETAIL
100
AcDbLine
 10
2.007496541493168
 20
1.281231716423617
 30
0.0
 11
2.007496541493168
 21
1.271443045714645
 31
0.0
  0
LINE
  5
162
330
1E
100
AcDbEntity
  8
ADP1DETAIL
100
AcDbLine
 10
1.75299110305986
 20
1.731510569036394
 30
0.0
 11
1.557217688880393
 21
1.731510569036394
 31
0.0
  0
LINE
  5
163
330
1E
100
AcDbEntity
  8
ADP1DETAIL
100
AcDbLine
 10
1.75299110305986
 20
1.535737154856925
 30
0.0
 11
1.75299110305986
 21
1.731510569036394
 31
0.0
  0
LINE
  5
164
330
1E
100
AcDbEntity
  8
ADP1DETAIL
100
AcDbLine
 10
1.518063006044498
 20
2.778898334896547
 30
0.0
 11
1.322289591865031
 21
2.583124920717079
 31
0.0
  0
LINE
  5
165
330
1E
100
AcDbEntity
  8
ADP1DETAIL
100
AcDbLine
 10
1.136304848394536
 20
3.033403773329856
 30
0.0
 11
1.772568444477807
 21
3.033403773329856
 31
0.0
  0
LWPOLYLINE
  5
166
330
1E
100
AcDbEntity
  8
ADP1DETAIL
100
AcDbPolyline
 90
        5
 70
     0
 43
0.0
 10
1.576986880160124
 20
3.464457735896955
 10
1.50552219592808
 20
3.531158107846863
 42
0.9284189221609072
 10
1.400707325721082
 20
3.431107549922002
 10
1.562693943313716
 20
3.245299370918685
 42
0.9058375253520349
 10
1.686566062649259
 20
3.33105699199714
 42
0.5885974569407209
  0
LWPOLYLINE
  5
16D
330
1E
100
AcDbEntity
  8
ADP1DETAIL
100
AcDbPolyline
 90
        5
 70
     0
 43
0.0
 10
1.386281048503296
 20
3.464457735896955
 10
1.314816364271251
 20
3.531158107846863
 42
0.9284189221609072
 10
1.210001494064254
 20
3.431107549922002
 10
1.371988111656889
 20
3.245299370918685
 42
0.9058375253520349
 10
1.495860230992431
 20
3.33105699199714
 42
0.5885974569407209
  0
ARC
  5
174
330
1E
100
AcDbEntity
  8
ADP1DETAIL
100
AcDbCircle
 10
1.566828509650583
 20
3.320597530294755
 30
0.0
 40
0.3671136656320204
100
AcDbArc
 50
53.63671423043872
 51
126.3483924594263
  0
LINE
  5
175
330
1E
100
AcDbEntity
  8
ADP1DETAIL
100
AcDbLine
 10
0.999263458468909
 20
2.906151054113202
 30
0.0
 11
1.136304848394536
 21
3.033403773329856
 31
0.0
  0
LINE
  5
176
330
1E
100
AcDbEntity
  8
ADP1DETAIL
100
AcDbLine
 10
0.8622220685432822
 20
3.033403773329856
 30
0.0
 11
0.999263458468909
 21
2.906151054113202
 31
0.0
  0
LINE
  5
177
330
1E
100
AcDbEntity
  8
ADP1DETAIL
100
AcDbLine
 10
1.322289591865031
 20
2.583124920717079
 30
0.0
 11
0.999263458468909
 21
2.26988745802993
 31
0.0
  0
LWPOLYLINE
  5
178
330
1E
100
AcDbEntity
  8
ADP1DETAIL
100
AcDbPolyline
 90
        5
 70
     0
 43
0.0
 10
1.195575251035359
 20
3.464457735896955
 10
1.124110566803314
 20
3.531158107846863
 42
0.9284189221609072
 10
1.019295696596316
 20
3.431107549922002
 10
1.181282314188951
 20
3.245299370918685
 42
0.9058375253520349
 10
1.305154433524493
 20
3.33105699199714
 42
0.5885974569407209
  0
LWPOLYLINE
  5
17F
330
1E
100
AcDbEntity
  8
ADP1DETAIL
100
AcDbPolyline
 90
        5
 70
     0
 43
0.0
 10
1.000896396888922
 20
3.464457735896955
 10
0.929431712656877
 20
3.531158107846863
 42
0.9284189221609072
 10
0.8246168424498799
 20
3.431107549922002
 10
0.9866034600425138
 20
3.245299370918685
 42
0.9058375253520349
 10
1.110475579378056
 20
3.33105699199714
 42
0.5885974569407209
  0
ARC
  5
186
330
1E
100
AcDbEntity
  8
ADP1DETAIL
100
AcDbCircle
 10
1.131275272760294
 20
3.320597530294755
 30
0.0
 40
0.3671136656320204
100
AcDbArc
 50
53.63671423043872
 51
126.3483924594263
  0
LINE
  5
187
330
1E
100
AcDbEntity
  8
ADP1DETAIL
100
AcDbLine
 10
1.772568444477807
 20
3.033403773329856
 30
0.0
 11
1.518063006044498
 21
2.778898334896547
 31
0.0
  0
LINE
  5
188
330
1E
100
AcDbEntity
  8
ADP1DETAIL
100
AcDbLine
 10
1.75299110305986
 20
2.553758908590159
 30
0.0
 11
2.007496541493168
 21
2.808264347023467
 31
0.0
  0
LINE
  5
189
330
1E
100
AcDbEntity
  8
ADP1DETAIL
100
AcDbLine
 10
1.75299110305986
 20
2.377562835828637
 30
0.0
 11
1.75299110305986
 21
2.553758908590159
 31
0.0
  0
LINE
  5
18A
330
1E
100
AcDbEntity
  8
ADP1DETAIL
100
AcDbLine
 10
1.576795030298339
 20
2.377562835828637
 30
0.0
 11
1.75299110305986
 21
2.377562835828637
 31
0.0
  0
LINE
  5
18B
330
1E
100
AcDbEntity
  8
ADP1DETAIL
100
AcDbLine
 10
2.007496541493168
 20
2.808264347023467
 30
0.0
 11
2.007496541493168
 21
2.808264347023467
 31
0.0
  0
LINE
  5
18C
330
1E
100
AcDbEntity
  8
ADP1DETAIL
100
AcDbLine
 10
2.007496541493168
 20
2.808264347023467
 30
0.0
 11
2.007496541493168
 21
2.808264347023467
 31
0.0
  0
LINE
  5
18D
330
1E
100
AcDbEntity
  8
ADP1DETAIL
100
AcDbLine
 10
2.007496541493168
 20
2.808264347023467
 30
0.0
 11
2.007496541493168
 21
2.808264347023467
 31
0.0
  0
LINE
  5
18E
330
1E
100
AcDbEntity
  8
ADP1DETAIL
100
AcDbLine
 10
2.007496541493168
 20
2.808264347023467
 30
0.0
 11
2.007496541493168
 21
2.808264347023467
 31
0.0
  0
LWPOLYLINE
  5
18F
330
1E
100
AcDbEntity
  8
ADP1DETAIL
100
AcDbPolyline
 90
        5
 70
     0
 43
0.0
 10
1.767692711816952
 20
3.464457735896955
 10
1.696228027584907
 20
3.531158107846863
 42
0.9284189221609072
 10
1.591413157377909
 20
3.431107549922002
 10
1.753399774970544
 20
3.245299370918685
 42
0.9058375253520349
 10
1.877271894306087
 20
3.33105699199714
 42
0.5885974569407209
  0
LWPOLYLINE
  5
196
330
1E
100
AcDbEntity
  8
ADP1DETAIL
100
AcDbPolyline
 90
        5
 70
     0
 43
0.0
 10
1.962371565963389
 20
3.464457735896955
 10
1.890906881731344
 20
3.531158107846863
 42
0.9284189221609072
 10
1.786092011524346
 20
3.431107549922002
 10
1.948078629116981
 20
3.245299370918685
 42
0.9058375253520349
 10
2.071950748452524
 20
3.33105699199714
 42
0.5885974569407209
  0
LINE
  5
19D
330
1E
100
AcDbEntity
  8
ADP1DETAIL
100
AcDbLine
 10
2.438198052687997
 20
2.377562835828637
 30
0.0
 11
2.771012856793093
 21
2.044748031723543
 31
0.0
  0
LINE
  5
19E
330
1E
100
AcDbEntity
  8
ADP1DETAIL
100
AcDbLine
 10
3.211503038696896
 20
2.025170690305595
 30
0.0
 11
3.544317842801991
 21
2.357985494410692
 31
0.0
  0
LINE
  5
19F
330
1E
100
AcDbEntity
  8
ADP1DETAIL
100
AcDbLine
 10
2.653548808285412
 20
1.496582472021033
 30
0.0
 11
2.986363612390507
 21
1.829397276126126
 31
0.0
  0
LINE
  5
1A0
330
1E
100
AcDbEntity
  8
ADP1DETAIL
100
AcDbLine
 10
2.849322222464881
 20
1.065880960826203
 30
0.0
 11
2.21305862638161
 21
1.065880960826203
 31
0.0
  0
LINE
  5
1A1
330
1E
100
AcDbEntity
  8
ADP1DETAIL
100
AcDbLine
 10
2.477352735523891
 20
1.320386399259511
 30
0.0
 11
2.653548808285412
 21
1.496582472021033
 31
0.0
  0
LINE
  5
1A2
330
1E
100
AcDbEntity
  8
ADP1DETAIL
100
AcDbLine
 10
2.21305862638161
 20
1.065880960826203
 30
0.0
 11
2.477352735523891
 21
1.320386399259511
 31
0.0
  0
LINE
  5
1A3
330
1E
100
AcDbEntity
  8
ADP1DETAIL
100
AcDbLine
 10
2.771012856793093
 20
2.044748031723543
 30
0.0
 11
2.457775394105945
 21
1.731510569036394
 31
0.0
  0
LINE
  5
1A4
330
1E
100
AcDbEntity
  8
ADP1DETAIL
100
AcDbLine
 10
2.262001979926477
 20
1.731510569036394
 30
0.0
 11
2.262001979926477
 21
1.535737154856925
 31
0.0
  0
LINE
  5
1A5
330
1E
100
AcDbEntity
  8
ADP1DETAIL
100
AcDbLine
 10
2.457775394105945
 20
1.731510569036394
 30
0.0
 11
2.262001979926477
 21
1.731510569036394
 31
0.0
  0
LINE
  5
1A6
330
1E
100
AcDbEntity
  8
ADP1DETAIL
100
AcDbLine
 10
3.299601075077656
 20
1.51615981343898
 30
0.0
 11
3.495374489257125
 21
1.320386399259511
 31
0.0
  0
LINE
  5
1A7
330
1E
100
AcDbEntity
  8
ADP1DETAIL
100
AcDbLine
 10
3.123405002316136
 20
1.065880960826203
 30
0.0
 11
3.123405002316136
 21
1.065880960826203
 31
0.0
  0
LINE
  5
1A8
330
1E
100
AcDbEntity
  8
ADP1DETAIL
100
AcDbLine
 10
2.986363612390507
 20
1.202922350751831
 30
0.0
 11
2.849322222464881
 21
1.065880960826203
 31
0.0
  0
LINE
  5
1A9
330
1E
100
AcDbEntity
  8
ADP1DETAIL
100
AcDbLine
 10
3.123405002316136
 20
1.065880960826203
 30
0.0
 11
2.986363612390507
 21
1.202922350751831
 31
0.0
  0
LINE
  5
1AA
330
1E
100
AcDbEntity
  8
ADP1DETAIL
100
AcDbLine
 10
2.986363612390507
 20
1.829397276126126
 30
0.0
 11
3.299601075077656
 21
1.51615981343898
 31
0.0
  0
LINE
  5
1AB
330
1E
100
AcDbEntity
  8
ADP1DETAIL
100
AcDbLine
 10
3.524740501384045
 20
1.711933227618446
 30
0.0
 11
3.211503038696896
 21
2.025170690305595
 31
0.0
  0
LINE
  5
1AC
330
1E
100
AcDbEntity
  8
ADP1DETAIL
100
AcDbLine
 10
2.976574941681535
 20
2.26988745802993
 30
0.0
 11
2.643760137576439
 21
2.602702262135027
 31
0.0
  0
LINE
  5
1AD
330
1E
100
AcDbEntity
  8
ADP1DETAIL
100
AcDbLine
 10
2.839533551755907
 20
3.033403773329856
 30
0.0
 11
2.976574941681535
 21
2.896362383404228
 31
0.0
  0
LWPOLYLINE
  5
1AE
330
1E
100
AcDbEntity
  8
ADP1DETAIL
100
AcDbPolyline
 90
        5
 70
     0
 43
0.0
 10
2.934257425812901
 20
3.464457735896955
 10
2.862792741580856
 20
3.531158107846863
 42
0.9284189221609072
 10
2.757977871373859
 20
3.431107549922002
 10
2.919964488966493
 20
3.245299370918685
 42
0.9058375253520349
 10
3.043836608302036
 20
3.33105699199714
 42
0.5885974569407209
  0
LWPOLYLINE
  5
1B5
330
1E
100
AcDbEntity
  8
ADP1DETAIL
100
AcDbPolyline
 90
        5
 70
     0
 43
0.0
 10
2.743551628344964
 20
3.464457735896955
 10
2.672086944112918
 20
3.531158107846863
 42
0.9284189221609072
 10
2.567272073905921
 20
3.431107549922002
 10
2.729258691498555
 20
3.245299370918685
 42
0.9058375253520349
 10
2.853130810834098
 20
3.33105699199714
 42
0.5885974569407209
  0
ARC
  5
1BC
330
1E
100
AcDbEntity
  8
ADP1DETAIL
100
AcDbCircle
 10
2.884494743552111
 20
3.320597530294755
 30
0.0
 40
0.3671136656320204
100
AcDbArc
 50
53.63671423043872
 51
126.3483924594263
  0
LINE
  5
1BD
330
1E
100
AcDbEntity
  8
ADP1DETAIL
100
AcDbLine
 10
2.457775394105945
 20
2.778898334896547
 30
0.0
 11
2.203269955672636
 21
3.033403773329856
 31
0.0
  0
LINE
  5
1BE
330
1E
100
AcDbEntity
  8
ADP1DETAIL
100
AcDbLine
 10
2.643760137576439
 20
2.602702262135027
 30
0.0
 11
2.457775394105945
 21
2.778898334896547
 31
0.0
  0
LINE
  5
1BF
330
1E
100
AcDbEntity
  8
ADP1DETAIL
100
AcDbLine
 10
2.262001979926477
 20
2.377562835828637
 30
0.0
 11
2.438198052687997
 21
2.377562835828637
 31
0.0
  0
LINE
  5
1C0
330
1E
100
AcDbEntity
  8
ADP1DETAIL
100
AcDbLine
 10
2.262001979926477
 20
2.553758908590159
 30
0.0
 11
2.262001979926477
 21
2.377562835828637
 31
0.0
  0
LINE
  5
1C1
330
1E
100
AcDbEntity
  8
ADP1DETAIL
100
AcDbLine
 10
2.203269955672636
 20
3.033403773329856
 30
0.0
 11
2.839533551755907
 21
3.033403773329856
 31
0.0
  0
LWPOLYLINE
  5
1C2
330
1E
100
AcDbEntity
  8
ADP1DETAIL
100
AcDbPolyline
 90
        5
 70
     0
 43
0.0
 10
2.354193920052089
 20
3.464457735896955
 10
2.282729235820044
 20
3.531158107846863
 42
0.9284189221609072
 10
2.177914365613047
 20
3.431107549922002
 10
2.339900983205681
 20
3.245299370918685
 42
0.9058375253520349
 10
2.463773102541224
 20
3.33105699199714
 42
0.5885974569407209
  0
LWPOLYLINE
  5
1C9
330
1E
100
AcDbEntity
  8
ADP1DETAIL
100
AcDbPolyline
 90
        5
 70
     0
 43
0.0
 10
2.550027215796083
 20
3.464457735896955
 10
2.478562531564038
 20
3.531158107846863
 42
0.9284189221609072
 10
2.37374766135704
 20
3.431107549922002
 10
2.535734278949675
 20
3.245299370918685
 42
0.9058375253520349
 10
2.659606398285218
 20
3.33105699199714
 42
0.5885974569407209
  0
ARC
  5
1D0
330
1E
100
AcDbEntity
  8
ADP1DETAIL
100
AcDbCircle
 10
2.440532399701053
 20
3.311997645291309
 30
0.0
 40
0.375724530279794
100
AcDbArc
 50
54.06735356270946
 51
125.9326464372905
  0
LINE
  5
1D1
330
1E
100
AcDbEntity
  8
ADP1DETAIL
100
AcDbLine
 10
2.839533551755907
 20
3.033403773329856
 30
0.0
 11
2.839533551755907
 21
3.033403773329856
 31
0.0
  0
LINE
  5
1D2
330
1E
100
AcDbEntity
  8
ADP1DETAIL
100
AcDbLine
 10
2.976574941681535
 20
2.896362383404228
 30
0.0
 11
3.103827660898189
 21
3.033403773329856
 31
0.0
  0
LINE
  5
1D3
330
1E
100
AcDbEntity
  8
ADP1DETAIL
100
AcDbLine
 10
3.289812404368683
 20
2.583124920717079
 30
0.0
 11
2.976574941681535
 21
2.26988745802993
 31
0.0
  0
LINE
  5
1D4
330
1E
100
AcDbEntity
  8
ADP1DETAIL
100
AcDbLine
 10
3.485585818548151
 20
2.778898334896547
 30
0.0
 11
3.289812404368683
 21
2.583124920717079
 31
0.0
  0
LWPOLYLINE
  5
1D5
330
1E
100
AcDbEntity
  8
ADP1DETAIL
100
AcDbPolyline
 90
        5
 70
     0
 43
0.0
 10
3.319642111616166
 20
3.464457735896955
 10
3.248177427384121
 20
3.531158107846863
 42
0.9284189221609072
 10
3.143362557177124
 20
3.431107549922002
 10
3.305349174769757
 20
3.245299370918685
 42
0.9058375253520349
 10
3.429221294105301
 20
3.33105699199714
 42
0.5885974569407209
  0
LWPOLYLINE
  5
1DC
330
1E
100
AcDbEntity
  8
ADP1DETAIL
100
AcDbPolyline
 90
        5
 70
     0
 43
0.0
 10
3.124963257469729
 20
3.464457735896955
 10
3.053498573237684
 20
3.531158107846863
 42
0.9284189221609072
 10
2.948683703030686
 20
3.431107549922002
 10
3.110670320623321
 20
3.245299370918685
 42
0.9058375253520349
 10
3.234542439958863
 20
3.33105699199714
 42
0.5885974569407209
  0
ARC
  5
1E3
330
1E
100
AcDbEntity
  8
ADP1DETAIL
100
AcDbCircle
 10
3.3200479804424
 20
3.320597530294755
 30
0.0
 40
0.3671136656320204
100
AcDbArc
 50
53.63671423043872
 51
126.3483924594263
  0
LWPOLYLINE
  5
1E4
330
1E
100
AcDbEntity
  8
ADP1DETAIL
100
AcDbPolyline
 90
        5
 70
     0
 43
0.0
 10
6.185330275603717
 20
0.8742993903579364
 10
6.113865591371672
 20
0.9409997623078441
 42
0.9284189221609072
 10
6.009050721164674
 20
0.8409492043829827
 10
6.171037338757309
 20
0.6551410253796659
 42
0.9058375253520349
 10
6.294909458092852
 20
0.7408986464581214
 42
0.5885974569407209
  0
LWPOLYLINE
  5
1EB
330
1E
100
AcDbEntity
  8
ADP1DETAIL
100
AcDbPolyline
 90
        5
 70
     0
 43
0.0
 10
5.99065142145728
 20
0.8742993903579364
 10
5.919186737225234
 20
0.9409997623078441
 42
0.9284189221609072
 10
5.814371867018238
 20
0.8409492043829827
 10
5.976358484610871
 20
0.6551410253796659
 42
0.9058375253520349
 10
6.100230603946415
 20
0.7408986464581214
 42
0.5885974569407209
  0
LWPOLYLINE
  5
1F2
330
1E
100
AcDbEntity
  8
ADP1DETAIL
100
AcDbPolyline
 90
        5
 70
     0
 43
0.0
 10
5.414560903997188
 20
0.8742993903579364
 10
5.343096219765142
 20
0.9409997623078441
 42
0.9284189221609072
 10
5.238281349558144
 20
0.8409492043829827
 10
5.40026796715078
 20
0.6551410253796659
 42
0.9058375253520349
 10
5.524140086486323
 20
0.7408986464581214
 42
0.5885974569407209
  0
LWPOLYLINE
  5
1F9
330
1E
100
AcDbEntity
  8
ADP1DETAIL
100
AcDbPolyline
 90
        5
 70
     0
 43
0.0
 10
5.223855106529249
 20
0.8742993903579364
 10
5.152390422297205
 20
0.9409997623078441
 42
0.9284189221609072
 10
5.047575552090208
 20
0.8409492043829827
 10
5.209562169682842
 20
0.6551410253796659
 42
0.9058375253520349
 10
5.333434289018384
 20
0.7408986464581214
 42
0.5885974569407209
  0
LWPOLYLINE
  5
200
330
1E
100
AcDbEntity
  8
ADP1DETAIL
100
AcDbPolyline
 90
        5
 70
     0
 43
0.0
 10
5.605266735654016
 20
0.8742993903579364
 10
5.53380205142197
 20
0.9409997623078441
 42
0.9284189221609072
 10
5.428987181214973
 20
0.8409492043829827
 10
5.590973798807607
 20
0.6551410253796659
 42
0.9058375253520349
 10
5.71484591814315
 20
0.7408986464581214
 42
0.5885974569407209
  0
LWPOLYLINE
  5
207
330
1E
100
AcDbEntity
  8
ADP1DETAIL
100
AcDbPolyline
 90
        5
 70
     0
 43
0.0
 10
5.795972567310842
 20
0.8742993903579364
 10
5.724507883078798
 20
0.9409997623078441
 42
0.9284189221609072
 10
5.619693012871801
 20
0.8409492043829827
 10
5.781679630464435
 20
0.6551410253796659
 42
0.9058375253520349
 10
5.905551749799978
 20
0.7408986464581214
 42
0.5885974569407209
  0
LWPOLYLINE
  5
20E
330
1E
100
AcDbEntity
  8
ADP1DETAIL
100
AcDbPolyline
 90
        5
 70
     0
 43
0.0
 10
4.647764623258048
 20
0.8742993903579364
 10
4.576299939026002
 20
0.9409997623078441
 42
0.9284189221609072
 10
4.471485068819005
 20
0.8409492043829827
 10
4.633471686411638
 20
0.6551410253796659
 42
0.9058375253520349
 10
4.757343805747182
 20
0.7408986464581214
 42
0.5885974569407209
  0
LWPOLYLINE
  5
215
330
1E
100
AcDbEntity
  8
ADP1DETAIL
100
AcDbPolyline
 90
        5
 70
     0
 43
0.0
 10
4.454240210709166
 20
0.8742993903579364
 10
4.382775526477121
 20
0.9409997623078441
 42
0.9284189221609072
 10
4.277960656270124
 20
0.8409492043829827
 10
4.439947273862759
 20
0.6551410253796659
 42
0.9058375253520349
 10
4.563819393198301
 20
0.7408986464581214
 42
0.5885974569407209
  0
LWPOLYLINE
  5
21C
330
1E
100
AcDbEntity
  8
ADP1DETAIL
100
AcDbPolyline
 90
        5
 70
     0
 43
0.0
 10
4.838470420725984
 20
0.8742993903579364
 10
4.76700573649394
 20
0.9409997623078441
 42
0.9284189221609072
 10
4.662190866286943
 20
0.8409492043829827
 10
4.824177483879577
 20
0.6551410253796659
 42
0.9058375253520349
 10
4.948049603215119
 20
0.7408986464581214
 42
0.5885974569407209
  0
LWPOLYLINE
  5
223
330
1E
100
AcDbEntity
  8
ADP1DETAIL
100
AcDbPolyline
 90
        5
 70
     0
 43
0.0
 10
5.029176252382812
 20
0.8742993903579364
 10
4.957711568150767
 20
0.9409997623078441
 42
0.9284189221609072
 10
4.852896697943769
 20
0.8409492043829827
 10
5.014883315536405
 20
0.6551410253796659
 42
0.9058375253520349
 10
5.138755434871947
 20
0.7408986464581214
 42
0.5885974569407209
  0
LWPOLYLINE
  5
22A
330
1E
100
AcDbEntity
  8
ADP1DETAIL
100
AcDbPolyline
 90
        5
 70
     0
 43
0.0
 10
4.086438426544196
 20
0.8742993903579364
 10
4.01497374231215
 20
0.9409997623078441
 42
0.9284189221609072
 10
3.910158872105153
 20
0.8409492043829827
 10
4.072145489697788
 20
0.6551410253796659
 42
0.9058375253520349
 10
4.196017609033331
 20
0.7408986464581214
 42
0.5885974569407209
  0
LWPOLYLINE
  5
231
330
1E
100
AcDbEntity
  8
ADP1DETAIL
100
AcDbPolyline
 90
        5
 70
     0
 43
0.0
 10
3.891759572397759
 20
0.8742993903579364
 10
3.820294888165714
 20
0.9409997623078441
 42
0.9284189221609072
 10
3.715480017958717
 20
0.8409492043829827
 10
3.877466635551352
 20
0.6551410253796659
 42
0.9058375253520349
 10
4.001338754886894
 20
0.7408986464581214
 42
0.5885974569407209
  0
LWPOLYLINE
  5
238
330
1E
100
AcDbEntity
  8
ADP1DETAIL
100
AcDbPolyline
 90
        5
 70
     0
 43
0.0
 10
4.281117280690633
 20
0.8742993903579364
 10
4.209652596458588
 20
0.9409997623078441
 42
0.9284189221609072
 10
4.104837726251591
 20
0.8409492043829827
 10
4.266824343844225
 20
0.6551410253796659
 42
0.9058375253520349
 10
4.390696463179768
 20
0.7408986464581214
 42
0.5885974569407209
  0
ARC
  5
23F
330
1E
100
AcDbEntity
  8
ADP1DETAIL
100
AcDbCircle
 10
5.066975523215379
 20
0.8191920541753706
 30
0.0
 40
0.3671136656320204
100
AcDbArc
 50
233.6516075405736
 51
306.3632857695612
  0
ARC
  5
240
330
1E
100
AcDbEntity
  8
ADP1DETAIL
100
AcDbCircle
 10
4.187459942474032
 20
0.8277919391788145
 30
0.0
 40
0.375724530279794
100
AcDbArc
 50
234.0673535627094
 51
305.9326464372905
  0
ARC
  5
241
330
1E
100
AcDbEntity
  8
ADP1DETAIL
100
AcDbCircle
 10
4.631422286325091
 20
0.8191920541753706
 30
0.0
 40
0.3671136656320204
100
AcDbArc
 50
233.6516075405736
 51
306.3632857695612
  0
ARC
  5
242
330
1E
100
AcDbEntity
  8
ADP1DETAIL
100
AcDbCircle
 10
5.502528760105668
 20
0.8191920541753706
 30
0.0
 40
0.3671136656320204
100
AcDbArc
 50
233.6516075405736
 51
306.3632857695612
  0
ARC
  5
243
330
1E
100
AcDbEntity
  8
ADP1DETAIL
100
AcDbCircle
 10
5.940679413265849
 20
0.8277919391788145
 30
0.0
 40
0.375724530279794
100
AcDbArc
 50
234.0673535627094
 51
305.9326464372905
  0
LINE
  5
244
330
1E
100
AcDbEntity
  8
ADP1DETAIL
100
AcDbLine
 10
4.934309083476213
 20
1.8391859468351
 30
0.0
 11
5.247546546163362
 21
1.525948484147951
 31
0.0
  0
LINE
  5
245
330
1E
100
AcDbEntity
  8
ADP1DETAIL
100
AcDbLine
 10
5.071350473401841
 20
1.065880960826203
 30
0.0
 11
4.934309083476213
 21
1.202922350751831
 31
0.0
  0
LINE
  5
246
330
1E
100
AcDbEntity
  8
ADP1DETAIL
100
AcDbLine
 10
5.237757875454388
 20
2.592913591426052
 30
0.0
 11
4.924520412767241
 21
2.26988745802993
 31
0.0
  0
LINE
  5
247
330
1E
100
AcDbEntity
  8
ADP1DETAIL
100
AcDbLine
 10
4.924520412767241
 20
2.906151054113202
 30
0.0
 11
5.061561802692867
 21
3.04319244403883
 31
0.0
  0
LWPOLYLINE
  5
248
330
1E
100
AcDbEntity
  8
ADP1DETAIL
100
AcDbPolyline
 90
        5
 70
     0
 43
0.0
 10
5.029176252382812
 20
3.464457735896955
 10
4.957711568150767
 20
3.531158107846863
 42
0.9284189221609072
 10
4.852896697943769
 20
3.431107549922002
 10
5.014883315536405
 20
3.245299370918685
 42
0.9058375253520349
 10
5.138755434871947
 20
3.33105699199714
 42
0.5885974569407209
  0
LWPOLYLINE
  5
24F
330
1E
100
AcDbEntity
  8
ADP1DETAIL
100
AcDbPolyline
 90
        5
 70
     0
 43
0.0
 10
4.838470420725984
 20
3.464457735896955
 10
4.76700573649394
 20
3.531158107846863
 42
0.9284189221609072
 10
4.662190866286943
 20
3.431107549922002
 10
4.824177483879577
 20
3.245299370918685
 42
0.9058375253520349
 10
4.948049603215119
 20
3.33105699199714
 42
0.5885974569407209
  0
ARC
  5
256
330
1E
100
AcDbEntity
  8
ADP1DETAIL
100
AcDbCircle
 10
5.066975523215379
 20
3.320597530294755
 30
0.0
 40
0.3671136656320204
100
AcDbArc
 50
53.63671423043872
 51
126.3483924594263
  0
LINE
  5
257
330
1E
100
AcDbEntity
  8
ADP1DETAIL
100
AcDbLine
 10
4.415509535900624
 20
2.357985494410692
 30
0.0
 11
4.748324340005718
 21
2.025170690305595
 31
0.0
  0
LINE
  5
258
330
1E
100
AcDbEntity
  8
ADP1DETAIL
100
AcDbLine
 10
4.170792768176289
 20
1.065880960826203
 30
0.0
 11
4.425298206609598
 21
1.330175069968485
 31
0.0
  0
LINE
  5
259
330
1E
100
AcDbEntity
  8
ADP1DETAIL
100
AcDbLine
 10
4.797267693550587
 20
1.065880960826203
 30
0.0
 11
4.170792768176289
 21
1.065880960826203
 31
0.0
  0
LINE
  5
25A
330
1E
100
AcDbEntity
  8
ADP1DETAIL
100
AcDbLine
 10
4.425298206609598
 20
1.711933227618446
 30
0.0
 11
4.22952479243013
 21
1.711933227618446
 31
0.0
  0
LINE
  5
25B
330
1E
100
AcDbEntity
  8
ADP1DETAIL
100
AcDbLine
 10
3.975019353996821
 20
1.261654375005671
 30
0.0
 11
3.720513915563512
 21
1.51615981343898
 31
0.0
  0
LINE
  5
25C
330
1E
100
AcDbEntity
  8
ADP1DETAIL
100
AcDbLine
 10
4.22952479243013
 20
1.51615981343898
 30
0.0
 11
3.984808024705794
 21
1.261654375005671
 31
0.0
  0
LINE
  5
25D
330
1E
100
AcDbEntity
  8
ADP1DETAIL
100
AcDbLine
 10
3.984808024705794
 20
1.261654375005671
 30
0.0
 11
3.984808024705794
 21
1.261654375005671
 31
0.0
  0
LINE
  5
25E
330
1E
100
AcDbEntity
  8
ADP1DETAIL
100
AcDbLine
 10
3.975019353996821
 20
1.261654375005671
 30
0.0
 11
3.975019353996821
 21
1.261654375005671
 31
0.0
  0
LINE
  5
25F
330
1E
100
AcDbEntity
  8
ADP1DETAIL
100
AcDbLine
 10
3.975019353996821
 20
1.261654375005671
 30
0.0
 11
3.975019353996821
 21
1.261654375005671
 31
0.0
  0
LINE
  5
260
330
1E
100
AcDbEntity
  8
ADP1DETAIL
100
AcDbLine
 10
3.984808024705794
 20
1.261654375005671
 30
0.0
 11
3.975019353996821
 21
1.261654375005671
 31
0.0
  0
LINE
  5
261
330
1E
100
AcDbEntity
  8
ADP1DETAIL
100
AcDbLine
 10
3.984808024705794
 20
1.261654375005671
 30
0.0
 11
3.984808024705794
 21
1.261654375005671
 31
0.0
  0
LINE
  5
262
330
1E
100
AcDbEntity
  8
ADP1DETAIL
100
AcDbLine
 10
3.720513915563512
 20
1.51615981343898
 30
0.0
 11
3.720513915563512
 21
1.711933227618446
 31
0.0
  0
LINE
  5
263
330
1E
100
AcDbEntity
  8
ADP1DETAIL
100
AcDbLine
 10
4.22952479243013
 20
1.711933227618446
 30
0.0
 11
4.22952479243013
 21
1.51615981343898
 31
0.0
  0
LINE
  5
264
330
1E
100
AcDbEntity
  8
ADP1DETAIL
100
AcDbLine
 10
4.425298206609598
 20
1.330175069968485
 30
0.0
 11
4.601494279371118
 21
1.506371142730007
 31
0.0
  0
LINE
  5
265
330
1E
100
AcDbEntity
  8
ADP1DETAIL
100
AcDbLine
 10
4.934309083476213
 20
1.202922350751831
 30
0.0
 11
4.797267693550587
 21
1.065880960826203
 31
0.0
  0
LINE
  5
266
330
1E
100
AcDbEntity
  8
ADP1DETAIL
100
AcDbLine
 10
4.601494279371118
 20
1.506371142730007
 30
0.0
 11
4.934309083476213
 21
1.8391859468351
 31
0.0
  0
LINE
  5
267
330
1E
100
AcDbEntity
  8
ADP1DETAIL
100
AcDbLine
 10
4.748324340005718
 20
2.025170690305595
 30
0.0
 11
4.425298206609598
 21
1.711933227618446
 31
0.0
  0
LINE
  5
268
330
1E
100
AcDbEntity
  8
ADP1DETAIL
100
AcDbLine
 10
4.22952479243013
 20
2.357985494410692
 30
0.0
 11
4.415509535900624
 21
2.357985494410692
 31
0.0
  0
LINE
  5
269
330
1E
100
AcDbEntity
  8
ADP1DETAIL
100
AcDbLine
 10
4.151215426758342
 20
3.04319244403883
 30
0.0
 11
4.787479022841613
 21
3.04319244403883
 31
0.0
  0
LINE
  5
26A
330
1E
100
AcDbEntity
  8
ADP1DETAIL
100
AcDbLine
 10
4.40572086519165
 20
2.78868700560552
 30
0.0
 11
4.151215426758342
 21
3.04319244403883
 31
0.0
  0
LWPOLYLINE
  5
26B
330
1E
100
AcDbEntity
  8
ADP1DETAIL
100
AcDbPolyline
 90
        5
 70
     0
 43
0.0
 10
4.454240210709166
 20
3.464457735896955
 10
4.382775526477121
 20
3.531158107846863
 42
0.9284189221609072
 10
4.277960656270124
 20
3.431107549922002
 10
4.439947273862759
 20
3.245299370918685
 42
0.9058375253520349
 10
4.563819393198301
 20
3.33105699199714
 42
0.5885974569407209
  0
LWPOLYLINE
  5
272
330
1E
100
AcDbEntity
  8
ADP1DETAIL
100
AcDbPolyline
 90
        5
 70
     0
 43
0.0
 10
4.281117280690633
 20
3.464457735896955
 10
4.209652596458588
 20
3.531158107846863
 42
0.9284189221609072
 10
4.104837726251591
 20
3.431107549922002
 10
4.266824343844225
 20
3.245299370918685
 42
0.9058375253520349
 10
4.390696463179768
 20
3.33105699199714
 42
0.5885974569407209
  0
ARC
  5
279
330
1E
100
AcDbEntity
  8
ADP1DETAIL
100
AcDbCircle
 10
4.187459942474032
 20
3.311997645291309
 30
0.0
 40
0.375724530279794
100
AcDbArc
 50
54.06735356270946
 51
125.9326464372905
  0
LINE
  5
27A
330
1E
100
AcDbEntity
  8
ADP1DETAIL
100
AcDbLine
 10
3.720513915563512
 20
2.543970237881186
 30
0.0
 11
3.975019353996821
 21
2.78868700560552
 31
0.0
  0
LINE
  5
27B
330
1E
100
AcDbEntity
  8
ADP1DETAIL
100
AcDbLine
 10
3.720513915563512
 20
2.357985494410692
 30
0.0
 11
3.720513915563512
 21
2.543970237881186
 31
0.0
  0
LINE
  5
27C
330
1E
100
AcDbEntity
  8
ADP1DETAIL
100
AcDbLine
 10
3.984808024705794
 20
2.78868700560552
 30
0.0
 11
4.22952479243013
 21
2.543970237881186
 31
0.0
  0
LINE
  5
27D
330
1E
100
AcDbEntity
  8
ADP1DETAIL
100
AcDbLine
 10
4.22952479243013
 20
2.543970237881186
 30
0.0
 11
4.22952479243013
 21
2.357985494410692
 31
0.0
  0
LINE
  5
27E
330
1E
100
AcDbEntity
  8
ADP1DETAIL
100
AcDbLine
 10
3.984808024705794
 20
2.798475676314494
 30
0.0
 11
3.984808024705794
 21
2.78868700560552
 31
0.0
  0
LINE
  5
27F
330
1E
100
AcDbEntity
  8
ADP1DETAIL
100
AcDbLine
 10
3.975019353996821
 20
2.798475676314494
 30
0.0
 11
3.984808024705794
 21
2.798475676314494
 31
0.0
  0
LINE
  5
280
330
1E
100
AcDbEntity
  8
ADP1DETAIL
100
AcDbLine
 10
3.975019353996821
 20
2.798475676314494
 30
0.0
 11
3.975019353996821
 21
2.798475676314494
 31
0.0
  0
LINE
  5
281
330
1E
100
AcDbEntity
  8
ADP1DETAIL
100
AcDbLine
 10
3.975019353996821
 20
2.78868700560552
 30
0.0
 11
3.975019353996821
 21
2.798475676314494
 31
0.0
  0
LWPOLYLINE
  5
282
330
1E
100
AcDbEntity
  8
ADP1DETAIL
100
AcDbPolyline
 90
        5
 70
     0
 43
0.0
 10
3.891759572397759
 20
3.464457735896955
 10
3.820294888165714
 20
3.531158107846863
 42
0.9284189221609072
 10
3.715480017958717
 20
3.431107549922002
 10
3.877466635551352
 20
3.245299370918685
 42
0.9058375253520349
 10
4.001338754886894
 20
3.33105699199714
 42
0.5885974569407209
  0
LWPOLYLINE
  5
289
330
1E
100
AcDbEntity
  8
ADP1DETAIL
100
AcDbPolyline
 90
        5
 70
     0
 43
0.0
 10
4.086438426544196
 20
3.464457735896955
 10
4.01497374231215
 20
3.531158107846863
 42
0.9284189221609072
 10
3.910158872105153
 20
3.431107549922002
 10
4.072145489697788
 20
3.245299370918685
 42
0.9058375253520349
 10
4.196017609033331
 20
3.33105699199714
 42
0.5885974569407209
  0
LINE
  5
290
330
1E
100
AcDbEntity
  8
ADP1DETAIL
100
AcDbLine
 10
4.787479022841613
 20
3.04319244403883
 30
0.0
 11
4.924520412767241
 21
2.906151054113202
 31
0.0
  0
LINE
  5
291
330
1E
100
AcDbEntity
  8
ADP1DETAIL
100
AcDbLine
 10
4.924520412767241
 20
2.26988745802993
 30
0.0
 11
4.591705608662145
 21
2.602702262135027
 31
0.0
  0
LINE
  5
292
330
1E
100
AcDbEntity
  8
ADP1DETAIL
100
AcDbLine
 10
4.591705608662145
 20
2.602702262135027
 30
0.0
 11
4.40572086519165
 21
2.78868700560552
 31
0.0
  0
LWPOLYLINE
  5
293
330
1E
100
AcDbEntity
  8
ADP1DETAIL
100
AcDbPolyline
 90
        5
 70
     0
 43
0.0
 10
4.647764623258048
 20
3.464457735896955
 10
4.576299939026002
 20
3.531158107846863
 42
0.9284189221609072
 10
4.471485068819005
 20
3.431107549922002
 10
4.633471686411638
 20
3.245299370918685
 42
0.9058375253520349
 10
4.757343805747182
 20
3.33105699199714
 42
0.5885974569407209
  0
ARC
  5
29A
330
1E
100
AcDbEntity
  8
ADP1DETAIL
100
AcDbCircle
 10
4.631422286325091
 20
3.320597530294755
 30
0.0
 40
0.3671136656320204
100
AcDbArc
 50
53.63671423043872
 51
126.3483924594263
  0
LINE
  5
29B
330
1E
100
AcDbEntity
  8
ADP1DETAIL
100
AcDbLine
 10
4.787479022841613
 20
3.04319244403883
 30
0.0
 11
4.787479022841613
 21
3.04319244403883
 31
0.0
  0
LINE
  5
29C
330
1E
100
AcDbEntity
  8
ADP1DETAIL
100
AcDbLine
 10
5.159448509782603
 20
2.025170690305595
 30
0.0
 11
5.492263313887696
 21
2.357985494410692
 31
0.0
  0
LINE
  5
29D
330
1E
100
AcDbEntity
  8
ADP1DETAIL
100
AcDbLine
 10
5.707614069485113
 20
1.065880960826203
 30
0.0
 11
5.071350473401841
 21
1.065880960826203
 31
0.0
  0
LINE
  5
29E
330
1E
100
AcDbEntity
  8
ADP1DETAIL
100
AcDbLine
 10
5.453108631051803
 20
1.330175069968485
 30
0.0
 11
5.707614069485113
 21
1.065880960826203
 31
0.0
  0
LINE
  5
29F
330
1E
100
AcDbEntity
  8
ADP1DETAIL
100
AcDbLine
 10
5.922964825082526
 20
1.261654375005671
 30
0.0
 11
5.678248057358191
 21
1.51615981343898
 31
0.0
  0
LINE
  5
2A0
330
1E
100
AcDbEntity
  8
ADP1DETAIL
100
AcDbLine
 10
5.247546546163362
 20
1.525948484147951
 30
0.0
 11
5.453108631051803
 21
1.330175069968485
 31
0.0
  0
LINE
  5
2A1
330
1E
100
AcDbEntity
  8
ADP1DETAIL
100
AcDbLine
 10
5.071350473401841
 20
1.065880960826203
 30
0.0
 11
5.071350473401841
 21
1.065880960826203
 31
0.0
  0
LINE
  5
2A2
330
1E
100
AcDbEntity
  8
ADP1DETAIL
100
AcDbLine
 10
5.482474643178723
 20
1.711933227618446
 30
0.0
 11
5.159448509782603
 21
2.025170690305595
 31
0.0
  0
LINE
  5
2A3
330
1E
100
AcDbEntity
  8
ADP1DETAIL
100
AcDbLine
 10
5.678248057358191
 20
1.711933227618446
 30
0.0
 11
5.482474643178723
 21
1.711933227618446
 31
0.0
  0
LINE
  5
2A4
330
1E
100
AcDbEntity
  8
ADP1DETAIL
100
AcDbLine
 10
5.678248057358191
 20
1.51615981343898
 30
0.0
 11
5.678248057358191
 21
1.711933227618446
 31
0.0
  0
LINE
  5
2A5
330
1E
100
AcDbEntity
  8
ADP1DETAIL
100
AcDbLine
 10
5.9327534957915
 20
1.261654375005671
 30
0.0
 11
5.9327534957915
 21
1.261654375005671
 31
0.0
  0
LINE
  5
2A6
330
1E
100
AcDbEntity
  8
ADP1DETAIL
100
AcDbLine
 10
5.9327534957915
 20
1.261654375005671
 30
0.0
 11
5.9327534957915
 21
1.261654375005671
 31
0.0
  0
LINE
  5
2A7
330
1E
100
AcDbEntity
  8
ADP1DETAIL
100
AcDbLine
 10
5.942542166500474
 20
1.271443045714645
 30
0.0
 11
5.9327534957915
 21
1.261654375005671
 31
0.0
  0
LINE
  5
2A8
330
1E
100
AcDbEntity
  8
ADP1DETAIL
100
AcDbLine
 10
5.922964825082526
 20
1.261654375005671
 30
0.0
 11
5.922964825082526
 21
1.261654375005671
 31
0.0
  0
LINE
  5
2A9
330
1E
100
AcDbEntity
  8
ADP1DETAIL
100
AcDbLine
 10
5.9327534957915
 20
1.261654375005671
 30
0.0
 11
5.922964825082526
 21
1.261654375005671
 31
0.0
  0
LINE
  5
2AA
330
1E
100
AcDbEntity
  8
ADP1DETAIL
100
AcDbLine
 10
5.9327534957915
 20
1.261654375005671
 30
0.0
 11
5.9327534957915
 21
1.261654375005671
 31
0.0
  0
LINE
  5
2AB
330
1E
100
AcDbEntity
  8
ADP1DETAIL
100
AcDbLine
 10
5.678248057358191
 20
2.543970237881186
 30
0.0
 11
5.922964825082526
 21
2.798475676314494
 31
0.0
  0
LWPOLYLINE
  5
2AC
330
1E
100
AcDbEntity
  8
ADP1DETAIL
100
AcDbPolyline
 90
        5
 70
     0
 43
0.0
 10
5.795972567310842
 20
3.464457735896955
 10
5.724507883078798
 20
3.531158107846863
 42
0.9284189221609072
 10
5.619693012871801
 20
3.431107549922002
 10
5.781679630464435
 20
3.245299370918685
 42
0.9058375253520349
 10
5.905551749799978
 20
3.33105699199714
 42
0.5885974569407209
  0
LWPOLYLINE
  5
2B3
330
1E
100
AcDbEntity
  8
ADP1DETAIL
100
AcDbPolyline
 90
        5
 70
     0
 43
0.0
 10
5.605266735654016
 20
3.464457735896955
 10
5.53380205142197
 20
3.531158107846863
 42
0.9284189221609072
 10
5.428987181214973
 20
3.431107549922002
 10
5.590973798807607
 20
3.245299370918685
 42
0.9058375253520349
 10
5.71484591814315
 20
3.33105699199714
 42
0.5885974569407209
  0
ARC
  5
2BA
330
1E
100
AcDbEntity
  8
ADP1DETAIL
100
AcDbCircle
 10
5.502528760105668
 20
3.320597530294755
 30
0.0
 40
0.3671136656320204
100
AcDbArc
 50
53.63671423043872
 51
126.3483924594263
  0
LINE
  5
2BB
330
1E
100
AcDbEntity
  8
ADP1DETAIL
100
AcDbLine
 10
5.688036728067165
 20
3.04319244403883
 30
0.0
 11
5.433531289633856
 21
2.78868700560552
 31
0.0
  0
LINE
  5
2BC
330
1E
100
AcDbEntity
  8
ADP1DETAIL
100
AcDbLine
 10
5.433531289633856
 20
2.78868700560552
 30
0.0
 11
5.237757875454388
 21
2.592913591426052
 31
0.0
  0
LINE
  5
2BD
330
1E
100
AcDbEntity
  8
ADP1DETAIL
100
AcDbLine
 10
5.678248057358191
 20
2.357985494410692
 30
0.0
 11
5.678248057358191
 21
2.543970237881186
 31
0.0
  0
LINE
  5
2BE
330
1E
100
AcDbEntity
  8
ADP1DETAIL
100
AcDbLine
 10
5.492263313887696
 20
2.357985494410692
 30
0.0
 11
5.678248057358191
 21
2.357985494410692
 31
0.0
  0
LINE
  5
2BF
330
1E
100
AcDbEntity
  8
ADP1DETAIL
100
AcDbLine
 10
5.061561802692867
 20
3.04319244403883
 30
0.0
 11
5.688036728067165
 21
3.04319244403883
 31
0.0
  0
LWPOLYLINE
  5
2C0
330
1E
100
AcDbEntity
  8
ADP1DETAIL
100
AcDbPolyline
 90
        5
 70
     0
 43
0.0
 10
5.223855106529249
 20
3.464457735896955
 10
5.152390422297205
 20
3.531158107846863
 42
0.9284189221609072
 10
5.047575552090208
 20
3.431107549922002
 10
5.209562169682842
 20
3.245299370918685
 42
0.9058375253520349
 10
5.333434289018384
 20
3.33105699199714
 42
0.5885974569407209
  0
LWPOLYLINE
  5
2C7
330
1E
100
AcDbEntity
  8
ADP1DETAIL
100
AcDbPolyline
 90
        5
 70
     0
 43
0.0
 10
5.414560903997188
 20
3.464457735896955
 10
5.343096219765142
 20
3.531158107846863
 42
0.9284189221609072
 10
5.238281349558144
 20
3.431107549922002
 10
5.40026796715078
 20
3.245299370918685
 42
0.9058375253520349
 10
5.524140086486323
 20
3.33105699199714
 42
0.5885974569407209
  0
LINE
  5
2CE
330
1E
100
AcDbEntity
  8
ADP1DETAIL
100
AcDbLine
 10
5.9327534957915
 20
2.798475676314494
 30
0.0
 11
5.942542166500474
 21
2.778898334896547
 31
0.0
  0
LINE
  5
2CF
330
1E
100
AcDbEntity
  8
ADP1DETAIL
100
AcDbLine
 10
5.9327534957915
 20
2.798475676314494
 30
0.0
 11
5.9327534957915
 21
2.798475676314494
 31
0.0
  0
LINE
  5
2D0
330
1E
100
AcDbEntity
  8
ADP1DETAIL
100
AcDbLine
 10
5.9327534957915
 20
2.798475676314494
 30
0.0
 11
5.9327534957915
 21
2.798475676314494
 31
0.0
  0
LINE
  5
2D1
330
1E
100
AcDbEntity
  8
ADP1DETAIL
100
AcDbLine
 10
5.922964825082526
 20
2.798475676314494
 30
0.0
 11
5.9327534957915
 21
2.798475676314494
 31
0.0
  0
LINE
  5
2D2
330
1E
100
AcDbEntity
  8
ADP1DETAIL
100
AcDbLine
 10
5.922964825082526
 20
2.798475676314494
 30
0.0
 11
5.922964825082526
 21
2.798475676314494
 31
0.0
  0
LWPOLYLINE
  5
2D3
330
1E
100
AcDbEntity
  8
ADP1DETAIL
100
AcDbPolyline
 90
        5
 70
     0
 43
0.0
 10
5.99065142145728
 20
3.464457735896955
 10
5.919186737225234
 20
3.531158107846863
 42
0.9284189221609072
 10
5.814371867018238
 20
3.431107549922002
 10
5.976358484610871
 20
3.245299370918685
 42
0.9058375253520349
 10
6.100230603946415
 20
3.33105699199714
 42
0.5885974569407209
  0
LWPOLYLINE
  5
2DA
330
1E
100
AcDbEntity
  8
ADP1DETAIL
100
AcDbPolyline
 90
        5
 70
     0
 43
0.0
 10
6.185330275603717
 20
3.464457735896955
 10
6.113865591371672
 20
3.531158107846863
 42
0.9284189221609072
 10
6.009050721164674
 20
3.431107549922002
 10
6.171037338757309
 20
3.245299370918685
 42
0.9058375253520349
 10
6.294909458092852
 20
3.33105699199714
 42
0.5885974569407209
  0
ARC
  5
2E1
330
1E
100
AcDbEntity
  8
ADP1DETAIL
100
AcDbCircle
 10
5.940679413265849
 20
3.311997645291309
 30
0.0
 40
0.375724530279794
100
AcDbArc
 50
54.06735356270946
 51
125.9326464372905
  0
ARC
  5
2E2
330
1E
100
AcDbEntity
  8
ADP1DETAIL
100
AcDbCircle
 10
6.820194994007197
 20
0.8191920541753706
 30
0.0
 40
0.3671136656320204
100
AcDbArc
 50
233.6516075405736
 51
306.3632857695612
  0
ARC
  5
2E3
330
1E
100
AcDbEntity
  8
ADP1DETAIL
100
AcDbCircle
 10
6.820194994007197
 20
3.320597530294755
 30
0.0
 40
0.3671136656320204
100
AcDbArc
 50
53.63671423043872
 51
126.3483924594263
  0
TEXT
  5
2E7
330
1E
100
AcDbEntity
  8
ADPDIM
100
AcDbText
 10
-2.994005677667517
 20
-0.151393638680688
 30
0.0
 40
0.125
  1
J U L I U S  B L U M  &  C O . ,  I N C .      ( 8 0 0 )  5 2 6 - 6 2 9 3        W W W . J U L I U S B L U M . C O M        P A R T  N o .  2 8 6 6
 41
1.25
  7
ARIAL_WIDE
 72
     1
 11
3.531723346889099
 21
-0.026393638680688
 31
0.0
100
AcDbText
 73
     3
  0
ENDSEC
  0
SECTION
  2
OBJECTS
  0
DICTIONARY
  5
C
330
0
100
AcDbDictionary
  3
ACAD_GROUP
350
D
  3
ACAD_LAYOUT
350
19
  3
ACAD_MLINESTYLE
350
16
  3
ACAD_PLOTSETTINGS
350
18
  3
ACAD_PLOTSTYLENAME
350
E
  3
ACDBHEADERROUNDTRIPXREC
350
4B4
  3
ACDBVARIABLEDICTIONARY
350
358
  0
DICTIONARY
  5
323
330
1E
100
AcDbDictionary
280
     1
  3
ACAD_LAYOUTSELFREF
360
4D6
  0
DICTIONARY
  5
325
330
1A
100
AcDbDictionary
280
     1
  3
ACAD_LAYOUTSELFREF
360
4D5
  0
DICTIONARY
  5
D
102
{ACAD_REACTORS
330
C
102
}
330
C
100
AcDbDictionary
  0
DICTIONARY
  5
19
102
{ACAD_REACTORS
330
C
102
}
330
C
100
AcDbDictionary
  0
DICTIONARY
  5
16
102
{ACAD_REACTORS
330
C
102
}
330
C
100
AcDbDictionary
  3
STANDARD
350
17
  0
DICTIONARY
  5
18
102
{ACAD_REACTORS
330
C
102
}
330
C
100
AcDbDictionary
  0
ACDBDICTIONARYWDFLT
  5
E
102
{ACAD_REACTORS
330
C
102
}
330
C
100
AcDbDictionary
281
     1
  3
Normal
350
F
100
AcDbDictionaryWithDefault
340
F
  0
DICTIONARY
  5
4B4
102
{ACAD_REACTORS
330
C
102
}
330
C
100
AcDbDictionary
  3
CEPSNTYPE
350
4BE
  3
DIMSTYLEDATA
350
4C2
  3
FINGERPRINTGUID
350
4BF
  3
HYPERLINKBASE
350
4B7
  3
INSUNITS
350
4BD
  3
LAYOUTDICT
350
4B9
  3
LWETCUNION
350
4BC
  3
PLOTSETDICT
350
4BA
  3
PLOTSTYLNAMDICT
350
4BB
  3
PSVPSCALE
350
4C1
  3
PUCSBASE
350
4C5
  3
PUCSORGBACK
350
4CB
  3
PUCSORGBOTTOM
350
4C7
  3
PUCSORGFRONT
350
4CA
  3
PUCSORGLEFT
350
4C8
  3
PUCSORGRIGHT
350
4C9
  3
PUCSORGTOP
350
4C6
  3
PUCSORTHOREF
350
4C3
  3
PUCSORTHOVIEW
350
4C4
  3
STYLESHEET
350
4B8
  3
TSTACKALIGN
350
4B5
  3
TSTACKSIZE
350
4B6
  3
UCSBASE
350
4CE
  3
UCSORGBACK
350
4D4
  3
UCSORGBOTTOM
350
4D0
  3
UCSORGFRONT
350
4D3
  3
UCSORGLEFT
350
4D1
  3
UCSORGRIGHT
350
4D2
  3
UCSORGTOP
350
4CF
  3
UCSORTHOREF
350
4CC
  3
UCSORTHOVIEW
350
4CD
  3
VERSIONGUID
350
4C0
  0
DICTIONARY
  5
358
102
{ACAD_REACTORS
330
C
102
}
330
C
100
AcDbDictionary
  3
DIMASSOC
350
35A
  3
HIDETEXT
350
359
  0
XRECORD
  5
4D6
102
{ACAD_REACTORS
330
323
102
}
330
323
100
AcDbXrecord
340
1E
  0
XRECORD
  5
4D5
102
{ACAD_REACTORS
330
325
102
}
330
325
100
AcDbXrecord
340
1A
  0
MLINESTYLE
  5
17
102
{ACAD_REACTORS
330
16
102
}
330
16
100
AcDbMlineStyle
  2
STANDARD
 70
     0
  3

 62
   256
 51
90.0
 52
90.0
 71
     2
 49
0.5
 62
   256
  6
BYLAYER
 49
-0.5
 62
   256
  6
BYLAYER
  0
ACDBPLACEHOLDER
  5
F
102
{ACAD_REACTORS
330
E
102
}
330
E
100
AcDbPlaceHolder
280
     0
  0
XRECORD
  5
4BE
102
{ACAD_REACTORS
330
4B4
102
}
330
4B4
100
AcDbXrecord
 90
        0
  0
XRECORD
  5
4C2
102
{ACAD_REACTORS
330
4B4
102
}
330
4B4
100
AcDbXrecord
1000
DSTYLE
1002
{
1070
   277
 70
     5
1070
   279
 70
     2
1002
}
  0
XRECORD
  5
4BF
102
{ACAD_REACTORS
330
4B4
102
}
330
4B4
100
AcDbXrecord
  1
{813BF252-156A-4545-AADC-B91BA8F3E356}
  0
XRECORD
  5
4B7
102
{ACAD_REACTORS
330
4B4
102
}
330
4B4
100
AcDbXrecord
  1

  0
XRECORD
  5
4BD
102
{ACAD_REACTORS
330
4B4
102
}
330
4B4
100
AcDbXrecord
 90
        0
  0
XRECORD
  5
4B9
102
{ACAD_REACTORS
330
4B4
102
}
330
4B4
100
AcDbXrecord
340
19
  0
XRECORD
  5
4BC
102
{ACAD_REACTORS
330
4B4
102
}
330
4B4
100
AcDbXrecord
 90
    14877
  0
XRECORD
  5
4BA
102
{ACAD_REACTORS
330
4B4
102
}
330
4B4
100
AcDbXrecord
340
18
  0
XRECORD
  5
4BB
102
{ACAD_REACTORS
330
4B4
102
}
330
4B4
100
AcDbXrecord
340
E
  0
XRECORD
  5
4C1
102
{ACAD_REACTORS
330
4B4
102
}
330
4B4
100
AcDbXrecord
 40
0.0
  0
XRECORD
  5
4C5
102
{ACAD_REACTORS
330
4B4
102
}
330
4B4
100
AcDbXrecord
340
0
  0
XRECORD
  5
4CB
102
{ACAD_REACTORS
330
4B4
102
}
330
4B4
100
AcDbXrecord
 10
0.0
 20
0.0
 30
0.0
  0
XRECORD
  5
4C7
102
{ACAD_REACTORS
330
4B4
102
}
330
4B4
100
AcDbXrecord
 10
0.0
 20
0.0
 30
0.0
  0
XRECORD
  5
4CA
102
{ACAD_REACTORS
330
4B4
102
}
330
4B4
100
AcDbXrecord
 10
0.0
 20
0.0
 30
0.0
  0
XRECORD
  5
4C8
102
{ACAD_REACTORS
330
4B4
102
}
330
4B4
100
AcDbXrecord
 10
0.0
 20
0.0
 30
0.0
  0
XRECORD
  5
4C9
102
{ACAD_REACTORS
330
4B4
102
}
330
4B4
100
AcDbXrecord
 10
0.0
 20
0.0
 30
0.0
  0
XRECORD
  5
4C6
102
{ACAD_REACTORS
330
4B4
102
}
330
4B4
100
AcDbXrecord
 10
0.0
 20
0.0
 30
0.0
  0
XRECORD
  5
4C3
102
{ACAD_REACTORS
330
4B4
102
}
330
4B4
100
AcDbXrecord
340
0
  0
XRECORD
  5
4C4
102
{ACAD_REACTORS
330
4B4
102
}
330
4B4
100
AcDbXrecord
 70
     0
  0
XRECORD
  5
4B8
102
{ACAD_REACTORS
330
4B4
102
}
330
4B4
100
AcDbXrecord
  1

  0
XRECORD
  5
4B5
102
{ACAD_REACTORS
330
4B4
102
}
330
4B4
100
AcDbXrecord
 90
        1
  0
XRECORD
  5
4B6
102
{ACAD_REACTORS
330
4B4
102
}
330
4B4
100
AcDbXrecord
 90
       70
  0
XRECORD
  5
4CE
102
{ACAD_REACTORS
330
4B4
102
}
330
4B4
100
AcDbXrecord
340
0
  0
XRECORD
  5
4D4
102
{ACAD_REACTORS
330
4B4
102
}
330
4B4
100
AcDbXrecord
 10
0.0
 20
0.0
 30
0.0
  0
XRECORD
  5
4D0
102
{ACAD_REACTORS
330
4B4
102
}
330
4B4
100
AcDbXrecord
 10
0.0
 20
0.0
 30
0.0
  0
XRECORD
  5
4D3
102
{ACAD_REACTORS
330
4B4
102
}
330
4B4
100
AcDbXrecord
 10
0.0
 20
0.0
 30
0.0
  0
XRECORD
  5
4D1
102
{ACAD_REACTORS
330
4B4
102
}
330
4B4
100
AcDbXrecord
 10
0.0
 20
0.0
 30
0.0
  0
XRECORD
  5
4D2
102
{ACAD_REACTORS
330
4B4
102
}
330
4B4
100
AcDbXrecord
 10
0.0
 20
0.0
 30
0.0
  0
XRECORD
  5
4CF
102
{ACAD_REACTORS
330
4B4
102
}
330
4B4
100
AcDbXrecord
 10
0.0
 20
0.0
 30
0.0
  0
XRECORD
  5
4CC
102
{ACAD_REACTORS
330
4B4
102
}
330
4B4
100
AcDbXrecord
340
0
  0
XRECORD
  5
4CD
102
{ACAD_REACTORS
330
4B4
102
}
330
4B4
100
AcDbXrecord
 70
     0
  0
XRECORD
  5
4C0
102
{ACAD_REACTORS
330
4B4
102
}
330
4B4
100
AcDbXrecord
  1
{C482ACAC-886E-4619-8A4A-D8D42B723455}
  0
DICTIONARYVAR
  5
35A
102
{ACAD_REACTORS
330
358
102
}
330
358
100
DictionaryVariables
280
     0
  1
2
  0
DICTIONARYVAR
  5
359
102
{ACAD_REACTORS
330
358
102
}
330
358
100
DictionaryVariables
280
     0
  1
1
  0
ENDSEC
  0
EOF
