  0
SECTION
  2
HEADER
  9
$ACADVER
  1
AC1014
  9
$ACADMAINTVER
 70
     9
  9
$DWGCODEPAGE
  3
ANSI_1252
  9
$INSBASE
 10
0.0266413430608659
 20
4.888027678662839
 30
0.0
  9
$EXTMIN
 10
-2.776372021975677
 20
3.946393996538139
 30
0.0
  9
$EXTMAX
 10
10.27508602713755
 20
7.549650978967227
 30
0.0
  9
$LIMMIN
 10
0.0
 20
0.0
  9
$LIMMAX
 10
36.0
 20
36.0
  9
$ORTHOMODE
 70
     1
  9
$REGENMODE
 70
     1
  9
$FILLMODE
 70
     1
  9
$QTEXTMODE
 70
     0
  9
$MIRRTEXT
 70
     1
  9
$DRAGMODE
 70
     0
  9
$LTSCALE
 40
1.0
  9
$OSMODE
 70
    37
  9
$ATTMODE
 70
     1
  9
$TEXTSIZE
 40
0.2
  9
$TRACEWID
 40
0.05
  9
$TEXTSTYLE
  7
STANDARD
  9
$CLAYER
  8
ADPDIM
  9
$CELTYPE
  6
BYLAYER
  9
$CECOLOR
 62
   256
  9
$CELTSCALE
 40
1.0
  9
$DELOBJ
 70
     1
  9
$DISPSILH
 70
     0
  9
$DIMSCALE
 40
1.0
  9
$DIMASZ
 40
0.125
  9
$DIMEXO
 40
0.0625
  9
$DIMDLI
 40
0.38
  9
$DIMRND
 40
0.0
  9
$DIMDLE
 40
0.0
  9
$DIMEXE
 40
0.18
  9
$DIMTP
 40
0.0
  9
$DIMTM
 40
0.0
  9
$DIMTXT
 40
0.125
  9
$DIMCEN
 40
0.1875
  9
$DIMTSZ
 40
0.125
  9
$DIMTOL
 70
     0
  9
$DIMLIM
 70
     0
  9
$DIMTIH
 70
     0
  9
$DIMTOH
 70
     0
  9
$DIMSE1
 70
     0
  9
$DIMSE2
 70
     0
  9
$DIMTAD
 70
     0
  9
$DIMZIN
 70
     3
  9
$DIMBLK
  1

  9
$DIMASO
 70
     1
  9
$DIMSHO
 70
     1
  9
$DIMPOST
  1

  9
$DIMAPOST
  1

  9
$DIMALT
 70
     0
  9
$DIMALTD
 70
     1
  9
$DIMALTF
 40
25.4
  9
$DIMLFAC
 40
1.0
  9
$DIMTOFL
 70
     0
  9
$DIMTVP
 40
0.0
  9
$DIMTIX
 70
     0
  9
$DIMSOXD
 70
     0
  9
$DIMSAH
 70
     0
  9
$DIMBLK1
  1

  9
$DIMBLK2
  1

  9
$DIMSTYLE
  2
STANDARD
  9
$DIMCLRD
 70
     0
  9
$DIMCLRE
 70
     0
  9
$DIMCLRT
 70
     0
  9
$DIMTFAC
 40
1.0
  9
$DIMGAP
 40
0.125
  9
$DIMJUST
 70
     0
  9
$DIMSD1
 70
     0
  9
$DIMSD2
 70
     0
  9
$DIMTOLJ
 70
     1
  9
$DIMTZIN
 70
     3
  9
$DIMALTZ
 70
     3
  9
$DIMALTTZ
 70
     3
  9
$DIMFIT
 70
     5
  9
$DIMUPT
 70
     0
  9
$DIMUNIT
 70
     5
  9
$DIMDEC
 70
     5
  9
$DIMTDEC
 70
     5
  9
$DIMALTU
 70
     5
  9
$DIMALTTD
 70
     1
  9
$DIMTXSTY
  7
STANDARD
  9
$DIMAUNIT
 70
     0
  9
$LUNITS
 70
     5
  9
$LUPREC
 70
     5
  9
$SKETCHINC
 40
0.1
  9
$FILLETRAD
 40
0.0
  9
$AUNITS
 70
     0
  9
$AUPREC
 70
     0
  9
$MENU
  1
acad
  9
$ELEVATION
 40
0.0
  9
$PELEVATION
 40
0.0
  9
$THICKNESS
 40
0.0
  9
$LIMCHECK
 70
     0
  9
$BLIPMODE
 70
     0
  9
$CHAMFERA
 40
0.0
  9
$CHAMFERB
 40
0.0
  9
$CHAMFERC
 40
0.0
  9
$CHAMFERD
 40
0.0
  9
$SKPOLY
 70
     0
  9
$TDCREATE
 40
2450415.552104930
  9
$TDUPDATE
 40
2452297.083717986
  9
$TDINDWG
 40
0.0122251273
  9
$TDUSRTIMER
 40
0.0122251273
  9
$USRTIMER
 70
     1
  9
$ANGBASE
 50
0.0
  9
$ANGDIR
 70
     0
  9
$PDMODE
 70
     0
  9
$PDSIZE
 40
0.0
  9
$PLINEWID
 40
0.0
  9
$COORDS
 70
     2
  9
$SPLFRAME
 70
     0
  9
$SPLINETYPE
 70
     6
  9
$SPLINESEGS
 70
     8
  9
$ATTDIA
 70
     0
  9
$ATTREQ
 70
     1
  9
$HANDLING
 70
 22529
  9
$HANDSEED
  5
384
  9
$SURFTAB1
 70
     6
  9
$SURFTAB2
 70
     6
  9
$SURFTYPE
 70
     6
  9
$SURFU
 70
     6
  9
$SURFV
 70
     6
  9
$UCSNAME
  2

  9
$UCSORG
 10
0.0
 20
0.0
 30
0.0
  9
$UCSXDIR
 10
1.0
 20
0.0
 30
0.0
  9
$UCSYDIR
 10
0.0
 20
1.0
 30
0.0
  9
$PUCSNAME
  2

  9
$PUCSORG
 10
0.0
 20
0.0
 30
0.0
  9
$PUCSXDIR
 10
1.0
 20
0.0
 30
0.0
  9
$PUCSYDIR
 10
0.0
 20
1.0
 30
0.0
  9
$USERI1
 70
     0
  9
$USERI2
 70
     0
  9
$USERI3
 70
     0
  9
$USERI4
 70
     0
  9
$USERI5
 70
     0
  9
$USERR1
 40
0.0
  9
$USERR2
 40
0.0
  9
$USERR3
 40
0.0
  9
$USERR4
 40
0.0
  9
$USERR5
 40
0.0
  9
$WORLDVIEW
 70
     1
  9
$SHADEDGE
 70
     3
  9
$SHADEDIF
 70
    70
  9
$TILEMODE
 70
     1
  9
$MAXACTVP
 70
    15
  9
$PINSBASE
 10
0.0546881854534149
 20
80.01812949427586
 30
0.0
  9
$PLIMCHECK
 70
     0
  9
$PEXTMIN
 10
1.000000000000000E+20
 20
1.000000000000000E+20
 30
1.000000000000000E+20
  9
$PEXTMAX
 10
-1.000000000000000E+20
 20
-1.000000000000000E+20
 30
-1.000000000000000E+20
  9
$PLIMMIN
 10
0.0
 20
0.0
  9
$PLIMMAX
 10
12.0
 20
9.0
  9
$UNITMODE
 70
     0
  9
$VISRETAIN
 70
     0
  9
$PLINEGEN
 70
     0
  9
$PSLTSCALE
 70
     1
  9
$TREEDEPTH
 70
  3020
  9
$PICKSTYLE
 70
     1
  9
$CMLSTYLE
  2
STANDARD
  9
$CMLJUST
 70
     0
  9
$CMLSCALE
 40
1.0
  9
$PROXYGRAPHICS
 70
     1
  9
$MEASUREMENT
 70
     0
  0
ENDSEC
  0
SECTION
  2
CLASSES
  0
CLASS
  1
ACDBDICTIONARYWDFLT
  2
AcDbDictionaryWithDefault
  3
AutoCAD 2000
 90
        0
280
     0
281
     0
  0
CLASS
  1
ACDBPLACEHOLDER
  2
AcDbPlaceHolder
  3
AutoCAD 2000
 90
        0
280
     0
281
     0
  0
CLASS
  1
LAYOUT
  2
AcDbLayout
  3
AutoCAD 2000
 90
        0
280
     0
281
     0
  0
CLASS
  1
DICTIONARYVAR
  2
AcDbDictionaryVar
  3
AutoCAD 2000
 90
        0
280
     0
281
     0
  0
CLASS
  1
LONG_TRANSACTION
  2
AcDbLongTransaction
  3
AutoCAD 2000
 90
        0
280
     0
281
     0
  0
CLASS
  1
LWPOLYLINE
  2
AcDbPolyline
  3
AutoCAD 2000
 90
        0
280
     0
281
     1
  0
CLASS
  1
HATCH
  2
AcDbHatch
  3
AutoCAD 2000
 90
        0
280
     0
281
     1
  0
CLASS
  1
XRECORD
  2
AcDbXrecord
  3
AutoCAD 2000
 90
        0
280
     0
281
     0
  0
CLASS
  1
LONG_TRANSACTION
  2
AcDbLongTransaction
  3
AutoCAD 2000
 90
        0
280
     0
281
     0
  0
CLASS
  1
LWPOLYLINE
  2
AcDbPolyline
  3
AutoCAD 2000
 90
        0
280
     0
281
     1
  0
CLASS
  1
HATCH
  2
AcDbHatch
  3
AutoCAD 2000
 90
        0
280
     0
281
     1
  0
CLASS
  1
XRECORD
  2
AcDbXrecord
  3
AutoCAD 2000
 90
        0
280
     0
281
     0
  0
CLASS
  1
LONG_TRANSACTION
  2
AcDbLongTransaction
  3
AutoCAD 2000
 90
        0
280
     0
281
     0
  0
CLASS
  1
LWPOLYLINE
  2
AcDbPolyline
  3
AutoCAD 2000
 90
        0
280
     0
281
     1
  0
CLASS
  1
HATCH
  2
AcDbHatch
  3
AutoCAD 2000
 90
        0
280
     0
281
     1
  0
CLASS
  1
XRECORD
  2
AcDbXrecord
  3
AutoCAD 2000
 90
        0
280
     0
281
     0
  0
CLASS
  1
LONG_TRANSACTION
  2
AcDbLongTransaction
  3
AutoCAD 2000
 90
        0
280
     0
281
     0
  0
CLASS
  1
LWPOLYLINE
  2
AcDbPolyline
  3
AutoCAD 2000
 90
        0
280
     0
281
     1
  0
CLASS
  1
HATCH
  2
AcDbHatch
  3
AutoCAD 2000
 90
        0
280
     0
281
     1
  0
CLASS
  1
XRECORD
  2
AcDbXrecord
  3
AutoCAD 2000
 90
        0
280
     0
281
     0
  0
CLASS
  1
LONG_TRANSACTION
  2
AcDbLongTransaction
  3
AutoCAD 2000
 90
        0
280
     0
281
     0
  0
CLASS
  1
LWPOLYLINE
  2
AcDbPolyline
  3
AutoCAD 2000
 90
        0
280
     0
281
     1
  0
CLASS
  1
HATCH
  2
AcDbHatch
  3
AutoCAD 2000
 90
        0
280
     0
281
     1
  0
CLASS
  1
XRECORD
  2
AcDbXrecord
  3
AutoCAD 2000
 90
        0
280
     0
281
     0
  0
CLASS
  1
LONG_TRANSACTION
  2
AcDbLongTransaction
  3
AutoCAD 2000
 90
        0
280
     0
281
     0
  0
CLASS
  1
LWPOLYLINE
  2
AcDbPolyline
  3
AutoCAD 2000
 90
        0
280
     0
281
     1
  0
CLASS
  1
HATCH
  2
AcDbHatch
  3
AutoCAD 2000
 90
        0
280
     0
281
     1
  0
CLASS
  1
XRECORD
  2
AcDbXrecord
  3
AutoCAD 2000
 90
        0
280
     0
281
     0
  0
ENDSEC
  0
SECTION
  2
TABLES
  0
TABLE
  2
VPORT
  5
8
330
0
100
AcDbSymbolTable
 70
     2
  0
VPORT
  5
360
330
8
100
AcDbSymbolTableRecord
100
AcDbViewportTableRecord
  2
*ACTIVE
 70
     0
 10
0.0
 20
0.0
 11
1.0
 21
1.0
 12
3.759266469266157
 22
5.748870919166217
 13
0.0
 23
0.0
 14
0.5740882589684922
 24
0.5740882589684922
 15
0.5
 25
0.5
 16
0.0
 26
0.0
 36
1.0
 17
0.0
 27
0.0
 37
0.0
 40
8.366559893156232
 41
1.570528967254408
 42
50.0
 43
0.0
 44
0.0
 50
0.0
 51
0.0
 71
     0
 72
   100
 73
     1
 74
     0
 75
     0
 76
     0
 77
     0
 78
     0
  0
ENDTAB
  0
TABLE
  2
LTYPE
  5
5
330
0
100
AcDbSymbolTable
 70
     1
  0
LTYPE
  5
13
330
5
100
AcDbSymbolTableRecord
100
AcDbLinetypeTableRecord
  2
BYBLOCK
 70
     0
  3

 72
    65
 73
     0
 40
0.0
  0
LTYPE
  5
14
330
5
100
AcDbSymbolTableRecord
100
AcDbLinetypeTableRecord
  2
BYLAYER
 70
     0
  3

 72
    65
 73
     0
 40
0.0
  0
LTYPE
  5
15
330
5
100
AcDbSymbolTableRecord
100
AcDbLinetypeTableRecord
  2
CONTINUOUS
 70
     0
  3
Solid line
 72
    65
 73
     0
 40
0.0
  0
ENDTAB
  0
TABLE
  2
LAYER
  5
2
330
0
100
AcDbSymbolTable
 70
     4
  0
LAYER
  5
10
330
2
100
AcDbSymbolTableRecord
100
AcDbLayerTableRecord
  2
0
 70
     0
 62
     7
  6
CONTINUOUS
  0
LAYER
  5
50
330
2
100
AcDbSymbolTableRecord
100
AcDbLayerTableRecord
  2
ADPDIM
 70
     0
 62
     3
  6
CONTINUOUS
  0
LAYER
  5
52
330
2
100
AcDbSymbolTableRecord
100
AcDbLayerTableRecord
  2
ADP1DETAIL
 70
     0
 62
     7
  6
CONTINUOUS
  0
LAYER
  5
54
330
2
100
AcDbSymbolTableRecord
100
AcDbLayerTableRecord
  2
DEFPOINTS
 70
     0
 62
     7
  6
CONTINUOUS
  0
ENDTAB
  0
TABLE
  2
STYLE
  5
3
330
0
100
AcDbSymbolTable
 70
     2
  0
STYLE
  5
11
330
3
100
AcDbSymbolTableRecord
100
AcDbTextStyleTableRecord
  2
STANDARD
 70
     0
 40
0.0
 41
1.0
 50
0.0
 71
     0
 42
0.2
  3
txt
  4

  0
STYLE
  5
193
330
3
100
AcDbSymbolTableRecord
100
AcDbTextStyleTableRecord
  2
ARIAL_WIDE
 70
     0
 40
0.0
 41
1.25
 50
0.0
 71
     0
 42
0.2
  3
ARIAL.TTF
  4

1001
ACAD
1000
Arial
1071
       34
  0
ENDTAB
  0
TABLE
  2
VIEW
  5
6
330
0
100
AcDbSymbolTable
 70
     0
  0
ENDTAB
  0
TABLE
  2
UCS
  5
7
330
0
100
AcDbSymbolTable
 70
     0
  0
ENDTAB
  0
TABLE
  2
APPID
  5
9
330
0
100
AcDbSymbolTable
 70
     1
  0
APPID
  5
12
330
9
100
AcDbSymbolTableRecord
100
AcDbRegAppTableRecord
  2
ACAD
 70
     0
  0
ENDTAB
  0
TABLE
  2
DIMSTYLE
  5
A
330
0
100
AcDbSymbolTable
 70
     1
  0
DIMSTYLE
105
191
330
A
100
AcDbSymbolTableRecord
100
AcDbDimStyleTableRecord
  2
STANDARD
 70
     0
  3

  4

  5

  6

  7

 40
1.0
 41
0.18
 42
0.0625
 43
0.38
 44
0.18
 45
0.0
 46
0.0
 47
0.0
 48
0.0
140
0.18
141
0.09
142
0.0
143
25.4
144
1.0
145
0.0
146
1.0
147
0.09
 71
     0
 72
     0
 73
     1
 74
     1
 75
     0
 76
     0
 77
     0
 78
     0
170
     0
171
     2
172
     0
173
     0
174
     0
175
     0
176
     0
177
     0
178
     0
270
     2
271
     4
272
     4
273
     2
274
     2
340
11
275
     0
280
     0
281
     0
282
     0
283
     1
284
     0
285
     0
286
     0
287
     3
288
     0
  0
ENDTAB
  0
TABLE
  2
BLOCK_RECORD
  5
1
330
0
100
AcDbSymbolTable
 70
     2
  0
BLOCK_RECORD
  5
1E
102
{ACAD_XDICTIONARY
360
1D0
102
}
330
1
100
AcDbSymbolTableRecord
100
AcDbBlockTableRecord
  2
*MODEL_SPACE
  0
BLOCK_RECORD
  5
1A
102
{ACAD_XDICTIONARY
360
1D2
102
}
330
1
100
AcDbSymbolTableRecord
100
AcDbBlockTableRecord
  2
*PAPER_SPACE
  0
BLOCK_RECORD
  5
44
330
1
100
AcDbSymbolTableRecord
100
AcDbBlockTableRecord
  2
*D0
  0
BLOCK_RECORD
  5
4E
330
1
100
AcDbSymbolTableRecord
100
AcDbBlockTableRecord
  2
*D1
  0
ENDTAB
  0
ENDSEC
  0
SECTION
  2
BLOCKS
  0
BLOCK
  5
57
330
1E
100
AcDbEntity
  8
0
100
AcDbBlockBegin
  2
*MODEL_SPACE
 70
     0
 10
0.0
 20
0.0
 30
0.0
  3
*MODEL_SPACE
  1

  0
ENDBLK
  5
58
330
1E
100
AcDbEntity
  8
0
100
AcDbBlockEnd
  0
BLOCK
  5
55
330
1A
100
AcDbEntity
 67
     1
  8
0
100
AcDbBlockBegin
  2
*PAPER_SPACE
 70
     0
 10
0.0
 20
0.0
 30
0.0
  3
*PAPER_SPACE
  1

  0
ENDBLK
  5
56
330
1A
100
AcDbEntity
 67
     1
  8
0
100
AcDbBlockEnd
  0
BLOCK
  5
5A
330
44
100
AcDbEntity
  8
0
100
AcDbBlockBegin
  2
*D0
 70
     1
 10
0.0
 20
0.0
 30
0.0
  3
*D0
  1
*U
  0
LINE
  5
5B
330
44
100
AcDbEntity
  8
0
  6
BYBLOCK
 62
     0
100
AcDbLine
 10
0.0315763333243027
 20
3.678781146940843
 30
0.0
 11
0.0315763333243027
 21
4.402929436648531
 31
0.0
  0
LINE
  5
5C
330
44
100
AcDbEntity
  8
0
  6
BYBLOCK
 62
     0
100
AcDbLine
 10
7.788847736934129
 20
3.678781146940843
 30
0.0
 11
7.788847736934129
 21
4.402929436648531
 31
0.0
  0
LINE
  5
5D
330
44
100
AcDbEntity
  8
0
  6
BYBLOCK
 62
     0
100
AcDbLine
 10
0.0315763333243027
 20
4.222929436648532
 30
0.0
 11
3.649795368462549
 21
4.222929436648532
 31
0.0
  0
LINE
  5
5E
330
44
100
AcDbEntity
  8
0
  6
BYBLOCK
 62
     0
100
AcDbLine
 10
7.788847736934129
 20
4.222929436648532
 30
0.0
 11
4.170628701795882
 21
4.222929436648532
 31
0.0
  0
LINE
  5
5F
330
44
100
AcDbEntity
  8
0
  6
BYBLOCK
 62
     0
100
AcDbLine
 10
-0.0934236666756973
 20
4.097929436648532
 30
0.0
 11
0.1565763333243027
 21
4.347929436648532
 31
0.0
  0
LINE
  5
60
330
44
100
AcDbEntity
  8
0
  6
BYBLOCK
 62
     0
100
AcDbLine
 10
7.663847736934129
 20
4.097929436648532
 30
0.0
 11
7.913847736934129
 21
4.347929436648532
 31
0.0
  0
TEXT
  5
61
330
44
100
AcDbEntity
  8
0
  6
BYBLOCK
 62
     0
100
AcDbText
 10
3.774795368462549
 20
4.160429436648532
 30
0.0
 40
0.125
  1
120
 72
     1
 11
3.910212035129216
 21
4.222929436648532
 31
0.0
100
AcDbText
 73
     2
  0
POINT
  5
63
330
44
100
AcDbEntity
  8
DEFPOINTS
  6
BYBLOCK
 62
     0
100
AcDbPoint
 10
0.0315763333243027
 20
3.616281146940843
 30
0.0
  0
POINT
  5
64
330
44
100
AcDbEntity
  8
DEFPOINTS
  6
BYBLOCK
 62
     0
100
AcDbPoint
 10
7.788847736934129
 20
3.616281146940843
 30
0.0
  0
POINT
  5
65
330
44
100
AcDbEntity
  8
DEFPOINTS
  6
BYBLOCK
 62
     0
100
AcDbPoint
 10
7.788847736934129
 20
4.222929436648532
 30
0.0
  0
ENDBLK
  5
66
330
44
100
AcDbEntity
  8
0
100
AcDbBlockEnd
  0
BLOCK
  5
67
330
4E
100
AcDbEntity
  8
0
100
AcDbBlockBegin
  2
*D1
 70
     1
 10
0.0
 20
0.0
 30
0.0
  3
*D1
  1
*U
  0
LINE
  5
68
330
4E
100
AcDbEntity
  8
0
  6
BYBLOCK
 62
     0
100
AcDbLine
 10
0.1915069404156709
 20
4.834137420182634
 30
0.0
 11
-0.4218807027779595
 21
4.834137420182634
 31
0.0
  0
LINE
  5
69
330
4E
100
AcDbEntity
  8
0
  6
BYBLOCK
 62
     0
100
AcDbLine
 10
0.655708792186754
 20
6.834432735144857
 30
0.0
 11
-0.4218807027779594
 21
6.834432735144857
 31
0.0
  0
LINE
  5
6A
330
4E
100
AcDbEntity
  8
0
  6
BYBLOCK
 62
     0
100
AcDbLine
 10
-0.2418807027779595
 20
4.834137420182634
 30
0.0
 11
-0.2418807027779594
 21
5.667618410997079
 31
0.0
  0
LINE
  5
6B
330
4E
100
AcDbEntity
  8
0
  6
BYBLOCK
 62
     0
100
AcDbLine
 10
-0.2418807027779594
 20
6.834432735144857
 30
0.0
 11
-0.2418807027779594
 21
6.000951744330413
 31
0.0
  0
LINE
  5
6C
330
4E
100
AcDbEntity
  8
0
  6
BYBLOCK
 62
     0
100
AcDbLine
 10
-0.1168807027779595
 20
4.709137420182634
 30
0.0
 11
-0.3668807027779595
 21
4.959137420182634
 31
0.0
  0
LINE
  5
6D
330
4E
100
AcDbEntity
  8
0
  6
BYBLOCK
 62
     0
100
AcDbLine
 10
-0.1168807027779594
 20
6.709432735144857
 30
0.0
 11
-0.3668807027779594
 21
6.959432735144857
 31
0.0
  0
TEXT
  5
6E
330
4E
100
AcDbEntity
  8
0
  6
BYBLOCK
 62
     0
100
AcDbText
 10
-0.1793807027779594
 20
5.792618410997079
 30
0.0
 40
0.125
  1
2
 50
90.0
 72
     1
 11
-0.2418807027779594
 21
5.834285077663746
 31
0.0
100
AcDbText
 73
     2
  0
POINT
  5
6F
330
4E
100
AcDbEntity
  8
DEFPOINTS
  6
BYBLOCK
 62
     0
100
AcDbPoint
 10
0.2540069404156709
 20
4.834137420182634
 30
0.0
  0
POINT
  5
70
330
4E
100
AcDbEntity
  8
DEFPOINTS
  6
BYBLOCK
 62
     0
100
AcDbPoint
 10
0.718208792186754
 20
6.834432735144857
 30
0.0
  0
POINT
  5
71
330
4E
100
AcDbEntity
  8
DEFPOINTS
  6
BYBLOCK
 62
     0
100
AcDbPoint
 10
-0.2418807027779594
 20
6.834432735144857
 30
0.0
  0
ENDBLK
  5
72
330
4E
100
AcDbEntity
  8
0
100
AcDbBlockEnd
  0
ENDSEC
  0
SECTION
  2
ENTITIES
  0
DIMENSION
  5
73
330
1E
100
AcDbEntity
  8
ADPDIM
100
AcDbDimension
  2
*D0
 10
7.793644688333658
 20
7.369650978967228
 30
0.0
 11
3.915008986528744
 21
7.369650978967228
 31
0.0
 12
0.0047969513995287
 22
3.146721542318696
 32
0.0
  1
120
100
AcDbAlignedDimension
 13
0.0363732847238314
 23
6.763002689259539
 33
0.0
 14
7.793644688333658
 24
6.763002689259539
 34
0.0
100
AcDbRotatedDimension
  0
ARC
  5
74
330
1E
100
AcDbEntity
  8
ADP1DETAIL
100
AcDbCircle
 10
6.384641757116908
 20
5.198709080988621
 30
0.0
 40
0.3671136656320204
100
AcDbArc
 50
233.6516075405736
 51
306.3632857695612
  0
LWPOLYLINE
  5
75
330
1E
100
AcDbEntity
  8
ADP1DETAIL
100
AcDbPolyline
 90
       11
 70
     0
 43
0.0
 10
0.0266413430608659
 20
5.711925469460343
 42
0.2635832519951994
 10
0.3403278141962094
 20
5.845191910443688
 42
0.2857142857142876
 10
0.3403278141962094
 20
6.03020771099209
 42
-0.2426346699872441
 10
0.2478199139220081
 20
6.228438925865383
 42
0.2360679774998292
 10
0.1949582566224617
 20
6.307731411814696
 42
-0.5661903789690895
 10
0.2213890852722358
 20
6.400239312088899
 42
-0.1761749776799196
 10
0.4989127860948433
 20
6.453100969388447
 42
-0.3027756377319926
 10
0.5253436147446156
 20
6.519178041012875
 42
0.0603850692973145
 10
0.6376746365061461
 20
6.671155305749064
 42
0.1732137494637186
 10
0.6707131723183615
 20
6.770270913185711
 42
-0.5000000000000017
 10
0.7235748296179061
 20
6.823132570485256
 42
1.153009687409359
  0
DIMENSION
  5
82
330
1E
100
AcDbEntity
  8
ADPDIM
100
AcDbDimension
  2
*D1
 10
-0.2418807027779594
 20
6.834432735144857
 30
0.0
 11
-0.2418807027779594
 21
5.834285077663746
 31
0.0
100
AcDbAlignedDimension
 13
0.2540069404156709
 23
4.834137420182634
 33
0.0
 14
0.718208792186754
 24
6.834432735144857
 34
0.0
 50
90.0
100
AcDbRotatedDimension
  0
LWPOLYLINE
  5
83
330
1E
100
AcDbEntity
  8
ADP1DETAIL
100
AcDbPolyline
 90
        5
 70
     0
 43
0.0
 10
0.8544635395533326
 20
5.367411453572473
 10
0.7540215233921926
 20
5.461157335322869
 42
0.9284189221609072
 10
0.6067065663558573
 20
5.320538512697276
 10
0.834375136321106
 20
5.059389270678313
 42
0.9058375253520349
 10
1.008474631000412
 20
5.179919690071683
 42
0.5885974569407209
  0
LWPOLYLINE
  5
8A
330
1E
100
AcDbEntity
  8
ADP1DETAIL
100
AcDbPolyline
 90
        5
 70
     0
 43
0.0
 10
0.582469303775353
 20
5.367411453572473
 10
0.4820272876142129
 20
5.461157335322869
 42
0.9284189221609072
 10
0.3347123305778776
 20
5.320538512697276
 10
0.5623809005431264
 20
5.059389270678313
 42
0.9058375253520349
 10
0.7364803952224328
 20
5.179919690071683
 42
0.5885974569407209
  0
ARC
  5
91
330
1E
100
AcDbEntity
  8
ADP1DETAIL
100
AcDbCircle
 10
0.6873129289092363
 20
5.207308965992064
 30
0.0
 40
0.375724530279794
100
AcDbArc
 50
234.0673535627094
 51
305.9326464372905
  0
LINE
  5
92
330
1E
100
AcDbEntity
  8
ADP1DETAIL
100
AcDbLine
 10
0.0266413430608659
 20
5.711925469460343
 30
0.0
 11
0.0266413430608659
 21
4.888027678662839
 31
0.0
  0
LWPOLYLINE
  5
93
330
1E
100
AcDbEntity
  8
ADP1DETAIL
100
AcDbPolyline
 90
        5
 70
     0
 43
0.0
 10
0.3072299842795925
 20
5.367411453572473
 10
0.2067879681184523
 20
5.461157335322869
 42
0.9284189221609072
 10
0.0594730110821171
 20
5.320538512697276
 10
0.2871415810473659
 20
5.059389270678313
 42
0.9058375253520349
 10
0.4612410757266723
 20
5.179919690071683
 42
0.5885974569407209
  0
ARC
  5
9A
330
1E
100
AcDbEntity
  8
ADP1DETAIL
100
AcDbCircle
 10
0.249162275749056
 20
5.198709080988621
 30
0.0
 40
0.3671136656320204
100
AcDbArc
 50
233.6516075405736
 51
306.3632857695612
  0
LWPOLYLINE
  5
9B
330
1E
100
AcDbEntity
  8
ADP1DETAIL
100
AcDbPolyline
 90
        2
 70
     0
 43
0.0
 10
0.0315763333243027
 20
5.042563002812446
 42
0.8052163537849938
 10
0.1876242980898022
 20
5.179919690071683
 42
0.5885974569407209
  0
LWPOLYLINE
  5
9F
330
1E
100
AcDbEntity
  8
ADP1DETAIL
100
AcDbPolyline
 90
        2
 70
     0
 43
0.0
 10
0.0336132066427224
 20
5.367411453572473
 10
0.0315763333243027
 20
5.369312535336332
 42
0.9284189221609054
  0
ARC
  5
A3
330
1E
100
AcDbEntity
  8
ADP1DETAIL
100
AcDbCircle
 10
0.2184024016347936
 20
5.951443841615778
 30
0.0
 40
0.2807971342929304
100
AcDbArc
 50
301.8933357302231
 51
2.589583067656686
  0
ARC
  5
A4
330
1E
100
AcDbEntity
  8
ADP1DETAIL
100
AcDbCircle
 10
0.3752187997042551
 20
6.084635356694299
 30
0.0
 40
0.2519544534112782
100
AcDbArc
 50
24.41843615849407
 51
97.95997635555963
  0
ARC
  5
A5
330
1E
100
AcDbEntity
  8
ADP1DETAIL
100
AcDbCircle
 10
0.1725937093033345
 20
5.980904049856865
 30
0.0
 40
0.5739808974984957
100
AcDbArc
 50
27.01886964308104
 51
55.35298068833771
  0
LWPOLYLINE
  5
A6
330
1E
100
AcDbEntity
  8
ADP1DETAIL
100
AcDbPolyline
 90
       11
 70
     0
 43
0.0
 10
3.796462988586839
 20
5.923810769493047
 42
-0.5783756913009909
 10
3.202312693094512
 20
5.845191910443688
 42
-0.2857142857142876
 10
3.202312693094512
 20
6.03020771099209
 42
0.2426346699872441
 10
3.294820593368714
 20
6.228438925865383
 42
-0.2360679774998292
 10
3.34768225066826
 20
6.307731411814696
 42
0.5661903789690895
 10
3.321251422018486
 20
6.400239312088899
 42
0.1761749776799196
 10
3.043727721195879
 20
6.453100969388447
 42
0.3027756377319926
 10
3.017296892546106
 20
6.519178041012875
 42
-0.0603850692973145
 10
2.904965870784576
 20
6.671155305749064
 42
-0.1732137494637186
 10
2.87192733497236
 20
6.770270913185711
 42
0.5000000000000017
 10
2.819065677672816
 20
6.823132570485256
 42
-1.153009687409359
  0
LWPOLYLINE
  5
B3
330
1E
100
AcDbEntity
  8
ADP1DETAIL
100
AcDbPolyline
 90
        5
 70
     0
 43
0.0
 10
3.839792030547126
 20
5.367411453572473
 10
3.739350014385986
 20
5.461157335322869
 42
0.9284189221609072
 10
3.59203505734965
 20
5.320538512697276
 10
3.819703627314899
 20
5.059389270678313
 42
0.9058375253520349
 10
3.993803121994205
 20
5.179919690071683
 42
0.5885974569407209
  0
LWPOLYLINE
  5
BA
330
1E
100
AcDbEntity
  8
ADP1DETAIL
100
AcDbPolyline
 90
        5
 70
     0
 43
0.0
 10
3.567797794769146
 20
5.367411453572473
 10
3.467355778608006
 20
5.461157335322869
 42
0.9284189221609072
 10
3.32004082157167
 20
5.320538512697276
 10
3.547709391536919
 20
5.059389270678313
 42
0.9058375253520349
 10
3.721808886216225
 20
5.179919690071683
 42
0.5885974569407209
  0
ARC
  5
C1
330
1E
100
AcDbEntity
  8
ADP1DETAIL
100
AcDbCircle
 10
3.749309289313852
 20
5.198709080988621
 30
0.0
 40
0.3671136656320204
100
AcDbArc
 50
233.6516075405736
 51
306.3632857695612
  0
LWPOLYLINE
  5
C2
330
1E
100
AcDbEntity
  8
ADP1DETAIL
100
AcDbPolyline
 90
       11
 70
     0
 43
0.0
 10
1.69992864219782
 20
5.921303833525364
 42
-0.5757581497455437
 10
1.106821845039602
 20
5.845191910443688
 42
-0.2857142857142876
 10
1.106821845039602
 20
6.03020771099209
 42
0.2426346699872441
 10
1.199329745313804
 20
6.228438925865383
 42
-0.2360679774998292
 10
1.25219140261335
 20
6.307731411814696
 42
0.5661903789690895
 10
1.225760573963576
 20
6.400239312088899
 42
0.1761749776799196
 10
0.9482368731409689
 20
6.453100969388447
 42
0.3027756377319926
 10
0.9218060444911966
 20
6.519178041012875
 42
-0.0603850692973145
 10
0.809475022729666
 20
6.671155305749064
 42
-0.1732137494637186
 10
0.7764364869174507
 20
6.770270913185711
 42
0.5000000000000017
 10
0.7235748296179061
 20
6.823132570485256
 42
-1.153009687409359
  0
LWPOLYLINE
  5
CF
330
1E
100
AcDbEntity
  8
ADP1DETAIL
100
AcDbPolyline
 90
       11
 70
     0
 43
0.0
 10
1.842881963250032
 20
5.920900380061801
 42
0.5753366460012598
 10
2.435818662251119
 20
5.845191910443688
 42
0.2857142857142876
 10
2.435818662251119
 20
6.03020771099209
 42
-0.2426346699872441
 10
2.343310761976918
 20
6.228438925865383
 42
0.2360679774998292
 10
2.290449104677371
 20
6.307731411814696
 42
-0.5661903789690895
 10
2.316879933327145
 20
6.400239312088899
 42
-0.1761749776799196
 10
2.594403634149753
 20
6.453100969388447
 42
-0.3027756377319926
 10
2.620834462799525
 20
6.519178041012875
 42
0.0603850692973145
 10
2.733165484561056
 20
6.671155305749064
 42
0.1732137494637186
 10
2.766204020373271
 20
6.770270913185711
 42
-0.5000000000000017
 10
2.819065677672816
 20
6.823132570485256
 42
1.153009687409359
  0
LINE
  5
DC
330
1E
100
AcDbEntity
  8
ADP1DETAIL
100
AcDbLine
 10
0.7235748296179061
 20
6.823132570485256
 30
0.0
 11
0.7235748296179061
 21
5.831976496118798
 31
0.0
  0
LINE
  5
DD
330
1E
100
AcDbEntity
  8
ADP1DETAIL
100
AcDbLine
 10
0.7235748296179061
 20
6.823132570485256
 30
0.0
 11
0.7235748296179061
 21
5.831976496118798
 31
0.0
  0
LINE
  5
DE
330
1E
100
AcDbEntity
  8
ADP1DETAIL
100
AcDbLine
 10
2.819065677672816
 20
6.823132570485256
 30
0.0
 11
2.819065677672816
 21
5.831976496118798
 31
0.0
  0
LINE
  5
DF
330
1E
100
AcDbEntity
  8
ADP1DETAIL
100
AcDbLine
 10
2.819065677672816
 20
6.823132570485256
 30
0.0
 11
2.819065677672816
 21
5.831976496118798
 31
0.0
  0
LWPOLYLINE
  5
E0
330
1E
100
AcDbEntity
  8
ADP1DETAIL
100
AcDbPolyline
 90
        5
 70
     0
 43
0.0
 10
2.200211354450649
 20
5.367411453572473
 10
2.09976933828951
 20
5.461157335322869
 42
0.9284189221609072
 10
1.952454381253174
 20
5.320538512697276
 10
2.180122951218423
 20
5.059389270678313
 42
0.9058375253520349
 10
2.354222445897729
 20
5.179919690071683
 42
0.5885974569407209
  0
LWPOLYLINE
  5
E7
330
1E
100
AcDbEntity
  8
ADP1DETAIL
100
AcDbPolyline
 90
        5
 70
     0
 43
0.0
 10
1.932178571109677
 20
5.367411453572473
 10
1.831736554948537
 20
5.461157335322869
 42
0.9284189221609072
 10
1.684421597912201
 20
5.320538512697276
 10
1.912090167877451
 20
5.059389270678313
 42
0.9058375253520349
 10
2.086189662556757
 20
5.179919690071683
 42
0.5885974569407209
  0
ARC
  5
EE
330
1E
100
AcDbEntity
  8
ADP1DETAIL
100
AcDbCircle
 10
2.002381746540872
 20
5.198709080988621
 30
0.0
 40
0.3671136656320204
100
AcDbArc
 50
233.6516075405736
 51
306.3632857695612
  0
LWPOLYLINE
  5
EF
330
1E
100
AcDbEntity
  8
ADP1DETAIL
100
AcDbPolyline
 90
        5
 70
     0
 43
0.0
 10
1.390529058183556
 20
5.367411453572473
 10
1.290087042022416
 20
5.461157335322869
 42
0.9284189221609072
 10
1.142772084986081
 20
5.320538512697276
 10
1.370440654951329
 20
5.059389270678313
 42
0.9058375253520349
 10
1.544540149630636
 20
5.179919690071683
 42
0.5885974569407209
  0
LWPOLYLINE
  5
F6
330
1E
100
AcDbEntity
  8
ADP1DETAIL
100
AcDbPolyline
 90
        5
 70
     0
 43
0.0
 10
1.664145835820426
 20
5.367411453572473
 10
1.563703819659286
 20
5.461157335322869
 42
0.9284189221609072
 10
1.41638886262295
 20
5.320538512697276
 10
1.6440574325882
 20
5.059389270678313
 42
0.9058375253520349
 10
1.818156927267505
 20
5.179919690071683
 42
0.5885974569407209
  0
LWPOLYLINE
  5
FD
330
1E
100
AcDbEntity
  8
ADP1DETAIL
100
AcDbPolyline
 90
        5
 70
     0
 43
0.0
 10
1.122496274842584
 20
5.367411453572473
 10
1.022054258681444
 20
5.461157335322869
 42
0.9284189221609072
 10
0.8747393016451088
 20
5.320538512697276
 10
1.102407871610357
 20
5.059389270678313
 42
0.9058375253520349
 10
1.276507366289663
 20
5.179919690071683
 42
0.5885974569407209
  0
ARC
  5
104
330
1E
100
AcDbEntity
  8
ADP1DETAIL
100
AcDbCircle
 10
1.566828509650583
 20
5.198709080988621
 30
0.0
 40
0.3671136656320204
100
AcDbArc
 50
233.6516075405736
 51
306.3632857695612
  0
ARC
  5
105
330
1E
100
AcDbEntity
  8
ADP1DETAIL
100
AcDbCircle
 10
1.131275272760294
 20
5.198709080988621
 30
0.0
 40
0.3671136656320204
100
AcDbArc
 50
233.6516075405736
 51
306.3632857695612
  0
ARC
  5
106
330
1E
100
AcDbEntity
  8
ADP1DETAIL
100
AcDbCircle
 10
1.228747257601018
 20
5.951443841615778
 30
0.0
 40
0.2807971342929304
100
AcDbArc
 50
177.4104169323433
 51
238.1066642697768
  0
ARC
  5
107
330
1E
100
AcDbEntity
  8
ADP1DETAIL
100
AcDbCircle
 10
1.071930859531557
 20
6.084635356694299
 30
0.0
 40
0.2519544534112782
100
AcDbArc
 50
82.04002364444038
 51
155.5815638415059
  0
ARC
  5
108
330
1E
100
AcDbEntity
  8
ADP1DETAIL
100
AcDbCircle
 10
1.274555949932477
 20
5.980904049856865
 30
0.0
 40
0.5739808974984957
100
AcDbArc
 50
124.6470193116623
 51
152.9811303569189
  0
CIRCLE
  5
109
330
1E
100
AcDbEntity
  8
ADP1DETAIL
100
AcDbCircle
 10
1.771749022240926
 20
6.042890245707101
 30
0.0
 40
0.1412141020463733
  0
LWPOLYLINE
  5
10A
330
1E
100
AcDbEntity
  8
ADP1DETAIL
100
AcDbPolyline
 90
        5
 70
     0
 43
0.0
 10
2.741860915428491
 20
5.367411453572473
 10
2.641418899267351
 20
5.461157335322869
 42
0.9284189221609072
 10
2.494103942231015
 20
5.320538512697276
 10
2.721772512196265
 20
5.059389270678313
 42
0.9058375253520349
 10
2.895872006875571
 20
5.179919690071683
 42
0.5885974569407209
  0
LWPOLYLINE
  5
111
330
1E
100
AcDbEntity
  8
ADP1DETAIL
100
AcDbPolyline
 90
        5
 70
     0
 43
0.0
 10
3.015477693065361
 20
5.367411453572473
 10
2.915035676904221
 20
5.461157335322869
 42
0.9284189221609072
 10
2.767720719867885
 20
5.320538512697276
 10
2.995389289833135
 20
5.059389270678313
 42
0.9058375253520349
 10
3.169488784512441
 20
5.179919690071683
 42
0.5885974569407209
  0
LWPOLYLINE
  5
118
330
1E
100
AcDbEntity
  8
ADP1DETAIL
100
AcDbPolyline
 90
        5
 70
     0
 43
0.0
 10
2.468244137791621
 20
5.367411453572473
 10
2.367802121630481
 20
5.461157335322869
 42
0.9284189221609072
 10
2.220487164594145
 20
5.320538512697276
 10
2.448155734559394
 20
5.059389270678313
 42
0.9058375253520349
 10
2.6222552292387
 20
5.179919690071683
 42
0.5885974569407209
  0
LWPOLYLINE
  5
11F
330
1E
100
AcDbEntity
  8
ADP1DETAIL
100
AcDbPolyline
 90
        5
 70
     0
 43
0.0
 10
3.292558475273385
 20
5.367411453572473
 10
3.192116459112245
 20
5.461157335322869
 42
0.9284189221609072
 10
3.04480150207591
 20
5.320538512697276
 10
3.272470072041159
 20
5.059389270678313
 42
0.9058375253520349
 10
3.446569566720464
 20
5.179919690071683
 42
0.5885974569407209
  0
ARC
  5
126
330
1E
100
AcDbEntity
  8
ADP1DETAIL
100
AcDbCircle
 10
2.884494743552111
 20
5.198709080988621
 30
0.0
 40
0.3671136656320204
100
AcDbArc
 50
233.6516075405736
 51
306.3632857695612
  0
ARC
  5
127
330
1E
100
AcDbEntity
  8
ADP1DETAIL
100
AcDbCircle
 10
2.440532399701053
 20
5.207308965992064
 30
0.0
 40
0.375724530279794
100
AcDbArc
 50
234.0673535627094
 51
305.9326464372905
  0
ARC
  5
128
330
1E
100
AcDbEntity
  8
ADP1DETAIL
100
AcDbCircle
 10
3.3200479804424
 20
5.198709080988621
 30
0.0
 40
0.3671136656320204
100
AcDbArc
 50
233.6516075405736
 51
306.3632857695612
  0
ARC
  5
129
330
1E
100
AcDbEntity
  8
ADP1DETAIL
100
AcDbCircle
 10
3.370046797987387
 20
5.980904049856865
 30
0.0
 40
0.5739808974984957
100
AcDbArc
 50
124.6470193116623
 51
152.9811303569189
  0
ARC
  5
12A
330
1E
100
AcDbEntity
  8
ADP1DETAIL
100
AcDbCircle
 10
2.313893249689703
 20
5.951443841615778
 30
0.0
 40
0.2807971342929304
100
AcDbArc
 50
301.8933357302231
 51
2.589583067656686
  0
ARC
  5
12B
330
1E
100
AcDbEntity
  8
ADP1DETAIL
100
AcDbCircle
 10
2.470709647759165
 20
6.084635356694299
 30
0.0
 40
0.2519544534112782
100
AcDbArc
 50
24.41843615849407
 51
97.95997635555963
  0
ARC
  5
12C
330
1E
100
AcDbEntity
  8
ADP1DETAIL
100
AcDbCircle
 10
2.268084557358244
 20
5.980904049856865
 30
0.0
 40
0.5739808974984957
100
AcDbArc
 50
27.01886964308104
 51
55.35298068833771
  0
ARC
  5
12D
330
1E
100
AcDbEntity
  8
ADP1DETAIL
100
AcDbCircle
 10
3.324238105655928
 20
5.951443841615778
 30
0.0
 40
0.2807971342929304
100
AcDbArc
 50
177.4104169323433
 51
238.1066642697768
  0
ARC
  5
12E
330
1E
100
AcDbEntity
  8
ADP1DETAIL
100
AcDbCircle
 10
3.167421707586467
 20
6.084635356694299
 30
0.0
 40
0.2519544534112782
100
AcDbArc
 50
82.04002364444038
 51
155.5815638415059
  0
LWPOLYLINE
  5
12F
330
1E
100
AcDbEntity
  8
ADP1DETAIL
100
AcDbPolyline
 90
       11
 70
     0
 43
0.0
 10
5.910408581472015
 20
5.914882633244469
 42
-0.5690405966334787
 10
5.320081028024738
 20
5.845191910443688
 42
-0.2857142857142876
 10
5.320081028024738
 20
6.03020771099209
 42
0.2426346699872441
 10
5.412588928298939
 20
6.228438925865383
 42
-0.2360679774998292
 10
5.465450585598485
 20
6.307731411814696
 42
0.5661903789690895
 10
5.439019756948711
 20
6.400239312088899
 42
0.1761749776799196
 10
5.161496056126104
 20
6.453100969388447
 42
0.3027756377319926
 10
5.135065227476331
 20
6.519178041012875
 42
-0.0603850692973145
 10
5.022734205714801
 20
6.671155305749064
 42
-0.1732137494637186
 10
4.989695669902586
 20
6.770270913185711
 42
0.5000000000000017
 10
4.936834012603041
 20
6.823132570485256
 42
-1.153009687409359
  0
LWPOLYLINE
  5
13C
330
1E
100
AcDbEntity
  8
ADP1DETAIL
100
AcDbPolyline
 90
       11
 70
     0
 43
0.0
 10
3.957013969926234
 20
5.929857486925485
 42
0.5846792817065321
 10
4.553586997181344
 20
5.845191910443688
 42
0.2857142857142876
 10
4.553586997181344
 20
6.03020771099209
 42
-0.2426346699872441
 10
4.461079096907143
 20
6.228438925865383
 42
0.2360679774998292
 10
4.408217439607597
 20
6.307731411814696
 42
-0.5661903789690895
 10
4.434648268257371
 20
6.400239312088899
 42
-0.1761749776799196
 10
4.712171969079978
 20
6.453100969388447
 42
-0.3027756377319926
 10
4.73860279772975
 20
6.519178041012875
 42
0.0603850692973145
 10
4.850933819491281
 20
6.671155305749064
 42
0.1732137494637186
 10
4.883972355303496
 20
6.770270913185711
 42
-0.5000000000000017
 10
4.936834012603041
 20
6.823132570485256
 42
1.153009687409359
  0
LINE
  5
149
330
1E
100
AcDbEntity
  8
ADP1DETAIL
100
AcDbLine
 10
4.936834012603041
 20
6.823132570485256
 30
0.0
 11
4.936834012603041
 21
5.831976496118798
 31
0.0
  0
LINE
  5
14A
330
1E
100
AcDbEntity
  8
ADP1DETAIL
100
AcDbLine
 10
4.936834012603041
 20
6.823132570485256
 30
0.0
 11
4.936834012603041
 21
5.831976496118798
 31
0.0
  0
ARC
  5
14B
330
1E
100
AcDbEntity
  8
ADP1DETAIL
100
AcDbCircle
 10
5.487815132917613
 20
5.980904049856865
 30
0.0
 40
0.5739808974984957
100
AcDbArc
 50
124.6470193116623
 51
152.9811303569189
  0
LWPOLYLINE
  5
14C
330
1E
100
AcDbEntity
  8
ADP1DETAIL
100
AcDbPolyline
 90
        5
 70
     0
 43
0.0
 10
5.185539845444442
 20
5.367411453572473
 10
5.085097829283302
 20
5.461157335322869
 42
0.9284189221609072
 10
4.937782872246967
 20
5.320538512697276
 10
5.165451442212216
 20
5.059389270678313
 42
0.9058375253520349
 10
5.339550936891522
 20
5.179919690071683
 42
0.5885974569407209
  0
LWPOLYLINE
  5
153
330
1E
100
AcDbEntity
  8
ADP1DETAIL
100
AcDbPolyline
 90
        5
 70
     0
 43
0.0
 10
4.91750706210347
 20
5.367411453572473
 10
4.81706504594233
 20
5.461157335322869
 42
0.9284189221609072
 10
4.669750088905995
 20
5.320538512697276
 10
4.897418658871244
 20
5.059389270678313
 42
0.9058375253520349
 10
5.07151815355055
 20
5.179919690071683
 42
0.5885974569407209
  0
ARC
  5
15A
330
1E
100
AcDbEntity
  8
ADP1DETAIL
100
AcDbCircle
 10
5.066975523215379
 20
5.198709080988621
 30
0.0
 40
0.3671136656320204
100
AcDbArc
 50
233.6516075405736
 51
306.3632857695612
  0
LWPOLYLINE
  5
15B
330
1E
100
AcDbEntity
  8
ADP1DETAIL
100
AcDbPolyline
 90
        5
 70
     0
 43
0.0
 10
4.107824765836377
 20
5.367411453572473
 10
4.007382749675237
 20
5.461157335322869
 42
0.9284189221609072
 10
3.860067792638901
 20
5.320538512697276
 10
4.08773636260415
 20
5.059389270678313
 42
0.9058375253520349
 10
4.261835857283457
 20
5.179919690071683
 42
0.5885974569407209
  0
LWPOLYLINE
  5
162
330
1E
100
AcDbEntity
  8
ADP1DETAIL
100
AcDbPolyline
 90
        5
 70
     0
 43
0.0
 10
4.375857549177349
 20
5.367411453572473
 10
4.275415533016209
 20
5.461157335322869
 42
0.9284189221609072
 10
4.128100575979873
 20
5.320538512697276
 10
4.355769145945123
 20
5.059389270678313
 42
0.9058375253520349
 10
4.529868640624428
 20
5.179919690071683
 42
0.5885974569407209
  0
LWPOLYLINE
  5
169
330
1E
100
AcDbEntity
  8
ADP1DETAIL
100
AcDbPolyline
 90
        5
 70
     0
 43
0.0
 10
4.649474326814219
 20
5.367411453572473
 10
4.549032310653079
 20
5.461157335322869
 42
0.9284189221609072
 10
4.401717353616744
 20
5.320538512697276
 10
4.629385923581993
 20
5.059389270678313
 42
0.9058375253520349
 10
4.803485418261299
 20
5.179919690071683
 42
0.5885974569407209
  0
ARC
  5
170
330
1E
100
AcDbEntity
  8
ADP1DETAIL
100
AcDbCircle
 10
4.187459942474032
 20
5.207308965992064
 30
0.0
 40
0.375724530279794
100
AcDbArc
 50
234.0673535627094
 51
305.9326464372905
  0
ARC
  5
171
330
1E
100
AcDbEntity
  8
ADP1DETAIL
100
AcDbCircle
 10
4.631422286325091
 20
5.198709080988621
 30
0.0
 40
0.3671136656320204
100
AcDbArc
 50
233.6516075405736
 51
306.3632857695612
  0
CIRCLE
  5
172
330
1E
100
AcDbEntity
  8
ADP1DETAIL
100
AcDbCircle
 10
3.872367540237909
 20
6.042890245707101
 30
0.0
 40
0.1412141020463733
  0
ARC
  5
173
330
1E
100
AcDbEntity
  8
ADP1DETAIL
100
AcDbCircle
 10
4.431661584619929
 20
5.951443841615778
 30
0.0
 40
0.2807971342929304
100
AcDbArc
 50
301.8933357302231
 51
2.589583067656686
  0
ARC
  5
174
330
1E
100
AcDbEntity
  8
ADP1DETAIL
100
AcDbCircle
 10
4.58847798268939
 20
6.084635356694299
 30
0.0
 40
0.2519544534112782
100
AcDbArc
 50
24.41843615849407
 51
97.95997635555963
  0
ARC
  5
175
330
1E
100
AcDbEntity
  8
ADP1DETAIL
100
AcDbCircle
 10
4.385852892288469
 20
5.980904049856865
 30
0.0
 40
0.5739808974984957
100
AcDbArc
 50
27.01886964308104
 51
55.35298068833771
  0
LWPOLYLINE
  5
176
330
1E
100
AcDbEntity
  8
ADP1DETAIL
100
AcDbPolyline
 90
        5
 70
     0
 43
0.0
 10
6.000806184059154
 20
5.367411453572473
 10
5.900364167898015
 20
5.461157335322869
 42
0.9284189221609072
 10
5.753049210861679
 20
5.320538512697276
 10
5.980717780826928
 20
5.059389270678313
 42
0.9058375253520349
 10
6.154817275506234
 20
5.179919690071683
 42
0.5885974569407209
  0
LWPOLYLINE
  5
17D
330
1E
100
AcDbEntity
  8
ADP1DETAIL
100
AcDbPolyline
 90
        5
 70
     0
 43
0.0
 10
5.727189406422284
 20
5.367411453572473
 10
5.626747390261144
 20
5.461157335322869
 42
0.9284189221609072
 10
5.479432433224808
 20
5.320538512697276
 10
5.707101003190057
 20
5.059389270678313
 42
0.9058375253520349
 10
5.881200497869364
 20
5.179919690071683
 42
0.5885974569407209
  0
LWPOLYLINE
  5
184
330
1E
100
AcDbEntity
  8
ADP1DETAIL
100
AcDbPolyline
 90
        5
 70
     0
 43
0.0
 10
5.453572628785414
 20
5.367411453572473
 10
5.353130612624275
 20
5.461157335322869
 42
0.9284189221609072
 10
5.205815655587938
 20
5.320538512697276
 10
5.433484225553188
 20
5.059389270678313
 42
0.9058375253520349
 10
5.607583720232494
 20
5.179919690071683
 42
0.5885974569407209
  0
ARC
  5
18B
330
1E
100
AcDbEntity
  8
ADP1DETAIL
100
AcDbCircle
 10
5.502528760105668
 20
5.198709080988621
 30
0.0
 40
0.3671136656320204
100
AcDbArc
 50
233.6516075405736
 51
306.3632857695612
  0
ARC
  5
18C
330
1E
100
AcDbEntity
  8
ADP1DETAIL
100
AcDbCircle
 10
5.940679413265849
 20
5.207308965992064
 30
0.0
 40
0.375724530279794
100
AcDbArc
 50
234.0673535627094
 51
305.9326464372905
  0
ARC
  5
18D
330
1E
100
AcDbEntity
  8
ADP1DETAIL
100
AcDbCircle
 10
5.442006440586153
 20
5.951443841615778
 30
0.0
 40
0.2807971342929304
100
AcDbArc
 50
177.4104169323433
 51
238.1066642697768
  0
ARC
  5
18E
330
1E
100
AcDbEntity
  8
ADP1DETAIL
100
AcDbCircle
 10
5.285190042516692
 20
6.084635356694299
 30
0.0
 40
0.2519544534112782
100
AcDbArc
 50
82.04002364444038
 51
155.5815638415059
  0
CIRCLE
  5
18F
330
1E
100
AcDbEntity
  8
ADP1DETAIL
100
AcDbCircle
 10
5.970036375061751
 20
6.042890245707101
 30
0.0
 40
0.1412141020463733
  0
ARC
  5
190
330
1E
100
AcDbEntity
  8
ADP1DETAIL
100
AcDbCircle
 10
6.820194994007197
 20
5.198709080988621
 30
0.0
 40
0.3671136656320204
100
AcDbArc
 50
233.6516075405736
 51
306.3632857695612
  0
TEXT
  5
194
330
1E
100
AcDbEntity
  8
ADPDIM
100
AcDbText
 10
-2.776372021975677
 20
3.98339945356406
 30
0.0
 40
0.125
  1
J U L I U S  B L U M  &  C O . ,  I N C .      ( 8 0 0 )  5 2 6 - 6 2 9 3        W W W . J U L I U S B L U M . C O M        P A R T  N o .  2 8 5 9
 41
1.25
  7
ARIAL_WIDE
 72
     1
 11
3.749357002580939
 21
4.10839945356406
 31
0.0
100
AcDbText
 73
     3
  0
ENDSEC
  0
SECTION
  2
OBJECTS
  0
DICTIONARY
  5
C
330
0
100
AcDbDictionary
  3
ACAD_GROUP
350
D
  3
ACAD_LAYOUT
350
19
  3
ACAD_MLINESTYLE
350
16
  3
ACAD_PLOTSETTINGS
350
18
  3
ACAD_PLOTSTYLENAME
350
E
  3
ACDBHEADERROUNDTRIPXREC
350
361
  3
ACDBVARIABLEDICTIONARY
350
205
  0
DICTIONARY
  5
1D0
330
1E
100
AcDbDictionary
280
     1
  3
ACAD_LAYOUTSELFREF
360
383
  0
DICTIONARY
  5
1D2
330
1A
100
AcDbDictionary
280
     1
  3
ACAD_LAYOUTSELFREF
360
382
  0
DICTIONARY
  5
D
102
{ACAD_REACTORS
330
C
102
}
330
C
100
AcDbDictionary
  0
DICTIONARY
  5
19
102
{ACAD_REACTORS
330
C
102
}
330
C
100
AcDbDictionary
  0
DICTIONARY
  5
16
102
{ACAD_REACTORS
330
C
102
}
330
C
100
AcDbDictionary
  3
STANDARD
350
17
  0
DICTIONARY
  5
18
102
{ACAD_REACTORS
330
C
102
}
330
C
100
AcDbDictionary
  0
ACDBDICTIONARYWDFLT
  5
E
102
{ACAD_REACTORS
330
C
102
}
330
C
100
AcDbDictionary
281
     1
  3
Normal
350
F
100
AcDbDictionaryWithDefault
340
F
  0
DICTIONARY
  5
361
102
{ACAD_REACTORS
330
C
102
}
330
C
100
AcDbDictionary
  3
CEPSNTYPE
350
36B
  3
DIMSTYLEDATA
350
36F
  3
FINGERPRINTGUID
350
36C
  3
HYPERLINKBASE
350
364
  3
INSUNITS
350
36A
  3
LAYOUTDICT
350
366
  3
LWETCUNION
350
369
  3
PLOTSETDICT
350
367
  3
PLOTSTYLNAMDICT
350
368
  3
PSVPSCALE
350
36E
  3
PUCSBASE
350
372
  3
PUCSORGBACK
350
378
  3
PUCSORGBOTTOM
350
374
  3
PUCSORGFRONT
350
377
  3
PUCSORGLEFT
350
375
  3
PUCSORGRIGHT
350
376
  3
PUCSORGTOP
350
373
  3
PUCSORTHOREF
350
370
  3
PUCSORTHOVIEW
350
371
  3
STYLESHEET
350
365
  3
TSTACKALIGN
350
362
  3
TSTACKSIZE
350
363
  3
UCSBASE
350
37B
  3
UCSORGBACK
350
381
  3
UCSORGBOTTOM
350
37D
  3
UCSORGFRONT
350
380
  3
UCSORGLEFT
350
37E
  3
UCSORGRIGHT
350
37F
  3
UCSORGTOP
350
37C
  3
UCSORTHOREF
350
379
  3
UCSORTHOVIEW
350
37A
  3
VERSIONGUID
350
36D
  0
DICTIONARY
  5
205
102
{ACAD_REACTORS
330
C
102
}
330
C
100
AcDbDictionary
  3
DIMASSOC
350
207
  3
HIDETEXT
350
206
  0
XRECORD
  5
383
102
{ACAD_REACTORS
330
1D0
102
}
330
1D0
100
AcDbXrecord
340
1E
  0
XRECORD
  5
382
102
{ACAD_REACTORS
330
1D2
102
}
330
1D2
100
AcDbXrecord
340
1A
  0
MLINESTYLE
  5
17
102
{ACAD_REACTORS
330
16
102
}
330
16
100
AcDbMlineStyle
  2
STANDARD
 70
     0
  3

 62
   256
 51
90.0
 52
90.0
 71
     2
 49
0.5
 62
   256
  6
BYLAYER
 49
-0.5
 62
   256
  6
BYLAYER
  0
ACDBPLACEHOLDER
  5
F
102
{ACAD_REACTORS
330
E
102
}
330
E
100
AcDbPlaceHolder
280
     0
  0
XRECORD
  5
36B
102
{ACAD_REACTORS
330
361
102
}
330
361
100
AcDbXrecord
 90
        0
  0
XRECORD
  5
36F
102
{ACAD_REACTORS
330
361
102
}
330
361
100
AcDbXrecord
1000
DSTYLE
1002
{
1070
   277
 70
     5
1070
   279
 70
     2
1002
}
  0
XRECORD
  5
36C
102
{ACAD_REACTORS
330
361
102
}
330
361
100
AcDbXrecord
  1
{13EBC253-6E95-4DE4-915E-746E0063D84D}
  0
XRECORD
  5
364
102
{ACAD_REACTORS
330
361
102
}
330
361
100
AcDbXrecord
  1

  0
XRECORD
  5
36A
102
{ACAD_REACTORS
330
361
102
}
330
361
100
AcDbXrecord
 90
        0
  0
XRECORD
  5
366
102
{ACAD_REACTORS
330
361
102
}
330
361
100
AcDbXrecord
340
19
  0
XRECORD
  5
369
102
{ACAD_REACTORS
330
361
102
}
330
361
100
AcDbXrecord
 90
    14877
  0
XRECORD
  5
367
102
{ACAD_REACTORS
330
361
102
}
330
361
100
AcDbXrecord
340
18
  0
XRECORD
  5
368
102
{ACAD_REACTORS
330
361
102
}
330
361
100
AcDbXrecord
340
E
  0
XRECORD
  5
36E
102
{ACAD_REACTORS
330
361
102
}
330
361
100
AcDbXrecord
 40
0.0
  0
XRECORD
  5
372
102
{ACAD_REACTORS
330
361
102
}
330
361
100
AcDbXrecord
340
0
  0
XRECORD
  5
378
102
{ACAD_REACTORS
330
361
102
}
330
361
100
AcDbXrecord
 10
0.0
 20
0.0
 30
0.0
  0
XRECORD
  5
374
102
{ACAD_REACTORS
330
361
102
}
330
361
100
AcDbXrecord
 10
0.0
 20
0.0
 30
0.0
  0
XRECORD
  5
377
102
{ACAD_REACTORS
330
361
102
}
330
361
100
AcDbXrecord
 10
0.0
 20
0.0
 30
0.0
  0
XRECORD
  5
375
102
{ACAD_REACTORS
330
361
102
}
330
361
100
AcDbXrecord
 10
0.0
 20
0.0
 30
0.0
  0
XRECORD
  5
376
102
{ACAD_REACTORS
330
361
102
}
330
361
100
AcDbXrecord
 10
0.0
 20
0.0
 30
0.0
  0
XRECORD
  5
373
102
{ACAD_REACTORS
330
361
102
}
330
361
100
AcDbXrecord
 10
0.0
 20
0.0
 30
0.0
  0
XRECORD
  5
370
102
{ACAD_REACTORS
330
361
102
}
330
361
100
AcDbXrecord
340
0
  0
XRECORD
  5
371
102
{ACAD_REACTORS
330
361
102
}
330
361
100
AcDbXrecord
 70
     0
  0
XRECORD
  5
365
102
{ACAD_REACTORS
330
361
102
}
330
361
100
AcDbXrecord
  1

  0
XRECORD
  5
362
102
{ACAD_REACTORS
330
361
102
}
330
361
100
AcDbXrecord
 90
        1
  0
XRECORD
  5
363
102
{ACAD_REACTORS
330
361
102
}
330
361
100
AcDbXrecord
 90
       70
  0
XRECORD
  5
37B
102
{ACAD_REACTORS
330
361
102
}
330
361
100
AcDbXrecord
340
0
  0
XRECORD
  5
381
102
{ACAD_REACTORS
330
361
102
}
330
361
100
AcDbXrecord
 10
0.0
 20
0.0
 30
0.0
  0
XRECORD
  5
37D
102
{ACAD_REACTORS
330
361
102
}
330
361
100
AcDbXrecord
 10
0.0
 20
0.0
 30
0.0
  0
XRECORD
  5
380
102
{ACAD_REACTORS
330
361
102
}
330
361
100
AcDbXrecord
 10
0.0
 20
0.0
 30
0.0
  0
XRECORD
  5
37E
102
{ACAD_REACTORS
330
361
102
}
330
361
100
AcDbXrecord
 10
0.0
 20
0.0
 30
0.0
  0
XRECORD
  5
37F
102
{ACAD_REACTORS
330
361
102
}
330
361
100
AcDbXrecord
 10
0.0
 20
0.0
 30
0.0
  0
XRECORD
  5
37C
102
{ACAD_REACTORS
330
361
102
}
330
361
100
AcDbXrecord
 10
0.0
 20
0.0
 30
0.0
  0
XRECORD
  5
379
102
{ACAD_REACTORS
330
361
102
}
330
361
100
AcDbXrecord
340
0
  0
XRECORD
  5
37A
102
{ACAD_REACTORS
330
361
102
}
330
361
100
AcDbXrecord
 70
     0
  0
XRECORD
  5
36D
102
{ACAD_REACTORS
330
361
102
}
330
361
100
AcDbXrecord
  1
{DCABC433-AA4B-41E1-A568-D8A06D2F2F0E}
  0
DICTIONARYVAR
  5
207
102
{ACAD_REACTORS
330
205
102
}
330
205
100
DictionaryVariables
280
     0
  1
2
  0
DICTIONARYVAR
  5
206
102
{ACAD_REACTORS
330
205
102
}
330
205
100
DictionaryVariables
280
     0
  1
1
  0
ENDSEC
  0
EOF
